  0
SECTION
  2
HEADER
  9
$ACADVER
  1
AC1015
  9
$ACADMAINTVER
 70
     6
  9
$DWGCODEPAGE
  3
ANSI_1252
  9
$INSBASE
 10
0.0
 20
0.0
 30
0.0
  9
$EXTMIN
 10
0.0
 20
0.0
 30
0.0
  9
$EXTMAX
 10
594.0
 20
420.0
 30
0.0
  9
$LIMMIN
 10
0.0
 20
0.0
  9
$LIMMAX
 10
594.0
 20
420.0
  9
$ORTHOMODE
 70
     0
  9
$REGENMODE
 70
     1
  9
$FILLMODE
 70
     1
  9
$QTEXTMODE
 70
     0
  9
$MIRRTEXT
 70
     1
  9
$LTSCALE
 40
1.0
  9
$ATTMODE
 70
     1
  9
$TEXTSIZE
 40
3.5
  9
$TRACEWID
 40
1.0
  9
$TEXTSTYLE
  7
Standard
  9
$CLAYER
  8
0
  9
$CELTYPE
  6
ByLayer
  9
$CECOLOR
 62
   256
  9
$CELTSCALE
 40
1.0
  9
$DISPSILH
 70
     0
  9
$DIMSCALE
 40
1.0
  9
$DIMASZ
 40
3.5
  9
$DIMEXO
 40
1.0
  9
$DIMDLI
 40
3.75
  9
$DIMRND
 40
0.0
  9
$DIMDLE
 40
0.0
  9
$DIMEXE
 40
1.0
  9
$DIMTP
 40
0.0
  9
$DIMTM
 40
0.0
  9
$DIMTXT
 40
3.5
  9
$DIMCEN
 40
2.5
  9
$DIMTSZ
 40
0.0
  9
$DIMTOL
 70
     0
  9
$DIMLIM
 70
     0
  9
$DIMTIH
 70
     1
  9
$DIMTOH
 70
     1
  9
$DIMSE1
 70
     0
  9
$DIMSE2
 70
     0
  9
$DIMTAD
 70
     1
  9
$DIMZIN
 70
     0
  9
$DIMBLK
  1

  9
$DIMASO
 70
     1
  9
$DIMSHO
 70
     1
  9
$DIMPOST
  1

  9
$DIMAPOST
  1

  9
$DIMALT
 70
     0
  9
$DIMALTD
 70
     3
  9
$DIMALTF
 40
0.0393700787
  9
$DIMLFAC
 40
1.0
  9
$DIMTOFL
 70
     1
  9
$DIMTVP
 40
0.0
  9
$DIMTIX
 70
     0
  9
$DIMSOXD
 70
     0
  9
$DIMSAH
 70
     0
  9
$DIMBLK1
  1

  9
$DIMBLK2
  1

  9
$DIMSTYLE
  2
ISO-25
  9
$DIMCLRD
 70
     0
  9
$DIMCLRE
 70
     0
  9
$DIMCLRT
 70
     0
  9
$DIMTFAC
 40
1.0
  9
$DIMGAP
 40
4.0
  9
$DIMJUST
 70
     0
  9
$DIMSD1
 70
     0
  9
$DIMSD2
 70
     0
  9
$DIMTOLJ
 70
     0
  9
$DIMTZIN
 70
     0
  9
$DIMALTZ
 70
     0
  9
$DIMALTTZ
 70
     0
  9
$DIMUPT
 70
     0
  9
$DIMDEC
 70
     1
  9
$DIMTDEC
 70
     1
  9
$DIMALTU
 70
     2
  9
$DIMALTTD
 70
     3
  9
$DIMTXSTY
  7
Standard
  9
$DIMAUNIT
 70
     0
  9
$DIMADEC
 70
     1
  9
$DIMALTRND
 40
0.0
  9
$DIMAZIN
 70
     0
  9
$DIMDSEP
 70
    44
  9
$DIMATFIT
 70
     3
  9
$DIMFRAC
 70
     0
  9
$DIMLDRBLK
  1

  9
$DIMLUNIT
 70
     2
  9
$DIMLWD
 70
    -2
  9
$DIMLWE
 70
    -2
  9
$DIMTMOVE
 70
     0
  9
$LUNITS
 70
     2
  9
$LUPREC
 70
     1
  9
$SKETCHINC
 40
1.0
  9
$FILLETRAD
 40
10.0
  9
$AUNITS
 70
     0
  9
$AUPREC
 70
     1
  9
$MENU
  1
.
  9
$ELEVATION
 40
0.0
  9
$PELEVATION
 40
0.0
  9
$THICKNESS
 40
0.0
  9
$LIMCHECK
 70
     0
  9
$CHAMFERA
 40
10.0
  9
$CHAMFERB
 40
10.0
  9
$CHAMFERC
 40
20.0
  9
$CHAMFERD
 40
0.0
  9
$SKPOLY
 70
     0
  9
$TDCREATE
 40
2456156.563768646
  9
$TDUCREATE
 40
2456156.480435313
  9
$TDUPDATE
 40
2456156.563768657
  9
$TDUUPDATE
 40
2456156.480435324
  9
$TDINDWG
 40
0.0000000116
  9
$TDUSRTIMER
 40
0.0000000116
  9
$USRTIMER
 70
     1
  9
$ANGBASE
 50
0.0
  9
$ANGDIR
 70
     0
  9
$PDMODE
 70
     0
  9
$PDSIZE
 40
-1.0
  9
$PLINEWID
 40
0.0
  9
$SPLFRAME
 70
     0
  9
$SPLINETYPE
 70
     6
  9
$SPLINESEGS
 70
     8
  9
$HANDSEED
  5
39D
  9
$SURFTAB1
 70
     6
  9
$SURFTAB2
 70
     6
  9
$SURFTYPE
 70
     6
  9
$SURFU
 70
     6
  9
$SURFV
 70
     6
  9
$UCSBASE
  2

  9
$UCSNAME
  2

  9
$UCSORG
 10
0.0
 20
0.0
 30
0.0
  9
$UCSXDIR
 10
1.0
 20
0.0
 30
0.0
  9
$UCSYDIR
 10
0.0
 20
1.0
 30
0.0
  9
$UCSORTHOREF
  2

  9
$UCSORTHOVIEW
 70
     0
  9
$UCSORGTOP
 10
0.0
 20
0.0
 30
0.0
  9
$UCSORGBOTTOM
 10
0.0
 20
0.0
 30
0.0
  9
$UCSORGLEFT
 10
0.0
 20
0.0
 30
0.0
  9
$UCSORGRIGHT
 10
0.0
 20
0.0
 30
0.0
  9
$UCSORGFRONT
 10
0.0
 20
0.0
 30
0.0
  9
$UCSORGBACK
 10
0.0
 20
0.0
 30
0.0
  9
$PUCSBASE
  2

  9
$PUCSNAME
  2

  9
$PUCSORG
 10
0.0
 20
0.0
 30
0.0
  9
$PUCSXDIR
 10
1.0
 20
0.0
 30
0.0
  9
$PUCSYDIR
 10
0.0
 20
1.0
 30
0.0
  9
$PUCSORTHOREF
  2

  9
$PUCSORTHOVIEW
 70
     0
  9
$PUCSORGTOP
 10
0.0
 20
0.0
 30
0.0
  9
$PUCSORGBOTTOM
 10
0.0
 20
0.0
 30
0.0
  9
$PUCSORGLEFT
 10
0.0
 20
0.0
 30
0.0
  9
$PUCSORGRIGHT
 10
0.0
 20
0.0
 30
0.0
  9
$PUCSORGFRONT
 10
0.0
 20
0.0
 30
0.0
  9
$PUCSORGBACK
 10
0.0
 20
0.0
 30
0.0
  9
$USERI1
 70
     0
  9
$USERI2
 70
     0
  9
$USERI3
 70
     0
  9
$USERI4
 70
     0
  9
$USERI5
 70
     0
  9
$USERR1
 40
0.0
  9
$USERR2
 40
0.0
  9
$USERR3
 40
0.0
  9
$USERR4
 40
0.0
  9
$USERR5
 40
0.0
  9
$WORLDVIEW
 70
     1
  9
$SHADEDGE
 70
     3
  9
$SHADEDIF
 70
    70
  9
$TILEMODE
 70
     1
  9
$MAXACTVP
 70
    64
  9
$PINSBASE
 10
0.0
 20
0.0
 30
0.0
  9
$PLIMCHECK
 70
     0
  9
$PEXTMIN
 10
1.0000000000E+20
 20
1.0000000000E+20
 30
1.0000000000E+20
  9
$PEXTMAX
 10
-1.0000000000E+20
 20
-1.0000000000E+20
 30
-1.0000000000E+20
  9
$PLIMMIN
 10
0.0
 20
0.0
  9
$PLIMMAX
 10
420.0
 20
297.0
  9
$UNITMODE
 70
     0
  9
$VISRETAIN
 70
     1
  9
$PLINEGEN
 70
     0
  9
$PSLTSCALE
 70
     1
  9
$TREEDEPTH
 70
  3020
  9
$CMLSTYLE
  2
Standard
  9
$CMLJUST
 70
     0
  9
$CMLSCALE
 40
20.0
  9
$PROXYGRAPHICS
 70
     1
  9
$MEASUREMENT
 70
     1
  9
$CELWEIGHT
370
    -1
  9
$ENDCAPS
280
     0
  9
$JOINSTYLE
280
     0
  9
$LWDISPLAY
290
     1
  9
$INSUNITS
 70
     4
  9
$HYPERLINKBASE
  1

  9
$STYLESHEET
  1

  9
$XEDIT
290
     1
  9
$CEPSNTYPE
380
     0
  9
$PSTYLEMODE
290
     1
  9
$FINGERPRINTGUID
  2
{0097D94D-C133-40C0-B45C-BD63802048A5}
  9
$VERSIONGUID
  2
{FAEB1C32-E019-11D5-929B-00C0DF256EC4}
  9
$EXTNAMES
290
     1
  9
$PSVPSCALE
 40
0.0
  9
$OLESTARTUP
290
     0
  0
ENDSEC
  0
SECTION
  2
CLASSES
  0
CLASS
  1
ACDBDICTIONARYWDFLT
  2
AcDbDictionaryWithDefault
  3
ObjectDBX Classes
 90
        0
280
     0
281
     0
  0
CLASS
  1
VISUALSTYLE
  2
AcDbVisualStyle
  3
ObjectDBX Classes
 90
     4095
280
     0
281
     0
  0
CLASS
  1
MATERIAL
  2
AcDbMaterial
  3
ObjectDBX Classes
 90
     1153
280
     0
281
     0
  0
CLASS
  1
ACDBPLACEHOLDER
  2
AcDbPlaceHolder
  3
ObjectDBX Classes
 90
        0
280
     0
281
     0
  0
CLASS
  1
LAYOUT
  2
AcDbLayout
  3
ObjectDBX Classes
 90
        0
280
     0
281
     0
  0
ENDSEC
  0
SECTION
  2
TABLES
  0
TABLE
  2
VPORT
  5
8
330
0
100
AcDbSymbolTable
 70
     1
  0
VPORT
  5
29
330
8
100
AcDbSymbolTableRecord
100
AcDbViewportTableRecord
  2
*Active
 70
     0
 10
0.0
 20
0.0
 11
1.0
 21
1.0
 12
297.0
 22
210.0
 13
0.0
 23
0.0
 14
10.0
 24
10.0
 15
10.0
 25
10.0
 16
0.0
 26
0.0
 36
1.0
 17
0.0
 27
0.0
 37
0.0
 40
420.0
 41
1.4142857143
 42
50.0
 43
0.0
 44
0.0
 50
0.0
 51
0.0
 71
     0
 72
  2000
 73
     1
 74
     3
 75
     0
 76
     0
 77
     0
 78
     0
281
     0
 65
     1
110
0.0
120
0.0
130
0.0
111
1.0
121
0.0
131
0.0
112
0.0
122
1.0
132
0.0
 79
     0
146
0.0
  0
ENDTAB
  0
TABLE
  2
LTYPE
  5
5
330
0
100
AcDbSymbolTable
 70
     6
  0
LTYPE
  5
14
330
5
100
AcDbSymbolTableRecord
100
AcDbLinetypeTableRecord
  2
ByBlock
 70
     0
  3

 72
    65
 73
     0
 40
0.0
  0
LTYPE
  5
15
330
5
100
AcDbSymbolTableRecord
100
AcDbLinetypeTableRecord
  2
ByLayer
 70
     0
  3

 72
    65
 73
     0
 40
0.0
  0
LTYPE
  5
16
330
5
100
AcDbSymbolTableRecord
100
AcDbLinetypeTableRecord
  2
Continuous
 70
     0
  3
Solid line
 72
    65
 73
     0
 40
0.0
  0
LTYPE
  5
3F
330
5
100
AcDbSymbolTableRecord
100
AcDbLinetypeTableRecord
  2
HIDDEN
 70
     0
  3
Hidden __ __ __ __ __ __ __ __ __ __ __ __ __ __
 72
    65
 73
     2
 40
1.905
 49
1.27
 74
     0
 49
-0.635
 74
     0
  0
LTYPE
  5
40
330
5
100
AcDbSymbolTableRecord
100
AcDbLinetypeTableRecord
  2
PHANTOM
 70
     0
  3
Phantom ______  __  __  ______  __  __  ______
 72
    65
 73
     6
 40
12.7
 49
6.35
 74
     0
 49
-1.27
 74
     0
 49
1.27
 74
     0
 49
-1.27
 74
     0
 49
1.27
 74
     0
 49
-1.27
 74
     0
  0
LTYPE
  5
41
330
5
100
AcDbSymbolTableRecord
100
AcDbLinetypeTableRecord
  2
CENTER
 70
     0
  3
Center ____ _ ____ _ ____ _ ____ _ ____ _ ____
 72
    65
 73
     4
 40
10.16
 49
6.35
 74
     0
 49
-1.27
 74
     0
 49
1.27
 74
     0
 49
-1.27
 74
     0
  0
LTYPE
  5
42
330
5
100
AcDbSymbolTableRecord
100
AcDbLinetypeTableRecord
  2
CENTERX2
 70
     0
  3
Center (2x) ________  __  ________  __  _____
 72
    65
 73
     4
 40
20.32
 49
12.7
 74
     0
 49
-2.54
 74
     0
 49
2.54
 74
     0
 49
-2.54
 74
     0
  0
LTYPE
  5
43
330
5
100
AcDbSymbolTableRecord
100
AcDbLinetypeTableRecord
  2
DOT2
 70
     0
  3
Dot (.5x) ........................................
 72
    65
 73
     2
 40
0.635
 49
0.0
 74
     0
 49
-0.635
 74
     0
  0
ENDTAB
  0
TABLE
  2
LAYER
  5
2
330
0
100
AcDbSymbolTable
 70
     5
  0
LAYER
  5
10
330
2
100
AcDbSymbolTableRecord
100
AcDbLayerTableRecord
  2
0
 70
     0
 62
     7
  6
Continuous
370
    -3
390
F
  0
LAYER
  5
44
330
2
100
AcDbSymbolTableRecord
100
AcDbLayerTableRecord
  2
VORLAGE
 70
     0
 62
    -1
  6
Continuous
370
    -3
390
F
  0
LAYER
  5
45
330
2
100
AcDbSymbolTableRecord
100
AcDbLayerTableRecord
  2
RAHMEN
 70
     0
 62
   179
  6
Continuous
370
    -3
390
F
  0
LAYER
  5
46
330
2
100
AcDbSymbolTableRecord
100
AcDbLayerTableRecord
  2
KOPF
 70
     0
 62
     7
  6
Continuous
370
    -3
390
F
  0
LAYER
  5
47
330
2
100
AcDbSymbolTableRecord
100
AcDbLayerTableRecord
  2
TEMP
 70
     0
 62
    -7
  6
Continuous
370
    -3
390
F
  0
ENDTAB
  0
TABLE
  2
STYLE
  5
3
330
0
100
AcDbSymbolTable
 70
     2
  0
STYLE
  5
11
330
3
100
AcDbSymbolTableRecord
100
AcDbTextStyleTableRecord
  2
Standard
 70
     0
 40
0.0
 41
1.0
 50
0.0
 71
     0
 42
2.5
  3
txt
  4

  0
STYLE
  5
B2
330
3
100
AcDbSymbolTableRecord
100
AcDbTextStyleTableRecord
  2
SLDTEXTSTYLE0
 70
     0
 40
0.0
 41
0.605
 50
0.0
 71
     0
 42
0.2
  3
TXT
  4

  0
ENDTAB
  0
TABLE
  2
VIEW
  5
6
330
0
100
AcDbSymbolTable
 70
     0
  0
ENDTAB
  0
TABLE
  2
UCS
  5
7
330
0
100
AcDbSymbolTable
 70
     0
  0
ENDTAB
  0
TABLE
  2
APPID
  5
9
330
0
100
AcDbSymbolTable
 70
     1
  0
APPID
  5
12
330
9
100
AcDbSymbolTableRecord
100
AcDbRegAppTableRecord
  2
ACAD
 70
     0
  0
ENDTAB
  0
TABLE
  2
DIMSTYLE
  5
A
330
0
100
AcDbSymbolTable
 70
     2
100
AcDbDimStyleTable
  0
DIMSTYLE
105
27
330
A
100
AcDbSymbolTableRecord
100
AcDbDimStyleTableRecord
  2
ISO-25
 70
     0
 41
2.5
 42
0.625
 43
3.75
 44
1.25
 73
     0
 74
     0
 77
     1
 78
     8
140
2.5
141
2.5
143
0.0393700787
147
0.625
171
     3
172
     1
178
     0
271
     2
272
     2
274
     3
278
    44
283
     0
284
     8
340
11
  0
DIMSTYLE
105
B3
102
{ACAD_REACTORS
330
B1
330
16C
330
178
102
}
330
A
100
AcDbSymbolTableRecord
100
AcDbDimStyleTableRecord
  2
SLDDIMSTYLE0
 70
     0
 41
3.5
 44
0.0
 45
0.000000001
 73
     0
 74
     0
 77
     1
 78
    12
 79
     3
140
3.5
147
0.875
173
     1
178
     0
271
     1
272
     1
276
     2
284
    12
340
B2
  0
ENDTAB
  0
TABLE
  2
BLOCK_RECORD
  5
1
330
0
100
AcDbSymbolTable
 70
    10
  0
BLOCK_RECORD
  5
1F
330
1
100
AcDbSymbolTableRecord
100
AcDbBlockTableRecord
  2
*Model_Space
340
22
  0
BLOCK_RECORD
  5
1B
330
1
100
AcDbSymbolTableRecord
100
AcDbBlockTableRecord
  2
*Paper_Space
340
1E
  0
BLOCK_RECORD
  5
23
330
1
100
AcDbSymbolTableRecord
100
AcDbBlockTableRecord
  2
*Paper_Space0
340
26
  0
BLOCK_RECORD
  5
B4
330
1
100
AcDbSymbolTableRecord
100
AcDbBlockTableRecord
  2
*D1
340
0
  0
BLOCK_RECORD
  5
16D
330
1
100
AcDbSymbolTableRecord
100
AcDbBlockTableRecord
  2
*D2
340
0
  0
BLOCK_RECORD
  5
179
330
1
100
AcDbSymbolTableRecord
100
AcDbBlockTableRecord
  2
*D3
340
0
  0
BLOCK_RECORD
  5
184
330
1
100
AcDbSymbolTableRecord
100
AcDbBlockTableRecord
  2
SW_CENTERMARKSYMBOL_0
340
0
102
{BLKREFS
331
18F
102
}
  0
BLOCK_RECORD
  5
190
330
1
100
AcDbSymbolTableRecord
100
AcDbBlockTableRecord
  2
SW_CENTERMARKSYMBOL_1
340
0
102
{BLKREFS
331
19B
102
}
  0
BLOCK_RECORD
  5
19C
330
1
100
AcDbSymbolTableRecord
100
AcDbBlockTableRecord
  2
SW_CENTERMARKSYMBOL_2
340
0
102
{BLKREFS
331
1A7
102
}
  0
BLOCK_RECORD
  5
1A8
330
1
100
AcDbSymbolTableRecord
100
AcDbBlockTableRecord
  2
SW_CENTERMARKSYMBOL_3
340
0
102
{BLKREFS
331
1B3
102
}
  0
BLOCK_RECORD
  5
2BE
330
1
100
AcDbSymbolTableRecord
100
AcDbBlockTableRecord
  2
SW_HATCH_0
340
0
102
{BLKREFS
331
344
102
}
  0
BLOCK_RECORD
  5
346
330
1
100
AcDbSymbolTableRecord
100
AcDbBlockTableRecord
  2
SW_CENTERMARKSYMBOL_4
340
0
102
{BLKREFS
331
351
102
}
  0
ENDTAB
  0
ENDSEC
  0
SECTION
  2
BLOCKS
  0
BLOCK
  5
20
330
1F
100
AcDbEntity
  8
0
100
AcDbBlockBegin
  2
*Model_Space
 70
     0
 10
0.0
 20
0.0
 30
0.0
  3
*Model_Space
  1

  0
ENDBLK
  5
21
330
1F
100
AcDbEntity
  8
0
100
AcDbBlockEnd
  0
BLOCK
  5
1C
330
1B
100
AcDbEntity
 67
     1
  8
0
100
AcDbBlockBegin
  2
*Paper_Space
 70
     0
 10
0.0
 20
0.0
 30
0.0
  3
*Paper_Space
  1

  0
ENDBLK
  5
1D
330
1B
100
AcDbEntity
 67
     1
  8
0
100
AcDbBlockEnd
  0
BLOCK
  5
24
330
23
100
AcDbEntity
  8
0
100
AcDbBlockBegin
  2
*Paper_Space0
 70
     0
 10
0.0
 20
0.0
 30
0.0
  3
*Paper_Space0
  1

  0
ENDBLK
  5
25
330
23
100
AcDbEntity
  8
0
100
AcDbBlockEnd
  0
BLOCK
  5
B5
330
B4
100
AcDbEntity
  8
0
100
AcDbBlockBegin
  2
*D1
 70
     1
 10
0.0
 20
0.0
 30
0.0
  3
*D1
  1

  0
SOLID
  5
B7
330
B4
100
AcDbEntity
  8
0
  6
Continuous
 62
     7
370
     0
100
AcDbTrace
 10
497.5041507222
 20
304.3376887986
 30
0.0
 11
496.6041507222
 21
300.8376887986
 31
0.0
 12
498.4041507222
 22
300.8376887986
 32
0.0
 13
498.4041507222
 23
300.8376887986
 33
0.0
  0
SOLID
  5
B8
330
B4
100
AcDbEntity
  8
0
  6
Continuous
 62
     7
370
     0
100
AcDbTrace
 10
497.5041507222
 20
260.3376887986
 30
0.0
 11
498.4041507222
 21
263.8376887986
 31
0.0
 12
496.6041507222
 22
263.8376887986
 32
0.0
 13
496.6041507222
 23
263.8376887986
 33
0.0
  0
LINE
  5
B9
330
B4
100
AcDbEntity
  8
0
  6
Continuous
 62
     7
370
     0
100
AcDbLine
 10
488.6920283053
 20
304.3376887986
 30
0.0
 11
498.5041507222
 21
304.3376887986
 31
0.0
  0
LINE
  5
BA
330
B4
100
AcDbEntity
  8
0
  6
Continuous
 62
     7
370
     0
100
AcDbLine
 10
482.6920283053
 20
260.3376887986
 30
0.0
 11
498.5041507222
 21
260.3376887986
 31
0.0
  0
LINE
  5
BB
330
B4
100
AcDbEntity
  8
0
  6
Continuous
 62
     7
370
     0
100
AcDbLine
 10
497.5041507222
 20
304.3376887986
 30
0.0
 11
497.5041507222
 21
260.3376887986
 31
0.0
  0
MTEXT
  5
BC
330
B4
100
AcDbEntity
  8
0
  6
Continuous
 62
     7
370
     0
100
AcDbMText
 10
492.9924134001
 20
281.6404360666
 30
0.0
 40
3.5
 41
0.0
 71
     1
 72
     1
  1
44
  7
SLDTEXTSTYLE0
 11
-7.044195017643634E-15
 21
1.0
 31
0.0
 73
     1
 44
1.0
  0
ENDBLK
  5
B6
330
B4
100
AcDbEntity
  8
0
100
AcDbBlockEnd
  0
BLOCK
  5
16E
330
16D
100
AcDbEntity
  8
0
100
AcDbBlockBegin
  2
*D2
 70
     1
 10
0.0
 20
0.0
 30
0.0
  3
*D2
  1

  0
ARC
  5
170
330
16D
100
AcDbEntity
  8
0
  6
Continuous
 62
     7
370
     0
100
AcDbCircle
 10
303.5577854339
 20
405.5825339483
 30
0.0
 40
6.00442374760539
100
AcDbArc
 50
153.4349488229
 51
206.5650511771
  0
ARC
  5
171
330
16D
100
AcDbEntity
  8
0
  6
Continuous
 62
     7
370
     0
100
AcDbCircle
 10
304.0087859877
 20
405.5825339483
 30
0.0
 40
6.004423747605442
100
AcDbArc
 50
333.4349488229
 51
26.5650511771
  0
SOLID
  5
172
330
16D
100
AcDbEntity
  8
0
  6
Continuous
 62
     7
370
     0
100
AcDbTrace
 10
123.9920283053
 20
402.8972740152
 30
0.0
 11
127.4920283053
 21
401.9972740152
 31
0.0
 12
127.4920283053
 22
403.7972740152
 32
0.0
 13
127.4920283053
 23
403.7972740152
 33
0.0
  0
SOLID
  5
173
330
16D
100
AcDbEntity
  8
0
  6
Continuous
 62
     7
370
     0
100
AcDbTrace
 10
487.9920283053
 20
402.8972740152
 30
0.0
 11
484.4920283053
 21
403.7972740152
 31
0.0
 12
484.4920283053
 22
401.9972740152
 32
0.0
 13
484.4920283053
 23
401.9972740152
 33
0.0
  0
LINE
  5
174
330
16D
100
AcDbEntity
  8
0
  6
Continuous
 62
     7
370
     0
100
AcDbLine
 10
123.9920283053
 20
395.9023178808
 30
0.0
 11
123.9920283053
 21
403.8972740152
 31
0.0
  0
LINE
  5
175
330
16D
100
AcDbEntity
  8
0
  6
Continuous
 62
     7
370
     0
100
AcDbLine
 10
487.9920283053
 20
395.9023178808
 30
0.0
 11
487.9920283053
 21
403.8972740152
 31
0.0
  0
LINE
  5
176
330
16D
100
AcDbEntity
  8
0
  6
Continuous
 62
     7
370
     0
100
AcDbLine
 10
123.9920283053
 20
402.8972740152
 30
0.0
 11
487.9920283053
 21
402.8972740152
 31
0.0
  0
MTEXT
  5
177
330
16D
100
AcDbEntity
  8
0
  6
Continuous
 62
     7
370
     0
100
AcDbMText
 10
299.7747655677
 20
407.4090113373
 30
0.0
 40
3.5
 41
0.0
 71
     1
 72
     1
  1
364
  7
SLDTEXTSTYLE0
 73
     1
 44
1.0
  0
ENDBLK
  5
16F
330
16D
100
AcDbEntity
  8
0
100
AcDbBlockEnd
  0
BLOCK
  5
17A
330
179
100
AcDbEntity
  8
0
100
AcDbBlockBegin
  2
*D3
 70
     1
 10
0.0
 20
0.0
 30
0.0
  3
*D3
  1

  0
ARC
  5
17C
330
179
100
AcDbEntity
  8
0
  6
Continuous
 62
     7
370
     0
100
AcDbCircle
 10
494.5223474056
 20
362.3340167746
 30
0.0
 40
6.004423747605466
100
AcDbArc
 50
243.4349488229
 51
296.5650511771
  0
ARC
  5
17D
330
179
100
AcDbEntity
  8
0
  6
Continuous
 62
     7
370
     0
100
AcDbCircle
 10
494.5223474056
 20
360.1140298475
 30
0.0
 40
6.004423747605517
100
AcDbArc
 50
63.4349488229
 51
116.5650511771
  0
SOLID
  5
17E
330
179
100
AcDbEntity
  8
0
  6
Continuous
 62
     7
370
     0
100
AcDbTrace
 10
497.2076073386
 20
324.2023178808
 30
0.0
 11
498.1076073386
 21
327.7023178808
 31
0.0
 12
496.3076073386
 22
327.7023178808
 32
0.0
 13
496.3076073386
 23
327.7023178808
 33
0.0
  0
SOLID
  5
17F
330
179
100
AcDbEntity
  8
0
  6
Continuous
 62
     7
370
     0
100
AcDbTrace
 10
497.2076073386
 20
395.2023178808
 30
0.0
 11
496.3076073386
 21
391.7023178808
 31
0.0
 12
498.1076073386
 22
391.7023178808
 32
0.0
 13
498.1076073386
 23
391.7023178808
 33
0.0
  0
LINE
  5
180
330
179
100
AcDbEntity
  8
0
  6
Continuous
 62
     7
370
     0
100
AcDbLine
 10
482.6920283053
 20
324.2023178808
 30
0.0
 11
498.2076073386
 21
324.2023178808
 31
0.0
  0
LINE
  5
181
330
179
100
AcDbEntity
  8
0
  6
Continuous
 62
     7
370
     0
100
AcDbLine
 10
488.6920283053
 20
395.2023178808
 30
0.0
 11
498.2076073386
 21
395.2023178808
 31
0.0
  0
LINE
  5
182
330
179
100
AcDbEntity
  8
0
  6
Continuous
 62
     7
370
     0
100
AcDbLine
 10
497.2076073386
 20
324.2023178808
 30
0.0
 11
497.2076073386
 21
395.2023178808
 31
0.0
  0
MTEXT
  5
183
330
179
100
AcDbEntity
  8
0
  6
Continuous
 62
     7
370
     0
100
AcDbMText
 10
492.6958700166
 20
358.5509969084
 30
0.0
 40
3.5
 41
0.0
 71
     1
 72
     1
  1
71
  7
SLDTEXTSTYLE0
 11
6.123233995736766E-17
 21
1.0
 31
0.0
 73
     1
 44
1.0
  0
ENDBLK
  5
17B
330
179
100
AcDbEntity
  8
0
100
AcDbBlockEnd
  0
BLOCK
  5
185
330
184
100
AcDbEntity
  8
0
100
AcDbBlockBegin
  2
SW_CENTERMARKSYMBOL_0
 70
     0
 10
0.0
 20
0.0
 30
0.0
  3
SW_CENTERMARKSYMBOL_0
  1

  0
LINE
  5
187
330
184
100
AcDbEntity
  8
0
  6
Continuous
 62
     0
370
     0
100
AcDbLine
 10
0.0
 20
0.0
 30
0.0
 11
0.0
 21
2.5
 31
0.0
  0
LINE
  5
188
330
184
100
AcDbEntity
  8
0
  6
Continuous
 62
     0
370
     0
100
AcDbLine
 10
0.0
 20
0.0
 30
0.0
 11
-2.5
 21
0.0
 31
0.0
  0
LINE
  5
189
330
184
100
AcDbEntity
  8
0
  6
Continuous
 62
     0
370
     0
100
AcDbLine
 10
0.0
 20
0.0
 30
0.0
 11
0.0
 21
-2.5
 31
0.0
  0
LINE
  5
18A
330
184
100
AcDbEntity
  8
0
  6
Continuous
 62
     0
370
     0
100
AcDbLine
 10
0.0
 20
0.0
 30
0.0
 11
2.5
 21
0.0
 31
0.0
  0
LINE
  5
18B
330
184
100
AcDbEntity
  8
0
  6
Continuous
 62
     0
370
     0
100
AcDbLine
 10
0.0
 20
5.0
 30
0.0
 11
0.0
 21
5.5
 31
0.0
  0
LINE
  5
18C
330
184
100
AcDbEntity
  8
0
  6
Continuous
 62
     0
370
     0
100
AcDbLine
 10
-5.0
 20
0.0
 30
0.0
 11
-5.5
 21
0.0
 31
0.0
  0
LINE
  5
18D
330
184
100
AcDbEntity
  8
0
  6
Continuous
 62
     0
370
     0
100
AcDbLine
 10
0.0
 20
-5.0
 30
0.0
 11
0.0
 21
-5.5
 31
0.0
  0
LINE
  5
18E
330
184
100
AcDbEntity
  8
0
  6
Continuous
 62
     0
370
     0
100
AcDbLine
 10
5.0
 20
0.0
 30
0.0
 11
5.5
 21
0.0
 31
0.0
  0
ENDBLK
  5
186
330
184
100
AcDbEntity
  8
0
100
AcDbBlockEnd
  0
BLOCK
  5
191
330
190
100
AcDbEntity
  8
0
100
AcDbBlockBegin
  2
SW_CENTERMARKSYMBOL_1
 70
     0
 10
0.0
 20
0.0
 30
0.0
  3
SW_CENTERMARKSYMBOL_1
  1

  0
LINE
  5
193
330
190
100
AcDbEntity
  8
0
  6
Continuous
 62
     0
370
     0
100
AcDbLine
 10
0.0
 20
0.0
 30
0.0
 11
0.0
 21
2.5
 31
0.0
  0
LINE
  5
194
330
190
100
AcDbEntity
  8
0
  6
Continuous
 62
     0
370
     0
100
AcDbLine
 10
0.0
 20
0.0
 30
0.0
 11
-2.5
 21
0.0
 31
0.0
  0
LINE
  5
195
330
190
100
AcDbEntity
  8
0
  6
Continuous
 62
     0
370
     0
100
AcDbLine
 10
0.0
 20
0.0
 30
0.0
 11
0.0
 21
-2.5
 31
0.0
  0
LINE
  5
196
330
190
100
AcDbEntity
  8
0
  6
Continuous
 62
     0
370
     0
100
AcDbLine
 10
0.0
 20
0.0
 30
0.0
 11
2.5
 21
0.0
 31
0.0
  0
LINE
  5
197
330
190
100
AcDbEntity
  8
0
  6
Continuous
 62
     0
370
     0
100
AcDbLine
 10
0.0
 20
5.0
 30
0.0
 11
0.0
 21
6.0
 31
0.0
  0
LINE
  5
198
330
190
100
AcDbEntity
  8
0
  6
Continuous
 62
     0
370
     0
100
AcDbLine
 10
-5.0
 20
0.0
 30
0.0
 11
-6.0
 21
0.0
 31
0.0
  0
LINE
  5
199
330
190
100
AcDbEntity
  8
0
  6
Continuous
 62
     0
370
     0
100
AcDbLine
 10
0.0
 20
-5.0
 30
0.0
 11
0.0
 21
-6.0
 31
0.0
  0
LINE
  5
19A
330
190
100
AcDbEntity
  8
0
  6
Continuous
 62
     0
370
     0
100
AcDbLine
 10
5.0
 20
0.0
 30
0.0
 11
6.0
 21
0.0
 31
0.0
  0
ENDBLK
  5
192
330
190
100
AcDbEntity
  8
0
100
AcDbBlockEnd
  0
BLOCK
  5
19D
330
19C
100
AcDbEntity
  8
0
100
AcDbBlockBegin
  2
SW_CENTERMARKSYMBOL_2
 70
     0
 10
0.0
 20
0.0
 30
0.0
  3
SW_CENTERMARKSYMBOL_2
  1

  0
LINE
  5
19F
330
19C
100
AcDbEntity
  8
0
  6
Continuous
 62
     0
370
     0
100
AcDbLine
 10
0.0
 20
0.0
 30
0.0
 11
0.0
 21
2.5
 31
0.0
  0
LINE
  5
1A0
330
19C
100
AcDbEntity
  8
0
  6
Continuous
 62
     0
370
     0
100
AcDbLine
 10
0.0
 20
0.0
 30
0.0
 11
-2.5
 21
0.0
 31
0.0
  0
LINE
  5
1A1
330
19C
100
AcDbEntity
  8
0
  6
Continuous
 62
     0
370
     0
100
AcDbLine
 10
0.0
 20
0.0
 30
0.0
 11
0.0
 21
-2.5
 31
0.0
  0
LINE
  5
1A2
330
19C
100
AcDbEntity
  8
0
  6
Continuous
 62
     0
370
     0
100
AcDbLine
 10
0.0
 20
0.0
 30
0.0
 11
2.5
 21
0.0
 31
0.0
  0
LINE
  5
1A3
330
19C
100
AcDbEntity
  8
0
  6
Continuous
 62
     0
370
     0
100
AcDbLine
 10
0.0
 20
5.0
 30
0.0
 11
0.0
 21
5.5
 31
0.0
  0
LINE
  5
1A4
330
19C
100
AcDbEntity
  8
0
  6
Continuous
 62
     0
370
     0
100
AcDbLine
 10
-5.0
 20
0.0
 30
0.0
 11
-5.5
 21
0.0
 31
0.0
  0
LINE
  5
1A5
330
19C
100
AcDbEntity
  8
0
  6
Continuous
 62
     0
370
     0
100
AcDbLine
 10
0.0
 20
-5.0
 30
0.0
 11
0.0
 21
-5.5
 31
0.0
  0
LINE
  5
1A6
330
19C
100
AcDbEntity
  8
0
  6
Continuous
 62
     0
370
     0
100
AcDbLine
 10
5.0
 20
0.0
 30
0.0
 11
5.5
 21
0.0
 31
0.0
  0
ENDBLK
  5
19E
330
19C
100
AcDbEntity
  8
0
100
AcDbBlockEnd
  0
BLOCK
  5
1A9
330
1A8
100
AcDbEntity
  8
0
100
AcDbBlockBegin
  2
SW_CENTERMARKSYMBOL_3
 70
     0
 10
0.0
 20
0.0
 30
0.0
  3
SW_CENTERMARKSYMBOL_3
  1

  0
LINE
  5
1AB
330
1A8
100
AcDbEntity
  8
0
  6
Continuous
 62
     0
370
     0
100
AcDbLine
 10
0.0
 20
0.0
 30
0.0
 11
0.0
 21
2.5
 31
0.0
  0
LINE
  5
1AC
330
1A8
100
AcDbEntity
  8
0
  6
Continuous
 62
     0
370
     0
100
AcDbLine
 10
0.0
 20
0.0
 30
0.0
 11
-2.5
 21
0.0
 31
0.0
  0
LINE
  5
1AD
330
1A8
100
AcDbEntity
  8
0
  6
Continuous
 62
     0
370
     0
100
AcDbLine
 10
0.0
 20
0.0
 30
0.0
 11
0.0
 21
-2.5
 31
0.0
  0
LINE
  5
1AE
330
1A8
100
AcDbEntity
  8
0
  6
Continuous
 62
     0
370
     0
100
AcDbLine
 10
0.0
 20
0.0
 30
0.0
 11
2.5
 21
0.0
 31
0.0
  0
LINE
  5
1AF
330
1A8
100
AcDbEntity
  8
0
  6
Continuous
 62
     0
370
     0
100
AcDbLine
 10
0.0
 20
5.0
 30
0.0
 11
0.0
 21
6.0
 31
0.0
  0
LINE
  5
1B0
330
1A8
100
AcDbEntity
  8
0
  6
Continuous
 62
     0
370
     0
100
AcDbLine
 10
-5.0
 20
0.0
 30
0.0
 11
-6.0
 21
0.0
 31
0.0
  0
LINE
  5
1B1
330
1A8
100
AcDbEntity
  8
0
  6
Continuous
 62
     0
370
     0
100
AcDbLine
 10
0.0
 20
-5.0
 30
0.0
 11
0.0
 21
-6.0
 31
0.0
  0
LINE
  5
1B2
330
1A8
100
AcDbEntity
  8
0
  6
Continuous
 62
     0
370
     0
100
AcDbLine
 10
5.0
 20
0.0
 30
0.0
 11
6.0
 21
0.0
 31
0.0
  0
ENDBLK
  5
1AA
330
1A8
100
AcDbEntity
  8
0
100
AcDbBlockEnd
  0
BLOCK
  5
2BF
330
2BE
100
AcDbEntity
  8
0
100
AcDbBlockBegin
  2
SW_HATCH_0
 70
     0
 10
0.0
 20
0.0
 30
0.0
  3
SW_HATCH_0
  1

  0
LINE
  5
2C1
330
2BE
100
AcDbEntity
  8
0
  6
Continuous
 62
     0
370
     0
100
AcDbLine
 10
0.0
 20
0.0
 30
0.0
 11
-0.5888474552
 21
-0.5888474552
 31
0.0
  0
LINE
  5
2C2
330
2BE
100
AcDbEntity
  8
0
  6
Continuous
 62
     0
370
     0
100
AcDbLine
 10
0.0
 20
4.4901280605
 30
0.0
 11
-5.0789755157
 21
-0.5888474552
 31
0.0
  0
LINE
  5
2C3
330
2BE
100
AcDbEntity
  8
0
  6
Continuous
 62
     0
370
     0
100
AcDbLine
 10
0.0
 20
8.9802561211
 30
0.0
 11
-4.0
 21
4.9802561211
 31
0.0
  0
LINE
  5
2C4
330
2BE
100
AcDbEntity
  8
0
  6
Continuous
 62
     0
370
     0
100
AcDbLine
 10
-5.0691035763
 20
3.9111525448
 30
0.0
 11
-9.5345517881
 21
-0.5542956671
 31
0.0
  0
LINE
  5
2C5
330
2BE
100
AcDbEntity
  8
0
  6
Continuous
 62
     0
370
     0
100
AcDbLine
 10
0.0
 20
13.4703841816
 30
0.0
 11
-4.0
 21
9.4703841816
 31
0.0
  0
LINE
  5
2C6
330
2BE
100
AcDbEntity
  8
0
  6
Continuous
 62
     0
370
     0
100
AcDbLine
 10
-9.5592316368
 20
3.9111525448
 30
0.0
 11
-10.0
 21
3.4703841816
 31
0.0
  0
LINE
  5
2C7
330
2BE
100
AcDbEntity
  8
0
  6
Continuous
 62
     0
370
     0
100
AcDbLine
 10
3.2856945039
 20
21.2462067461
 30
0.0
 11
-4.0
 21
13.9605122421
 31
0.0
  0
LINE
  5
2C8
330
2BE
100
AcDbEntity
  8
0
  6
Continuous
 62
     0
370
     0
100
AcDbLine
 10
0.0
 20
22.4506403027
 30
0.0
 11
-4.0
 21
18.4506403027
 31
0.0
  0
LINE
  5
2C9
330
2BE
100
AcDbEntity
  8
0
  6
Continuous
 62
     0
370
     0
100
AcDbLine
 10
0.0
 20
26.9407683632
 30
0.0
 11
-4.0
 21
22.9407683632
 31
0.0
  0
LINE
  5
2CA
330
2BE
100
AcDbEntity
  8
0
  6
Continuous
 62
     0
370
     0
100
AcDbLine
 10
0.0
 20
31.4308964237
 30
0.0
 11
-4.0
 21
27.4308964237
 31
0.0
  0
LINE
  5
2CB
330
2BE
100
AcDbEntity
  8
0
  6
Continuous
 62
     0
370
     0
100
AcDbLine
 10
0.0
 20
35.9210244843
 30
0.0
 11
-4.0
 21
31.9210244843
 31
0.0
  0
LINE
  5
2CC
330
2BE
100
AcDbEntity
  8
0
  6
Continuous
 62
     0
370
     0
100
AcDbLine
 10
0.0
 20
40.4111525448
 30
0.0
 11
-4.0
 21
36.4111525448
 31
0.0
  0
LINE
  5
2CD
330
2BE
100
AcDbEntity
  8
0
  6
Continuous
 62
     0
370
     0
100
AcDbLine
 10
-3.4901280605
 20
41.4111525448
 30
0.0
 11
-5.4901280605
 21
39.4111525448
 31
0.0
  0
LINE
  5
2CE
330
2BE
100
AcDbEntity
  8
0
  6
Continuous
 62
     0
370
     0
100
AcDbLine
 10
-7.9802561211
 20
41.4111525448
 30
0.0
 11
-12.9802561211
 21
36.4111525448
 31
0.0
  0
LINE
  5
2CF
330
2BE
100
AcDbEntity
  8
0
  6
Continuous
 62
     0
370
     0
100
AcDbLine
 10
-12.4703841816
 20
41.4111525448
 30
0.0
 11
-15.7351920908
 21
38.1463446356
 31
0.0
  0
LINE
  5
2D0
330
2BE
100
AcDbEntity
  8
0
  6
Continuous
 62
     0
370
     0
100
AcDbLine
 10
-16.9605122421
 20
41.4111525448
 30
0.0
 11
-18.9605122421
 21
39.4111525448
 31
0.0
  0
LINE
  5
2D1
330
2BE
100
AcDbEntity
  8
0
  6
Continuous
 62
     0
370
     0
100
AcDbLine
 10
-16.0
 20
1.9605122421
 30
0.0
 11
-18.5493596973
 21
-0.5888474552
 31
0.0
  0
LINE
  5
2D2
330
2BE
100
AcDbEntity
  8
0
  6
Continuous
 62
     0
370
     0
100
AcDbLine
 10
-18.5394877579
 20
3.9111525448
 30
0.0
 11
-20.0
 21
2.4506403027
 31
0.0
  0
LINE
  5
2D3
330
2BE
100
AcDbEntity
  8
0
  6
Continuous
 62
     0
370
     0
100
AcDbLine
 10
0.0
 20
22.861790093
 30
0.0
 11
1.4506370928
 21
21.4111525448
 31
0.0
  0
LINE
  5
2D4
330
2BE
100
AcDbEntity
  8
0
  6
Continuous
 62
     0
370
     0
100
AcDbLine
 10
0.0
 20
27.3519188583
 30
0.0
 11
1.5
 21
25.8519183874
 31
0.0
  0
LINE
  5
2D5
330
2BE
100
AcDbEntity
  8
0
  6
Continuous
 62
     0
370
     0
100
AcDbLine
 10
0.0
 20
31.8420476236
 30
0.0
 11
1.5
 21
30.3420471527
 31
0.0
  0
LINE
  5
2D6
330
2BE
100
AcDbEntity
  8
0
  6
Continuous
 62
     0
370
     0
100
AcDbLine
 10
0.0
 20
36.3321763889
 30
0.0
 11
1.5
 21
34.832175918
 31
0.0
  0
LINE
  5
2D7
330
2BE
100
AcDbEntity
  8
0
  6
Continuous
 62
     0
370
     0
100
AcDbLine
 10
0.0
 20
40.8223051542
 30
0.0
 11
1.5
 21
39.3223046833
 31
0.0
  0
LINE
  5
2D8
330
2BE
100
AcDbEntity
  8
0
  6
Continuous
 62
     0
370
     0
100
AcDbLine
 10
0.0
 20
22.4506368434
 30
0.0
 11
1.5
 21
23.9506363725
 31
0.0
  0
LINE
  5
2D9
330
2BE
100
AcDbEntity
  8
0
  6
Continuous
 62
     0
370
     0
100
AcDbLine
 10
0.0
 20
26.9407641992
 30
0.0
 11
1.5
 21
28.4407637283
 31
0.0
  0
LINE
  5
2DA
330
2BE
100
AcDbEntity
  8
0
  6
Continuous
 62
     0
370
     0
100
AcDbLine
 10
0.0
 20
31.4308915549
 30
0.0
 11
1.5
 21
32.9308910841
 31
0.0
  0
LINE
  5
2DB
330
2BE
100
AcDbEntity
  8
0
  6
Continuous
 62
     0
370
     0
100
AcDbLine
 10
0.0
 20
35.9210189107
 30
0.0
 11
1.5
 21
37.4210184398
 31
0.0
  0
LINE
  5
2DC
330
2BE
100
AcDbEntity
  8
0
  6
Continuous
 62
     0
370
     0
100
AcDbLine
 10
0.0
 20
40.4111462665
 30
0.0
 11
1.0000065922
 21
41.4111525448
 31
0.0
  0
LINE
  5
2DD
330
2BE
100
AcDbEntity
  8
0
  6
Continuous
 62
     0
370
     0
100
AcDbLine
 10
49.7291084113
 20
27.2784681086
 30
0.0
 11
45.1326844362
 21
22.6820441335
 31
0.0
  0
LINE
  5
2DE
330
2BE
100
AcDbEntity
  8
0
  6
Continuous
 62
     0
370
     0
100
AcDbLine
 10
50.9829991486
 20
33.0224869065
 30
0.0
 11
48.8746184251
 21
30.9141061829
 31
0.0
  0
LINE
  5
2DF
330
2BE
100
AcDbEntity
  8
0
  6
Continuous
 62
     0
370
     0
100
AcDbLine
 10
41.4970463619
 20
23.5365341198
 30
0.0
 11
39.371664787
 21
21.4111525448
 31
0.0
  0
LINE
  5
2E0
330
2BE
100
AcDbEntity
  8
0
  6
Continuous
 62
     0
370
     0
100
AcDbLine
 10
50.1415934155
 20
36.6712092339
 30
0.0
 11
48.5845154725
 21
35.1141312909
 31
0.0
  0
LINE
  5
2E1
330
2BE
100
AcDbEntity
  8
0
  6
Continuous
 62
     0
370
     0
100
AcDbLine
 10
37.2970212539
 20
23.8266370723
 30
0.0
 11
34.9407683632
 21
21.4703841816
 31
0.0
  0
LINE
  5
2E2
330
2BE
100
AcDbEntity
  8
0
  6
Continuous
 62
     0
370
     0
100
AcDbLine
 10
48.4427034604
 20
39.4624473393
 30
0.0
 11
47.0215240807
 21
38.0412679596
 31
0.0
  0
LINE
  5
2E3
330
2BE
100
AcDbEntity
  8
0
  6
Continuous
 62
     0
370
     0
100
AcDbLine
 10
46.0729420894
 20
41.5828140289
 30
0.0
 11
44.623118292
 21
40.1329902314
 31
0.0
  0
LINE
  5
2E4
330
2BE
100
AcDbEntity
  8
0
  6
Continuous
 62
     0
370
     0
100
AcDbLine
 10
42.9954473003
 20
42.9954473003
 30
0.0
 11
41.3146220322
 21
41.3146220322
 31
0.0
  0
LINE
  5
2E5
330
2BE
100
AcDbEntity
  8
0
  6
Continuous
 62
     0
370
     0
100
AcDbLine
 10
38.9210244843
 20
43.4111525448
 30
0.0
 11
35.9666497306
 21
40.4567777911
 31
0.0
  0
LINE
  5
2E6
330
2BE
100
AcDbEntity
  8
0
  6
Continuous
 62
     0
370
     0
100
AcDbLine
 10
34.4308964237
 20
43.4111525448
 30
0.0
 11
30.4308964237
 21
39.4111525448
 31
0.0
  0
LINE
  5
2E7
330
2BE
100
AcDbEntity
  8
0
  6
Continuous
 62
     0
370
     0
100
AcDbLine
 10
29.9407683632
 20
43.4111525448
 30
0.0
 11
25.9407683632
 21
39.4111525448
 31
0.0
  0
LINE
  5
2E8
330
2BE
100
AcDbEntity
  8
0
  6
Continuous
 62
     0
370
     0
100
AcDbLine
 10
25.4506403027
 20
43.4111525448
 30
0.0
 11
21.4506403027
 21
39.4111525448
 31
0.0
  0
LINE
  5
2E9
330
2BE
100
AcDbEntity
  8
0
  6
Continuous
 62
     0
370
     0
100
AcDbLine
 10
20.9605122421
 20
43.4111525448
 30
0.0
 11
16.9605122421
 21
39.4111525448
 31
0.0
  0
LINE
  5
2EA
330
2BE
100
AcDbEntity
  8
0
  6
Continuous
 62
     0
370
     0
100
AcDbLine
 10
16.4703841816
 20
43.4111525448
 30
0.0
 11
12.4703841816
 21
39.4111525448
 31
0.0
  0
LINE
  5
2EB
330
2BE
100
AcDbEntity
  8
0
  6
Continuous
 62
     0
370
     0
100
AcDbLine
 10
11.9802561211
 20
43.4111525448
 30
0.0
 11
7.9802561211
 21
39.4111525448
 31
0.0
  0
LINE
  5
2EC
330
2BE
100
AcDbEntity
  8
0
  6
Continuous
 62
     0
370
     0
100
AcDbLine
 10
7.4901280605
 20
43.4111525448
 30
0.0
 11
3.4901280605
 21
39.4111525448
 31
0.0
  0
LINE
  5
2ED
330
2BE
100
AcDbEntity
  8
0
  6
Continuous
 62
     0
370
     0
100
AcDbLine
 10
3.0
 20
43.4111525448
 30
0.0
 11
1.5
 21
41.9111525448
 31
0.0
  0
LINE
  5
2EE
330
2BE
100
AcDbEntity
  8
0
  6
Continuous
 62
     0
370
     0
100
AcDbLine
 10
48.4744529194
 20
28.2688766507
 30
0.0
 11
50.7195169497
 21
30.513940681
 31
0.0
  0
LINE
  5
2EF
330
2BE
100
AcDbEntity
  8
0
  6
Continuous
 62
     0
370
     0
100
AcDbLine
 10
47.1477323308
 20
26.9421560622
 30
0.0
 11
47.3519209043
 21
27.1463446356
 31
0.0
  0
LINE
  5
2F0
330
2BE
100
AcDbEntity
  8
0
  6
Continuous
 62
     0
370
     0
100
AcDbLine
 10
45.106856874
 20
24.9012806053
 30
0.0
 11
45.4689964827
 21
25.263420214
 31
0.0
  0
LINE
  5
2F1
330
2BE
100
AcDbEntity
  8
0
  6
Continuous
 62
     0
370
     0
100
AcDbLine
 10
41.7581403999
 20
21.5525641313
 30
0.0
 11
43.9843248589
 21
23.7787485902
 31
0.0
  0
LINE
  5
2F2
330
2BE
100
AcDbEntity
  8
0
  6
Continuous
 62
     0
370
     0
100
AcDbLine
 10
49.5969849345
 20
33.8815367264
 30
0.0
 11
50.6957652313
 21
34.9803170232
 31
0.0
  0
LINE
  5
2F3
330
2BE
100
AcDbEntity
  8
0
  6
Continuous
 62
     0
370
     0
100
AcDbLine
 10
37.1266007529
 20
21.4111525448
 30
0.0
 11
38.3716647832
 21
22.6562165751
 31
0.0
  0
LINE
  5
2F4
330
2BE
100
AcDbEntity
  8
0
  6
Continuous
 62
     0
370
     0
100
AcDbLine
 10
47.9169260898
 20
36.6916059423
 30
0.0
 11
49.3809089286
 21
38.1555887811
 31
0.0
  0
LINE
  5
2F5
330
2BE
100
AcDbEntity
  8
0
  6
Continuous
 62
     0
370
     0
100
AcDbLine
 10
34.5
 20
23.2746798524
 30
0.0
 11
35.7195466025
 21
24.494226455
 31
0.0
  0
LINE
  5
2F6
330
2BE
100
AcDbEntity
  8
0
  6
Continuous
 62
     0
370
     0
100
AcDbLine
 10
45.9228036539
 20
39.1876115669
 30
0.0
 11
47.3396269851
 21
40.604434898
 31
0.0
  0
LINE
  5
2F7
330
2BE
100
AcDbEntity
  8
0
  6
Continuous
 62
     0
370
     0
100
AcDbLine
 10
43.1040060225
 20
40.858941996
 30
0.0
 11
44.6329693156
 21
42.3879052891
 31
0.0
  0
LINE
  5
2F8
330
2BE
100
AcDbEntity
  8
0
  6
Continuous
 62
     0
370
     0
100
AcDbLine
 10
40.6167288135
 20
42.8617928475
 30
0.0
 11
41.1099461299
 21
43.355010164
 31
0.0
  0
LINE
  5
2F9
330
2BE
100
AcDbEntity
  8
0
  6
Continuous
 62
     0
370
     0
100
AcDbLine
 10
39.1232851152
 20
41.3683491493
 30
0.0
 11
39.4941967983
 21
41.7392608324
 31
0.0
  0
LINE
  5
2FA
330
2BE
100
AcDbEntity
  8
0
  6
Continuous
 62
     0
370
     0
100
AcDbLine
 10
35.0040687378
 20
41.7392608324
 30
0.0
 11
36.6759604502
 21
43.4111525448
 31
0.0
  0
LINE
  5
2FB
330
2BE
100
AcDbEntity
  8
0
  6
Continuous
 62
     0
370
     0
100
AcDbLine
 10
32.6759604502
 20
39.4111525448
 30
0.0
 11
33.8815367226
 21
40.6167288172
 31
0.0
  0
LINE
  5
2FC
330
2BE
100
AcDbEntity
  8
0
  6
Continuous
 62
     0
370
     0
100
AcDbLine
 10
29.3914086621
 20
40.6167288172
 30
0.0
 11
31.6364726924
 21
42.8617928475
 31
0.0
  0
LINE
  5
2FD
330
2BE
100
AcDbEntity
  8
0
  6
Continuous
 62
     0
370
     0
100
AcDbLine
 10
28.1858323897
 20
39.4111525448
 30
0.0
 11
28.268876647
 21
39.4941968021
 31
0.0
  0
LINE
  5
2FE
330
2BE
100
AcDbEntity
  8
0
  6
Continuous
 62
     0
370
     0
100
AcDbLine
 10
27.1463446318
 20
42.8617928475
 30
0.0
 11
27.6957043292
 21
43.4111525448
 31
0.0
  0
LINE
  5
2FF
330
2BE
100
AcDbEntity
  8
0
  6
Continuous
 62
     0
370
     0
100
AcDbLine
 10
23.7787485864
 20
39.4941968021
 30
0.0
 11
26.0238126167
 21
41.7392608324
 31
0.0
  0
LINE
  5
300
330
2BE
100
AcDbEntity
  8
0
  6
Continuous
 62
     0
370
     0
100
AcDbLine
 10
21.5336845562
 20
41.7392608324
 30
0.0
 11
23.2055762686
 21
43.4111525448
 31
0.0
  0
LINE
  5
301
330
2BE
100
AcDbEntity
  8
0
  6
Continuous
 62
     0
370
     0
100
AcDbLine
 10
19.2055762686
 20
39.4111525448
 30
0.0
 11
20.411152541
 21
40.6167288172
 31
0.0
  0
LINE
  5
302
330
2BE
100
AcDbEntity
  8
0
  6
Continuous
 62
     0
370
     0
100
AcDbLine
 10
15.9210244805
 20
40.6167288172
 30
0.0
 11
18.1660885108
 21
42.8617928475
 31
0.0
  0
LINE
  5
303
330
2BE
100
AcDbEntity
  8
0
  6
Continuous
 62
     0
370
     0
100
AcDbLine
 10
14.7154482081
 20
39.4111525448
 30
0.0
 11
14.7984924654
 21
39.4941968021
 31
0.0
  0
LINE
  5
304
330
2BE
100
AcDbEntity
  8
0
  6
Continuous
 62
     0
370
     0
100
AcDbLine
 10
13.6759604502
 20
42.8617928475
 30
0.0
 11
14.2253201476
 21
43.4111525448
 31
0.0
  0
LINE
  5
305
330
2BE
100
AcDbEntity
  8
0
  6
Continuous
 62
     0
370
     0
100
AcDbLine
 10
10.3083644048
 20
39.4941968021
 30
0.0
 11
12.5534284351
 21
41.7392608324
 31
0.0
  0
LINE
  5
306
330
2BE
100
AcDbEntity
  8
0
  6
Continuous
 62
     0
370
     0
100
AcDbLine
 10
8.0633003746
 20
41.7392608324
 30
0.0
 11
9.735192087
 21
43.4111525448
 31
0.0
  0
LINE
  5
307
330
2BE
100
AcDbEntity
  8
0
  6
Continuous
 62
     0
370
     0
100
AcDbLine
 10
5.735192087
 20
39.4111525448
 30
0.0
 11
6.9407683594
 21
40.6167288172
 31
0.0
  0
LINE
  5
308
330
2BE
100
AcDbEntity
  8
0
  6
Continuous
 62
     0
370
     0
100
AcDbLine
 10
2.4506402989
 20
40.6167288172
 30
0.0
 11
4.6957043292
 21
42.8617928475
 31
0.0
  0
LINE
  5
309
330
2BE
100
AcDbEntity
  8
0
  6
Continuous
 62
     0
370
     0
100
AcDbLine
 10
29.5
 20
25.0098719395
 30
0.0
 11
25.9012806053
 21
21.4111525448
 31
0.0
  0
LINE
  5
30A
330
2BE
100
AcDbEntity
  8
0
  6
Continuous
 62
     0
370
     0
100
AcDbLine
 10
25.4111525448
 20
25.4111525448
 30
0.0
 11
21.4111525448
 21
21.4111525448
 31
0.0
  0
LINE
  5
30B
330
2BE
100
AcDbEntity
  8
0
  6
Continuous
 62
     0
370
     0
100
AcDbLine
 10
20.9210244843
 20
25.4111525448
 30
0.0
 11
16.9210244843
 21
21.4111525448
 31
0.0
  0
LINE
  5
30C
330
2BE
100
AcDbEntity
  8
0
  6
Continuous
 62
     0
370
     0
100
AcDbLine
 10
16.4308964237
 20
25.4111525448
 30
0.0
 11
12.4308964237
 21
21.4111525448
 31
0.0
  0
LINE
  5
30D
330
2BE
100
AcDbEntity
  8
0
  6
Continuous
 62
     0
370
     0
100
AcDbLine
 10
11.9407683632
 20
25.4111525448
 30
0.0
 11
7.9407683632
 21
21.4111525448
 31
0.0
  0
LINE
  5
30E
330
2BE
100
AcDbEntity
  8
0
  6
Continuous
 62
     0
370
     0
100
AcDbLine
 10
7.4506403027
 20
25.4111525448
 30
0.0
 11
3.4506403027
 21
21.4111525448
 31
0.0
  0
LINE
  5
30F
330
2BE
100
AcDbEntity
  8
0
  6
Continuous
 62
     0
370
     0
100
AcDbLine
 10
2.9605122421
 20
25.4111525448
 30
0.0
 11
1.5
 21
23.9506403027
 31
0.0
  0
LINE
  5
310
330
2BE
100
AcDbEntity
  8
0
  6
Continuous
 62
     0
370
     0
100
AcDbLine
 10
28.268876647
 20
21.5336845599
 30
0.0
 11
29.5
 21
22.764807913
 31
0.0
  0
LINE
  5
311
330
2BE
100
AcDbEntity
  8
0
  6
Continuous
 62
     0
370
     0
100
AcDbLine
 10
26.0238126167
 20
23.7787485902
 30
0.0
 11
27.6562165713
 21
25.4111525448
 31
0.0
  0
LINE
  5
312
330
2BE
100
AcDbEntity
  8
0
  6
Continuous
 62
     0
370
     0
100
AcDbLine
 10
23.6562165713
 20
21.4111525448
 30
0.0
 11
24.9012806016
 21
22.6562165751
 31
0.0
  0
LINE
  5
313
330
2BE
100
AcDbEntity
  8
0
  6
Continuous
 62
     0
370
     0
100
AcDbLine
 10
20.411152541
 20
22.6562165751
 30
0.0
 11
22.6562165713
 21
24.9012806053
 31
0.0
  0
LINE
  5
314
330
2BE
100
AcDbEntity
  8
0
  6
Continuous
 62
     0
370
     0
100
AcDbLine
 10
19.1660885108
 20
21.4111525448
 30
0.0
 11
19.2886205259
 21
21.5336845599
 31
0.0
  0
LINE
  5
315
330
2BE
100
AcDbEntity
  8
0
  6
Continuous
 62
     0
370
     0
100
AcDbLine
 10
18.1660885108
 20
24.9012806053
 30
0.0
 11
18.6759604502
 21
25.4111525448
 31
0.0
  0
LINE
  5
316
330
2BE
100
AcDbEntity
  8
0
  6
Continuous
 62
     0
370
     0
100
AcDbLine
 10
14.7984924654
 20
21.5336845599
 30
0.0
 11
17.0435564956
 21
23.7787485902
 31
0.0
  0
LINE
  5
317
330
2BE
100
AcDbEntity
  8
0
  6
Continuous
 62
     0
370
     0
100
AcDbLine
 10
12.5534284351
 20
23.7787485902
 30
0.0
 11
14.1858323897
 21
25.4111525448
 31
0.0
  0
LINE
  5
318
330
2BE
100
AcDbEntity
  8
0
  6
Continuous
 62
     0
370
     0
100
AcDbLine
 10
10.1858323897
 20
21.4111525448
 30
0.0
 11
11.43089642
 21
22.6562165751
 31
0.0
  0
LINE
  5
319
330
2BE
100
AcDbEntity
  8
0
  6
Continuous
 62
     0
370
     0
100
AcDbLine
 10
6.9407683594
 20
22.6562165751
 30
0.0
 11
9.1858323897
 21
24.9012806053
 31
0.0
  0
LINE
  5
31A
330
2BE
100
AcDbEntity
  8
0
  6
Continuous
 62
     0
370
     0
100
AcDbLine
 10
5.6957043292
 20
21.4111525448
 30
0.0
 11
5.8182363443
 21
21.5336845599
 31
0.0
  0
LINE
  5
31B
330
2BE
100
AcDbEntity
  8
0
  6
Continuous
 62
     0
370
     0
100
AcDbLine
 10
4.6957043292
 20
24.9012806053
 30
0.0
 11
5.2055762686
 21
25.4111525448
 31
0.0
  0
LINE
  5
31C
330
2BE
100
AcDbEntity
  8
0
  6
Continuous
 62
     0
370
     0
100
AcDbLine
 10
1.5000508874
 20
21.7056271636
 30
0.0
 11
3.573172314
 21
23.7787485902
 31
0.0
  0
LINE
  5
31D
330
2BE
100
AcDbEntity
  8
0
  6
Continuous
 62
     0
370
     0
100
AcDbLine
 10
48.5845154725
 20
35.1141312909
 30
0.0
 11
47.773146808
 21
34.3027626264
 31
0.0
  0
LINE
  5
31E
330
2BE
100
AcDbEntity
  8
0
  6
Continuous
 62
     0
370
     0
100
AcDbLine
 10
38.1083899184
 20
24.6380057368
 30
0.0
 11
37.2970212539
 21
23.8266370723
 31
0.0
  0
LINE
  5
31F
330
2BE
100
AcDbEntity
  8
0
  6
Continuous
 62
     0
370
     0
100
AcDbLine
 10
44.623118292
 20
40.1329902314
 30
0.0
 11
43.8911811332
 21
39.4010530726
 31
0.0
  0
LINE
  5
320
330
2BE
100
AcDbEntity
  8
0
  6
Continuous
 62
     0
370
     0
100
AcDbLine
 10
33.0100994722
 20
28.5199714116
 30
0.0
 11
32.9506403027
 21
28.4605122421
 31
0.0
  0
LINE
  5
321
330
2BE
100
AcDbEntity
  8
0
  6
Continuous
 62
     0
370
     0
100
AcDbLine
 10
35.9666497306
 20
40.4567777911
 30
0.0
 11
31.9543747537
 21
36.4445028142
 31
0.0
  0
LINE
  5
322
330
2BE
100
AcDbEntity
  8
0
  6
Continuous
 62
     0
370
     0
100
AcDbLine
 10
48.4744529156
 20
30.513940681
 30
0.0
 11
48.8746184266
 21
30.914106192
 31
0.0
  0
LINE
  5
323
330
2BE
100
AcDbEntity
  8
0
  6
Continuous
 62
     0
370
     0
100
AcDbLine
 10
41.7392608248
 20
23.7787485902
 30
0.0
 11
42.9259336252
 21
24.9654213906
 31
0.0
  0
LINE
  5
324
330
2BE
100
AcDbEntity
  8
0
  6
Continuous
 62
     0
370
     0
100
AcDbLine
 10
34.5
 20
25.5197438865
 30
0.0
 11
35.0817934387
 21
26.1015373251
 31
0.0
  0
LINE
  5
325
330
2BE
100
AcDbEntity
  8
0
  6
Continuous
 62
     0
370
     0
100
AcDbLine
 10
40.4010915584
 20
40.401091566
 30
0.0
 11
41.3146220256
 21
41.3146220332
 31
0.0
  0
LINE
  5
326
330
2BE
100
AcDbEntity
  8
0
  6
Continuous
 62
     0
370
     0
100
AcDbLine
 10
31.0965305117
 20
31.0965305192
 30
0.0
 11
31.6364726886
 21
31.6364726961
 31
0.0
  0
LINE
  5
327
330
2BE
100
AcDbEntity
  8
0
  6
Continuous
 62
     0
370
     0
100
AcDbLine
 10
-10.0592316368
 20
37.4111525448
 30
0.0
 11
-9.0
 21
36.351920908
 31
0.0
  0
LINE
  5
328
330
2BE
100
AcDbEntity
  8
0
  6
Continuous
 62
     0
370
     0
100
AcDbLine
 10
-17.5
 20
35.871664787
 30
0.0
 11
-12.0
 21
30.371664787
 31
0.0
  0
LINE
  5
329
330
2BE
100
AcDbEntity
  8
0
  6
Continuous
 62
     0
370
     0
100
AcDbLine
 10
-17.5
 20
26.8914086659
 30
0.0
 11
-12.0
 21
21.3914086659
 31
0.0
  0
LINE
  5
32A
330
2BE
100
AcDbEntity
  8
0
  6
Continuous
 62
     0
370
     0
100
AcDbLine
 10
-17.5
 20
17.9111525448
 30
0.0
 11
-9.2099591377
 21
9.6211116825
 31
0.0
  0
LINE
  5
32B
330
2BE
100
AcDbEntity
  8
0
  6
Continuous
 62
     0
370
     0
100
AcDbLine
 10
-17.5
 20
8.9308964237
 30
0.0
 11
-15.9802561211
 21
7.4111525448
 31
0.0
  0
LINE
  5
32C
330
2BE
100
AcDbEntity
  8
0
  6
Continuous
 62
     0
370
     0
100
AcDbLine
 10
-11.0197438789
 20
33.8815367189
 30
0.0
 11
-12.7746798524
 21
35.6364726924
 31
0.0
  0
LINE
  5
32D
330
2BE
100
AcDbEntity
  8
0
  6
Continuous
 62
     0
370
     0
100
AcDbLine
 10
-15.5098719395
 20
29.3914086583
 30
0.0
 11
-17.5
 21
31.3815367189
 31
0.0
  0
LINE
  5
32E
330
2BE
100
AcDbEntity
  8
0
  6
Continuous
 62
     0
370
     0
100
AcDbLine
 10
-12.1422758941
 20
26.0238126129
 30
0.0
 11
-14.3873399243
 21
28.2688766432
 31
0.0
  0
LINE
  5
32F
330
2BE
100
AcDbEntity
  8
0
  6
Continuous
 62
     0
370
     0
100
AcDbLine
 10
-16.6324039546
 20
21.5336845524
 30
0.0
 11
-17.5
 21
22.4012805978
 31
0.0
  0
LINE
  5
330
330
2BE
100
AcDbEntity
  8
0
  6
Continuous
 62
     0
370
     0
100
AcDbLine
 10
-13.2648079092
 20
18.166088507
 30
0.0
 11
-15.5098719395
 21
20.4111525373
 31
0.0
  0
LINE
  5
331
330
2BE
100
AcDbEntity
  8
0
  6
Continuous
 62
     0
370
     0
100
AcDbLine
 10
-12.0
 20
16.9012805978
 30
0.0
 11
-12.1422758941
 21
17.0435564919
 31
0.0
  0
LINE
  5
332
330
2BE
100
AcDbEntity
  8
0
  6
Continuous
 62
     0
370
     0
100
AcDbLine
 10
-14.3873399243
 20
10.3083644011
 30
0.0
 11
-16.6324039546
 21
12.5534284313
 31
0.0
  0
LINE
  5
333
330
2BE
100
AcDbEntity
  8
0
  6
Continuous
 62
     0
370
     0
100
AcDbLine
 10
-13.245064034
 20
9.1660885108
 30
0.0
 11
-13.2648079092
 21
9.1858323859
 31
0.0
  0
LINE
  5
334
330
2BE
100
AcDbEntity
  8
0
  6
Continuous
 62
     0
370
     0
100
AcDbLine
 10
-19.9605122421
 20
38.4111525448
 30
0.0
 11
-20.7
 21
37.6716647869
 31
0.0
  0
LINE
  5
335
330
2BE
100
AcDbEntity
  8
0
  6
Continuous
 62
     0
370
     0
100
AcDbLine
 10
-17.5
 20
36.3815367264
 30
0.0
 11
-20.7
 21
33.1815367264
 31
0.0
  0
LINE
  5
336
330
2BE
100
AcDbEntity
  8
0
  6
Continuous
 62
     0
370
     0
100
AcDbLine
 10
-17.5
 20
31.8914086659
 30
0.0
 11
-20.7
 21
28.6914086659
 31
0.0
  0
LINE
  5
337
330
2BE
100
AcDbEntity
  8
0
  6
Continuous
 62
     0
370
     0
100
AcDbLine
 10
-17.5
 20
27.4012806053
 30
0.0
 11
-20.7
 21
24.2012806053
 31
0.0
  0
LINE
  5
338
330
2BE
100
AcDbEntity
  8
0
  6
Continuous
 62
     0
370
     0
100
AcDbLine
 10
-17.5
 20
22.9111525448
 30
0.0
 11
-20.7
 21
19.7111525448
 31
0.0
  0
LINE
  5
339
330
2BE
100
AcDbEntity
  8
0
  6
Continuous
 62
     0
370
     0
100
AcDbLine
 10
-17.5
 20
18.4210244843
 30
0.0
 11
-20.7
 21
15.2210244843
 31
0.0
  0
LINE
  5
33A
330
2BE
100
AcDbEntity
  8
0
  6
Continuous
 62
     0
370
     0
100
AcDbLine
 10
-17.5
 20
13.9308964237
 30
0.0
 11
-20.7
 21
10.7308964237
 31
0.0
  0
LINE
  5
33B
330
2BE
100
AcDbEntity
  8
0
  6
Continuous
 62
     0
370
     0
100
AcDbLine
 10
-17.5
 20
9.4407683632
 30
0.0
 11
-20.5296158184
 21
6.4111525448
 31
0.0
  0
LINE
  5
33C
330
2BE
100
AcDbEntity
  8
0
  6
Continuous
 62
     0
370
     0
100
AcDbLine
 10
-20.7
 20
7.6407683632
 30
0.0
 11
-19.4703841816
 21
6.4111525448
 31
0.0
  0
LINE
  5
33D
330
2BE
100
AcDbEntity
  8
0
  6
Continuous
 62
     0
370
     0
100
AcDbLine
 10
-20.7
 20
12.1308964237
 30
0.0
 11
-17.5
 21
8.9308964237
 31
0.0
  0
LINE
  5
33E
330
2BE
100
AcDbEntity
  8
0
  6
Continuous
 62
     0
370
     0
100
AcDbLine
 10
-20.7
 20
16.6210244843
 30
0.0
 11
-17.5
 21
13.4210244843
 31
0.0
  0
LINE
  5
33F
330
2BE
100
AcDbEntity
  8
0
  6
Continuous
 62
     0
370
     0
100
AcDbLine
 10
-20.7
 20
21.1111525448
 30
0.0
 11
-17.5
 21
17.9111525448
 31
0.0
  0
LINE
  5
340
330
2BE
100
AcDbEntity
  8
0
  6
Continuous
 62
     0
370
     0
100
AcDbLine
 10
-20.7
 20
25.6012806053
 30
0.0
 11
-17.5
 21
22.4012806053
 31
0.0
  0
LINE
  5
341
330
2BE
100
AcDbEntity
  8
0
  6
Continuous
 62
     0
370
     0
100
AcDbLine
 10
-20.7
 20
30.0914086659
 30
0.0
 11
-17.5
 21
26.8914086659
 31
0.0
  0
LINE
  5
342
330
2BE
100
AcDbEntity
  8
0
  6
Continuous
 62
     0
370
     0
100
AcDbLine
 10
-20.7
 20
34.5815367264
 30
0.0
 11
-17.5
 21
31.3815367264
 31
0.0
  0
LINE
  5
343
330
2BE
100
AcDbEntity
  8
0
  6
Continuous
 62
     0
370
     0
100
AcDbLine
 10
-20.0394877579
 20
38.4111525448
 30
0.0
 11
-17.5
 21
35.871664787
 31
0.0
  0
ENDBLK
  5
2C0
330
2BE
100
AcDbEntity
  8
0
100
AcDbBlockEnd
  0
BLOCK
  5
347
330
346
100
AcDbEntity
  8
0
100
AcDbBlockBegin
  2
SW_CENTERMARKSYMBOL_4
 70
     0
 10
0.0
 20
0.0
 30
0.0
  3
SW_CENTERMARKSYMBOL_4
  1

  0
LINE
  5
349
330
346
100
AcDbEntity
  8
0
  6
Continuous
 62
     0
370
     0
100
AcDbLine
 10
0.0
 20
0.0
 30
0.0
 11
0.0
 21
2.5
 31
0.0
  0
LINE
  5
34A
330
346
100
AcDbEntity
  8
0
  6
Continuous
 62
     0
370
     0
100
AcDbLine
 10
0.0
 20
0.0
 30
0.0
 11
-2.5
 21
0.0
 31
0.0
  0
LINE
  5
34B
330
346
100
AcDbEntity
  8
0
  6
Continuous
 62
     0
370
     0
100
AcDbLine
 10
0.0
 20
0.0
 30
0.0
 11
0.0
 21
-2.5
 31
0.0
  0
LINE
  5
34C
330
346
100
AcDbEntity
  8
0
  6
Continuous
 62
     0
370
     0
100
AcDbLine
 10
0.0
 20
0.0
 30
0.0
 11
2.5
 21
0.0
 31
0.0
  0
LINE
  5
34D
330
346
100
AcDbEntity
  8
0
  6
Continuous
 62
     0
370
     0
100
AcDbLine
 10
0.0
 20
5.0
 30
0.0
 11
0.0
 21
13.5
 31
0.0
  0
LINE
  5
34E
330
346
100
AcDbEntity
  8
0
  6
Continuous
 62
     0
370
     0
100
AcDbLine
 10
-5.0
 20
0.0
 30
0.0
 11
-48.2348936965
 21
0.0
 31
0.0
  0
LINE
  5
34F
330
346
100
AcDbEntity
  8
0
  6
Continuous
 62
     0
370
     0
100
AcDbLine
 10
0.0
 20
-5.0
 30
0.0
 11
0.0
 21
-13.5
 31
0.0
  0
LINE
  5
350
330
346
100
AcDbEntity
  8
0
  6
Continuous
 62
     0
370
     0
100
AcDbLine
 10
5.0
 20
0.0
 30
0.0
 11
13.5
 21
0.0
 31
0.0
  0
ENDBLK
  5
348
330
346
100
AcDbEntity
  8
0
100
AcDbBlockEnd
  0
ENDSEC
  0
SECTION
  2
ENTITIES
  0
LINE
  5
48
330
1F
100
AcDbEntity
  8
0
  6
Continuous
 62
     7
370
    30
100
AcDbLine
 10
188.292027453
 20
282.3376888461
 30
0.0
 11
423.6920150016
 21
282.3376888461
 31
0.0
  0
LINE
  5
49
330
1F
100
AcDbEntity
  8
0
  6
Continuous
 62
     7
370
    30
100
AcDbLine
 10
423.6920150016
 20
304.3376888433
 30
0.0
 11
188.292027453
 21
304.3376888433
 31
0.0
  0
ARC
  5
4A
330
1F
100
AcDbEntity
  8
0
  6
Continuous
 62
     7
370
    30
100
AcDbCircle
 10
188.2920283053
 20
304.0376887986
 30
0.0
 40
0.3000000000000114
100
AcDbArc
 50
90.0
 51
180.0
  0
ARC
  5
4B
330
1F
100
AcDbEntity
  8
0
  6
Continuous
 62
     7
370
    30
100
AcDbCircle
 10
188.2920283053
 20
282.6376887986
 30
0.0
 40
0.3000000000000114
100
AcDbArc
 50
180.0
 51
270.0
  0
ARC
  5
4C
330
1F
100
AcDbEntity
  8
0
  6
Continuous
 62
     7
370
    30
100
AcDbCircle
 10
423.6920283053
 20
282.6376887986
 30
0.0
 40
0.3000000000000114
100
AcDbArc
 50
270.0
 51
0.0
  0
ARC
  5
4D
330
1F
100
AcDbEntity
  8
0
  6
Continuous
 62
     7
370
    30
100
AcDbCircle
 10
423.6920283053
 20
304.0376887986
 30
0.0
 40
0.3000000000000114
100
AcDbArc
 50
0.0
 51
90.0
  0
LINE
  5
4E
330
1F
100
AcDbEntity
  8
0
  6
Continuous
 62
     7
370
    30
100
AcDbLine
 10
187.9920298253
 20
282.6376888022
 30
0.0
 11
187.9920298253
 21
304.0376893529
 31
0.0
  0
LINE
  5
4F
330
1F
100
AcDbEntity
  8
0
  6
Continuous
 62
     7
370
    30
100
AcDbLine
 10
423.9920349811
 20
293.3376889029
 30
0.0
 11
423.9920349811
 21
282.6376888022
 31
0.0
  0
LINE
  5
50
330
1F
100
AcDbEntity
  8
0
  6
Continuous
 62
     7
370
    30
100
AcDbLine
 10
423.9920349811
 20
304.0376893529
 30
0.0
 11
423.9920349811
 21
293.3376889029
 31
0.0
  0
ARC
  5
51
330
1F
100
AcDbEntity
  8
0
  6
Continuous
 62
     7
370
    30
100
AcDbCircle
 10
487.6920283053
 20
304.0376887986
 30
0.0
 40
0.3000000000000114
100
AcDbArc
 50
0.0
 51
90.0
  0
LINE
  5
52
330
1F
100
AcDbEntity
  8
0
  6
Continuous
 62
     7
370
    30
100
AcDbLine
 10
487.9920156692
 20
304.0376893529
 30
0.0
 11
487.9920156692
 21
282.6376888022
 31
0.0
  0
ARC
  5
53
330
1F
100
AcDbEntity
  8
0
  6
Continuous
 62
     7
370
    30
100
AcDbCircle
 10
487.6920283053
 20
282.6376887986
 30
0.0
 40
0.3000000000000114
100
AcDbArc
 50
270.0
 51
0.0
  0
LINE
  5
54
330
1F
100
AcDbEntity
  8
0
  6
Continuous
 62
     7
370
    30
100
AcDbLine
 10
423.9920349811
 20
282.6376888022
 30
0.0
 11
423.9920349811
 21
304.0376893529
 31
0.0
  0
ARC
  5
55
330
1F
100
AcDbEntity
  8
0
  6
Continuous
 62
     7
370
    30
100
AcDbCircle
 10
424.2920283053
 20
304.0376887986
 30
0.0
 40
0.3000000000000114
100
AcDbArc
 50
90.0
 51
180.0
  0
ARC
  5
56
330
1F
100
AcDbEntity
  8
0
  6
Continuous
 62
     7
370
    30
100
AcDbCircle
 10
424.2920283053
 20
282.6376887986
 30
0.0
 40
0.3000000000000114
100
AcDbArc
 50
180.0
 51
270.0
  0
LINE
  5
57
330
1F
100
AcDbEntity
  8
0
  6
Continuous
 62
     7
370
    30
100
AcDbLine
 10
487.692025492
 20
282.3376888461
 30
0.0
 11
424.2920251582
 21
282.3376888461
 31
0.0
  0
LINE
  5
58
330
1F
100
AcDbEntity
  8
0
  6
Continuous
 62
     7
370
    30
100
AcDbLine
 10
487.692025492
 20
304.3376888433
 30
0.0
 11
424.2920251582
 21
304.3376888433
 31
0.0
  0
LINE
  5
59
330
1F
100
AcDbEntity
  8
0
  6
Continuous
 62
     7
370
    30
100
AcDbLine
 10
187.6920284722
 20
282.3376888461
 30
0.0
 11
124.2920281384
 21
282.3376888461
 31
0.0
  0
LINE
  5
5A
330
1F
100
AcDbEntity
  8
0
  6
Continuous
 62
     7
370
    30
100
AcDbLine
 10
187.6920284722
 20
304.3376888433
 30
0.0
 11
124.2920281384
 21
304.3376888433
 31
0.0
  0
ARC
  5
5B
330
1F
100
AcDbEntity
  8
0
  6
Continuous
 62
     7
370
    30
100
AcDbCircle
 10
187.6920283053
 20
304.0376887986
 30
0.0
 40
0.3000000000000114
100
AcDbArc
 50
0.0
 51
90.0
  0
ARC
  5
5C
330
1F
100
AcDbEntity
  8
0
  6
Continuous
 62
     7
370
    30
100
AcDbCircle
 10
187.6920283053
 20
282.6376887986
 30
0.0
 40
0.3000000000000114
100
AcDbArc
 50
270.0
 51
0.0
  0
LINE
  5
5D
330
1F
100
AcDbEntity
  8
0
  6
Continuous
 62
     7
370
    30
100
AcDbLine
 10
123.9920267854
 20
282.6376888022
 30
0.0
 11
123.9920267854
 21
304.0376893529
 31
0.0
  0
ARC
  5
5E
330
1F
100
AcDbEntity
  8
0
  6
Continuous
 62
     7
370
    30
100
AcDbCircle
 10
124.2920283053
 20
304.0376887986
 30
0.0
 40
0.2999999999999972
100
AcDbArc
 50
90.0
 51
180.0
  0
ARC
  5
5F
330
1F
100
AcDbEntity
  8
0
  6
Continuous
 62
     7
370
    30
100
AcDbCircle
 10
124.2920283053
 20
282.6376887986
 30
0.0
 40
0.3000000000000114
100
AcDbArc
 50
180.0
 51
270.0
  0
LINE
  5
60
330
1F
100
AcDbEntity
  8
0
  6
Continuous
 62
     7
370
    30
100
AcDbLine
 10
481.9920333121
 20
281.5871334512
 30
0.0
 11
481.9920333121
 21
279.1376888105
 31
0.0
  0
ARC
  5
61
330
1F
100
AcDbEntity
  8
0
  6
Continuous
 62
     7
370
    30
100
AcDbCircle
 10
481.6920283053
 20
279.1376887986
 30
0.0
 40
0.3000000000000682
100
AcDbArc
 50
270.0
 51
0.0
  0
ELLIPSE
  5
62
330
1F
100
AcDbEntity
  8
0
  6
Continuous
 62
     7
370
    30
100
AcDbEllipse
 10
481.6920283053
 20
281.5871334487
 30
0.0
 11
0.3000000000000114
 21
0.0
 31
0.0
210
0.0
220
0.0
230
1.0
 40
0.5773502692
 41
0.0
 42
1.570796326794897
  0
ARC
  5
63
330
1F
100
AcDbEntity
  8
0
  6
Continuous
 62
     7
370
    30
100
AcDbCircle
 10
430.2920283053
 20
279.1376887986
 30
0.0
 40
0.3000000000000682
100
AcDbArc
 50
180.0
 51
270.0
  0
LINE
  5
64
330
1F
100
AcDbEntity
  8
0
  6
Continuous
 62
     7
370
    30
100
AcDbLine
 10
429.9920173381
 20
279.1376888105
 30
0.0
 11
429.9920173381
 21
281.5871334512
 31
0.0
  0
ELLIPSE
  5
65
330
1F
100
AcDbEntity
  8
0
  6
Continuous
 62
     7
370
    30
100
AcDbEllipse
 10
430.2920283053
 20
281.5871334487
 30
0.0
 11
0.3000000000000114
 21
0.0
 31
0.0
210
0.0
220
0.0
230
1.0
 40
0.5773502692
 41
1.570796326794897
 42
3.141592653589793
  0
ARC
  5
66
330
1F
100
AcDbEntity
  8
0
  6
Continuous
 62
     7
370
    30
100
AcDbCircle
 10
481.6920283053
 20
282.0376887986
 30
0.0
 40
0.3000000000000114
100
AcDbArc
 50
0.0
 51
90.0
  0
LINE
  5
67
330
1F
100
AcDbEntity
  8
0
  6
Continuous
 62
     7
370
    30
100
AcDbLine
 10
481.9920333121
 20
282.0376887737
 30
0.0
 11
481.9920333121
 21
281.5871334512
 31
0.0
  0
LINE
  5
68
330
1F
100
AcDbEntity
  8
0
  6
Continuous
 62
     7
370
    30
100
AcDbLine
 10
429.9920173381
 20
281.5871334512
 30
0.0
 11
429.9920173381
 21
282.0376887737
 31
0.0
  0
ARC
  5
69
330
1F
100
AcDbEntity
  8
0
  6
Continuous
 62
     7
370
    30
100
AcDbCircle
 10
430.2920283053
 20
282.0376887986
 30
0.0
 40
0.3000000000000682
100
AcDbArc
 50
90.0
 51
180.0
  0
LINE
  5
6A
330
1F
100
AcDbEntity
  8
0
  6
Continuous
 62
     7
370
    30
100
AcDbLine
 10
430.2920373176
 20
278.8376888545
 30
0.0
 11
481.692043135
 21
278.8376888545
 31
0.0
  0
LINE
  5
6B
330
1F
100
AcDbEntity
  8
0
  6
Continuous
 62
     7
370
    30
100
AcDbLine
 10
481.692043135
 20
281.7603385244
 30
0.0
 11
430.2920373176
 21
281.7603385244
 31
0.0
  0
LINE
  5
6C
330
1F
100
AcDbEntity
  8
0
  6
Continuous
 62
     7
370
    30
100
AcDbLine
 10
429.9920173381
 20
275.8376888284
 30
0.0
 11
429.9920173381
 21
279.1376888105
 31
0.0
  0
LINE
  5
6D
330
1F
100
AcDbEntity
  8
0
  6
Continuous
 62
     7
370
    30
100
AcDbLine
 10
481.9920333121
 20
279.1376888105
 30
0.0
 11
481.9920333121
 21
275.8376888284
 31
0.0
  0
LINE
  5
6E
330
1F
100
AcDbEntity
  8
0
  6
Continuous
 62
     7
370
    30
100
AcDbLine
 10
429.9920173381
 20
282.0376887737
 30
0.0
 11
429.9920173381
 21
282.3376888461
 31
0.0
  0
LINE
  5
6F
330
1F
100
AcDbEntity
  8
0
  6
Continuous
 62
     7
370
    30
100
AcDbLine
 10
481.9920333121
 20
282.3376888461
 30
0.0
 11
481.9920333121
 21
282.0376887737
 31
0.0
  0
LINE
  5
70
330
1F
100
AcDbEntity
  8
0
  6
Continuous
 62
     7
370
    30
100
AcDbLine
 10
429.9920173381
 20
260.6376885721
 30
0.0
 11
429.9920173381
 21
275.8376888284
 31
0.0
  0
LINE
  5
71
330
1F
100
AcDbEntity
  8
0
  6
Continuous
 62
     7
370
    30
100
AcDbLine
 10
481.9920333121
 20
275.8376888284
 30
0.0
 11
481.9920333121
 21
260.6376885721
 31
0.0
  0
ARC
  5
72
330
1F
100
AcDbEntity
  8
0
  6
Continuous
 62
     7
370
    30
100
AcDbCircle
 10
481.6920283053
 20
260.6376887986
 30
0.0
 40
0.3000000000000114
100
AcDbArc
 50
270.0
 51
0.0
  0
LINE
  5
73
330
1F
100
AcDbEntity
  8
0
  6
Continuous
 62
     7
370
    30
100
AcDbLine
 10
481.692043135
 20
260.3376890817
 30
0.0
 11
430.2920373176
 21
260.3376890817
 31
0.0
  0
ARC
  5
74
330
1F
100
AcDbEntity
  8
0
  6
Continuous
 62
     7
370
    30
100
AcDbCircle
 10
430.2920283053
 20
260.6376887986
 30
0.0
 40
0.3000000000000682
100
AcDbArc
 50
180.0
 51
270.0
  0
ARC
  5
75
330
1F
100
AcDbEntity
  8
0
  6
Continuous
 62
     7
370
    30
100
AcDbCircle
 10
130.2920283053
 20
279.1376887986
 30
0.0
 40
0.3000000000000682
100
AcDbArc
 50
180.0
 51
270.0
  0
LINE
  5
76
330
1F
100
AcDbEntity
  8
0
  6
Continuous
 62
     7
370
    30
100
AcDbLine
 10
129.9920277689
 20
279.1376888105
 30
0.0
 11
129.9920277689
 21
281.5871334512
 31
0.0
  0
ELLIPSE
  5
77
330
1F
100
AcDbEntity
  8
0
  6
Continuous
 62
     7
370
    30
100
AcDbEllipse
 10
130.2920283053
 20
281.5871334487
 30
0.0
 11
0.3000000000000114
 21
0.0
 31
0.0
210
0.0
220
0.0
230
1.0
 40
0.5773502692
 41
1.570796326794897
 42
3.141592653589793
  0
LINE
  5
78
330
1F
100
AcDbEntity
  8
0
  6
Continuous
 62
     7
370
    30
100
AcDbLine
 10
181.9920288418
 20
281.5871334512
 30
0.0
 11
181.9920288418
 21
279.1376888105
 31
0.0
  0
ARC
  5
79
330
1F
100
AcDbEntity
  8
0
  6
Continuous
 62
     7
370
    30
100
AcDbCircle
 10
181.6920283053
 20
279.1376887986
 30
0.0
 40
0.3000000000000682
100
AcDbArc
 50
270.0
 51
0.0
  0
ELLIPSE
  5
7A
330
1F
100
AcDbEntity
  8
0
  6
Continuous
 62
     7
370
    30
100
AcDbEllipse
 10
181.6920283053
 20
281.5871334487
 30
0.0
 11
0.3000000000000114
 21
0.0
 31
0.0
210
0.0
220
0.0
230
1.0
 40
0.5773502692
 41
0.0
 42
1.570796326794897
  0
LINE
  5
7B
330
1F
100
AcDbEntity
  8
0
  6
Continuous
 62
     7
370
    30
100
AcDbLine
 10
129.9920277689
 20
281.5871334512
 30
0.0
 11
129.9920277689
 21
282.0376887737
 31
0.0
  0
ARC
  5
7C
330
1F
100
AcDbEntity
  8
0
  6
Continuous
 62
     7
370
    30
100
AcDbCircle
 10
130.2920283053
 20
282.0376887986
 30
0.0
 40
0.3000000000000114
100
AcDbArc
 50
90.0
 51
180.0
  0
ARC
  5
7D
330
1F
100
AcDbEntity
  8
0
  6
Continuous
 62
     7
370
    30
100
AcDbCircle
 10
181.6920283053
 20
282.0376887986
 30
0.0
 40
0.3000000000000114
100
AcDbArc
 50
0.0
 51
90.0
  0
LINE
  5
7E
330
1F
100
AcDbEntity
  8
0
  6
Continuous
 62
     7
370
    30
100
AcDbLine
 10
181.9920288418
 20
282.0376887737
 30
0.0
 11
181.9920288418
 21
281.5871334512
 31
0.0
  0
LINE
  5
7F
330
1F
100
AcDbEntity
  8
0
  6
Continuous
 62
     7
370
    30
100
AcDbLine
 10
181.6920274888
 20
281.7603385244
 30
0.0
 11
130.2920291219
 21
281.7603385244
 31
0.0
  0
LINE
  5
80
330
1F
100
AcDbEntity
  8
0
  6
Continuous
 62
     7
370
    30
100
AcDbLine
 10
130.2920291219
 20
278.8376888545
 30
0.0
 11
181.6920274888
 21
278.8376888545
 31
0.0
  0
LINE
  5
81
330
1F
100
AcDbEntity
  8
0
  6
Continuous
 62
     7
370
    30
100
AcDbLine
 10
181.9920288418
 20
279.1376888105
 30
0.0
 11
181.9920288418
 21
275.8376888284
 31
0.0
  0
LINE
  5
82
330
1F
100
AcDbEntity
  8
0
  6
Continuous
 62
     7
370
    30
100
AcDbLine
 10
129.9920277689
 20
275.8376888284
 30
0.0
 11
129.9920277689
 21
279.1376888105
 31
0.0
  0
LINE
  5
83
330
1F
100
AcDbEntity
  8
0
  6
Continuous
 62
     7
370
    30
100
AcDbLine
 10
129.9920277689
 20
282.0376887737
 30
0.0
 11
129.9920277689
 21
282.3376888461
 31
0.0
  0
LINE
  5
84
330
1F
100
AcDbEntity
  8
0
  6
Continuous
 62
     7
370
    30
100
AcDbLine
 10
181.9920288418
 20
275.8376888284
 30
0.0
 11
181.9920288418
 21
260.6376885721
 31
0.0
  0
ARC
  5
85
330
1F
100
AcDbEntity
  8
0
  6
Continuous
 62
     7
370
    30
100
AcDbCircle
 10
181.6920283053
 20
260.6376887986
 30
0.0
 40
0.3000000000000114
100
AcDbArc
 50
270.0
 51
0.0
  0
LINE
  5
86
330
1F
100
AcDbEntity
  8
0
  6
Continuous
 62
     7
370
    30
100
AcDbLine
 10
181.9920288418
 20
282.3376888461
 30
0.0
 11
181.9920288418
 21
282.0376887737
 31
0.0
  0
LINE
  5
87
330
1F
100
AcDbEntity
  8
0
  6
Continuous
 62
     7
370
    30
100
AcDbLine
 10
129.9920277689
 20
260.6376885721
 30
0.0
 11
129.9920277689
 21
275.8376888284
 31
0.0
  0
LINE
  5
88
330
1F
100
AcDbEntity
  8
0
  6
Continuous
 62
     7
370
    30
100
AcDbLine
 10
181.6920274888
 20
260.3376890817
 30
0.0
 11
130.2920291219
 21
260.3376890817
 31
0.0
  0
ARC
  5
89
330
1F
100
AcDbEntity
  8
0
  6
Continuous
 62
     7
370
    30
100
AcDbCircle
 10
130.2920283053
 20
260.6376887986
 30
0.0
 40
0.3000000000000114
100
AcDbArc
 50
180.0
 51
270.0
  0
LINE
  5
8A
330
1F
100
AcDbEntity
  8
0
  6
Continuous
 62
     8
370
     0
100
AcDbLine
 10
423.6920150016
 20
293.3376889029
 30
0.0
 11
423.6920150016
 21
304.3376888433
 31
0.0
  0
LINE
  5
8B
330
1F
100
AcDbEntity
  8
0
  6
Continuous
 62
     8
370
     0
100
AcDbLine
 10
423.6920150016
 20
282.3376888461
 30
0.0
 11
423.6920150016
 21
293.3376889029
 31
0.0
  0
LINE
  5
8C
330
1F
100
AcDbEntity
  8
0
  6
Continuous
 62
     8
370
     0
100
AcDbLine
 10
188.292027453
 20
304.3376888433
 30
0.0
 11
188.292027453
 21
282.3376888461
 31
0.0
  0
LINE
  5
8D
330
1F
100
AcDbEntity
  8
0
  6
Continuous
 62
     8
370
     0
100
AcDbLine
 10
487.692025492
 20
282.3376888461
 30
0.0
 11
487.692025492
 21
304.3376888433
 31
0.0
  0
LINE
  5
8E
330
1F
100
AcDbEntity
  8
0
  6
Continuous
 62
     8
370
     0
100
AcDbLine
 10
424.2920251582
 20
304.3376888433
 30
0.0
 11
424.2920251582
 21
282.3376888461
 31
0.0
  0
LINE
  5
8F
330
1F
100
AcDbEntity
  8
0
  6
Continuous
 62
     8
370
     0
100
AcDbLine
 10
187.6920284722
 20
282.3376888461
 30
0.0
 11
187.6920284722
 21
304.3376888433
 31
0.0
  0
LINE
  5
90
330
1F
100
AcDbEntity
  8
0
  6
Continuous
 62
     8
370
     0
100
AcDbLine
 10
124.2920281384
 20
304.3376888433
 30
0.0
 11
124.2920281384
 21
282.3376888461
 31
0.0
  0
LINE
  5
91
330
1F
100
AcDbEntity
  8
0
  6
Continuous
 62
     8
370
     0
100
AcDbLine
 10
481.692043135
 20
278.8376888545
 30
0.0
 11
481.692043135
 21
281.7603385244
 31
0.0
  0
LINE
  5
92
330
1F
100
AcDbEntity
  8
0
  6
Continuous
 62
     8
370
     0
100
AcDbLine
 10
430.2920373176
 20
281.7603385244
 30
0.0
 11
430.2920373176
 21
278.8376888545
 31
0.0
  0
LINE
  5
93
330
1F
100
AcDbEntity
  8
0
  6
Continuous
 62
     8
370
     0
100
AcDbLine
 10
481.692043135
 20
281.7603385244
 30
0.0
 11
481.692043135
 21
282.3376888461
 31
0.0
  0
LINE
  5
94
330
1F
100
AcDbEntity
  8
0
  6
Continuous
 62
     8
370
     0
100
AcDbLine
 10
430.2920373176
 20
282.3376888461
 30
0.0
 11
430.2920373176
 21
281.7603385244
 31
0.0
  0
LINE
  5
95
330
1F
100
AcDbEntity
  8
0
  6
Continuous
 62
     8
370
     0
100
AcDbLine
 10
430.2920373176
 20
278.8376888545
 30
0.0
 11
430.2920373176
 21
275.8376888284
 31
0.0
  0
LINE
  5
96
330
1F
100
AcDbEntity
  8
0
  6
Continuous
 62
     8
370
     0
100
AcDbLine
 10
429.9920173381
 20
275.8376888284
 30
0.0
 11
430.2920373176
 21
275.8376888284
 31
0.0
  0
LINE
  5
97
330
1F
100
AcDbEntity
  8
0
  6
Continuous
 62
     8
370
     0
100
AcDbLine
 10
481.9920333121
 20
275.8376888284
 30
0.0
 11
481.692043135
 21
275.8376888284
 31
0.0
  0
LINE
  5
98
330
1F
100
AcDbEntity
  8
0
  6
Continuous
 62
     8
370
     0
100
AcDbLine
 10
481.692043135
 20
275.8376888284
 30
0.0
 11
481.692043135
 21
278.8376888545
 31
0.0
  0
LINE
  5
99
330
1F
100
AcDbEntity
  8
0
  6
Continuous
 62
     8
370
     0
100
AcDbLine
 10
481.692043135
 20
275.8376888284
 30
0.0
 11
430.2920373176
 21
275.8376888284
 31
0.0
  0
LINE
  5
9A
330
1F
100
AcDbEntity
  8
0
  6
Continuous
 62
     8
370
     0
100
AcDbLine
 10
430.2920373176
 20
275.8376888284
 30
0.0
 11
430.2920373176
 21
260.6376885721
 31
0.0
  0
LINE
  5
9B
330
1F
100
AcDbEntity
  8
0
  6
Continuous
 62
     8
370
     0
100
AcDbLine
 10
429.9920173381
 20
260.6376885721
 30
0.0
 11
430.2920373176
 21
260.6376885721
 31
0.0
  0
LINE
  5
9C
330
1F
100
AcDbEntity
  8
0
  6
Continuous
 62
     8
370
     0
100
AcDbLine
 10
481.9920333121
 20
260.6376885721
 30
0.0
 11
481.692043135
 21
260.6376885721
 31
0.0
  0
LINE
  5
9D
330
1F
100
AcDbEntity
  8
0
  6
Continuous
 62
     8
370
     0
100
AcDbLine
 10
481.692043135
 20
260.6376885721
 30
0.0
 11
481.692043135
 21
275.8376888284
 31
0.0
  0
LINE
  5
9E
330
1F
100
AcDbEntity
  8
0
  6
Continuous
 62
     8
370
     0
100
AcDbLine
 10
481.692043135
 20
260.3376890817
 30
0.0
 11
481.692043135
 21
260.6376885721
 31
0.0
  0
LINE
  5
9F
330
1F
100
AcDbEntity
  8
0
  6
Continuous
 62
     8
370
     0
100
AcDbLine
 10
430.2920373176
 20
260.6376885721
 30
0.0
 11
481.692043135
 21
260.6376885721
 31
0.0
  0
LINE
  5
A0
330
1F
100
AcDbEntity
  8
0
  6
Continuous
 62
     8
370
     0
100
AcDbLine
 10
430.2920373176
 20
260.3376890817
 30
0.0
 11
430.2920373176
 21
260.6376885721
 31
0.0
  0
LINE
  5
A1
330
1F
100
AcDbEntity
  8
0
  6
Continuous
 62
     8
370
     0
100
AcDbLine
 10
130.2920291219
 20
281.7603385244
 30
0.0
 11
130.2920291219
 21
278.8376888545
 31
0.0
  0
LINE
  5
A2
330
1F
100
AcDbEntity
  8
0
  6
Continuous
 62
     8
370
     0
100
AcDbLine
 10
181.6920274888
 20
278.8376888545
 30
0.0
 11
181.6920274888
 21
281.7603385244
 31
0.0
  0
LINE
  5
A3
330
1F
100
AcDbEntity
  8
0
  6
Continuous
 62
     8
370
     0
100
AcDbLine
 10
130.2920291219
 20
282.3376888461
 30
0.0
 11
130.2920291219
 21
281.7603385244
 31
0.0
  0
LINE
  5
A4
330
1F
100
AcDbEntity
  8
0
  6
Continuous
 62
     8
370
     0
100
AcDbLine
 10
181.6920274888
 20
281.7603385244
 30
0.0
 11
181.6920274888
 21
282.3376888461
 31
0.0
  0
LINE
  5
A5
330
1F
100
AcDbEntity
  8
0
  6
Continuous
 62
     8
370
     0
100
AcDbLine
 10
181.9920288418
 20
275.8376888284
 30
0.0
 11
181.6920274888
 21
275.8376888284
 31
0.0
  0
LINE
  5
A6
330
1F
100
AcDbEntity
  8
0
  6
Continuous
 62
     8
370
     0
100
AcDbLine
 10
181.6920274888
 20
275.8376888284
 30
0.0
 11
181.6920274888
 21
278.8376888545
 31
0.0
  0
LINE
  5
A7
330
1F
100
AcDbEntity
  8
0
  6
Continuous
 62
     8
370
     0
100
AcDbLine
 10
130.2920291219
 20
278.8376888545
 30
0.0
 11
130.2920291219
 21
275.8376888284
 31
0.0
  0
LINE
  5
A8
330
1F
100
AcDbEntity
  8
0
  6
Continuous
 62
     8
370
     0
100
AcDbLine
 10
129.9920277689
 20
275.8376888284
 30
0.0
 11
130.2920291219
 21
275.8376888284
 31
0.0
  0
LINE
  5
A9
330
1F
100
AcDbEntity
  8
0
  6
Continuous
 62
     8
370
     0
100
AcDbLine
 10
181.6920274888
 20
275.8376888284
 30
0.0
 11
130.2920291219
 21
275.8376888284
 31
0.0
  0
LINE
  5
AA
330
1F
100
AcDbEntity
  8
0
  6
Continuous
 62
     8
370
     0
100
AcDbLine
 10
181.9920288418
 20
260.6376885721
 30
0.0
 11
181.6920274888
 21
260.6376885721
 31
0.0
  0
LINE
  5
AB
330
1F
100
AcDbEntity
  8
0
  6
Continuous
 62
     8
370
     0
100
AcDbLine
 10
181.6920274888
 20
260.6376885721
 30
0.0
 11
181.6920274888
 21
275.8376888284
 31
0.0
  0
LINE
  5
AC
330
1F
100
AcDbEntity
  8
0
  6
Continuous
 62
     8
370
     0
100
AcDbLine
 10
181.6920274888
 20
260.3376890817
 30
0.0
 11
181.6920274888
 21
260.6376885721
 31
0.0
  0
LINE
  5
AD
330
1F
100
AcDbEntity
  8
0
  6
Continuous
 62
     8
370
     0
100
AcDbLine
 10
130.2920291219
 20
275.8376888284
 30
0.0
 11
130.2920291219
 21
260.6376885721
 31
0.0
  0
LINE
  5
AE
330
1F
100
AcDbEntity
  8
0
  6
Continuous
 62
     8
370
     0
100
AcDbLine
 10
129.9920277689
 20
260.6376885721
 30
0.0
 11
130.2920291219
 21
260.6376885721
 31
0.0
  0
LINE
  5
AF
330
1F
100
AcDbEntity
  8
0
  6
Continuous
 62
     8
370
     0
100
AcDbLine
 10
130.2920291219
 20
260.6376885721
 30
0.0
 11
181.6920274888
 21
260.6376885721
 31
0.0
  0
LINE
  5
B0
330
1F
100
AcDbEntity
  8
0
  6
Continuous
 62
     8
370
     0
100
AcDbLine
 10
130.2920291219
 20
260.3376890817
 30
0.0
 11
130.2920291219
 21
260.6376885721
 31
0.0
  0
DIMENSION
  5
B1
330
1F
100
AcDbEntity
  8
0
  6
Continuous
 62
     7
370
     0
100
AcDbDimension
  2
*D1
 10
497.5041507222
 20
260.3376887986
 30
0.0
 11
497.5041507222
 21
284.3134624692
 31
0.0
 70
   160
 71
     2
 42
-1.0
  3
SLDDIMSTYLE0
100
AcDbAlignedDimension
 13
487.6920283053
 23
304.3376887986
 33
0.0
 14
481.6920283053
 24
260.3376887986
 34
0.0
 50
90.0
100
AcDbRotatedDimension
  0
LINE
  5
BD
330
1F
100
AcDbEntity
  8
0
  6
CENTER
 62
     7
370
     0
100
AcDbLine
 10
455.9920283053
 20
242.9043777763
 30
0.0
 11
455.9920283053
 21
315.3180120055
 31
0.0
  0
LINE
  5
BE
330
1F
100
AcDbEntity
  8
0
  6
Continuous
 62
     7
370
     0
100
AcDbLine
 10
443.9920283053
 20
244.9043777763
 30
0.0
 11
455.9920283053
 21
244.9043777763
 31
0.0
  0
SOLID
  5
BF
330
1F
100
AcDbEntity
  8
0
  6
Continuous
 62
     7
370
     0
100
AcDbTrace
 10
455.9920283053
 20
244.9043777763
 30
0.0
 11
449.9920283053
 21
246.4043777763
 31
0.0
 12
449.9920283053
 22
243.4043777763
 32
0.0
 13
449.9920283053
 23
243.4043777763
 33
0.0
  0
LINE
  5
C0
330
1F
100
AcDbEntity
  8
0
  6
Continuous
 62
     7
370
     0
100
AcDbLine
 10
443.9920283053
 20
313.3180120055
 30
0.0
 11
455.9920283053
 21
313.3180120055
 31
0.0
  0
SOLID
  5
C1
330
1F
100
AcDbEntity
  8
0
  6
Continuous
 62
     7
370
     0
100
AcDbTrace
 10
455.9920283053
 20
313.3180120055
 30
0.0
 11
449.9920283053
 21
314.8180120055
 31
0.0
 12
449.9920283053
 22
311.8180120055
 32
0.0
 13
449.9920283053
 23
311.8180120055
 33
0.0
  0
MTEXT
  5
C2
330
1F
100
AcDbEntity
  8
0
  6
Continuous
 62
     7
100
AcDbMText
 10
437.2676379294
 20
247.2974014578
 30
0.0
 40
5.0
 41
0.0
 71
     1
 72
     1
  1
A
  7
SLDTEXTSTYLE0
 73
     1
 44
1.0
  0
MTEXT
  5
C3
330
1F
100
AcDbEntity
  8
0
  6
Continuous
 62
     7
100
AcDbMText
 10
438.220575488
 20
316.0954361226
 30
0.0
 40
5.0
 41
0.0
 71
     1
 72
     1
  1
A
  7
SLDTEXTSTYLE0
 73
     1
 44
1.0
  0
LINE
  5
C4
330
1F
100
AcDbEntity
  8
0
  6
CENTERX2
 62
     7
370
     0
100
AcDbLine
 10
122.2920283053
 20
293.3376887986
 30
0.0
 11
489.6920283053
 21
293.3376887986
 31
0.0
  0
ARC
  5
C5
330
1F
100
AcDbEntity
  8
0
  6
Continuous
 62
     7
370
    30
100
AcDbCircle
 10
423.6920283053
 20
373.5023178808
 30
0.0
 40
0.3000000000000114
100
AcDbArc
 50
270.0
 51
0.0
  0
ARC
  5
C6
330
1F
100
AcDbEntity
  8
0
  6
Continuous
 62
     7
370
    30
100
AcDbCircle
 10
423.6920283053
 20
394.9023178808
 30
0.0
 40
0.3000000000000114
100
AcDbArc
 50
0.0
 51
90.0
  0
LINE
  5
C7
330
1F
100
AcDbEntity
  8
0
  6
Continuous
 62
     7
370
    30
100
AcDbLine
 10
188.292027453
 20
373.2023165993
 30
0.0
 11
423.6920150016
 21
373.2023165993
 31
0.0
  0
LINE
  5
C8
330
1F
100
AcDbEntity
  8
0
  6
Continuous
 62
     7
370
    30
100
AcDbLine
 10
423.6920150016
 20
395.2023202054
 30
0.0
 11
188.292027453
 21
395.2023202054
 31
0.0
  0
ARC
  5
C9
330
1F
100
AcDbEntity
  8
0
  6
Continuous
 62
     7
370
    30
100
AcDbCircle
 10
188.2920283053
 20
394.9023178808
 30
0.0
 40
0.2999999999999829
100
AcDbArc
 50
90.0
 51
180.0
  0
ARC
  5
CA
330
1F
100
AcDbEntity
  8
0
  6
Continuous
 62
     7
370
    30
100
AcDbCircle
 10
188.2920283053
 20
373.5023178808
 30
0.0
 40
0.3000000000000114
100
AcDbArc
 50
180.0
 51
270.0
  0
LINE
  5
CB
330
1F
100
AcDbEntity
  8
0
  6
Continuous
 62
     7
370
    30
100
AcDbLine
 10
487.692025492
 20
395.2023202054
 30
0.0
 11
424.2920251582
 21
395.2023202054
 31
0.0
  0
ARC
  5
CC
330
1F
100
AcDbEntity
  8
0
  6
Continuous
 62
     7
370
    30
100
AcDbCircle
 10
424.2920283053
 20
394.9023178808
 30
0.0
 40
0.2999999999999545
100
AcDbArc
 50
90.0
 51
180.0
  0
ARC
  5
CD
330
1F
100
AcDbEntity
  8
0
  6
Continuous
 62
     7
370
    30
100
AcDbCircle
 10
487.6920283053
 20
394.9023178808
 30
0.0
 40
0.2999999999999545
100
AcDbArc
 50
0.0
 51
90.0
  0
LINE
  5
CE
330
1F
100
AcDbEntity
  8
0
  6
Continuous
 62
     7
370
    30
100
AcDbLine
 10
187.6920284722
 20
395.2023202054
 30
0.0
 11
124.2920281384
 21
395.2023202054
 31
0.0
  0
ARC
  5
CF
330
1F
100
AcDbEntity
  8
0
  6
Continuous
 62
     7
370
    30
100
AcDbCircle
 10
124.2920283053
 20
394.9023178808
 30
0.0
 40
0.2999999999999972
100
AcDbArc
 50
90.0
 51
180.0
  0
ARC
  5
D0
330
1F
100
AcDbEntity
  8
0
  6
Continuous
 62
     7
370
    30
100
AcDbCircle
 10
187.6920283053
 20
394.9023178808
 30
0.0
 40
0.3000000000000114
100
AcDbArc
 50
0.0
 51
90.0
  0
LINE
  5
D1
330
1F
100
AcDbEntity
  8
0
  6
Continuous
 62
     7
370
    30
100
AcDbLine
 10
423.9920349811
 20
394.9023151271
 30
0.0
 11
423.9920349811
 21
384.2023165397
 31
0.0
  0
LINE
  5
D2
330
1F
100
AcDbEntity
  8
0
  6
Continuous
 62
     7
370
    30
100
AcDbLine
 10
187.9920298253
 20
384.2023165397
 30
0.0
 11
187.9920298253
 21
394.9023151271
 31
0.0
  0
CIRCLE
  5
D3
330
1F
100
AcDbEntity
  8
0
  6
Continuous
 62
     7
370
    30
100
AcDbCircle
 10
455.9920283053
 20
376.2023178808
 30
0.0
 40
3.0
  0
ARC
  5
D4
330
1F
100
AcDbEntity
  8
0
  6
Continuous
 62
     7
370
    30
100
AcDbCircle
 10
481.9920283053
 20
351.7023178808
 30
0.0
 40
6.0
100
AcDbArc
 50
270.0
 51
0.0
  0
ARC
  5
D5
330
1F
100
AcDbEntity
  8
0
  6
Continuous
 62
     7
370
    30
100
AcDbCircle
 10
429.9920283053
 20
351.7023178808
 30
0.0
 40
6.0
100
AcDbArc
 50
180.0
 51
270.0
  0
LINE
  5
D6
330
1F
100
AcDbEntity
  8
0
  6
Continuous
 62
     7
370
    30
100
AcDbLine
 10
423.9920349811
 20
351.7023177318
 30
0.0
 11
423.9920349811
 21
384.2023165397
 31
0.0
  0
LINE
  5
D7
330
1F
100
AcDbEntity
  8
0
  6
Continuous
 62
     7
370
    30
100
AcDbLine
 10
487.9920156692
 20
384.2023165397
 30
0.0
 11
487.9920156692
 21
351.7023177318
 31
0.0
  0
LINE
  5
D8
330
1F
100
AcDbEntity
  8
0
  6
Continuous
 62
     7
370
    30
100
AcDbLine
 10
487.9920156692
 20
394.9023151271
 30
0.0
 11
487.9920156692
 21
384.2023165397
 31
0.0
  0
LINE
  5
D9
330
1F
100
AcDbEntity
  8
0
  6
Continuous
 62
     7
370
    30
100
AcDbLine
 10
140.4920285587
 20
323.5023179058
 30
0.0
 11
133.4920274113
 21
323.5023179058
 31
0.0
  0
LINE
  5
DA
330
1F
100
AcDbEntity
  8
0
  6
Continuous
 62
     7
370
    30
100
AcDbLine
 10
133.4920274113
 20
323.5023179058
 30
0.0
 11
133.4920274113
 21
324.2023178808
 31
0.0
  0
LINE
  5
DB
330
1F
100
AcDbEntity
  8
0
  6
Continuous
 62
     7
370
    30
100
AcDbLine
 10
140.4920285587
 20
323.5023179058
 30
0.0
 11
171.492028052
 21
323.5023179058
 31
0.0
  0
LINE
  5
DC
330
1F
100
AcDbEntity
  8
0
  6
Continuous
 62
     7
370
    30
100
AcDbLine
 10
178.4920291994
 20
324.2023178808
 30
0.0
 11
178.4920291994
 21
323.5023179058
 31
0.0
  0
LINE
  5
DD
330
1F
100
AcDbEntity
  8
0
  6
Continuous
 62
     7
370
    30
100
AcDbLine
 10
178.4920291994
 20
323.5023179058
 30
0.0
 11
171.492028052
 21
323.5023179058
 31
0.0
  0
LINE
  5
DE
330
1F
100
AcDbEntity
  8
0
  6
Continuous
 62
     7
370
    30
100
AcDbLine
 10
440.4920311664
 20
323.5023179058
 30
0.0
 11
471.4920194838
 21
323.5023179058
 31
0.0
  0
LINE
  5
DF
330
1F
100
AcDbEntity
  8
0
  6
Continuous
 62
     7
370
    30
100
AcDbLine
 10
440.4920311664
 20
323.5023179058
 30
0.0
 11
433.4920318816
 21
323.5023179058
 31
0.0
  0
LINE
  5
E0
330
1F
100
AcDbEntity
  8
0
  6
Continuous
 62
     7
370
    30
100
AcDbLine
 10
433.4920318816
 20
323.5023179058
 30
0.0
 11
433.4920318816
 21
324.2023178808
 31
0.0
  0
LINE
  5
E1
330
1F
100
AcDbEntity
  8
0
  6
Continuous
 62
     7
370
    30
100
AcDbLine
 10
478.4920187686
 20
324.2023178808
 30
0.0
 11
478.4920187686
 21
323.5023179058
 31
0.0
  0
LINE
  5
E2
330
1F
100
AcDbEntity
  8
0
  6
Continuous
 62
     7
370
    30
100
AcDbLine
 10
478.4920187686
 20
323.5023179058
 30
0.0
 11
471.4920194838
 21
323.5023179058
 31
0.0
  0
CIRCLE
  5
E3
330
1F
100
AcDbEntity
  8
0
  6
Continuous
 62
     7
370
    30
100
AcDbCircle
 10
455.9920283053
 20
376.2023178808
 30
0.0
 40
2.055000000000007
  0
CIRCLE
  5
E4
330
1F
100
AcDbEntity
  8
0
  6
Continuous
 62
     7
370
    30
100
AcDbCircle
 10
455.9920283053
 20
376.2023178808
 30
0.0
 40
2.5
  0
LINE
  5
E5
330
1F
100
AcDbEntity
  8
0
  6
Continuous
 62
     7
370
    30
100
AcDbLine
 10
454.7420414184
 20
375.48062964
 30
0.0
 11
455.9920402263
 21
374.7589440517
 31
0.0
  0
LINE
  5
E6
330
1F
100
AcDbEntity
  8
0
  6
Continuous
 62
     7
370
    30
100
AcDbLine
 10
457.2420390342
 20
375.48062964
 30
0.0
 11
455.9920402263
 21
374.7589440517
 31
0.0
  0
LINE
  5
E7
330
1F
100
AcDbEntity
  8
0
  6
Continuous
 62
     7
370
    30
100
AcDbLine
 10
457.2420390342
 20
376.924004542
 30
0.0
 11
457.2420390342
 21
375.48062964
 31
0.0
  0
LINE
  5
E8
330
1F
100
AcDbEntity
  8
0
  6
Continuous
 62
     7
370
    30
100
AcDbLine
 10
457.2420390342
 20
376.924004542
 30
0.0
 11
455.9920402263
 21
377.6456938557
 31
0.0
  0
LINE
  5
E9
330
1F
100
AcDbEntity
  8
0
  6
Continuous
 62
     7
370
    30
100
AcDbLine
 10
454.7420414184
 20
376.924004542
 30
0.0
 11
455.9920402263
 21
377.6456938557
 31
0.0
  0
LINE
  5
EA
330
1F
100
AcDbEntity
  8
0
  6
Continuous
 62
     7
370
    30
100
AcDbLine
 10
454.7420414184
 20
376.924004542
 30
0.0
 11
454.7420414184
 21
375.48062964
 31
0.0
  0
CIRCLE
  5
EB
330
1F
100
AcDbEntity
  8
0
  6
Continuous
 62
     7
370
    30
100
AcDbCircle
 10
155.9920283053
 20
376.2023178808
 30
0.0
 40
2.055000000000007
  0
CIRCLE
  5
EC
330
1F
100
AcDbEntity
  8
0
  6
Continuous
 62
     7
370
    30
100
AcDbCircle
 10
155.9920283053
 20
376.2023178808
 30
0.0
 40
2.5
  0
LINE
  5
ED
330
1F
100
AcDbEntity
  8
0
  6
Continuous
 62
     7
370
    30
100
AcDbLine
 10
155.2703404469
 20
377.4523177616
 30
0.0
 11
154.5486525884
 21
376.2023189537
 31
0.0
  0
LINE
  5
EE
330
1F
100
AcDbEntity
  8
0
  6
Continuous
 62
     7
370
    30
100
AcDbLine
 10
155.2703404469
 20
374.9523164205
 30
0.0
 11
154.5486525884
 21
376.2023189537
 31
0.0
  0
LINE
  5
EF
330
1F
100
AcDbEntity
  8
0
  6
Continuous
 62
     7
370
    30
100
AcDbLine
 10
156.7137161638
 20
374.9523164205
 30
0.0
 11
155.2703404469
 21
374.9523164205
 31
0.0
  0
LINE
  5
F0
330
1F
100
AcDbEntity
  8
0
  6
Continuous
 62
     7
370
    30
100
AcDbLine
 10
156.7137161638
 20
374.9523164205
 30
0.0
 11
157.4354040223
 21
376.2023189537
 31
0.0
  0
LINE
  5
F1
330
1F
100
AcDbEntity
  8
0
  6
Continuous
 62
     7
370
    30
100
AcDbLine
 10
156.7137161638
 20
377.4523177616
 30
0.0
 11
157.4354040223
 21
376.2023189537
 31
0.0
  0
LINE
  5
F2
330
1F
100
AcDbEntity
  8
0
  6
Continuous
 62
     7
370
    30
100
AcDbLine
 10
156.7137161638
 20
377.4523177616
 30
0.0
 11
155.2703404469
 21
377.4523177616
 31
0.0
  0
CIRCLE
  5
F3
330
1F
100
AcDbEntity
  8
0
  6
Continuous
 62
     7
370
    30
100
AcDbCircle
 10
155.9920283053
 20
331.2023178808
 30
0.0
 40
2.445499999999981
  0
CIRCLE
  5
F4
330
1F
100
AcDbEntity
  8
0
  6
Continuous
 62
     7
370
    30
100
AcDbCircle
 10
155.9920283053
 20
331.2023178808
 30
0.0
 40
3.0
  0
LINE
  5
F5
330
1F
100
AcDbEntity
  8
0
  6
Continuous
 62
     7
370
    30
100
AcDbLine
 10
155.1260029101
 20
332.7023183427
 30
0.0
 11
154.2599775149
 21
331.2023180969
 31
0.0
  0
LINE
  5
F6
330
1F
100
AcDbEntity
  8
0
  6
Continuous
 62
     7
370
    30
100
AcDbLine
 10
155.1260029101
 20
329.702317851
 30
0.0
 11
154.2599775149
 21
331.2023180969
 31
0.0
  0
LINE
  5
F7
330
1F
100
AcDbEntity
  8
0
  6
Continuous
 62
     7
370
    30
100
AcDbLine
 10
156.8580537006
 20
329.702317851
 30
0.0
 11
155.1260029101
 21
329.702317851
 31
0.0
  0
LINE
  5
F8
330
1F
100
AcDbEntity
  8
0
  6
Continuous
 62
     7
370
    30
100
AcDbLine
 10
156.8580537006
 20
329.702317851
 30
0.0
 11
157.7240790958
 21
331.2023180969
 31
0.0
  0
LINE
  5
F9
330
1F
100
AcDbEntity
  8
0
  6
Continuous
 62
     7
370
    30
100
AcDbLine
 10
156.8580537006
 20
332.7023183427
 30
0.0
 11
157.7240790958
 21
331.2023180969
 31
0.0
  0
LINE
  5
FA
330
1F
100
AcDbEntity
  8
0
  6
Continuous
 62
     7
370
    30
100
AcDbLine
 10
156.8580537006
 20
332.7023183427
 30
0.0
 11
155.1260029101
 21
332.7023183427
 31
0.0
  0
CIRCLE
  5
FB
330
1F
100
AcDbEntity
  8
0
  6
Continuous
 62
     7
370
    30
100
AcDbCircle
 10
455.9920283053
 20
331.2023178808
 30
0.0
 40
2.445499999999981
  0
CIRCLE
  5
FC
330
1F
100
AcDbEntity
  8
0
  6
Continuous
 62
     7
370
    30
100
AcDbCircle
 10
455.9920283053
 20
331.2023178808
 30
0.0
 40
3.0
  0
LINE
  5
FD
330
1F
100
AcDbEntity
  8
0
  6
Continuous
 62
     7
370
    30
100
AcDbLine
 10
456.8580659125
 20
329.702317851
 30
0.0
 11
457.7240915988
 21
331.2023180969
 31
0.0
  0
LINE
  5
FE
330
1F
100
AcDbEntity
  8
0
  6
Continuous
 62
     7
370
    30
100
AcDbLine
 10
456.8580659125
 20
332.7023183427
 30
0.0
 11
457.7240915988
 21
331.2023180969
 31
0.0
  0
LINE
  5
FF
330
1F
100
AcDbEntity
  8
0
  6
Continuous
 62
     7
370
    30
100
AcDbLine
 10
455.12601454
 20
332.7023183427
 30
0.0
 11
456.8580659125
 21
332.7023183427
 31
0.0
  0
LINE
  5
100
330
1F
100
AcDbEntity
  8
0
  6
Continuous
 62
     7
370
    30
100
AcDbLine
 10
455.12601454
 20
332.7023183427
 30
0.0
 11
454.2599888537
 21
331.2023180969
 31
0.0
  0
LINE
  5
101
330
1F
100
AcDbEntity
  8
0
  6
Continuous
 62
     7
370
    30
100
AcDbLine
 10
455.12601454
 20
329.702317851
 30
0.0
 11
454.2599888537
 21
331.2023180969
 31
0.0
  0
LINE
  5
102
330
1F
100
AcDbEntity
  8
0
  6
Continuous
 62
     7
370
    30
100
AcDbLine
 10
455.12601454
 20
329.702317851
 30
0.0
 11
456.8580659125
 21
329.702317851
 31
0.0
  0
CIRCLE
  5
103
330
1F
100
AcDbEntity
  8
0
  6
Continuous
 62
     7
370
    30
100
AcDbCircle
 10
155.9920283053
 20
376.2023178808
 30
0.0
 40
3.0
  0
ARC
  5
104
330
1F
100
AcDbEntity
  8
0
  6
Continuous
 62
     7
370
    30
100
AcDbCircle
 10
181.9920283053
 20
351.7023178808
 30
0.0
 40
6.0
100
AcDbArc
 50
270.0
 51
0.0
  0
ARC
  5
105
330
1F
100
AcDbEntity
  8
0
  6
Continuous
 62
     7
370
    30
100
AcDbCircle
 10
129.9920283053
 20
351.7023178808
 30
0.0
 40
6.0
100
AcDbArc
 50
180.0
 51
270.0
  0
LINE
  5
106
330
1F
100
AcDbEntity
  8
0
  6
Continuous
 62
     7
370
    30
100
AcDbLine
 10
123.9920267854
 20
351.7023177318
 30
0.0
 11
123.9920267854
 21
384.2023165397
 31
0.0
  0
LINE
  5
107
330
1F
100
AcDbEntity
  8
0
  6
Continuous
 62
     7
370
    30
100
AcDbLine
 10
187.9920298253
 20
384.2023165397
 30
0.0
 11
187.9920298253
 21
351.7023177318
 31
0.0
  0
LINE
  5
108
330
1F
100
AcDbEntity
  8
0
  6
Continuous
 62
     7
370
    30
100
AcDbLine
 10
123.9920267854
 20
384.2023165397
 30
0.0
 11
123.9920267854
 21
394.9023151271
 31
0.0
  0
LINE
  5
109
330
1F
100
AcDbEntity
  8
0
  6
Continuous
 62
     7
370
    30
100
AcDbLine
 10
187.9920298253
 20
394.9023151271
 30
0.0
 11
187.9920298253
 21
384.2023165397
 31
0.0
  0
ARC
  5
10A
330
1F
100
AcDbEntity
  8
0
  6
Continuous
 62
     7
370
    30
100
AcDbCircle
 10
481.6920283053
 20
324.5023178808
 30
0.0
 40
0.3000000000000114
100
AcDbArc
 50
270.0
 51
0.0
  0
ARC
  5
10B
330
1F
100
AcDbEntity
  8
0
  6
Continuous
 62
     7
370
    30
100
AcDbCircle
 10
430.2920283053
 20
324.5023178808
 30
0.0
 40
0.3000000000000682
100
AcDbArc
 50
180.0
 51
270.0
  0
LINE
  5
10C
330
1F
100
AcDbEntity
  8
0
  6
Continuous
 62
     7
370
    30
100
AcDbLine
 10
481.9920333121
 20
343.9023179434
 30
0.0
 11
481.9920333121
 21
324.502317895
 31
0.0
  0
LINE
  5
10D
330
1F
100
AcDbEntity
  8
0
  6
Continuous
 62
     7
370
    30
100
AcDbLine
 10
481.692043135
 20
324.2023178808
 30
0.0
 11
430.2920373176
 21
324.2023178808
 31
0.0
  0
LINE
  5
10E
330
1F
100
AcDbEntity
  8
0
  6
Continuous
 62
     7
370
    30
100
AcDbLine
 10
429.9920173381
 20
324.502317895
 30
0.0
 11
429.9920173381
 21
343.9023179434
 31
0.0
  0
CIRCLE
  5
10F
330
1F
100
AcDbEntity
  8
0
  6
Continuous
 62
     7
370
    30
100
AcDbCircle
 10
455.9920283053
 20
331.2023178808
 30
0.0
 40
3.5
  0
ARC
  5
110
330
1F
100
AcDbEntity
  8
0
  6
Continuous
 62
     7
370
    30
100
AcDbCircle
 10
430.2920283053
 20
343.9023178808
 30
0.0
 40
0.3000000000000682
100
AcDbArc
 50
90.0
 51
180.0
  0
ARC
  5
111
330
1F
100
AcDbEntity
  8
0
  6
Continuous
 62
     7
370
    30
100
AcDbCircle
 10
481.6920283053
 20
343.9023178808
 30
0.0
 40
0.3000000000000114
100
AcDbArc
 50
0.0
 51
90.0
  0
LINE
  5
112
330
1F
100
AcDbEntity
  8
0
  6
Continuous
 62
     7
370
    30
100
AcDbLine
 10
430.2920373176
 20
344.2023174338
 30
0.0
 11
481.692043135
 21
344.2023174338
 31
0.0
  0
LINE
  5
113
330
1F
100
AcDbEntity
  8
0
  6
Continuous
 62
     7
370
    30
100
AcDbLine
 10
481.9920333121
 20
347.2023179255
 30
0.0
 11
481.9920333121
 21
343.9023179434
 31
0.0
  0
LINE
  5
114
330
1F
100
AcDbEntity
  8
0
  6
Continuous
 62
     7
370
    30
100
AcDbLine
 10
429.9920173381
 20
343.9023179434
 30
0.0
 11
429.9920173381
 21
347.2023179255
 31
0.0
  0
ARC
  5
115
330
1F
100
AcDbEntity
  8
0
  6
Continuous
 62
     7
370
    30
100
AcDbCircle
 10
481.6920283053
 20
347.9023178808
 30
0.0
 40
0.3000000000000114
100
AcDbArc
 50
0.0
 51
90.0
  0
LINE
  5
116
330
1F
100
AcDbEntity
  8
0
  6
Continuous
 62
     7
370
    30
100
AcDbLine
 10
481.9920333121
 20
347.902318599
 30
0.0
 11
481.9920333121
 21
347.2023179255
 31
0.0
  0
LINE
  5
117
330
1F
100
AcDbEntity
  8
0
  6
Continuous
 62
     7
370
    30
100
AcDbLine
 10
430.2920373176
 20
348.2023180894
 30
0.0
 11
481.692043135
 21
348.2023180894
 31
0.0
  0
ARC
  5
118
330
1F
100
AcDbEntity
  8
0
  6
Continuous
 62
     7
370
    30
100
AcDbCircle
 10
430.2920283053
 20
347.9023178808
 30
0.0
 40
0.3000000000000682
100
AcDbArc
 50
90.0
 51
180.0
  0
LINE
  5
119
330
1F
100
AcDbEntity
  8
0
  6
Continuous
 62
     7
370
    30
100
AcDbLine
 10
429.9920173381
 20
347.2023179255
 30
0.0
 11
429.9920173381
 21
347.902318599
 31
0.0
  0
CIRCLE
  5
11A
330
1F
100
AcDbEntity
  8
0
  6
Continuous
 62
     7
370
    30
100
AcDbCircle
 10
155.9920283053
 20
331.2023178808
 30
0.0
 40
3.5
  0
ARC
  5
11B
330
1F
100
AcDbEntity
  8
0
  6
Continuous
 62
     7
370
    30
100
AcDbCircle
 10
181.6920283053
 20
324.5023178808
 30
0.0
 40
0.3000000000000114
100
AcDbArc
 50
270.0
 51
0.0
  0
ARC
  5
11C
330
1F
100
AcDbEntity
  8
0
  6
Continuous
 62
     7
370
    30
100
AcDbCircle
 10
130.2920283053
 20
324.5023178808
 30
0.0
 40
0.3000000000000114
100
AcDbArc
 50
180.0
 51
270.0
  0
LINE
  5
11D
330
1F
100
AcDbEntity
  8
0
  6
Continuous
 62
     7
370
    30
100
AcDbLine
 10
129.9920277689
 20
324.502317895
 30
0.0
 11
129.9920277689
 21
343.9023179434
 31
0.0
  0
LINE
  5
11E
330
1F
100
AcDbEntity
  8
0
  6
Continuous
 62
     7
370
    30
100
AcDbLine
 10
181.9920288418
 20
343.9023179434
 30
0.0
 11
181.9920288418
 21
324.502317895
 31
0.0
  0
LINE
  5
11F
330
1F
100
AcDbEntity
  8
0
  6
Continuous
 62
     7
370
    30
100
AcDbLine
 10
181.6920274888
 20
324.2023178808
 30
0.0
 11
130.2920291219
 21
324.2023178808
 31
0.0
  0
ARC
  5
120
330
1F
100
AcDbEntity
  8
0
  6
Continuous
 62
     7
370
    30
100
AcDbCircle
 10
181.6920283053
 20
343.9023178808
 30
0.0
 40
0.3000000000000114
100
AcDbArc
 50
0.0
 51
90.0
  0
LINE
  5
121
330
1F
100
AcDbEntity
  8
0
  6
Continuous
 62
     7
370
    30
100
AcDbLine
 10
130.2920291219
 20
344.2023174338
 30
0.0
 11
181.6920274888
 21
344.2023174338
 31
0.0
  0
ARC
  5
122
330
1F
100
AcDbEntity
  8
0
  6
Continuous
 62
     7
370
    30
100
AcDbCircle
 10
130.2920283053
 20
343.9023178808
 30
0.0
 40
0.3000000000000114
100
AcDbArc
 50
90.0
 51
180.0
  0
LINE
  5
123
330
1F
100
AcDbEntity
  8
0
  6
Continuous
 62
     7
370
    30
100
AcDbLine
 10
181.9920288418
 20
347.2023179255
 30
0.0
 11
181.9920288418
 21
343.9023179434
 31
0.0
  0
LINE
  5
124
330
1F
100
AcDbEntity
  8
0
  6
Continuous
 62
     7
370
    30
100
AcDbLine
 10
129.9920277689
 20
343.9023179434
 30
0.0
 11
129.9920277689
 21
347.2023179255
 31
0.0
  0
LINE
  5
125
330
1F
100
AcDbEntity
  8
0
  6
Continuous
 62
     7
370
    30
100
AcDbLine
 10
130.2920291219
 20
348.2023180894
 30
0.0
 11
181.6920274888
 21
348.2023180894
 31
0.0
  0
ARC
  5
126
330
1F
100
AcDbEntity
  8
0
  6
Continuous
 62
     7
370
    30
100
AcDbCircle
 10
181.6920283053
 20
347.9023178808
 30
0.0
 40
0.3000000000000114
100
AcDbArc
 50
0.0
 51
90.0
  0
LINE
  5
127
330
1F
100
AcDbEntity
  8
0
  6
Continuous
 62
     7
370
    30
100
AcDbLine
 10
181.9920288418
 20
347.902318599
 30
0.0
 11
181.9920288418
 21
347.2023179255
 31
0.0
  0
ARC
  5
128
330
1F
100
AcDbEntity
  8
0
  6
Continuous
 62
     7
370
    30
100
AcDbCircle
 10
130.2920283053
 20
347.9023178808
 30
0.0
 40
0.3000000000000114
100
AcDbArc
 50
90.0
 51
180.0
  0
LINE
  5
129
330
1F
100
AcDbEntity
  8
0
  6
Continuous
 62
     7
370
    30
100
AcDbLine
 10
129.9920277689
 20
347.2023179255
 30
0.0
 11
129.9920277689
 21
347.902318599
 31
0.0
  0
LINE
  5
12A
330
1F
100
AcDbEntity
  8
0
  6
Continuous
 62
     8
370
     0
100
AcDbLine
 10
423.6920150016
 20
373.2023165993
 30
0.0
 11
423.6920150016
 21
395.2023202054
 31
0.0
  0
LINE
  5
12B
330
1F
100
AcDbEntity
  8
0
  6
Continuous
 62
     8
370
     0
100
AcDbLine
 10
188.292027453
 20
395.2023202054
 30
0.0
 11
188.292027453
 21
373.2023165993
 31
0.0
  0
LINE
  5
12C
330
1F
100
AcDbEntity
  8
0
  6
Continuous
 62
     8
370
     0
100
AcDbLine
 10
487.692025492
 20
351.7023177318
 30
0.0
 11
487.692025492
 21
384.2023165397
 31
0.0
  0
ARC
  5
12D
330
1F
100
AcDbEntity
  8
0
  6
Continuous
 62
     8
370
     0
100
AcDbCircle
 10
481.9920283053
 20
351.7023178808
 30
0.0
 40
5.699999999999989
100
AcDbArc
 50
270.0
 51
0.0
  0
ARC
  5
12E
330
1F
100
AcDbEntity
  8
0
  6
Continuous
 62
     8
370
     0
100
AcDbCircle
 10
429.9920283053
 20
351.7023178808
 30
0.0
 40
5.699999999999989
100
AcDbArc
 50
180.0
 51
270.0
  0
LINE
  5
12F
330
1F
100
AcDbEntity
  8
0
  6
Continuous
 62
     8
370
     0
100
AcDbLine
 10
424.2920251582
 20
384.2023165397
 30
0.0
 11
424.2920251582
 21
351.7023177318
 31
0.0
  0
LINE
  5
130
330
1F
100
AcDbEntity
  8
0
  6
Continuous
 62
     8
370
     0
100
AcDbLine
 10
487.692025492
 20
384.2023165397
 30
0.0
 11
424.2920251582
 21
384.2023165397
 31
0.0
  0
LINE
  5
131
330
1F
100
AcDbEntity
  8
0
  6
Continuous
 62
     8
370
     0
100
AcDbLine
 10
487.692025492
 20
351.7023177318
 30
0.0
 11
487.9920156692
 21
351.7023177318
 31
0.0
  0
LINE
  5
132
330
1F
100
AcDbEntity
  8
0
  6
Continuous
 62
     8
370
     0
100
AcDbLine
 10
423.9920349811
 20
351.7023177318
 30
0.0
 11
424.2920251582
 21
351.7023177318
 31
0.0
  0
LINE
  5
133
330
1F
100
AcDbEntity
  8
0
  6
Continuous
 62
     8
370
     0
100
AcDbLine
 10
423.9920349811
 20
384.2023165397
 30
0.0
 11
424.2920251582
 21
384.2023165397
 31
0.0
  0
LINE
  5
134
330
1F
100
AcDbEntity
  8
0
  6
Continuous
 62
     8
370
     0
100
AcDbLine
 10
487.692025492
 20
384.2023165397
 30
0.0
 11
487.9920156692
 21
384.2023165397
 31
0.0
  0
LINE
  5
135
330
1F
100
AcDbEntity
  8
0
  6
Continuous
 62
     8
370
     0
100
AcDbLine
 10
487.692025492
 20
384.2023165397
 30
0.0
 11
487.692025492
 21
395.2023202054
 31
0.0
  0
LINE
  5
136
330
1F
100
AcDbEntity
  8
0
  6
Continuous
 62
     8
370
     0
100
AcDbLine
 10
424.2920251582
 20
395.2023202054
 30
0.0
 11
424.2920251582
 21
384.2023165397
 31
0.0
  0
LINE
  5
137
330
1F
100
AcDbEntity
  8
0
  6
Continuous
 62
     8
370
     0
100
AcDbLine
 10
140.4920285587
 20
324.2023178808
 30
0.0
 11
140.4920285587
 21
323.5023179058
 31
0.0
  0
LINE
  5
138
330
1F
100
AcDbEntity
  8
0
  6
Continuous
 62
     8
370
     0
100
AcDbLine
 10
171.492028052
 20
323.5023179058
 30
0.0
 11
171.492028052
 21
324.2023178808
 31
0.0
  0
LINE
  5
139
330
1F
100
AcDbEntity
  8
0
  6
Continuous
 62
     8
370
     0
100
AcDbLine
 10
471.4920194838
 20
323.5023179058
 30
0.0
 11
471.4920194838
 21
324.2023178808
 31
0.0
  0
LINE
  5
13A
330
1F
100
AcDbEntity
  8
0
  6
Continuous
 62
     8
370
     0
100
AcDbLine
 10
440.4920311664
 20
324.2023178808
 30
0.0
 11
440.4920311664
 21
323.5023179058
 31
0.0
  0
LINE
  5
13B
330
1F
100
AcDbEntity
  8
0
  6
Continuous
 62
     8
370
     0
100
AcDbLine
 10
187.6920284722
 20
351.7023177318
 30
0.0
 11
187.6920284722
 21
384.2023165397
 31
0.0
  0
ARC
  5
13C
330
1F
100
AcDbEntity
  8
0
  6
Continuous
 62
     8
370
     0
100
AcDbCircle
 10
181.9920283053
 20
351.7023178808
 30
0.0
 40
5.699999999999989
100
AcDbArc
 50
270.0
 51
0.0
  0
ARC
  5
13D
330
1F
100
AcDbEntity
  8
0
  6
Continuous
 62
     8
370
     0
100
AcDbCircle
 10
129.9920283053
 20
351.7023178808
 30
0.0
 40
5.700000000000003
100
AcDbArc
 50
180.0
 51
270.0
  0
LINE
  5
13E
330
1F
100
AcDbEntity
  8
0
  6
Continuous
 62
     8
370
     0
100
AcDbLine
 10
124.2920281384
 20
384.2023165397
 30
0.0
 11
124.2920281384
 21
351.7023177318
 31
0.0
  0
LINE
  5
13F
330
1F
100
AcDbEntity
  8
0
  6
Continuous
 62
     8
370
     0
100
AcDbLine
 10
187.6920284722
 20
384.2023165397
 30
0.0
 11
124.2920281384
 21
384.2023165397
 31
0.0
  0
LINE
  5
140
330
1F
100
AcDbEntity
  8
0
  6
Continuous
 62
     8
370
     0
100
AcDbLine
 10
187.6920284722
 20
351.7023177318
 30
0.0
 11
187.9920298253
 21
351.7023177318
 31
0.0
  0
LINE
  5
141
330
1F
100
AcDbEntity
  8
0
  6
Continuous
 62
     8
370
     0
100
AcDbLine
 10
123.9920267854
 20
351.7023177318
 30
0.0
 11
124.2920281384
 21
351.7023177318
 31
0.0
  0
LINE
  5
142
330
1F
100
AcDbEntity
  8
0
  6
Continuous
 62
     8
370
     0
100
AcDbLine
 10
123.9920267854
 20
384.2023165397
 30
0.0
 11
124.2920281384
 21
384.2023165397
 31
0.0
  0
LINE
  5
143
330
1F
100
AcDbEntity
  8
0
  6
Continuous
 62
     8
370
     0
100
AcDbLine
 10
187.6920284722
 20
384.2023165397
 30
0.0
 11
187.9920298253
 21
384.2023165397
 31
0.0
  0
LINE
  5
144
330
1F
100
AcDbEntity
  8
0
  6
Continuous
 62
     8
370
     0
100
AcDbLine
 10
187.6920284722
 20
384.2023165397
 30
0.0
 11
187.6920284722
 21
395.2023202054
 31
0.0
  0
LINE
  5
145
330
1F
100
AcDbEntity
  8
0
  6
Continuous
 62
     8
370
     0
100
AcDbLine
 10
124.2920281384
 20
395.2023202054
 30
0.0
 11
124.2920281384
 21
384.2023165397
 31
0.0
  0
LINE
  5
146
330
1F
100
AcDbEntity
  8
0
  6
Continuous
 62
     8
370
     0
100
AcDbLine
 10
481.692043135
 20
324.502317895
 30
0.0
 11
481.9920333121
 21
324.502317895
 31
0.0
  0
LINE
  5
147
330
1F
100
AcDbEntity
  8
0
  6
Continuous
 62
     8
370
     0
100
AcDbLine
 10
481.692043135
 20
324.2023178808
 30
0.0
 11
481.692043135
 21
324.502317895
 31
0.0
  0
LINE
  5
148
330
1F
100
AcDbEntity
  8
0
  6
Continuous
 62
     8
370
     0
100
AcDbLine
 10
429.9920173381
 20
324.502317895
 30
0.0
 11
430.2920373176
 21
324.502317895
 31
0.0
  0
LINE
  5
149
330
1F
100
AcDbEntity
  8
0
  6
Continuous
 62
     8
370
     0
100
AcDbLine
 10
430.2920373176
 20
324.2023178808
 30
0.0
 11
430.2920373176
 21
324.502317895
 31
0.0
  0
LINE
  5
14A
330
1F
100
AcDbEntity
  8
0
  6
Continuous
 62
     8
370
     0
100
AcDbLine
 10
481.692043135
 20
324.502317895
 30
0.0
 11
481.692043135
 21
343.9023179434
 31
0.0
  0
LINE
  5
14B
330
1F
100
AcDbEntity
  8
0
  6
Continuous
 62
     8
370
     0
100
AcDbLine
 10
481.692043135
 20
343.9023179434
 30
0.0
 11
481.9920333121
 21
343.9023179434
 31
0.0
  0
LINE
  5
14C
330
1F
100
AcDbEntity
  8
0
  6
Continuous
 62
     8
370
     0
100
AcDbLine
 10
430.2920373176
 20
324.502317895
 30
0.0
 11
481.692043135
 21
324.502317895
 31
0.0
  0
LINE
  5
14D
330
1F
100
AcDbEntity
  8
0
  6
Continuous
 62
     8
370
     0
100
AcDbLine
 10
429.9920173381
 20
343.9023179434
 30
0.0
 11
430.2920373176
 21
343.9023179434
 31
0.0
  0
LINE
  5
14E
330
1F
100
AcDbEntity
  8
0
  6
Continuous
 62
     8
370
     0
100
AcDbLine
 10
430.2920373176
 20
343.9023179434
 30
0.0
 11
430.2920373176
 21
324.502317895
 31
0.0
  0
LINE
  5
14F
330
1F
100
AcDbEntity
  8
0
  6
Continuous
 62
     8
370
     0
100
AcDbLine
 10
481.692043135
 20
343.9023179434
 30
0.0
 11
430.2920373176
 21
343.9023179434
 31
0.0
  0
LINE
  5
150
330
1F
100
AcDbEntity
  8
0
  6
Continuous
 62
     8
370
     0
100
AcDbLine
 10
430.2920373176
 20
343.9023179434
 30
0.0
 11
430.2920373176
 21
344.2023174338
 31
0.0
  0
LINE
  5
151
330
1F
100
AcDbEntity
  8
0
  6
Continuous
 62
     8
370
     0
100
AcDbLine
 10
481.692043135
 20
343.9023179434
 30
0.0
 11
481.692043135
 21
344.2023174338
 31
0.0
  0
LINE
  5
152
330
1F
100
AcDbEntity
  8
0
  6
Continuous
 62
     8
370
     0
100
AcDbLine
 10
481.692043135
 20
344.2023174338
 30
0.0
 11
481.692043135
 21
347.2023179255
 31
0.0
  0
LINE
  5
153
330
1F
100
AcDbEntity
  8
0
  6
Continuous
 62
     8
370
     0
100
AcDbLine
 10
481.9920333121
 20
347.2023179255
 30
0.0
 11
481.692043135
 21
347.2023179255
 31
0.0
  0
LINE
  5
154
330
1F
100
AcDbEntity
  8
0
  6
Continuous
 62
     8
370
     0
100
AcDbLine
 10
429.9920173381
 20
347.2023179255
 30
0.0
 11
430.2920373176
 21
347.2023179255
 31
0.0
  0
LINE
  5
155
330
1F
100
AcDbEntity
  8
0
  6
Continuous
 62
     8
370
     0
100
AcDbLine
 10
430.2920373176
 20
347.2023179255
 30
0.0
 11
430.2920373176
 21
344.2023174338
 31
0.0
  0
LINE
  5
156
330
1F
100
AcDbEntity
  8
0
  6
Continuous
 62
     8
370
     0
100
AcDbLine
 10
430.2920373176
 20
347.2023179255
 30
0.0
 11
481.692043135
 21
347.2023179255
 31
0.0
  0
LINE
  5
157
330
1F
100
AcDbEntity
  8
0
  6
Continuous
 62
     8
370
     0
100
AcDbLine
 10
481.692043135
 20
347.2023179255
 30
0.0
 11
481.692043135
 21
348.2023180894
 31
0.0
  0
LINE
  5
158
330
1F
100
AcDbEntity
  8
0
  6
Continuous
 62
     8
370
     0
100
AcDbLine
 10
430.2920373176
 20
348.2023180894
 30
0.0
 11
430.2920373176
 21
347.2023179255
 31
0.0
  0
LINE
  5
159
330
1F
100
AcDbEntity
  8
0
  6
Continuous
 62
     8
370
     0
100
AcDbLine
 10
181.6920274888
 20
324.502317895
 30
0.0
 11
181.6920274888
 21
343.9023179434
 31
0.0
  0
LINE
  5
15A
330
1F
100
AcDbEntity
  8
0
  6
Continuous
 62
     8
370
     0
100
AcDbLine
 10
130.2920291219
 20
324.502317895
 30
0.0
 11
181.6920274888
 21
324.502317895
 31
0.0
  0
LINE
  5
15B
330
1F
100
AcDbEntity
  8
0
  6
Continuous
 62
     8
370
     0
100
AcDbLine
 10
130.2920291219
 20
343.9023179434
 30
0.0
 11
130.2920291219
 21
324.502317895
 31
0.0
  0
LINE
  5
15C
330
1F
100
AcDbEntity
  8
0
  6
Continuous
 62
     8
370
     0
100
AcDbLine
 10
181.6920274888
 20
343.9023179434
 30
0.0
 11
130.2920291219
 21
343.9023179434
 31
0.0
  0
LINE
  5
15D
330
1F
100
AcDbEntity
  8
0
  6
Continuous
 62
     8
370
     0
100
AcDbLine
 10
181.6920274888
 20
324.502317895
 30
0.0
 11
181.9920288418
 21
324.502317895
 31
0.0
  0
LINE
  5
15E
330
1F
100
AcDbEntity
  8
0
  6
Continuous
 62
     8
370
     0
100
AcDbLine
 10
181.6920274888
 20
324.2023178808
 30
0.0
 11
181.6920274888
 21
324.502317895
 31
0.0
  0
LINE
  5
15F
330
1F
100
AcDbEntity
  8
0
  6
Continuous
 62
     8
370
     0
100
AcDbLine
 10
129.9920277689
 20
324.502317895
 30
0.0
 11
130.2920291219
 21
324.502317895
 31
0.0
  0
LINE
  5
160
330
1F
100
AcDbEntity
  8
0
  6
Continuous
 62
     8
370
     0
100
AcDbLine
 10
130.2920291219
 20
324.2023178808
 30
0.0
 11
130.2920291219
 21
324.502317895
 31
0.0
  0
LINE
  5
161
330
1F
100
AcDbEntity
  8
0
  6
Continuous
 62
     8
370
     0
100
AcDbLine
 10
129.9920277689
 20
343.9023179434
 30
0.0
 11
130.2920291219
 21
343.9023179434
 31
0.0
  0
LINE
  5
162
330
1F
100
AcDbEntity
  8
0
  6
Continuous
 62
     8
370
     0
100
AcDbLine
 10
181.6920274888
 20
343.9023179434
 30
0.0
 11
181.9920288418
 21
343.9023179434
 31
0.0
  0
LINE
  5
163
330
1F
100
AcDbEntity
  8
0
  6
Continuous
 62
     8
370
     0
100
AcDbLine
 10
181.6920274888
 20
343.9023179434
 30
0.0
 11
181.6920274888
 21
344.2023174338
 31
0.0
  0
LINE
  5
164
330
1F
100
AcDbEntity
  8
0
  6
Continuous
 62
     8
370
     0
100
AcDbLine
 10
130.2920291219
 20
343.9023179434
 30
0.0
 11
130.2920291219
 21
344.2023174338
 31
0.0
  0
LINE
  5
165
330
1F
100
AcDbEntity
  8
0
  6
Continuous
 62
     8
370
     0
100
AcDbLine
 10
181.6920274888
 20
344.2023174338
 30
0.0
 11
181.6920274888
 21
347.2023179255
 31
0.0
  0
LINE
  5
166
330
1F
100
AcDbEntity
  8
0
  6
Continuous
 62
     8
370
     0
100
AcDbLine
 10
181.9920288418
 20
347.2023179255
 30
0.0
 11
181.6920274888
 21
347.2023179255
 31
0.0
  0
LINE
  5
167
330
1F
100
AcDbEntity
  8
0
  6
Continuous
 62
     8
370
     0
100
AcDbLine
 10
129.9920277689
 20
347.2023179255
 30
0.0
 11
130.2920291219
 21
347.2023179255
 31
0.0
  0
LINE
  5
168
330
1F
100
AcDbEntity
  8
0
  6
Continuous
 62
     8
370
     0
100
AcDbLine
 10
130.2920291219
 20
347.2023179255
 30
0.0
 11
130.2920291219
 21
344.2023174338
 31
0.0
  0
LINE
  5
169
330
1F
100
AcDbEntity
  8
0
  6
Continuous
 62
     8
370
     0
100
AcDbLine
 10
130.2920291219
 20
347.2023179255
 30
0.0
 11
181.6920274888
 21
347.2023179255
 31
0.0
  0
LINE
  5
16A
330
1F
100
AcDbEntity
  8
0
  6
Continuous
 62
     8
370
     0
100
AcDbLine
 10
181.6920274888
 20
347.2023179255
 30
0.0
 11
181.6920274888
 21
348.2023180894
 31
0.0
  0
LINE
  5
16B
330
1F
100
AcDbEntity
  8
0
  6
Continuous
 62
     8
370
     0
100
AcDbLine
 10
130.2920291219
 20
348.2023180894
 30
0.0
 11
130.2920291219
 21
347.2023179255
 31
0.0
  0
DIMENSION
  5
16C
330
1F
100
AcDbEntity
  8
0
  6
Continuous
 62
     7
370
     0
100
AcDbDimension
  2
*D2
 10
487.9920283053
 20
402.8972740152
 30
0.0
 11
303.7832857108
 21
402.8972740152
 31
0.0
 70
   160
  1
(<>)
 71
     2
 42
-1.0
  3
SLDDIMSTYLE0
100
AcDbAlignedDimension
 13
123.9920283053
 23
394.9023178808
 33
0.0
 14
487.9920283053
 24
394.9023178808
 34
0.0
100
AcDbRotatedDimension
  0
DIMENSION
  5
178
330
1F
100
AcDbEntity
  8
0
  6
Continuous
 62
     7
370
     0
100
AcDbDimension
  2
*D3
 10
497.2076073386
 20
395.2023178808
 30
0.0
 11
497.2076073386
 21
361.224023311
 31
0.0
 70
   160
  1
(<>)
 71
     2
 42
-1.0
  3
SLDDIMSTYLE0
100
AcDbAlignedDimension
 13
481.6920283053
 23
324.2023178808
 33
0.0
 14
487.6920283053
 24
395.2023178808
 34
0.0
 50
90.0
100
AcDbRotatedDimension
  0
INSERT
  5
18F
330
1F
100
AcDbEntity
  8
0
  6
Continuous
 62
     7
370
     0
100
AcDbBlockReference
  2
SW_CENTERMARKSYMBOL_0
 10
155.9920283053
 20
376.2023178808
 30
0.0
  0
INSERT
  5
19B
330
1F
100
AcDbEntity
  8
0
  6
Continuous
 62
     7
370
     0
100
AcDbBlockReference
  2
SW_CENTERMARKSYMBOL_1
 10
155.9920283053
 20
331.2023178808
 30
0.0
  0
INSERT
  5
1A7
330
1F
100
AcDbEntity
  8
0
  6
Continuous
 62
     7
370
     0
100
AcDbBlockReference
  2
SW_CENTERMARKSYMBOL_2
 10
455.9920283053
 20
376.2023178808
 30
0.0
  0
INSERT
  5
1B3
330
1F
100
AcDbEntity
  8
0
  6
Continuous
 62
     7
370
     0
100
AcDbBlockReference
  2
SW_CENTERMARKSYMBOL_3
 10
455.9920283053
 20
331.2023178808
 30
0.0
  0
LINE
  5
1B4
330
1F
100
AcDbEntity
  8
0
  6
CENTERX2
 62
     7
370
     0
100
AcDbLine
 10
122.2920283053
 20
384.2023178808
 30
0.0
 11
489.6920283053
 21
384.2023178808
 31
0.0
  0
LINE
  5
1B5
330
1F
100
AcDbEntity
  8
0
  6
Continuous
 62
     7
370
    30
100
AcDbLine
 10
188.292027453
 20
160.4692610165
 30
0.0
 11
423.6920150016
 21
160.4692610165
 31
0.0
  0
LINE
  5
1B6
330
1F
100
AcDbEntity
  8
0
  6
Continuous
 62
     7
370
    30
100
AcDbLine
 10
423.6920150016
 20
182.4692646226
 30
0.0
 11
188.292027453
 21
182.4692646226
 31
0.0
  0
ARC
  5
1B7
330
1F
100
AcDbEntity
  8
0
  6
Continuous
 62
     7
370
    30
100
AcDbCircle
 10
188.2920283053
 20
182.1692633411
 30
0.0
 40
0.3000000000000114
100
AcDbArc
 50
90.0
 51
180.0
  0
ARC
  5
1B8
330
1F
100
AcDbEntity
  8
0
  6
Continuous
 62
     7
370
    30
100
AcDbCircle
 10
188.2920283053
 20
160.7692633411
 30
0.0
 40
0.3000000000000114
100
AcDbArc
 50
180.0
 51
270.0
  0
ARC
  5
1B9
330
1F
100
AcDbEntity
  8
0
  6
Continuous
 62
     7
370
    30
100
AcDbCircle
 10
423.6920283053
 20
160.7692633411
 30
0.0
 40
0.3000000000000114
100
AcDbArc
 50
270.0
 51
0.0
  0
ARC
  5
1BA
330
1F
100
AcDbEntity
  8
0
  6
Continuous
 62
     7
370
    30
100
AcDbCircle
 10
423.6920283053
 20
182.1692633411
 30
0.0
 40
0.3000000000000114
100
AcDbArc
 50
0.0
 51
90.0
  0
ARC
  5
1BB
330
1F
100
AcDbEntity
  8
0
  6
Continuous
 62
     7
370
    30
100
AcDbCircle
 10
424.2920283053
 20
160.7692633411
 30
0.0
 40
0.3000000000000114
100
AcDbArc
 50
180.0
 51
270.0
  0
ARC
  5
1BC
330
1F
100
AcDbEntity
  8
0
  6
Continuous
 62
     7
370
    30
100
AcDbCircle
 10
487.6920283053
 20
160.7692633411
 30
0.0
 40
0.3000000000000114
100
AcDbArc
 50
270.0
 51
0.0
  0
LINE
  5
1BD
330
1F
100
AcDbEntity
  8
0
  6
Continuous
 62
     7
370
    30
100
AcDbLine
 10
424.2920251582
 20
160.4692610165
 30
0.0
 11
487.692025492
 21
160.4692610165
 31
0.0
  0
ARC
  5
1BE
330
1F
100
AcDbEntity
  8
0
  6
Continuous
 62
     7
370
    30
100
AcDbCircle
 10
124.2920283053
 20
160.7692633411
 30
0.0
 40
0.3000000000000114
100
AcDbArc
 50
180.0
 51
270.0
  0
ARC
  5
1BF
330
1F
100
AcDbEntity
  8
0
  6
Continuous
 62
     7
370
    30
100
AcDbCircle
 10
187.6920283053
 20
160.7692633411
 30
0.0
 40
0.3000000000000114
100
AcDbArc
 50
270.0
 51
0.0
  0
LINE
  5
1C0
330
1F
100
AcDbEntity
  8
0
  6
Continuous
 62
     7
370
    30
100
AcDbLine
 10
124.2920281384
 20
160.4692610165
 30
0.0
 11
187.6920284722
 21
160.4692610165
 31
0.0
  0
LINE
  5
1C1
330
1F
100
AcDbEntity
  8
0
  6
Continuous
 62
     7
370
    30
100
AcDbLine
 10
187.9920298253
 20
160.7692660949
 30
0.0
 11
187.9920298253
 21
171.4692646822
 31
0.0
  0
LINE
  5
1C2
330
1F
100
AcDbEntity
  8
0
  6
Continuous
 62
     7
370
    30
100
AcDbLine
 10
423.9920349811
 20
171.4692646822
 30
0.0
 11
423.9920349811
 21
160.7692660949
 31
0.0
  0
ARC
  5
1C3
330
1F
100
AcDbEntity
  8
0
  6
Continuous
 62
     7
370
    30
100
AcDbCircle
 10
481.9920283053
 20
203.9692633411
 30
0.0
 40
6.0
100
AcDbArc
 50
0.0
 51
90.0
  0
ARC
  5
1C4
330
1F
100
AcDbEntity
  8
0
  6
Continuous
 62
     7
370
    30
100
AcDbCircle
 10
429.9920283053
 20
203.9692633411
 30
0.0
 40
6.0
100
AcDbArc
 50
90.0
 51
180.0
  0
LINE
  5
1C5
330
1F
100
AcDbEntity
  8
0
  6
Continuous
 62
     7
370
    30
100
AcDbLine
 10
429.9920173381
 20
209.969262611
 30
0.0
 11
481.9920333121
 21
209.969262611
 31
0.0
  0
LINE
  5
1C6
330
1F
100
AcDbEntity
  8
0
  6
Continuous
 62
     7
370
    30
100
AcDbLine
 10
423.9920349811
 20
171.4692646822
 30
0.0
 11
423.9920349811
 21
203.9692634901
 31
0.0
  0
LINE
  5
1C7
330
1F
100
AcDbEntity
  8
0
  6
Continuous
 62
     7
370
    30
100
AcDbLine
 10
487.9920156692
 20
203.9692634901
 30
0.0
 11
487.9920156692
 21
171.4692646822
 31
0.0
  0
LINE
  5
1C8
330
1F
100
AcDbEntity
  8
0
  6
Continuous
 62
     7
370
    30
100
AcDbLine
 10
487.9920156692
 20
171.4692646822
 30
0.0
 11
487.9920156692
 21
160.7692660949
 31
0.0
  0
LINE
  5
1C9
330
1F
100
AcDbEntity
  8
0
  6
Continuous
 62
     7
370
    30
100
AcDbLine
 10
133.4920274113
 20
231.4692633411
 30
0.0
 11
133.4920274113
 21
232.1692633162
 31
0.0
  0
LINE
  5
1CA
330
1F
100
AcDbEntity
  8
0
  6
Continuous
 62
     7
370
    30
100
AcDbLine
 10
133.4920274113
 20
232.1692633162
 30
0.0
 11
140.4920285587
 21
232.1692633162
 31
0.0
  0
LINE
  5
1CB
330
1F
100
AcDbEntity
  8
0
  6
Continuous
 62
     7
370
    30
100
AcDbLine
 10
171.492028052
 20
232.1692633162
 30
0.0
 11
140.4920285587
 21
232.1692633162
 31
0.0
  0
LINE
  5
1CC
330
1F
100
AcDbEntity
  8
0
  6
Continuous
 62
     7
370
    30
100
AcDbLine
 10
178.4920291994
 20
232.1692633162
 30
0.0
 11
178.4920291994
 21
231.4692633411
 31
0.0
  0
LINE
  5
1CD
330
1F
100
AcDbEntity
  8
0
  6
Continuous
 62
     7
370
    30
100
AcDbLine
 10
171.492028052
 20
232.1692633162
 30
0.0
 11
178.4920291994
 21
232.1692633162
 31
0.0
  0
LINE
  5
1CE
330
1F
100
AcDbEntity
  8
0
  6
Continuous
 62
     7
370
    30
100
AcDbLine
 10
471.4920194838
 20
232.1692633162
 30
0.0
 11
440.4920311664
 21
232.1692633162
 31
0.0
  0
LINE
  5
1CF
330
1F
100
AcDbEntity
  8
0
  6
Continuous
 62
     7
370
    30
100
AcDbLine
 10
471.4920194838
 20
232.1692633162
 30
0.0
 11
478.4920187686
 21
232.1692633162
 31
0.0
  0
LINE
  5
1D0
330
1F
100
AcDbEntity
  8
0
  6
Continuous
 62
     7
370
    30
100
AcDbLine
 10
478.4920187686
 20
232.1692633162
 30
0.0
 11
478.4920187686
 21
231.4692633411
 31
0.0
  0
LINE
  5
1D1
330
1F
100
AcDbEntity
  8
0
  6
Continuous
 62
     7
370
    30
100
AcDbLine
 10
433.4920318816
 20
231.4692633411
 30
0.0
 11
433.4920318816
 21
232.1692633162
 31
0.0
  0
LINE
  5
1D2
330
1F
100
AcDbEntity
  8
0
  6
Continuous
 62
     7
370
    30
100
AcDbLine
 10
433.4920318816
 20
232.1692633162
 30
0.0
 11
440.4920311664
 21
232.1692633162
 31
0.0
  0
LINE
  5
1D3
330
1F
100
AcDbEntity
  8
0
  6
Continuous
 62
     7
370
    30
100
AcDbLine
 10
129.9920277689
 20
209.969262611
 30
0.0
 11
181.9920288418
 21
209.969262611
 31
0.0
  0
ARC
  5
1D4
330
1F
100
AcDbEntity
  8
0
  6
Continuous
 62
     7
370
    30
100
AcDbCircle
 10
181.9920283053
 20
203.9692633411
 30
0.0
 40
6.0
100
AcDbArc
 50
0.0
 51
90.0
  0
ARC
  5
1D5
330
1F
100
AcDbEntity
  8
0
  6
Continuous
 62
     7
370
    30
100
AcDbCircle
 10
129.9920283053
 20
203.9692633411
 30
0.0
 40
6.0
100
AcDbArc
 50
90.0
 51
180.0
  0
LINE
  5
1D6
330
1F
100
AcDbEntity
  8
0
  6
Continuous
 62
     7
370
    30
100
AcDbLine
 10
123.9920267854
 20
171.4692646822
 30
0.0
 11
123.9920267854
 21
203.9692634901
 31
0.0
  0
LINE
  5
1D7
330
1F
100
AcDbEntity
  8
0
  6
Continuous
 62
     7
370
    30
100
AcDbLine
 10
187.9920298253
 20
203.9692634901
 30
0.0
 11
187.9920298253
 21
171.4692646822
 31
0.0
  0
LINE
  5
1D8
330
1F
100
AcDbEntity
  8
0
  6
Continuous
 62
     7
370
    30
100
AcDbLine
 10
123.9920267854
 20
160.7692660949
 30
0.0
 11
123.9920267854
 21
171.4692646822
 31
0.0
  0
LINE
  5
1D9
330
1F
100
AcDbEntity
  8
0
  6
Continuous
 62
     7
370
    30
100
AcDbLine
 10
187.9920298253
 20
171.4692646822
 30
0.0
 11
187.9920298253
 21
160.7692660949
 31
0.0
  0
LINE
  5
1DA
330
1F
100
AcDbEntity
  8
0
  6
Continuous
 62
     7
370
    30
100
AcDbLine
 10
481.692043135
 20
211.4692637882
 30
0.0
 11
481.9920333121
 21
211.4692637882
 31
0.0
  0
LINE
  5
1DB
330
1F
100
AcDbEntity
  8
0
  6
Continuous
 62
     7
370
    30
100
AcDbLine
 10
481.9920333121
 20
211.4692637882
 30
0.0
 11
481.9920333121
 21
209.969262611
 31
0.0
  0
LINE
  5
1DC
330
1F
100
AcDbEntity
  8
0
  6
Continuous
 62
     7
370
    30
100
AcDbLine
 10
429.9920173381
 20
209.969262611
 30
0.0
 11
429.9920173381
 21
211.4692637882
 31
0.0
  0
LINE
  5
1DD
330
1F
100
AcDbEntity
  8
0
  6
Continuous
 62
     7
370
    30
100
AcDbLine
 10
429.9920173381
 20
211.4692637882
 30
0.0
 11
430.2920373176
 21
211.4692637882
 31
0.0
  0
LINE
  5
1DE
330
1F
100
AcDbEntity
  8
0
  6
Continuous
 62
     7
370
    30
100
AcDbLine
 10
481.692043135
 20
211.4692637882
 30
0.0
 11
430.2920373176
 21
211.4692637882
 31
0.0
  0
LINE
  5
1DF
330
1F
100
AcDbEntity
  8
0
  6
Continuous
 62
     7
370
    30
100
AcDbLine
 10
129.9920277689
 20
209.969262611
 30
0.0
 11
129.9920277689
 21
211.4692637882
 31
0.0
  0
LINE
  5
1E0
330
1F
100
AcDbEntity
  8
0
  6
Continuous
 62
     7
370
    30
100
AcDbLine
 10
129.9920277689
 20
211.4692637882
 30
0.0
 11
130.2920291219
 21
211.4692637882
 31
0.0
  0
LINE
  5
1E1
330
1F
100
AcDbEntity
  8
0
  6
Continuous
 62
     7
370
    30
100
AcDbLine
 10
181.6920274888
 20
211.4692637882
 30
0.0
 11
130.2920291219
 21
211.4692637882
 31
0.0
  0
LINE
  5
1E2
330
1F
100
AcDbEntity
  8
0
  6
Continuous
 62
     7
370
    30
100
AcDbLine
 10
181.6920274888
 20
211.4692637882
 30
0.0
 11
181.9920288418
 21
211.4692637882
 31
0.0
  0
LINE
  5
1E3
330
1F
100
AcDbEntity
  8
0
  6
Continuous
 62
     7
370
    30
100
AcDbLine
 10
181.9920288418
 20
211.4692637882
 30
0.0
 11
181.9920288418
 21
209.969262611
 31
0.0
  0
ARC
  5
1E4
330
1F
100
AcDbEntity
  8
0
  6
Continuous
 62
     7
370
    30
100
AcDbCircle
 10
481.6920283053
 20
231.1692633411
 30
0.0
 40
0.3000000000000398
100
AcDbArc
 50
0.0
 51
90.0
  0
LINE
  5
1E5
330
1F
100
AcDbEntity
  8
0
  6
Continuous
 62
     7
370
    30
100
AcDbLine
 10
429.9920173381
 20
211.7692632785
 30
0.0
 11
429.9920173381
 21
231.1692633269
 31
0.0
  0
ARC
  5
1E6
330
1F
100
AcDbEntity
  8
0
  6
Continuous
 62
     7
370
    30
100
AcDbCircle
 10
430.2920283053
 20
231.1692633411
 30
0.0
 40
0.3000000000000682
100
AcDbArc
 50
90.0
 51
180.0
  0
LINE
  5
1E7
330
1F
100
AcDbEntity
  8
0
  6
Continuous
 62
     7
370
    30
100
AcDbLine
 10
430.2920373176
 20
231.4692633411
 30
0.0
 11
481.692043135
 21
231.4692633411
 31
0.0
  0
LINE
  5
1E8
330
1F
100
AcDbEntity
  8
0
  6
Continuous
 62
     7
370
    30
100
AcDbLine
 10
481.9920333121
 20
231.1692633269
 30
0.0
 11
481.9920333121
 21
211.7692632785
 31
0.0
  0
ARC
  5
1E9
330
1F
100
AcDbEntity
  8
0
  6
Continuous
 62
     7
370
    30
100
AcDbCircle
 10
481.6920283053
 20
211.7692633411
 30
0.0
 40
0.3000000000000114
100
AcDbArc
 50
270.0
 51
360.0
  0
ARC
  5
1EA
330
1F
100
AcDbEntity
  8
0
  6
Continuous
 62
     7
370
    30
100
AcDbCircle
 10
430.2920283053
 20
211.7692633411
 30
0.0
 40
0.3000000000000682
100
AcDbArc
 50
180.0
 51
270.0
  0
LINE
  5
1EB
330
1F
100
AcDbEntity
  8
0
  6
Continuous
 62
     7
370
    30
100
AcDbLine
 10
481.9920333121
 20
211.7692632785
 30
0.0
 11
481.9920333121
 21
211.4692637882
 31
0.0
  0
LINE
  5
1EC
330
1F
100
AcDbEntity
  8
0
  6
Continuous
 62
     7
370
    30
100
AcDbLine
 10
429.9920173381
 20
211.4692637882
 30
0.0
 11
429.9920173381
 21
211.7692632785
 31
0.0
  0
LINE
  5
1ED
330
1F
100
AcDbEntity
  8
0
  6
Continuous
 62
     7
370
    30
100
AcDbLine
 10
130.2920291219
 20
231.4692633411
 30
0.0
 11
181.6920274888
 21
231.4692633411
 31
0.0
  0
ARC
  5
1EE
330
1F
100
AcDbEntity
  8
0
  6
Continuous
 62
     7
370
    30
100
AcDbCircle
 10
130.2920283053
 20
231.1692633411
 30
0.0
 40
0.3000000000000398
100
AcDbArc
 50
90.0
 51
180.0
  0
ARC
  5
1EF
330
1F
100
AcDbEntity
  8
0
  6
Continuous
 62
     7
370
    30
100
AcDbCircle
 10
181.6920283053
 20
231.1692633411
 30
0.0
 40
0.3000000000000398
100
AcDbArc
 50
0.0
 51
90.0
  0
LINE
  5
1F0
330
1F
100
AcDbEntity
  8
0
  6
Continuous
 62
     7
370
    30
100
AcDbLine
 10
129.9920277689
 20
211.7692632785
 30
0.0
 11
129.9920277689
 21
231.1692633269
 31
0.0
  0
LINE
  5
1F1
330
1F
100
AcDbEntity
  8
0
  6
Continuous
 62
     7
370
    30
100
AcDbLine
 10
181.9920288418
 20
231.1692633269
 30
0.0
 11
181.9920288418
 21
211.7692632785
 31
0.0
  0
ARC
  5
1F2
330
1F
100
AcDbEntity
  8
0
  6
Continuous
 62
     7
370
    30
100
AcDbCircle
 10
181.6920283053
 20
211.7692633411
 30
0.0
 40
0.3000000000000114
100
AcDbArc
 50
270.0
 51
360.0
  0
ARC
  5
1F3
330
1F
100
AcDbEntity
  8
0
  6
Continuous
 62
     7
370
    30
100
AcDbCircle
 10
130.2920283053
 20
211.7692633411
 30
0.0
 40
0.2999999999999829
100
AcDbArc
 50
180.0
 51
270.0
  0
LINE
  5
1F4
330
1F
100
AcDbEntity
  8
0
  6
Continuous
 62
     7
370
    30
100
AcDbLine
 10
181.9920288418
 20
211.7692632785
 30
0.0
 11
181.9920288418
 21
211.4692637882
 31
0.0
  0
LINE
  5
1F5
330
1F
100
AcDbEntity
  8
0
  6
Continuous
 62
     7
370
    30
100
AcDbLine
 10
129.9920277689
 20
211.4692637882
 30
0.0
 11
129.9920277689
 21
211.7692632785
 31
0.0
  0
LINE
  5
1F6
330
1F
100
AcDbEntity
  8
0
  6
Continuous
 62
     8
370
     0
100
AcDbLine
 10
423.6920150016
 20
160.4692610165
 30
0.0
 11
423.6920150016
 21
182.4692646226
 31
0.0
  0
LINE
  5
1F7
330
1F
100
AcDbEntity
  8
0
  6
Continuous
 62
     8
370
     0
100
AcDbLine
 10
188.292027453
 20
182.4692646226
 30
0.0
 11
188.292027453
 21
160.4692610165
 31
0.0
  0
ARC
  5
1F8
330
1F
100
AcDbEntity
  8
0
  6
Continuous
 62
     8
370
     0
100
AcDbCircle
 10
481.9920283053
 20
203.9692633411
 30
0.0
 40
5.699999999999989
100
AcDbArc
 50
0.0
 51
90.0
  0
LINE
  5
1F9
330
1F
100
AcDbEntity
  8
0
  6
Continuous
 62
     8
370
     0
100
AcDbLine
 10
481.9920333121
 20
209.969262611
 30
0.0
 11
481.9920333121
 21
209.6692631206
 31
0.0
  0
LINE
  5
1FA
330
1F
100
AcDbEntity
  8
0
  6
Continuous
 62
     8
370
     0
100
AcDbLine
 10
487.692025492
 20
203.9692634901
 30
0.0
 11
487.9920156692
 21
203.9692634901
 31
0.0
  0
LINE
  5
1FB
330
1F
100
AcDbEntity
  8
0
  6
Continuous
 62
     8
370
     0
100
AcDbLine
 10
481.9920333121
 20
209.6692631206
 30
0.0
 11
429.9920173381
 21
209.6692631206
 31
0.0
  0
LINE
  5
1FC
330
1F
100
AcDbEntity
  8
0
  6
Continuous
 62
     8
370
     0
100
AcDbLine
 10
487.692025492
 20
171.4692646822
 30
0.0
 11
487.692025492
 21
203.9692634901
 31
0.0
  0
LINE
  5
1FD
330
1F
100
AcDbEntity
  8
0
  6
Continuous
 62
     8
370
     0
100
AcDbLine
 10
487.692025492
 20
171.4692646822
 30
0.0
 11
424.2920251582
 21
171.4692646822
 31
0.0
  0
LINE
  5
1FE
330
1F
100
AcDbEntity
  8
0
  6
Continuous
 62
     8
370
     0
100
AcDbLine
 10
424.2920251582
 20
203.9692634901
 30
0.0
 11
424.2920251582
 21
171.4692646822
 31
0.0
  0
ARC
  5
1FF
330
1F
100
AcDbEntity
  8
0
  6
Continuous
 62
     8
370
     0
100
AcDbCircle
 10
429.9920283053
 20
203.9692633411
 30
0.0
 40
5.699999999999989
100
AcDbArc
 50
90.0
 51
180.0
  0
LINE
  5
200
330
1F
100
AcDbEntity
  8
0
  6
Continuous
 62
     8
370
     0
100
AcDbLine
 10
429.9920173381
 20
209.969262611
 30
0.0
 11
429.9920173381
 21
209.6692631206
 31
0.0
  0
LINE
  5
201
330
1F
100
AcDbEntity
  8
0
  6
Continuous
 62
     8
370
     0
100
AcDbLine
 10
423.9920349811
 20
203.9692634901
 30
0.0
 11
424.2920251582
 21
203.9692634901
 31
0.0
  0
LINE
  5
202
330
1F
100
AcDbEntity
  8
0
  6
Continuous
 62
     8
370
     0
100
AcDbLine
 10
423.9920349811
 20
171.4692646822
 30
0.0
 11
424.2920251582
 21
171.4692646822
 31
0.0
  0
LINE
  5
203
330
1F
100
AcDbEntity
  8
0
  6
Continuous
 62
     8
370
     0
100
AcDbLine
 10
487.692025492
 20
171.4692646822
 30
0.0
 11
487.9920156692
 21
171.4692646822
 31
0.0
  0
LINE
  5
204
330
1F
100
AcDbEntity
  8
0
  6
Continuous
 62
     8
370
     0
100
AcDbLine
 10
424.2920251582
 20
171.4692646822
 30
0.0
 11
424.2920251582
 21
160.4692610165
 31
0.0
  0
LINE
  5
205
330
1F
100
AcDbEntity
  8
0
  6
Continuous
 62
     8
370
     0
100
AcDbLine
 10
487.692025492
 20
160.4692610165
 30
0.0
 11
487.692025492
 21
171.4692646822
 31
0.0
  0
LINE
  5
206
330
1F
100
AcDbEntity
  8
0
  6
Continuous
 62
     8
370
     0
100
AcDbLine
 10
140.4920285587
 20
232.1692633162
 30
0.0
 11
140.4920285587
 21
231.4692633411
 31
0.0
  0
LINE
  5
207
330
1F
100
AcDbEntity
  8
0
  6
Continuous
 62
     8
370
     0
100
AcDbLine
 10
171.492028052
 20
231.4692633411
 30
0.0
 11
171.492028052
 21
232.1692633162
 31
0.0
  0
LINE
  5
208
330
1F
100
AcDbEntity
  8
0
  6
Continuous
 62
     8
370
     0
100
AcDbLine
 10
440.4920311664
 20
232.1692633162
 30
0.0
 11
440.4920311664
 21
231.4692633411
 31
0.0
  0
LINE
  5
209
330
1F
100
AcDbEntity
  8
0
  6
Continuous
 62
     8
370
     0
100
AcDbLine
 10
471.4920194838
 20
231.4692633411
 30
0.0
 11
471.4920194838
 21
232.1692633162
 31
0.0
  0
LINE
  5
20A
330
1F
100
AcDbEntity
  8
0
  6
Continuous
 62
     8
370
     0
100
AcDbLine
 10
181.9920288418
 20
209.6692631206
 30
0.0
 11
129.9920277689
 21
209.6692631206
 31
0.0
  0
ARC
  5
20B
330
1F
100
AcDbEntity
  8
0
  6
Continuous
 62
     8
370
     0
100
AcDbCircle
 10
181.9920283053
 20
203.9692633411
 30
0.0
 40
5.699999999999989
100
AcDbArc
 50
0.0
 51
90.0
  0
LINE
  5
20C
330
1F
100
AcDbEntity
  8
0
  6
Continuous
 62
     8
370
     0
100
AcDbLine
 10
187.6920284722
 20
171.4692646822
 30
0.0
 11
187.6920284722
 21
203.9692634901
 31
0.0
  0
LINE
  5
20D
330
1F
100
AcDbEntity
  8
0
  6
Continuous
 62
     8
370
     0
100
AcDbLine
 10
187.6920284722
 20
171.4692646822
 30
0.0
 11
124.2920281384
 21
171.4692646822
 31
0.0
  0
LINE
  5
20E
330
1F
100
AcDbEntity
  8
0
  6
Continuous
 62
     8
370
     0
100
AcDbLine
 10
124.2920281384
 20
203.9692634901
 30
0.0
 11
124.2920281384
 21
171.4692646822
 31
0.0
  0
ARC
  5
20F
330
1F
100
AcDbEntity
  8
0
  6
Continuous
 62
     8
370
     0
100
AcDbCircle
 10
129.9920283053
 20
203.9692633411
 30
0.0
 40
5.700000000000003
100
AcDbArc
 50
90.0
 51
180.0
  0
LINE
  5
210
330
1F
100
AcDbEntity
  8
0
  6
Continuous
 62
     8
370
     0
100
AcDbLine
 10
181.9920288418
 20
209.969262611
 30
0.0
 11
181.9920288418
 21
209.6692631206
 31
0.0
  0
LINE
  5
211
330
1F
100
AcDbEntity
  8
0
  6
Continuous
 62
     8
370
     0
100
AcDbLine
 10
129.9920277689
 20
209.969262611
 30
0.0
 11
129.9920277689
 21
209.6692631206
 31
0.0
  0
LINE
  5
212
330
1F
100
AcDbEntity
  8
0
  6
Continuous
 62
     8
370
     0
100
AcDbLine
 10
187.6920284722
 20
203.9692634901
 30
0.0
 11
187.9920298253
 21
203.9692634901
 31
0.0
  0
LINE
  5
213
330
1F
100
AcDbEntity
  8
0
  6
Continuous
 62
     8
370
     0
100
AcDbLine
 10
123.9920267854
 20
203.9692634901
 30
0.0
 11
124.2920281384
 21
203.9692634901
 31
0.0
  0
LINE
  5
214
330
1F
100
AcDbEntity
  8
0
  6
Continuous
 62
     8
370
     0
100
AcDbLine
 10
123.9920267854
 20
171.4692646822
 30
0.0
 11
124.2920281384
 21
171.4692646822
 31
0.0
  0
LINE
  5
215
330
1F
100
AcDbEntity
  8
0
  6
Continuous
 62
     8
370
     0
100
AcDbLine
 10
187.6920284722
 20
171.4692646822
 30
0.0
 11
187.9920298253
 21
171.4692646822
 31
0.0
  0
LINE
  5
216
330
1F
100
AcDbEntity
  8
0
  6
Continuous
 62
     8
370
     0
100
AcDbLine
 10
124.2920281384
 20
171.4692646822
 30
0.0
 11
124.2920281384
 21
160.4692610165
 31
0.0
  0
LINE
  5
217
330
1F
100
AcDbEntity
  8
0
  6
Continuous
 62
     8
370
     0
100
AcDbLine
 10
187.6920284722
 20
160.4692610165
 30
0.0
 11
187.6920284722
 21
171.4692646822
 31
0.0
  0
LINE
  5
218
330
1F
100
AcDbEntity
  8
0
  6
Continuous
 62
     8
370
     0
100
AcDbLine
 10
481.692043135
 20
209.969262611
 30
0.0
 11
481.692043135
 21
211.4692637882
 31
0.0
  0
LINE
  5
219
330
1F
100
AcDbEntity
  8
0
  6
Continuous
 62
     8
370
     0
100
AcDbLine
 10
430.2920373176
 20
211.4692637882
 30
0.0
 11
430.2920373176
 21
209.969262611
 31
0.0
  0
LINE
  5
21A
330
1F
100
AcDbEntity
  8
0
  6
Continuous
 62
     8
370
     0
100
AcDbLine
 10
130.2920291219
 20
211.4692637882
 30
0.0
 11
130.2920291219
 21
209.969262611
 31
0.0
  0
LINE
  5
21B
330
1F
100
AcDbEntity
  8
0
  6
Continuous
 62
     8
370
     0
100
AcDbLine
 10
181.6920274888
 20
209.969262611
 30
0.0
 11
181.6920274888
 21
211.4692637882
 31
0.0
  0
LINE
  5
21C
330
1F
100
AcDbEntity
  8
0
  6
Continuous
 62
     8
370
     0
100
AcDbLine
 10
481.9920333121
 20
231.1692633269
 30
0.0
 11
481.692043135
 21
231.1692633269
 31
0.0
  0
LINE
  5
21D
330
1F
100
AcDbEntity
  8
0
  6
Continuous
 62
     8
370
     0
100
AcDbLine
 10
481.692043135
 20
231.1692633269
 30
0.0
 11
481.692043135
 21
231.4692633411
 31
0.0
  0
LINE
  5
21E
330
1F
100
AcDbEntity
  8
0
  6
Continuous
 62
     8
370
     0
100
AcDbLine
 10
430.2920373176
 20
231.1692633269
 30
0.0
 11
430.2920373176
 21
211.7692632785
 31
0.0
  0
LINE
  5
21F
330
1F
100
AcDbEntity
  8
0
  6
Continuous
 62
     8
370
     0
100
AcDbLine
 10
430.2920373176
 20
211.7692632785
 30
0.0
 11
429.9920173381
 21
211.7692632785
 31
0.0
  0
LINE
  5
220
330
1F
100
AcDbEntity
  8
0
  6
Continuous
 62
     8
370
     0
100
AcDbLine
 10
430.2920373176
 20
231.1692633269
 30
0.0
 11
429.9920173381
 21
231.1692633269
 31
0.0
  0
LINE
  5
221
330
1F
100
AcDbEntity
  8
0
  6
Continuous
 62
     8
370
     0
100
AcDbLine
 10
430.2920373176
 20
231.1692633269
 30
0.0
 11
430.2920373176
 21
231.4692633411
 31
0.0
  0
LINE
  5
222
330
1F
100
AcDbEntity
  8
0
  6
Continuous
 62
     8
370
     0
100
AcDbLine
 10
481.692043135
 20
231.1692633269
 30
0.0
 11
430.2920373176
 21
231.1692633269
 31
0.0
  0
LINE
  5
223
330
1F
100
AcDbEntity
  8
0
  6
Continuous
 62
     8
370
     0
100
AcDbLine
 10
481.9920333121
 20
211.7692632785
 30
0.0
 11
481.692043135
 21
211.7692632785
 31
0.0
  0
LINE
  5
224
330
1F
100
AcDbEntity
  8
0
  6
Continuous
 62
     8
370
     0
100
AcDbLine
 10
481.692043135
 20
211.7692632785
 30
0.0
 11
481.692043135
 21
231.1692633269
 31
0.0
  0
LINE
  5
225
330
1F
100
AcDbEntity
  8
0
  6
Continuous
 62
     8
370
     0
100
AcDbLine
 10
430.2920373176
 20
211.7692632785
 30
0.0
 11
481.692043135
 21
211.7692632785
 31
0.0
  0
LINE
  5
226
330
1F
100
AcDbEntity
  8
0
  6
Continuous
 62
     8
370
     0
100
AcDbLine
 10
430.2920373176
 20
211.4692637882
 30
0.0
 11
430.2920373176
 21
211.7692632785
 31
0.0
  0
LINE
  5
227
330
1F
100
AcDbEntity
  8
0
  6
Continuous
 62
     8
370
     0
100
AcDbLine
 10
481.692043135
 20
211.4692637882
 30
0.0
 11
481.692043135
 21
211.7692632785
 31
0.0
  0
LINE
  5
228
330
1F
100
AcDbEntity
  8
0
  6
Continuous
 62
     8
370
     0
100
AcDbLine
 10
181.6920274888
 20
231.1692633269
 30
0.0
 11
130.2920291219
 21
231.1692633269
 31
0.0
  0
LINE
  5
229
330
1F
100
AcDbEntity
  8
0
  6
Continuous
 62
     8
370
     0
100
AcDbLine
 10
130.2920291219
 20
231.1692633269
 30
0.0
 11
130.2920291219
 21
231.4692633411
 31
0.0
  0
LINE
  5
22A
330
1F
100
AcDbEntity
  8
0
  6
Continuous
 62
     8
370
     0
100
AcDbLine
 10
181.6920274888
 20
231.1692633269
 30
0.0
 11
181.6920274888
 21
231.4692633411
 31
0.0
  0
LINE
  5
22B
330
1F
100
AcDbEntity
  8
0
  6
Continuous
 62
     8
370
     0
100
AcDbLine
 10
130.2920291219
 20
231.1692633269
 30
0.0
 11
129.9920277689
 21
231.1692633269
 31
0.0
  0
LINE
  5
22C
330
1F
100
AcDbEntity
  8
0
  6
Continuous
 62
     8
370
     0
100
AcDbLine
 10
181.9920288418
 20
231.1692633269
 30
0.0
 11
181.6920274888
 21
231.1692633269
 31
0.0
  0
LINE
  5
22D
330
1F
100
AcDbEntity
  8
0
  6
Continuous
 62
     8
370
     0
100
AcDbLine
 10
130.2920291219
 20
231.1692633269
 30
0.0
 11
130.2920291219
 21
211.7692632785
 31
0.0
  0
LINE
  5
22E
330
1F
100
AcDbEntity
  8
0
  6
Continuous
 62
     8
370
     0
100
AcDbLine
 10
130.2920291219
 20
211.7692632785
 30
0.0
 11
129.9920277689
 21
211.7692632785
 31
0.0
  0
LINE
  5
22F
330
1F
100
AcDbEntity
  8
0
  6
Continuous
 62
     8
370
     0
100
AcDbLine
 10
181.9920288418
 20
211.7692632785
 30
0.0
 11
181.6920274888
 21
211.7692632785
 31
0.0
  0
LINE
  5
230
330
1F
100
AcDbEntity
  8
0
  6
Continuous
 62
     8
370
     0
100
AcDbLine
 10
181.6920274888
 20
211.7692632785
 30
0.0
 11
181.6920274888
 21
231.1692633269
 31
0.0
  0
LINE
  5
231
330
1F
100
AcDbEntity
  8
0
  6
Continuous
 62
     8
370
     0
100
AcDbLine
 10
130.2920291219
 20
211.7692632785
 30
0.0
 11
181.6920274888
 21
211.7692632785
 31
0.0
  0
LINE
  5
232
330
1F
100
AcDbEntity
  8
0
  6
Continuous
 62
     8
370
     0
100
AcDbLine
 10
181.6920274888
 20
211.4692637882
 30
0.0
 11
181.6920274888
 21
211.7692632785
 31
0.0
  0
LINE
  5
233
330
1F
100
AcDbEntity
  8
0
  6
Continuous
 62
     8
370
     0
100
AcDbLine
 10
130.2920291219
 20
211.4692637882
 30
0.0
 11
130.2920291219
 21
211.7692632785
 31
0.0
  0
LINE
  5
234
330
1F
100
AcDbEntity
  8
0
  6
CENTERX2
 62
     7
370
     0
100
AcDbLine
 10
122.2920283053
 20
171.4692633411
 30
0.0
 11
489.6920283053
 21
171.4692633411
 31
0.0
  0
LINE
  5
235
330
1F
100
AcDbEntity
  8
0
  6
Continuous
 62
     7
370
    30
100
AcDbLine
 10
563.6260548148
 20
287.8376889327
 30
0.0
 11
561.126057199
 21
290.3376884112
 31
0.0
  0
LINE
  5
236
330
1F
100
AcDbEntity
  8
0
  6
Continuous
 62
     7
370
    30
100
AcDbLine
 10
561.126057199
 20
290.3376884112
 30
0.0
 11
558.6260558579
 21
287.8376889327
 31
0.0
  0
LINE
  5
237
330
1F
100
AcDbEntity
  8
0
  6
Continuous
 62
     7
370
    30
100
AcDbLine
 10
558.6260558579
 20
282.5946096616
 30
0.0
 11
559.0710566852
 21
282.3376888461
 31
0.0
  0
LINE
  5
238
330
1F
100
AcDbEntity
  8
0
  6
Continuous
 62
     7
370
    30
100
AcDbLine
 10
563.1810577128
 20
282.3376888461
 30
0.0
 11
563.6260548148
 21
282.5946096616
 31
0.0
  0
LINE
  5
239
330
1F
100
AcDbEntity
  8
0
  6
Continuous
 62
     7
370
    30
100
AcDbLine
 10
563.6260548148
 20
282.5946096616
 30
0.0
 11
563.6260548148
 21
287.8376889327
 31
0.0
  0
LINE
  5
23A
330
1F
100
AcDbEntity
  8
0
  6
Continuous
 62
     7
370
    30
100
AcDbLine
 10
558.6260558579
 20
287.8376889327
 30
0.0
 11
558.6260558579
 21
282.5946096616
 31
0.0
  0
LINE
  5
23B
330
1F
100
AcDbEntity
  8
0
  6
Continuous
 62
     7
370
    30
100
AcDbLine
 10
519.1260559026
 20
267.3376883665
 30
0.0
 11
516.1260563422
 21
270.3376888582
 31
0.0
  0
LINE
  5
23C
330
1F
100
AcDbEntity
  8
0
  6
Continuous
 62
     7
370
    30
100
AcDbLine
 10
516.1260563422
 20
270.3376888582
 30
0.0
 11
513.1260563161
 21
267.3376883665
 31
0.0
  0
LINE
  5
23D
330
1F
100
AcDbEntity
  8
0
  6
Continuous
 62
     7
370
    30
100
AcDbLine
 10
513.1260563161
 20
260.6578293541
 30
0.0
 11
513.6805559981
 21
260.3376890817
 31
0.0
  0
LINE
  5
23E
330
1F
100
AcDbEntity
  8
0
  6
Continuous
 62
     7
370
    30
100
AcDbLine
 10
518.5715557549
 20
260.3376890817
 30
0.0
 11
519.1260559026
 21
260.6578293541
 31
0.0
  0
LINE
  5
23F
330
1F
100
AcDbEntity
  8
0
  6
Continuous
 62
     7
370
    30
100
AcDbLine
 10
519.1260559026
 20
260.6578293541
 30
0.0
 11
519.1260559026
 21
267.3376883665
 31
0.0
  0
LINE
  5
240
330
1F
100
AcDbEntity
  8
0
  6
Continuous
 62
     7
370
    30
100
AcDbLine
 10
513.1260563161
 20
267.3376883665
 30
0.0
 11
513.1260563161
 21
260.6578293541
 31
0.0
  0
LINE
  5
241
330
1F
100
AcDbEntity
  8
0
  6
Continuous
 62
     7
370
    30
100
AcDbLine
 10
525.1260568861
 20
298.3376897225
 30
0.0
 11
522.6770175163
 21
298.0802852014
 31
0.0
  0
LINE
  5
242
330
1F
100
AcDbEntity
  8
0
  6
Continuous
 62
     7
370
    30
100
AcDbLine
 10
522.6770175163
 20
288.5950930701
 30
0.0
 11
525.1260568861
 21
288.3376890147
 31
0.0
  0
ARC
  5
243
330
1F
100
AcDbEntity
  8
0
  6
Continuous
 62
     7
370
    30
100
AcDbCircle
 10
530.3260561261
 20
293.3376887986
 30
0.0
 40
9.00000000000005
100
AcDbArc
 50
194.4775121859
 51
211.7999516825
  0
ARC
  5
244
330
1F
100
AcDbEntity
  8
0
  6
Continuous
 62
     7
370
    30
100
AcDbCircle
 10
530.3260561261
 20
293.3376887986
 30
0.0
 40
9.00000000000005
100
AcDbArc
 50
148.2000483175
 51
165.5224878141
  0
LINE
  5
245
330
1F
100
AcDbEntity
  8
0
  6
Continuous
 62
     7
370
    30
100
AcDbLine
 10
508.4260561511
 20
267.3376883665
 30
0.0
 11
508.4260561511
 21
299.3376880238
 31
0.0
  0
LINE
  5
246
330
1F
100
AcDbEntity
  8
0
  6
Continuous
 62
     7
370
    30
100
AcDbLine
 10
511.6260560702
 20
299.3376880238
 30
0.0
 11
508.4260561511
 21
299.3376880238
 31
0.0
  0
LINE
  5
247
330
1F
100
AcDbEntity
  8
0
  6
Continuous
 62
     7
370
    30
100
AcDbLine
 10
511.6260560702
 20
267.3376883665
 30
0.0
 11
511.6260560702
 21
299.3376880238
 31
0.0
  0
LINE
  5
248
330
1F
100
AcDbEntity
  8
0
  6
Continuous
 62
     7
370
    30
100
AcDbLine
 10
508.4260561511
 20
267.3376883665
 30
0.0
 11
511.6260560702
 21
267.3376883665
 31
0.0
  0
LINE
  5
249
330
1F
100
AcDbEntity
  8
0
  6
Continuous
 62
     7
370
    30
100
AcDbLine
 10
517.0260557446
 20
278.192527481
 30
0.0
 11
517.1260565061
 21
278.192527481
 31
0.0
  0
LINE
  5
24A
330
1F
100
AcDbEntity
  8
0
  6
Continuous
 62
     7
370
    30
100
AcDbLine
 10
517.1260565061
 20
278.2397483295
 30
0.0
 11
517.0260557446
 21
278.2397483295
 31
0.0
  0
SPLINE
  5
24B
330
1F
100
AcDbEntity
  8
0
  6
Continuous
 62
     7
370
    30
100
AcDbSpline
210
0.0
220
0.0
230
1.0
 70
    24
 71
     3
 72
     9
 73
     5
 74
     0
 42
0.00000001
 43
0.00000001
 40
0.0
 40
0.0
 40
0.0
 40
0.0
 40
0.5597152317435826
 40
1.0
 40
1.0
 40
1.0
 40
1.0
 10
517.1260565060921
 20
278.2397483294536
 30
0.0
 10
517.1260565060921
 20
278.2312646156038
 30
0.0
 10
517.1260565060921
 20
278.2161074189282
 30
0.0
 10
517.1260565060921
 20
278.1997356996023
 30
0.0
 10
517.1260565060921
 20
278.1925274809529
 30
0.0
  0
LINE
  5
24C
330
1F
100
AcDbEntity
  8
0
  6
Continuous
 62
     7
370
    30
100
AcDbLine
 10
517.0260557446
 20
276.4282614277
 30
0.0
 11
517.1260565061
 21
276.4282614277
 31
0.0
  0
LINE
  5
24D
330
1F
100
AcDbEntity
  8
0
  6
Continuous
 62
     7
370
    30
100
AcDbLine
 10
517.1260565061
 20
276.5310528973
 30
0.0
 11
517.1260565061
 21
276.4282614277
 31
0.0
  0
LINE
  5
24E
330
1F
100
AcDbEntity
  8
0
  6
Continuous
 62
     7
370
    30
100
AcDbLine
 10
518.1260557387
 20
298.3376897225
 30
0.0
 11
520.1260560665
 21
298.3376897225
 31
0.0
  0
LINE
  5
24F
330
1F
100
AcDbEntity
  8
0
  6
Continuous
 62
     7
370
    30
100
AcDbLine
 10
520.1260560665
 20
297.1305820444
 30
0.0
 11
520.1260560665
 21
298.3376897225
 31
0.0
  0
ARC
  5
250
330
1F
100
AcDbEntity
  8
0
  6
Continuous
 62
     7
370
    30
100
AcDbCircle
 10
517.6260561261
 20
297.1305820174
 30
0.0
 40
2.500000000000114
100
AcDbArc
 50
315.0
 51
0.0
  0
LINE
  5
251
330
1F
100
AcDbEntity
  8
0
  6
Continuous
 62
     7
370
    30
100
AcDbLine
 10
517.711842573
 20
293.6808347055
 30
0.0
 11
519.39382325
 21
295.3628153825
 31
0.0
  0
ARC
  5
252
330
1F
100
AcDbEntity
  8
0
  6
Continuous
 62
     7
370
    30
100
AcDbCircle
 10
519.1260561261
 20
292.2666209867
 30
0.0
 40
2.000000000000096
100
AcDbArc
 50
135.0
 51
180.0
  0
LINE
  5
253
330
1F
100
AcDbEntity
  8
0
  6
Continuous
 62
     7
370
    30
100
AcDbLine
 10
517.1260565061
 20
277.3207715997
 30
0.0
 11
517.0260557446
 21
277.3207715997
 31
0.0
  0
LINE
  5
254
330
1F
100
AcDbEntity
  8
0
  6
Continuous
 62
     7
370
    30
100
AcDbLine
 10
517.1260565061
 20
276.5850095363
 30
0.0
 11
517.0260557446
 21
276.585010002
 31
0.0
  0
ARC
  5
255
330
1F
100
AcDbEntity
  8
0
  6
Continuous
 62
     7
370
    30
100
AcDbCircle
 10
519.1260561261
 20
274.4087566105
 30
0.0
 40
2.000000000000096
100
AcDbArc
 50
180.0
 51
225.0
  0
LINE
  5
256
330
1F
100
AcDbEntity
  8
0
  6
Continuous
 62
     7
370
    30
100
AcDbLine
 10
519.39382325
 20
271.3125628704
 30
0.0
 11
517.711842573
 21
272.994542616
 31
0.0
  0
ARC
  5
257
330
1F
100
AcDbEntity
  8
0
  6
Continuous
 62
     7
370
    30
100
AcDbCircle
 10
517.6260561261
 20
269.5447955798
 30
0.0
 40
2.500000000000114
100
AcDbArc
 50
0.0
 51
45.0
  0
LINE
  5
258
330
1F
100
AcDbEntity
  8
0
  6
Continuous
 62
     7
370
    30
100
AcDbLine
 10
520.1260560665
 20
268.3376885304
 30
0.0
 11
520.1260560665
 21
269.5447952771
 31
0.0
  0
LINE
  5
259
330
1F
100
AcDbEntity
  8
0
  6
Continuous
 62
     7
370
    30
100
AcDbLine
 10
520.1260560665
 20
268.3376885304
 30
0.0
 11
518.1260557387
 21
268.3376885304
 31
0.0
  0
LINE
  5
25A
330
1F
100
AcDbEntity
  8
0
  6
Continuous
 62
     7
370
    30
100
AcDbLine
 10
516.1260563422
 20
270.3376888582
 30
0.0
 11
518.1260557387
 21
268.3376885304
 31
0.0
  0
LINE
  5
25B
330
1F
100
AcDbEntity
  8
0
  6
Continuous
 62
     7
370
    30
100
AcDbLine
 10
514.1260560144
 20
268.3376885304
 30
0.0
 11
516.1260563422
 21
270.3376888582
 31
0.0
  0
LINE
  5
25C
330
1F
100
AcDbEntity
  8
0
  6
Continuous
 62
     7
370
    30
100
AcDbLine
 10
514.1260560144
 20
268.3376885304
 30
0.0
 11
511.6260560702
 21
268.3376885304
 31
0.0
  0
LINE
  5
25D
330
1F
100
AcDbEntity
  8
0
  6
Continuous
 62
     7
370
    30
100
AcDbLine
 10
511.6260560702
 20
298.3376897225
 30
0.0
 11
511.6260560702
 21
268.3376885304
 31
0.0
  0
LINE
  5
25E
330
1F
100
AcDbEntity
  8
0
  6
Continuous
 62
     7
370
    30
100
AcDbLine
 10
511.6260560702
 20
298.3376897225
 30
0.0
 11
514.1260560144
 21
298.3376897225
 31
0.0
  0
LINE
  5
25F
330
1F
100
AcDbEntity
  8
0
  6
Continuous
 62
     7
370
    30
100
AcDbLine
 10
516.1260563422
 20
296.3376884633
 30
0.0
 11
514.1260560144
 21
298.3376897225
 31
0.0
  0
LINE
  5
260
330
1F
100
AcDbEntity
  8
0
  6
Continuous
 62
     7
370
    30
100
AcDbLine
 10
518.1260557387
 20
298.3376897225
 30
0.0
 11
516.1260563422
 21
296.3376884633
 31
0.0
  0
LINE
  5
261
330
1F
100
AcDbEntity
  8
0
  6
Continuous
 62
     7
370
    30
100
AcDbLine
 10
517.0260557446
 20
276.585010002
 30
0.0
 11
517.0260557446
 21
276.4282614277
 31
0.0
  0
LINE
  5
262
330
1F
100
AcDbEntity
  8
0
  6
Continuous
 62
     7
370
    30
100
AcDbLine
 10
517.0260557446
 20
277.3207715997
 30
0.0
 11
517.0260557446
 21
277.1628584066
 31
0.0
  0
LINE
  5
263
330
1F
100
AcDbEntity
  8
0
  6
Continuous
 62
     7
370
    30
100
AcDbLine
 10
517.0260557446
 20
278.2397483295
 30
0.0
 11
517.0260557446
 21
278.0264035152
 31
0.0
  0
LINE
  5
264
330
1F
100
AcDbEntity
  8
0
  6
Continuous
 62
     7
370
    30
100
AcDbLine
 10
517.1260565061
 20
276.5850095363
 30
0.0
 11
517.1260565061
 21
277.1628584066
 31
0.0
  0
LINE
  5
265
330
1F
100
AcDbEntity
  8
0
  6
Continuous
 62
     7
370
    30
100
AcDbLine
 10
517.0260557446
 20
277.1628584066
 30
0.0
 11
517.1260565061
 21
277.1628584066
 31
0.0
  0
LINE
  5
266
330
1F
100
AcDbEntity
  8
0
  6
Continuous
 62
     7
370
    30
100
AcDbLine
 10
517.1260565061
 20
277.3207715997
 30
0.0
 11
517.1260565061
 21
278.0264035152
 31
0.0
  0
LINE
  5
267
330
1F
100
AcDbEntity
  8
0
  6
Continuous
 62
     7
370
    30
100
AcDbLine
 10
517.1260565061
 20
278.2397483295
 30
0.0
 11
517.1260565061
 21
292.266621376
 31
0.0
  0
LINE
  5
268
330
1F
100
AcDbEntity
  8
0
  6
Continuous
 62
     7
370
    30
100
AcDbLine
 10
517.1260565061
 20
274.4087564112
 30
0.0
 11
517.1260565061
 21
276.4282614277
 31
0.0
  0
LINE
  5
269
330
1F
100
AcDbEntity
  8
0
  6
Continuous
 62
     7
370
    30
100
AcDbLine
 10
517.0260557446
 20
278.0264035152
 30
0.0
 11
517.1260565061
 21
278.0264035152
 31
0.0
  0
SPLINE
  5
26A
330
1F
100
AcDbEntity
  8
0
  6
Continuous
 62
     7
370
    30
100
AcDbSpline
210
0.0
220
0.0
230
1.0
 70
    24
 71
     3
 72
     9
 73
     5
 74
     0
 42
0.00000001
 43
0.00000001
 40
0.0
 40
0.0
 40
0.0
 40
0.0
 40
0.8749034782742642
 40
1.0
 40
1.0
 40
1.0
 40
1.0
 10
517.1260565060921
 20
277.3207715997179
 30
0.0
 10
517.1260565060921
 20
277.2979574705361
 30
0.0
 10
517.1260565060921
 20
277.2718813035664
 30
0.0
 10
517.1260565060921
 20
277.2246462378513
 30
0.0
 10
517.1260565060921
 20
277.2187372954269
 30
0.0
  0
LINE
  5
26B
330
1F
100
AcDbEntity
  8
0
  6
Continuous
 62
     7
370
    30
100
AcDbLine
 10
513.1260563161
 20
299.3376880238
 30
0.0
 11
511.6260560702
 21
299.3376880238
 31
0.0
  0
LINE
  5
26C
330
1F
100
AcDbEntity
  8
0
  6
Continuous
 62
     7
370
    30
100
AcDbLine
 10
511.6260560702
 20
267.3376883665
 30
0.0
 11
513.1260563161
 21
267.3376883665
 31
0.0
  0
LINE
  5
26D
330
1F
100
AcDbEntity
  8
0
  6
Continuous
 62
     7
370
    30
100
AcDbLine
 10
520.1260560665
 20
267.3376883665
 30
0.0
 11
519.1260559026
 21
267.3376883665
 31
0.0
  0
LINE
  5
26E
330
1F
100
AcDbEntity
  8
0
  6
Continuous
 62
     7
370
    30
100
AcDbLine
 10
520.1260560665
 20
267.3376883665
 30
0.0
 11
520.1260560665
 21
268.3376885304
 31
0.0
  0
LINE
  5
26F
330
1F
100
AcDbEntity
  8
0
  6
Continuous
 62
     7
370
    30
100
AcDbLine
 10
520.1260560665
 20
299.3376880238
 30
0.0
 11
519.1260559026
 21
299.3376880238
 31
0.0
  0
LINE
  5
270
330
1F
100
AcDbEntity
  8
0
  6
Continuous
 62
     7
370
    30
100
AcDbLine
 10
520.1260560665
 20
298.3376897225
 30
0.0
 11
520.1260560665
 21
299.3376880238
 31
0.0
  0
LINE
  5
271
330
1F
100
AcDbEntity
  8
0
  6
Continuous
 62
     7
370
    30
100
AcDbLine
 10
517.1260565061
 20
278.1866606144
 30
0.0
 11
517.1260565061
 21
278.0264035152
 31
0.0
  0
ARC
  5
272
330
1F
100
AcDbEntity
  8
0
  6
Continuous
 62
     7
370
    30
100
AcDbCircle
 10
569.1260561261
 20
293.3376887986
 30
0.0
 40
9.000000000000114
100
AcDbArc
 50
0.0
 51
201.8688523269
  0
ARC
  5
273
330
1F
100
AcDbEntity
  8
0
  6
Continuous
 62
     7
370
    30
100
AcDbCircle
 10
569.1260561261
 20
293.3376887986
 30
0.0
 40
9.000000000000114
100
AcDbArc
 50
232.3301130357
 51
0.0
  0
ARC
  5
274
330
1F
100
AcDbEntity
  8
0
  6
Continuous
 62
     7
370
    30
100
AcDbCircle
 10
569.1260561261
 20
293.3376887986
 30
0.0
 40
8.0
100
AcDbArc
 50
226.5674634422
 51
0.0
  0
ARC
  5
275
330
1F
100
AcDbEntity
  8
0
  6
Continuous
 62
     7
370
    30
100
AcDbCircle
 10
569.1260561261
 20
293.3376887986
 30
0.0
 40
8.0
100
AcDbArc
 50
0.0
 51
211.4759447268
  0
LINE
  5
276
330
1F
100
AcDbEntity
  8
0
  6
Continuous
 62
     7
370
    30
100
AcDbLine
 10
569.126054785
 20
304.3376888433
 30
0.0
 11
530.9260563466
 21
304.3376888433
 31
0.0
  0
ARC
  5
277
330
1F
100
AcDbEntity
  8
0
  6
Continuous
 62
     7
370
    30
100
AcDbCircle
 10
569.1260561261
 20
293.3376887986
 30
0.0
 40
11.00000000000006
100
AcDbArc
 50
270.0
 51
90.0
  0
LINE
  5
278
330
1F
100
AcDbEntity
  8
0
  6
Continuous
 62
     7
370
    30
100
AcDbLine
 10
564.1260558281
 20
282.3376888461
 30
0.0
 11
569.126054785
 21
282.3376888461
 31
0.0
  0
LINE
  5
279
330
1F
100
AcDbEntity
  8
0
  6
Continuous
 62
     7
370
    30
100
AcDbLine
 10
563.6260548148
 20
282.8376888117
 30
0.0
 11
564.1260558281
 21
282.3376888461
 31
0.0
  0
ARC
  5
27A
330
1F
100
AcDbEntity
  8
0
  6
Continuous
 62
     7
370
    30
100
AcDbCircle
 10
569.1260561261
 20
293.3376887986
 30
0.0
 40
8.999999999999966
100
AcDbArc
 50
232.3301130357
 51
128.942441269
  0
LINE
  5
27B
330
1F
100
AcDbEntity
  8
0
  6
Continuous
 62
     7
370
    30
100
AcDbLine
 10
530.6260568563
 20
300.3376881877
 30
0.0
 11
563.4692014668
 21
300.3376881877
 31
0.0
  0
LINE
  5
27C
330
1F
100
AcDbEntity
  8
0
  6
Continuous
 62
     7
370
    30
100
AcDbLine
 10
530.6260568563
 20
304.0376893529
 30
0.0
 11
530.6260568563
 21
300.3376881877
 31
0.0
  0
ARC
  5
27D
330
1F
100
AcDbEntity
  8
0
  6
Continuous
 62
     7
370
    30
100
AcDbCircle
 10
530.9260561261
 20
304.0376887986
 30
0.0
 40
0.3000000000001819
100
AcDbArc
 50
90.0
 51
180.0
  0
LINE
  5
27E
330
1F
100
AcDbEntity
  8
0
  6
Continuous
 62
     7
370
    30
100
AcDbLine
 10
558.1260548446
 20
282.3376888461
 30
0.0
 11
558.6260558579
 21
282.8376888117
 31
0.0
  0
ARC
  5
27F
330
1F
100
AcDbEntity
  8
0
  6
Continuous
 62
     7
370
    30
100
AcDbCircle
 10
530.9260561261
 20
282.6376887986
 30
0.0
 40
0.3000000000001819
100
AcDbArc
 50
180.0
 51
270.0
  0
LINE
  5
280
330
1F
100
AcDbEntity
  8
0
  6
Continuous
 62
     7
370
    30
100
AcDbLine
 10
530.6260568563
 20
286.3376886869
 30
0.0
 11
530.6260568563
 21
282.6376888022
 31
0.0
  0
LINE
  5
281
330
1F
100
AcDbEntity
  8
0
  6
Continuous
 62
     7
370
    30
100
AcDbLine
 10
558.6260558579
 20
286.3376886869
 30
0.0
 11
530.6260568563
 21
286.3376886869
 31
0.0
  0
LINE
  5
282
330
1F
100
AcDbEntity
  8
0
  6
Continuous
 62
     7
370
    30
100
AcDbLine
 10
530.9260563466
 20
282.3376888461
 30
0.0
 11
558.1260548446
 21
282.3376888461
 31
0.0
  0
LINE
  5
283
330
1F
100
AcDbEntity
  8
0
  6
Continuous
 62
     7
370
    30
100
AcDbLine
 10
558.1260548446
 20
282.3376888461
 30
0.0
 11
559.0710566852
 21
282.3376888461
 31
0.0
  0
LINE
  5
284
330
1F
100
AcDbEntity
  8
0
  6
Continuous
 62
     7
370
    30
100
AcDbLine
 10
563.1810577128
 20
282.3376888461
 30
0.0
 11
564.1260558281
 21
282.3376888461
 31
0.0
  0
LINE
  5
285
330
1F
100
AcDbEntity
  8
0
  6
Continuous
 62
     7
370
    30
100
AcDbLine
 10
529.1260556791
 20
282.3376888461
 30
0.0
 11
529.1260556791
 21
302.3376885155
 31
0.0
  0
LINE
  5
286
330
1F
100
AcDbEntity
  8
0
  6
Continuous
 62
     7
370
    30
100
AcDbLine
 10
529.1260556791
 20
282.3376888461
 30
0.0
 11
530.6260568563
 21
282.3376888461
 31
0.0
  0
LINE
  5
287
330
1F
100
AcDbEntity
  8
0
  6
Continuous
 62
     7
370
    30
100
AcDbLine
 10
530.6260568563
 20
302.3376885155
 30
0.0
 11
529.1260556791
 21
302.3376885155
 31
0.0
  0
LINE
  5
288
330
1F
100
AcDbEntity
  8
0
  6
Continuous
 62
     7
370
    30
100
AcDbLine
 10
530.6260568563
 20
282.3376888461
 30
0.0
 11
530.6260568563
 21
302.3376885155
 31
0.0
  0
LINE
  5
289
330
1F
100
AcDbEntity
  8
0
  6
Continuous
 62
     7
370
    30
100
AcDbLine
 10
529.1260556791
 20
282.3376888461
 30
0.0
 11
529.1260556791
 21
302.0376890251
 31
0.0
  0
LINE
  5
28A
330
1F
100
AcDbEntity
  8
0
  6
Continuous
 62
     7
370
    30
100
AcDbLine
 10
532.1260561708
 20
282.3376888461
 30
0.0
 11
529.1260556791
 21
282.3376888461
 31
0.0
  0
LINE
  5
28B
330
1F
100
AcDbEntity
  8
0
  6
Continuous
 62
     7
370
    30
100
AcDbLine
 10
532.1260561708
 20
282.3376888461
 30
0.0
 11
533.1260563347
 21
281.7603385244
 31
0.0
  0
LINE
  5
28C
330
1F
100
AcDbEntity
  8
0
  6
Continuous
 62
     7
370
    30
100
AcDbLine
 10
533.1260563347
 20
278.8376888545
 30
0.0
 11
533.1260563347
 21
281.7603385244
 31
0.0
  0
LINE
  5
28D
330
1F
100
AcDbEntity
  8
0
  6
Continuous
 62
     7
370
    30
100
AcDbLine
 10
532.1260561708
 20
278.8376888545
 30
0.0
 11
533.1260563347
 21
278.8376888545
 31
0.0
  0
ARC
  5
28E
330
1F
100
AcDbEntity
  8
0
  6
Continuous
 62
     7
370
    30
100
AcDbCircle
 10
532.1260561261
 20
275.8376887986
 30
0.0
 40
3.0
100
AcDbArc
 50
90.0
 51
180.0
  0
LINE
  5
28F
330
1F
100
AcDbEntity
  8
0
  6
Continuous
 62
     7
370
    30
100
AcDbLine
 10
529.1260556791
 20
260.6376885721
 30
0.0
 11
529.1260556791
 21
275.8376888284
 31
0.0
  0
ARC
  5
290
330
1F
100
AcDbEntity
  8
0
  6
Continuous
 62
     7
370
    30
100
AcDbCircle
 10
528.8260561261
 20
260.6376887986
 30
0.0
 40
0.3000000000000682
100
AcDbArc
 50
270.0
 51
0.0
  0
LINE
  5
291
330
1F
100
AcDbEntity
  8
0
  6
Continuous
 62
     7
370
    30
100
AcDbLine
 10
519.6260559846
 20
260.3376890817
 30
0.0
 11
528.8260561887
 21
260.3376890817
 31
0.0
  0
LINE
  5
292
330
1F
100
AcDbEntity
  8
0
  6
Continuous
 62
     7
370
    30
100
AcDbLine
 10
519.1260559026
 20
260.8376882324
 30
0.0
 11
519.6260559846
 21
260.3376890817
 31
0.0
  0
LINE
  5
293
330
1F
100
AcDbEntity
  8
0
  6
Continuous
 62
     7
370
    30
100
AcDbLine
 10
524.1260557908
 20
264.837688888
 30
0.0
 11
519.1260559026
 21
264.837688888
 31
0.0
  0
ARC
  5
294
330
1F
100
AcDbEntity
  8
0
  6
Continuous
 62
     7
370
    30
100
AcDbCircle
 10
524.1260561261
 20
265.8376887986
 30
0.0
 40
1.0
100
AcDbArc
 50
270.0
 51
0.0
  0
LINE
  5
295
330
1F
100
AcDbEntity
  8
0
  6
Continuous
 62
     7
370
    30
100
AcDbLine
 10
525.1260568861
 20
299.3376880238
 30
0.0
 11
525.1260568861
 21
265.8376890519
 31
0.0
  0
ARC
  5
296
330
1F
100
AcDbEntity
  8
0
  6
Continuous
 62
     7
370
    30
100
AcDbCircle
 10
524.1260561261
 20
299.3376887986
 30
0.0
 40
1.0
100
AcDbArc
 50
0.0
 51
90.0
  0
LINE
  5
297
330
1F
100
AcDbEntity
  8
0
  6
Continuous
 62
     7
370
    30
100
AcDbLine
 10
520.1260560665
 20
300.3376881877
 30
0.0
 11
524.1260557908
 21
300.3376881877
 31
0.0
  0
LINE
  5
298
330
1F
100
AcDbEntity
  8
0
  6
Continuous
 62
     7
370
    30
100
AcDbLine
 10
517.1260565061
 20
297.3376895586
 30
0.0
 11
520.1260560665
 21
300.3376881877
 31
0.0
  0
LINE
  5
299
330
1F
100
AcDbEntity
  8
0
  6
Continuous
 62
     7
370
    30
100
AcDbLine
 10
515.1260561783
 20
297.3376895586
 30
0.0
 11
517.1260565061
 21
297.3376895586
 31
0.0
  0
LINE
  5
29A
330
1F
100
AcDbEntity
  8
0
  6
Continuous
 62
     7
370
    30
100
AcDbLine
 10
512.1260561522
 20
300.3376881877
 30
0.0
 11
515.1260561783
 21
297.3376895586
 31
0.0
  0
LINE
  5
29B
330
1F
100
AcDbEntity
  8
0
  6
Continuous
 62
     7
370
    30
100
AcDbLine
 10
509.1260561261
 20
300.3376881877
 30
0.0
 11
512.1260561522
 21
300.3376881877
 31
0.0
  0
LINE
  5
29C
330
1F
100
AcDbEntity
  8
0
  6
Continuous
 62
     7
370
    30
100
AcDbLine
 10
509.1260561261
 20
302.0376890251
 30
0.0
 11
509.1260561261
 21
300.3376881877
 31
0.0
  0
ARC
  5
29D
330
1F
100
AcDbEntity
  8
0
  6
Continuous
 62
     7
370
    30
100
AcDbCircle
 10
509.4260561261
 20
302.0376887986
 30
0.0
 40
0.3000000000000114
100
AcDbArc
 50
90.0
 51
180.0
  0
LINE
  5
29E
330
1F
100
AcDbEntity
  8
0
  6
Continuous
 62
     7
370
    30
100
AcDbLine
 10
528.8260561887
 20
302.3376885155
 30
0.0
 11
509.4260561404
 21
302.3376885155
 31
0.0
  0
ARC
  5
29F
330
1F
100
AcDbEntity
  8
0
  6
Continuous
 62
     7
370
    30
100
AcDbCircle
 10
528.8260561261
 20
302.0376887986
 30
0.0
 40
0.3000000000000682
100
AcDbArc
 50
0.0
 51
90.0
  0
LINE
  5
2A0
330
1F
100
AcDbEntity
  8
0
  6
Continuous
 62
     7
370
    30
100
AcDbLine
 10
509.1260561261
 20
264.837688888
 30
0.0
 11
509.1260561261
 21
260.6376885721
 31
0.0
  0
LINE
  5
2A1
330
1F
100
AcDbEntity
  8
0
  6
Continuous
 62
     7
370
    30
100
AcDbLine
 10
513.1260563161
 20
264.837688888
 30
0.0
 11
509.1260561261
 21
264.837688888
 31
0.0
  0
LINE
  5
2A2
330
1F
100
AcDbEntity
  8
0
  6
Continuous
 62
     7
370
    30
100
AcDbLine
 10
512.6260562341
 20
260.3376890817
 30
0.0
 11
513.1260563161
 21
260.8376882324
 31
0.0
  0
LINE
  5
2A3
330
1F
100
AcDbEntity
  8
0
  6
Continuous
 62
     7
370
    30
100
AcDbLine
 10
509.4260561404
 20
260.3376890817
 30
0.0
 11
512.6260562341
 21
260.3376890817
 31
0.0
  0
ARC
  5
2A4
330
1F
100
AcDbEntity
  8
0
  6
Continuous
 62
     7
370
    30
100
AcDbCircle
 10
509.4260561261
 20
260.6376887986
 30
0.0
 40
0.3000000000000114
100
AcDbArc
 50
180.0
 51
270.0
  0
LINE
  5
2A5
330
1F
100
AcDbEntity
  8
0
  6
Continuous
 62
     7
370
    30
100
AcDbLine
 10
512.6260562341
 20
260.3376890817
 30
0.0
 11
513.6805559981
 21
260.3376890817
 31
0.0
  0
LINE
  5
2A6
330
1F
100
AcDbEntity
  8
0
  6
Continuous
 62
     7
370
    30
100
AcDbLine
 10
518.5715557549
 20
260.3376890817
 30
0.0
 11
519.6260559846
 21
260.3376890817
 31
0.0
  0
LINE
  5
2A7
330
1F
100
AcDbEntity
  8
0
  6
Continuous
 62
     7
370
    30
100
AcDbLine
 10
512.1260561522
 20
300.3376881877
 30
0.0
 11
512.1260561522
 21
299.3376880238
 31
0.0
  0
LINE
  5
2A8
330
1F
100
AcDbEntity
  8
0
  6
Continuous
 62
     7
370
    30
100
AcDbLine
 10
509.1260561261
 20
264.837688888
 30
0.0
 11
509.1260561261
 21
267.3376883665
 31
0.0
  0
LINE
  5
2A9
330
1F
100
AcDbEntity
  8
0
  6
Continuous
 62
     7
370
    30
100
AcDbLine
 10
509.1260561261
 20
299.3376880238
 30
0.0
 11
509.1260561261
 21
300.3376881877
 31
0.0
  0
LINE
  5
2AA
330
1F
100
AcDbEntity
  8
0
  6
Continuous
 62
     7
370
    30
100
AcDbLine
 10
563.6260548148
 20
287.8376889327
 30
0.0
 11
558.6260558579
 21
287.8376889327
 31
0.0
  0
LINE
  5
2AB
330
1F
100
AcDbEntity
  8
0
  6
Continuous
 62
     7
370
    30
100
AcDbLine
 10
563.1810577128
 20
282.3376888461
 30
0.0
 11
559.0710566852
 21
282.3376888461
 31
0.0
  0
LINE
  5
2AC
330
1F
100
AcDbEntity
  8
0
  6
Continuous
 62
     7
370
    30
100
AcDbLine
 10
563.6260548148
 20
282.5946096616
 30
0.0
 11
558.6260558579
 21
282.5946096616
 31
0.0
  0
LINE
  5
2AD
330
1F
100
AcDbEntity
  8
0
  6
Continuous
 62
     7
370
    30
100
AcDbLine
 10
516.1260563422
 20
267.3376883665
 30
0.0
 11
513.1260563161
 21
267.3376883665
 31
0.0
  0
LINE
  5
2AE
330
1F
100
AcDbEntity
  8
0
  6
Continuous
 62
     7
370
    30
100
AcDbLine
 10
519.1260559026
 20
267.3376883665
 30
0.0
 11
516.1260563422
 21
267.3376883665
 31
0.0
  0
LINE
  5
2AF
330
1F
100
AcDbEntity
  8
0
  6
Continuous
 62
     7
370
    30
100
AcDbLine
 10
516.1260563422
 20
260.3376890817
 30
0.0
 11
513.6805559981
 21
260.3376890817
 31
0.0
  0
LINE
  5
2B0
330
1F
100
AcDbEntity
  8
0
  6
Continuous
 62
     7
370
    30
100
AcDbLine
 10
518.5715557549
 20
260.3376890817
 30
0.0
 11
516.1260563422
 21
260.3376890817
 31
0.0
  0
LINE
  5
2B1
330
1F
100
AcDbEntity
  8
0
  6
Continuous
 62
     7
370
    30
100
AcDbLine
 10
516.1260563422
 20
260.6578293541
 30
0.0
 11
513.1260563161
 21
260.6578293541
 31
0.0
  0
LINE
  5
2B2
330
1F
100
AcDbEntity
  8
0
  6
Continuous
 62
     7
370
    30
100
AcDbLine
 10
519.1260559026
 20
260.6578293541
 30
0.0
 11
516.1260563422
 21
260.6578293541
 31
0.0
  0
LINE
  5
2B3
330
1F
100
AcDbEntity
  8
0
  6
Continuous
 62
     7
370
    30
100
AcDbLine
 10
522.6770175163
 20
293.3376889029
 30
0.0
 11
522.6770175163
 21
298.0802852014
 31
0.0
  0
LINE
  5
2B4
330
1F
100
AcDbEntity
  8
0
  6
Continuous
 62
     7
370
    30
100
AcDbLine
 10
522.6770175163
 20
288.5950930701
 30
0.0
 11
522.6770175163
 21
293.3376889029
 31
0.0
  0
LINE
  5
2B5
330
1F
100
AcDbEntity
  8
0
  6
Continuous
 62
     7
370
    30
100
AcDbLine
 10
521.6118433986
 20
291.0876889998
 30
0.0
 11
521.6118433986
 21
292.2126884857
 31
0.0
  0
LINE
  5
2B6
330
1F
100
AcDbEntity
  8
0
  6
Continuous
 62
     7
370
    30
100
AcDbLine
 10
521.6118433986
 20
292.2126884857
 30
0.0
 11
521.6118433986
 21
294.4626883888
 31
0.0
  0
LINE
  5
2B7
330
1F
100
AcDbEntity
  8
0
  6
Continuous
 62
     7
370
    30
100
AcDbLine
 10
521.6118433986
 20
294.4626883888
 30
0.0
 11
521.6118433986
 21
295.5876888061
 31
0.0
  0
LINE
  5
2B8
330
1F
100
AcDbEntity
  8
0
  6
Continuous
 62
     8
370
     0
100
AcDbLine
 10
524.1260557908
 20
298.232584382
 30
0.0
 11
524.1260557908
 21
300.3376881877
 31
0.0
  0
LINE
  5
2B9
330
1F
100
AcDbEntity
  8
0
  6
Continuous
 62
     8
370
     0
100
AcDbLine
 10
521.6118433986
 20
293.3376889029
 30
0.0
 11
517.437028839
 21
293.3376889029
 31
0.0
  0
LINE
  5
2BA
330
1F
100
AcDbEntity
  8
0
  6
Continuous
 62
     8
370
     0
100
AcDbLine
 10
520.1260560665
 20
267.3376883665
 30
0.0
 11
524.1260557908
 21
267.3376883665
 31
0.0
  0
LINE
  5
2BB
330
1F
100
AcDbEntity
  8
0
  6
Continuous
 62
     8
370
     0
100
AcDbLine
 10
524.1260557908
 20
264.837688888
 30
0.0
 11
524.1260557908
 21
267.3376883665
 31
0.0
  0
LINE
  5
2BC
330
1F
100
AcDbEntity
  8
0
  6
Continuous
 62
     8
370
     0
100
AcDbLine
 10
524.1260557908
 20
267.3376883665
 30
0.0
 11
525.1260568861
 21
267.3376883665
 31
0.0
  0
LINE
  5
2BD
330
1F
100
AcDbEntity
  8
0
  6
Continuous
 62
     8
370
     0
100
AcDbLine
 10
524.1260557908
 20
267.3376883665
 30
0.0
 11
524.1260557908
 21
288.4427929582
 31
0.0
  0
INSERT
  5
344
330
1F
100
AcDbEntity
  8
0
  6
Continuous
 62
     7
370
     0
100
AcDbBlockReference
  2
SW_HATCH_0
 10
529.1260561261
 20
260.9265362538
 30
0.0
  0
MTEXT
  5
345
330
1F
100
AcDbEntity
  8
0
  6
Continuous
 62
     7
370
     0
100
AcDbMText
 10
546.7223007369
 20
322.2012818109
 30
0.0
 40
5.0
 41
0.0
 71
     2
 72
     1
  1
A-A
  7
SLDTEXTSTYLE0
 73
     1
 44
1.0
  0
INSERT
  5
351
330
1F
100
AcDbEntity
  8
0
  6
Continuous
 62
     7
370
     0
100
AcDbBlockReference
  2
SW_CENTERMARKSYMBOL_4
 10
569.1260561261
 20
293.3376887986
 30
0.0
  0
LINE
  5
352
330
1F
100
AcDbEntity
  8
0
  6
CENTERX2
 62
     7
370
     0
100
AcDbLine
 10
516.1260561261
 20
258.3376887986
 30
0.0
 11
516.1260561261
 21
272.3376887986
 31
0.0
  0
LINE
  5
353
330
1F
100
AcDbEntity
  8
0
  6
CENTERX2
 62
     7
370
     0
100
AcDbLine
 10
506.4260561261
 20
283.3376887986
 30
0.0
 11
513.6260561261
 21
283.3376887986
 31
0.0
  0
LINE
  5
354
330
1F
100
AcDbEntity
  8
0
  6
CENTERX2
 62
     7
370
     0
100
AcDbLine
 10
561.1260561261
 20
280.3376887986
 30
0.0
 11
561.1260561261
 21
292.3376887986
 31
0.0
  0
LINE
  5
355
330
1F
100
AcDbEntity
  8
0
  6
Continuous
 62
     7
370
    30
100
AcDbLine
 10
80.4266493464
 20
282.3376888461
 30
0.0
 11
74.726649716
 21
282.3376888461
 31
0.0
  0
ARC
  5
356
330
1F
100
AcDbEntity
  8
0
  6
Continuous
 62
     7
370
    30
100
AcDbCircle
 10
80.4266495669
 20
282.6376887986
 30
0.0
 40
0.3000000000000682
100
AcDbArc
 50
270.0
 51
0.0
  0
LINE
  5
357
330
1F
100
AcDbEntity
  8
0
  6
Continuous
 62
     7
370
    30
100
AcDbLine
 10
80.7266488368
 20
304.0376893529
 30
0.0
 11
80.7266488368
 21
282.6376888022
 31
0.0
  0
LINE
  5
358
330
1F
100
AcDbEntity
  8
0
  6
Continuous
 62
     7
370
    30
100
AcDbLine
 10
74.726649716
 20
304.3376888433
 30
0.0
 11
80.4266493464
 21
304.3376888433
 31
0.0
  0
ARC
  5
359
330
1F
100
AcDbEntity
  8
0
  6
Continuous
 62
     7
370
    30
100
AcDbCircle
 10
80.4266495669
 20
304.0376887986
 30
0.0
 40
0.3000000000000114
100
AcDbArc
 50
0.0
 51
90.0
  0
LINE
  5
35A
330
1F
100
AcDbEntity
  8
0
  6
Continuous
 62
     7
370
    30
100
AcDbLine
 10
74.726649716
 20
282.3376888461
 30
0.0
 11
42.2266509081
 21
282.3376888461
 31
0.0
  0
LINE
  5
35B
330
1F
100
AcDbEntity
  8
0
  6
Continuous
 62
     7
370
    30
100
AcDbLine
 10
42.2266509081
 20
304.3376888433
 30
0.0
 11
74.726649716
 21
304.3376888433
 31
0.0
  0
ARC
  5
35C
330
1F
100
AcDbEntity
  8
0
  6
Continuous
 62
     7
370
    30
100
AcDbCircle
 10
42.2266495669
 20
293.3376887986
 30
0.0
 40
11.00000000000006
100
AcDbArc
 50
90.0
 51
270.0
  0
LINE
  5
35D
330
1F
100
AcDbEntity
  8
0
  6
Continuous
 62
     7
370
    30
100
AcDbLine
 10
102.926649542
 20
274.3376885825
 30
0.0
 11
102.926649542
 21
292.337688739
 31
0.0
  0
LINE
  5
35E
330
1F
100
AcDbEntity
  8
0
  6
Continuous
 62
     7
370
    30
100
AcDbLine
 10
102.926649542
 20
267.3376883665
 30
0.0
 11
102.2266495669
 21
267.3376883665
 31
0.0
  0
LINE
  5
35F
330
1F
100
AcDbEntity
  8
0
  6
Continuous
 62
     7
370
    30
100
AcDbLine
 10
102.926649542
 20
274.3376885825
 30
0.0
 11
102.926649542
 21
267.3376883665
 31
0.0
  0
LINE
  5
360
330
1F
100
AcDbEntity
  8
0
  6
Continuous
 62
     7
370
    30
100
AcDbLine
 10
102.2266495669
 20
299.3376880238
 30
0.0
 11
102.926649542
 21
299.3376880238
 31
0.0
  0
LINE
  5
361
330
1F
100
AcDbEntity
  8
0
  6
Continuous
 62
     7
370
    30
100
AcDbLine
 10
102.926649542
 20
299.3376880238
 30
0.0
 11
102.926649542
 21
292.337688739
 31
0.0
  0
LINE
  5
362
330
1F
100
AcDbEntity
  8
0
  6
Continuous
 62
     7
370
    30
100
AcDbLine
 10
80.4266493464
 20
282.3376888461
 30
0.0
 11
74.726649716
 21
282.3376888461
 31
0.0
  0
LINE
  5
363
330
1F
100
AcDbEntity
  8
0
  6
Continuous
 62
     7
370
    30
100
AcDbLine
 10
82.226650014
 20
282.6376888022
 30
0.0
 11
82.226650014
 21
302.0376890251
 31
0.0
  0
LINE
  5
364
330
1F
100
AcDbEntity
  8
0
  6
Continuous
 62
     7
370
    30
100
AcDbLine
 10
80.7266488368
 20
282.6376888022
 30
0.0
 11
80.7266488368
 21
302.0376890251
 31
0.0
  0
LINE
  5
365
330
1F
100
AcDbEntity
  8
0
  6
Continuous
 62
     7
370
    30
100
AcDbLine
 10
82.226650014
 20
282.6376888022
 30
0.0
 11
82.226650014
 21
282.3376888461
 31
0.0
  0
LINE
  5
366
330
1F
100
AcDbEntity
  8
0
  6
Continuous
 62
     7
370
    30
100
AcDbLine
 10
82.226650014
 20
282.3376888461
 30
0.0
 11
80.7266488368
 21
282.3376888461
 31
0.0
  0
LINE
  5
367
330
1F
100
AcDbEntity
  8
0
  6
Continuous
 62
     7
370
    30
100
AcDbLine
 10
80.7266488368
 20
282.3376888461
 30
0.0
 11
80.7266488368
 21
282.6376888022
 31
0.0
  0
LINE
  5
368
330
1F
100
AcDbEntity
  8
0
  6
Continuous
 62
     7
370
    30
100
AcDbLine
 10
80.7266488368
 20
302.3376885155
 30
0.0
 11
82.226650014
 21
302.3376885155
 31
0.0
  0
LINE
  5
369
330
1F
100
AcDbEntity
  8
0
  6
Continuous
 62
     7
370
    30
100
AcDbLine
 10
82.226650014
 20
302.3376885155
 30
0.0
 11
82.226650014
 21
302.0376890251
 31
0.0
  0
LINE
  5
36A
330
1F
100
AcDbEntity
  8
0
  6
Continuous
 62
     7
370
    30
100
AcDbLine
 10
82.5266495044
 20
302.3376885155
 30
0.0
 11
101.9266495527
 21
302.3376885155
 31
0.0
  0
ARC
  5
36B
330
1F
100
AcDbEntity
  8
0
  6
Continuous
 62
     7
370
    30
100
AcDbCircle
 10
101.9266495669
 20
302.0376887986
 30
0.0
 40
0.3000000000000114
100
AcDbArc
 50
0.0
 51
90.0
  0
LINE
  5
36C
330
1F
100
AcDbEntity
  8
0
  6
Continuous
 62
     7
370
    30
100
AcDbLine
 10
102.2266495669
 20
302.0376890251
 30
0.0
 11
102.2266495669
 21
260.6376885721
 31
0.0
  0
ARC
  5
36D
330
1F
100
AcDbEntity
  8
0
  6
Continuous
 62
     7
370
    30
100
AcDbCircle
 10
101.9266495669
 20
260.6376887986
 30
0.0
 40
0.3000000000000114
100
AcDbArc
 50
270.0
 51
0.0
  0
LINE
  5
36E
330
1F
100
AcDbEntity
  8
0
  6
Continuous
 62
     7
370
    30
100
AcDbLine
 10
101.9266495527
 20
260.3376890817
 30
0.0
 11
82.5266495044
 21
260.3376890817
 31
0.0
  0
ARC
  5
36F
330
1F
100
AcDbEntity
  8
0
  6
Continuous
 62
     7
370
    30
100
AcDbCircle
 10
82.5266495669
 20
302.0376887986
 30
0.0
 40
0.3000000000000114
100
AcDbArc
 50
90.0
 51
180.0
  0
LINE
  5
370
330
1F
100
AcDbEntity
  8
0
  6
Continuous
 62
     7
370
    30
100
AcDbLine
 10
78.2266493583
 20
281.7603385244
 30
0.0
 11
79.2266495222
 21
282.3376888461
 31
0.0
  0
LWPOLYLINE
  5
371
330
1F
100
AcDbEntity
  8
0
  6
Continuous
 62
     7
370
    30
100
AcDbPolyline
 90
        9
 70
   128
 43
0.0
 10
79.2266495222
 20
282.3376888461
 10
79.2281936551
 20
282.331924425
 10
79.2327683116
 20
282.3148527002
 10
79.2401965404
 20
282.2871296718
 10
79.2501933569
 20
282.2498208313
 10
79.2623750562
 20
282.2043598914
 10
79.2762722517
 20
282.1524938388
 10
79.2913522268
 20
282.0962158782
 10
79.3070338363
 20
282.0376887737
  0
LWPOLYLINE
  5
372
330
1F
100
AcDbEntity
  8
0
  6
Continuous
 62
     7
370
    30
100
AcDbPolyline
 90
       10
 70
   128
 43
0.0
 10
78.5266488487
 20
281.5871334512
 10
78.4745543892
 20
281.6172101936
 10
78.424043178
 20
281.6463730757
 10
78.3766500348
 20
281.6737360024
 10
78.3338129217
 20
281.6984675353
 10
78.2968356902
 20
281.7198162426
 10
78.2668415154
 20
281.7371334583
 10
78.2447412307
 20
281.749892985
 10
78.231207251
 20
281.7577071598
 10
78.2266493583
 20
281.7603385244
  0
LINE
  5
373
330
1F
100
AcDbEntity
  8
0
  6
Continuous
 62
     7
370
    30
100
AcDbLine
 10
79.2266495222
 20
278.8376888545
 30
0.0
 11
78.2266493583
 21
278.8376888545
 31
0.0
  0
LWPOLYLINE
  5
374
330
1F
100
AcDbEntity
  8
0
  6
Continuous
 62
     7
370
    30
100
AcDbPolyline
 90
        9
 70
   128
 43
0.0
 10
78.5266488487
 20
279.1376888105
 10
78.4681226755
 20
279.079161706
 10
78.4118447149
 20
279.0228837454
 10
78.3599793608
 20
278.9710176928
 10
78.3145177806
 20
278.9255568111
 10
78.2772089983
 20
278.8882480288
 10
78.2494853879
 20
278.860524884
 10
78.2324142451
 20
278.8434532756
 10
78.2266493583
 20
278.8376888545
  0
ARC
  5
375
330
1F
100
AcDbEntity
  8
0
  6
Continuous
 62
     7
370
    30
100
AcDbCircle
 10
82.5266495669
 20
260.6376887986
 30
0.0
 40
0.3000000000000114
100
AcDbArc
 50
180.0
 51
270.0
  0
LINE
  5
376
330
1F
100
AcDbEntity
  8
0
  6
Continuous
 62
     7
370
    30
100
AcDbLine
 10
78.2266493583
 20
278.8376888545
 30
0.0
 11
78.2266493583
 21
281.7603385244
 31
0.0
  0
LINE
  5
377
330
1F
100
AcDbEntity
  8
0
  6
Continuous
 62
     7
370
    30
100
AcDbLine
 10
80.4266493464
 20
282.3376888461
 30
0.0
 11
82.226650014
 21
282.3376888461
 31
0.0
  0
LWPOLYLINE
  5
378
330
1F
100
AcDbEntity
  8
0
  6
Continuous
 62
     7
370
    30
100
AcDbPolyline
 90
        9
 70
   128
 43
0.0
 10
82.226650014
 20
282.3376888461
 10
82.2324149007
 20
282.331924425
 10
82.2494860435
 20
282.3148527002
 10
82.2772077913
 20
282.2871296718
 10
82.3145184363
 20
282.2498208313
 10
82.3599781538
 20
282.2043598914
 10
82.4118453706
 20
282.1524938388
 10
82.4681233311
 20
282.0962158782
 10
82.5266495044
 20
282.0376887737
  0
ARC
  5
379
330
1F
100
AcDbEntity
  8
0
  6
Continuous
 62
     7
370
    30
100
AcDbCircle
 10
79.2266495669
 20
275.8376887986
 30
0.0
 40
3.0
100
AcDbArc
 50
0.0
 51
90.0
  0
LINE
  5
37A
330
1F
100
AcDbEntity
  8
0
  6
Continuous
 62
     7
370
    30
100
AcDbLine
 10
82.226650014
 20
260.6376885721
 30
0.0
 11
82.226650014
 21
275.8376888284
 31
0.0
  0
LINE
  5
37B
330
1F
100
AcDbEntity
  8
0
  6
Continuous
 62
     8
370
     0
100
AcDbLine
 10
74.726649716
 20
282.3376888461
 30
0.0
 11
74.726649716
 21
282.6376888022
 31
0.0
  0
LINE
  5
37C
330
1F
100
AcDbEntity
  8
0
  6
Continuous
 62
     8
370
     0
100
AcDbLine
 10
74.726649716
 20
282.6376888022
 30
0.0
 11
80.7266488368
 21
282.6376888022
 31
0.0
  0
LINE
  5
37D
330
1F
100
AcDbEntity
  8
0
  6
Continuous
 62
     8
370
     0
100
AcDbLine
 10
74.726649716
 20
282.6376888022
 30
0.0
 11
74.726649716
 21
304.0376893529
 31
0.0
  0
LINE
  5
37E
330
1F
100
AcDbEntity
  8
0
  6
Continuous
 62
     8
370
     0
100
AcDbLine
 10
80.7266488368
 20
304.0376893529
 30
0.0
 11
74.726649716
 21
304.0376893529
 31
0.0
  0
LINE
  5
37F
330
1F
100
AcDbEntity
  8
0
  6
Continuous
 62
     8
370
     0
100
AcDbLine
 10
74.726649716
 20
304.3376888433
 30
0.0
 11
74.726649716
 21
304.0376893529
 31
0.0
  0
LINE
  5
380
330
1F
100
AcDbEntity
  8
0
  6
Continuous
 62
     8
370
     0
100
AcDbLine
 10
42.2266509081
 20
282.3376888461
 30
0.0
 11
42.2266509081
 21
282.6376888022
 31
0.0
  0
LINE
  5
381
330
1F
100
AcDbEntity
  8
0
  6
Continuous
 62
     8
370
     0
100
AcDbLine
 10
42.2266509081
 20
282.6376888022
 30
0.0
 11
74.726649716
 21
282.6376888022
 31
0.0
  0
LINE
  5
382
330
1F
100
AcDbEntity
  8
0
  6
Continuous
 62
     8
370
     0
100
AcDbLine
 10
74.726649716
 20
304.0376893529
 30
0.0
 11
42.2266509081
 21
304.0376893529
 31
0.0
  0
ARC
  5
383
330
1F
100
AcDbEntity
  8
0
  6
Continuous
 62
     8
370
     0
100
AcDbCircle
 10
42.2266495669
 20
293.3376887986
 30
0.0
 40
10.70000000000005
100
AcDbArc
 50
90.0
 51
270.0
  0
LINE
  5
384
330
1F
100
AcDbEntity
  8
0
  6
Continuous
 62
     8
370
     0
100
AcDbLine
 10
42.2266509081
 20
304.3376888433
 30
0.0
 11
42.2266509081
 21
304.0376893529
 31
0.0
  0
LINE
  5
385
330
1F
100
AcDbEntity
  8
0
  6
Continuous
 62
     8
370
     0
100
AcDbLine
 10
102.926649542
 20
292.337688739
 30
0.0
 11
102.2266495669
 21
292.337688739
 31
0.0
  0
LINE
  5
386
330
1F
100
AcDbEntity
  8
0
  6
Continuous
 62
     8
370
     0
100
AcDbLine
 10
102.2266495669
 20
274.3376885825
 30
0.0
 11
102.926649542
 21
274.3376885825
 31
0.0
  0
LINE
  5
387
330
1F
100
AcDbEntity
  8
0
  6
Continuous
 62
     8
370
     0
100
AcDbLine
 10
80.7266488368
 20
282.6376888022
 30
0.0
 11
82.226650014
 21
282.6376888022
 31
0.0
  0
LINE
  5
388
330
1F
100
AcDbEntity
  8
0
  6
Continuous
 62
     8
370
     0
100
AcDbLine
 10
82.226650014
 20
302.0376890251
 30
0.0
 11
80.7266488368
 21
302.0376890251
 31
0.0
  0
LINE
  5
389
330
1F
100
AcDbEntity
  8
0
  6
Continuous
 62
     8
370
     0
100
AcDbLine
 10
101.9266495527
 20
302.0376890251
 30
0.0
 11
82.5266495044
 21
302.0376890251
 31
0.0
  0
LINE
  5
38A
330
1F
100
AcDbEntity
  8
0
  6
Continuous
 62
     8
370
     0
100
AcDbLine
 10
82.5266495044
 20
302.0376890251
 30
0.0
 11
82.5266495044
 21
302.3376885155
 31
0.0
  0
LINE
  5
38B
330
1F
100
AcDbEntity
  8
0
  6
Continuous
 62
     8
370
     0
100
AcDbLine
 10
101.9266495527
 20
302.0376890251
 30
0.0
 11
101.9266495527
 21
302.3376885155
 31
0.0
  0
LINE
  5
38C
330
1F
100
AcDbEntity
  8
0
  6
Continuous
 62
     8
370
     0
100
AcDbLine
 10
102.2266495669
 20
302.0376890251
 30
0.0
 11
101.9266495527
 21
302.0376890251
 31
0.0
  0
LINE
  5
38D
330
1F
100
AcDbEntity
  8
0
  6
Continuous
 62
     8
370
     0
100
AcDbLine
 10
102.2266495669
 20
260.6376885721
 30
0.0
 11
101.9266495527
 21
260.6376885721
 31
0.0
  0
LINE
  5
38E
330
1F
100
AcDbEntity
  8
0
  6
Continuous
 62
     8
370
     0
100
AcDbLine
 10
101.9266495527
 20
260.6376885721
 30
0.0
 11
101.9266495527
 21
302.0376890251
 31
0.0
  0
LINE
  5
38F
330
1F
100
AcDbEntity
  8
0
  6
Continuous
 62
     8
370
     0
100
AcDbLine
 10
101.9266495527
 20
260.3376890817
 30
0.0
 11
101.9266495527
 21
260.6376885721
 31
0.0
  0
LINE
  5
390
330
1F
100
AcDbEntity
  8
0
  6
Continuous
 62
     8
370
     0
100
AcDbLine
 10
78.5266488487
 20
279.1376888105
 30
0.0
 11
79.2266495222
 21
279.1376888105
 31
0.0
  0
LINE
  5
391
330
1F
100
AcDbEntity
  8
0
  6
Continuous
 62
     8
370
     0
100
AcDbLine
 10
78.5266488487
 20
281.5871334512
 30
0.0
 11
78.5266488487
 21
279.1376888105
 31
0.0
  0
LINE
  5
392
330
1F
100
AcDbEntity
  8
0
  6
Continuous
 62
     8
370
     0
100
AcDbLine
 10
79.3070338363
 20
282.0376887737
 30
0.0
 11
78.5266488487
 21
281.5871334512
 31
0.0
  0
LINE
  5
393
330
1F
100
AcDbEntity
  8
0
  6
Continuous
 62
     8
370
     0
100
AcDbLine
 10
82.5266495044
 20
282.0376887737
 30
0.0
 11
79.3070338363
 21
282.0376887737
 31
0.0
  0
LINE
  5
394
330
1F
100
AcDbEntity
  8
0
  6
Continuous
 62
     8
370
     0
100
AcDbLine
 10
82.5266495044
 20
302.0376890251
 30
0.0
 11
82.5266495044
 21
282.0376887737
 31
0.0
  0
LINE
  5
395
330
1F
100
AcDbEntity
  8
0
  6
Continuous
 62
     8
370
     0
100
AcDbLine
 10
82.5266495044
 20
260.6376885721
 30
0.0
 11
101.9266495527
 21
260.6376885721
 31
0.0
  0
LINE
  5
396
330
1F
100
AcDbEntity
  8
0
  6
Continuous
 62
     8
370
     0
100
AcDbLine
 10
82.5266495044
 20
275.8376888284
 30
0.0
 11
82.5266495044
 21
260.6376885721
 31
0.0
  0
ARC
  5
397
330
1F
100
AcDbEntity
  8
0
  6
Continuous
 62
     8
370
     0
100
AcDbCircle
 10
79.2266495669
 20
275.8376887986
 30
0.0
 40
3.300000000000068
100
AcDbArc
 50
0.0
 51
90.0
  0
LINE
  5
398
330
1F
100
AcDbEntity
  8
0
  6
Continuous
 62
     8
370
     0
100
AcDbLine
 10
82.5266495044
 20
260.3376890817
 30
0.0
 11
82.5266495044
 21
260.6376885721
 31
0.0
  0
LINE
  5
399
330
1F
100
AcDbEntity
  8
0
  6
Continuous
 62
     8
370
     0
100
AcDbLine
 10
82.226650014
 20
302.0376890251
 30
0.0
 11
82.5266495044
 21
302.0376890251
 31
0.0
  0
LINE
  5
39A
330
1F
100
AcDbEntity
  8
0
  6
Continuous
 62
     8
370
     0
100
AcDbLine
 10
79.2266495222
 20
279.1376888105
 30
0.0
 11
79.2266495222
 21
278.8376888545
 31
0.0
  0
LINE
  5
39B
330
1F
100
AcDbEntity
  8
0
  6
Continuous
 62
     8
370
     0
100
AcDbLine
 10
82.5266495044
 20
260.6376885721
 30
0.0
 11
82.226650014
 21
260.6376885721
 31
0.0
  0
LINE
  5
39C
330
1F
100
AcDbEntity
  8
0
  6
Continuous
 62
     8
370
     0
100
AcDbLine
 10
82.5266495044
 20
275.8376888284
 30
0.0
 11
82.226650014
 21
275.8376888284
 31
0.0
  0
ENDSEC
  0
SECTION
  2
OBJECTS
  0
DICTIONARY
  5
C
330
0
100
AcDbDictionary
281
     1
  3
ACAD_GROUP
350
D
  3
ACAD_LAYOUT
350
1A
  3
ACAD_MLINESTYLE
350
17
  3
ACAD_PLOTSETTINGS
350
19
  3
ACAD_PLOTSTYLENAME
350
E
  0
DICTIONARY
  5
D
102
{ACAD_REACTORS
330
C
102
}
330
C
100
AcDbDictionary
281
     1
  0
DICTIONARY
  5
1A
102
{ACAD_REACTORS
330
C
102
}
330
C
100
AcDbDictionary
281
     1
  3
Layout1
350
1E
  3
Layout2
350
26
  3
Model
350
22
  0
DICTIONARY
  5
17
102
{ACAD_REACTORS
330
C
102
}
330
C
100
AcDbDictionary
281
     1
  3
Standard
350
18
  0
DICTIONARY
  5
19
102
{ACAD_REACTORS
330
C
102
}
330
C
100
AcDbDictionary
281
     1
  0
ACDBDICTIONARYWDFLT
  5
E
102
{ACAD_REACTORS
330
C
102
}
330
C
100
AcDbDictionary
281
     1
  3
Normal
350
F
100
AcDbDictionaryWithDefault
340
F
  0
LAYOUT
  5
1E
102
{ACAD_REACTORS
330
1A
102
}
330
1A
100
AcDbPlotSettings
  1

  2
none_device
  4

  6

 40
0.0
 41
0.0
 42
0.0
 43
0.0
 44
0.0
 45
0.0
 46
0.0
 47
0.0
 48
0.0
 49
0.0
140
0.0
141
0.0
142
1.0
143
1.0
 70
   688
 72
     0
 73
     0
 74
     5
  7

 75
    16
147
1.0
148
0.0
149
0.0
100
AcDbLayout
  1
Layout1
 70
     1
 71
     1
 10
0.0
 20
0.0
 11
420.0
 21
297.0
 12
0.0
 22
0.0
 32
0.0
 14
1.0000000000E+20
 24
1.0000000000E+20
 34
1.0000000000E+20
 15
-1.0000000000E+20
 25
-1.0000000000E+20
 35
-1.0000000000E+20
146
0.0
 13
0.0
 23
0.0
 33
0.0
 16
1.0
 26
0.0
 36
0.0
 17
0.0
 27
1.0
 37
0.0
 76
     0
330
1B
  0
LAYOUT
  5
26
102
{ACAD_REACTORS
330
1A
102
}
330
1A
100
AcDbPlotSettings
  1

  2
none_device
  4

  6

 40
0.0
 41
0.0
 42
0.0
 43
0.0
 44
0.0
 45
0.0
 46
0.0
 47
0.0
 48
0.0
 49
0.0
140
0.0
141
0.0
142
1.0
143
1.0
 70
   688
 72
     0
 73
     0
 74
     5
  7

 75
    16
147
1.0
148
0.0
149
0.0
100
AcDbLayout
  1
Layout2
 70
     1
 71
     2
 10
0.0
 20
0.0
 11
0.0
 21
0.0
 12
0.0
 22
0.0
 32
0.0
 14
0.0
 24
0.0
 34
0.0
 15
0.0
 25
0.0
 35
0.0
146
0.0
 13
0.0
 23
0.0
 33
0.0
 16
1.0
 26
0.0
 36
0.0
 17
0.0
 27
1.0
 37
0.0
 76
     0
330
23
  0
LAYOUT
  5
22
102
{ACAD_REACTORS
330
1A
102
}
330
1A
100
AcDbPlotSettings
  1

  2
none_device
  4

  6

 40
0.0
 41
0.0
 42
0.0
 43
0.0
 44
0.0
 45
0.0
 46
0.0
 47
0.0
 48
0.0
 49
0.0
140
0.0
141
0.0
142
1.0
143
1.0
 70
  1712
 72
     0
 73
     0
 74
     0
  7

 75
     0
147
1.0
148
0.0
149
0.0
100
AcDbLayout
  1
Model
 70
     1
 71
     0
 10
0.0
 20
0.0
 11
594.0
 21
420.0
 12
0.0
 22
0.0
 32
0.0
 14
0.0
 24
0.0
 34
0.0
 15
594.0
 25
420.0
 35
0.0
146
0.0
 13
0.0
 23
0.0
 33
0.0
 16
1.0
 26
0.0
 36
0.0
 17
0.0
 27
1.0
 37
0.0
 76
     0
330
1F
331
29
  0
MLINESTYLE
  5
18
102
{ACAD_REACTORS
330
17
102
}
330
17
100
AcDbMlineStyle
  2
Standard
 70
     0
  3

 62
   256
 51
90.0
 52
90.0
 71
     2
 49
0.5
 62
   256
  6
BYLAYER
 49
-0.5
 62
   256
  6
BYLAYER
  0
ACDBPLACEHOLDER
  5
F
102
{ACAD_REACTORS
330
E
102
}
330
E
  0
ENDSEC
  0
EOF
