  0
SECTION
  2
HEADER
  9
$ACADVER
  1
AC1015
  9
$ACADMAINTVER
 70
     6
  9
$DWGCODEPAGE
  3
ANSI_1252
  9
$INSBASE
 10
0.0
 20
0.0
 30
0.0
  9
$EXTMIN
 10
0.0
 20
0.0
 30
0.0
  9
$EXTMAX
 10
594.0
 20
420.0
 30
0.0
  9
$LIMMIN
 10
0.0
 20
0.0
  9
$LIMMAX
 10
594.0
 20
420.0
  9
$ORTHOMODE
 70
     0
  9
$REGENMODE
 70
     1
  9
$FILLMODE
 70
     1
  9
$QTEXTMODE
 70
     0
  9
$MIRRTEXT
 70
     1
  9
$LTSCALE
 40
1.0
  9
$ATTMODE
 70
     1
  9
$TEXTSIZE
 40
3.5
  9
$TRACEWID
 40
1.0
  9
$TEXTSTYLE
  7
Standard
  9
$CLAYER
  8
0
  9
$CELTYPE
  6
ByLayer
  9
$CECOLOR
 62
   256
  9
$CELTSCALE
 40
1.0
  9
$DISPSILH
 70
     0
  9
$DIMSCALE
 40
1.0
  9
$DIMASZ
 40
3.5
  9
$DIMEXO
 40
1.0
  9
$DIMDLI
 40
3.75
  9
$DIMRND
 40
0.0
  9
$DIMDLE
 40
0.0
  9
$DIMEXE
 40
1.0
  9
$DIMTP
 40
0.0
  9
$DIMTM
 40
0.0
  9
$DIMTXT
 40
3.5
  9
$DIMCEN
 40
2.5
  9
$DIMTSZ
 40
0.0
  9
$DIMTOL
 70
     0
  9
$DIMLIM
 70
     0
  9
$DIMTIH
 70
     1
  9
$DIMTOH
 70
     1
  9
$DIMSE1
 70
     0
  9
$DIMSE2
 70
     0
  9
$DIMTAD
 70
     1
  9
$DIMZIN
 70
     0
  9
$DIMBLK
  1

  9
$DIMASO
 70
     1
  9
$DIMSHO
 70
     1
  9
$DIMPOST
  1

  9
$DIMAPOST
  1

  9
$DIMALT
 70
     0
  9
$DIMALTD
 70
     3
  9
$DIMALTF
 40
0.0393700787
  9
$DIMLFAC
 40
1.0
  9
$DIMTOFL
 70
     1
  9
$DIMTVP
 40
0.0
  9
$DIMTIX
 70
     0
  9
$DIMSOXD
 70
     0
  9
$DIMSAH
 70
     0
  9
$DIMBLK1
  1

  9
$DIMBLK2
  1

  9
$DIMSTYLE
  2
ISO-25
  9
$DIMCLRD
 70
     0
  9
$DIMCLRE
 70
     0
  9
$DIMCLRT
 70
     0
  9
$DIMTFAC
 40
1.0
  9
$DIMGAP
 40
4.0
  9
$DIMJUST
 70
     0
  9
$DIMSD1
 70
     0
  9
$DIMSD2
 70
     0
  9
$DIMTOLJ
 70
     0
  9
$DIMTZIN
 70
     0
  9
$DIMALTZ
 70
     0
  9
$DIMALTTZ
 70
     0
  9
$DIMUPT
 70
     0
  9
$DIMDEC
 70
     1
  9
$DIMTDEC
 70
     2
  9
$DIMALTU
 70
     2
  9
$DIMALTTD
 70
     3
  9
$DIMTXSTY
  7
Standard
  9
$DIMAUNIT
 70
     0
  9
$DIMADEC
 70
     1
  9
$DIMALTRND
 40
0.0
  9
$DIMAZIN
 70
     0
  9
$DIMDSEP
 70
    44
  9
$DIMATFIT
 70
     3
  9
$DIMFRAC
 70
     0
  9
$DIMLDRBLK
  1

  9
$DIMLUNIT
 70
     2
  9
$DIMLWD
 70
    -2
  9
$DIMLWE
 70
    -2
  9
$DIMTMOVE
 70
     0
  9
$LUNITS
 70
     2
  9
$LUPREC
 70
     1
  9
$SKETCHINC
 40
1.0
  9
$FILLETRAD
 40
10.0
  9
$AUNITS
 70
     0
  9
$AUPREC
 70
     1
  9
$MENU
  1
.
  9
$ELEVATION
 40
0.0
  9
$PELEVATION
 40
0.0
  9
$THICKNESS
 40
0.0
  9
$LIMCHECK
 70
     0
  9
$CHAMFERA
 40
10.0
  9
$CHAMFERB
 40
10.0
  9
$CHAMFERC
 40
20.0
  9
$CHAMFERD
 40
0.0
  9
$SKPOLY
 70
     0
  9
$TDCREATE
 40
2456156.483758738
  9
$TDUCREATE
 40
2456156.400425405
  9
$TDUPDATE
 40
2456156.48375875
  9
$TDUUPDATE
 40
2456156.400425417
  9
$TDINDWG
 40
0.0000000116
  9
$TDUSRTIMER
 40
0.0000000116
  9
$USRTIMER
 70
     1
  9
$ANGBASE
 50
0.0
  9
$ANGDIR
 70
     0
  9
$PDMODE
 70
     0
  9
$PDSIZE
 40
-1.0
  9
$PLINEWID
 40
0.0
  9
$SPLFRAME
 70
     0
  9
$SPLINETYPE
 70
     6
  9
$SPLINESEGS
 70
     8
  9
$HANDSEED
  5
28C
  9
$SURFTAB1
 70
     6
  9
$SURFTAB2
 70
     6
  9
$SURFTYPE
 70
     6
  9
$SURFU
 70
     6
  9
$SURFV
 70
     6
  9
$UCSBASE
  2

  9
$UCSNAME
  2

  9
$UCSORG
 10
0.0
 20
0.0
 30
0.0
  9
$UCSXDIR
 10
1.0
 20
0.0
 30
0.0
  9
$UCSYDIR
 10
0.0
 20
1.0
 30
0.0
  9
$UCSORTHOREF
  2

  9
$UCSORTHOVIEW
 70
     0
  9
$UCSORGTOP
 10
0.0
 20
0.0
 30
0.0
  9
$UCSORGBOTTOM
 10
0.0
 20
0.0
 30
0.0
  9
$UCSORGLEFT
 10
0.0
 20
0.0
 30
0.0
  9
$UCSORGRIGHT
 10
0.0
 20
0.0
 30
0.0
  9
$UCSORGFRONT
 10
0.0
 20
0.0
 30
0.0
  9
$UCSORGBACK
 10
0.0
 20
0.0
 30
0.0
  9
$PUCSBASE
  2

  9
$PUCSNAME
  2

  9
$PUCSORG
 10
0.0
 20
0.0
 30
0.0
  9
$PUCSXDIR
 10
1.0
 20
0.0
 30
0.0
  9
$PUCSYDIR
 10
0.0
 20
1.0
 30
0.0
  9
$PUCSORTHOREF
  2

  9
$PUCSORTHOVIEW
 70
     0
  9
$PUCSORGTOP
 10
0.0
 20
0.0
 30
0.0
  9
$PUCSORGBOTTOM
 10
0.0
 20
0.0
 30
0.0
  9
$PUCSORGLEFT
 10
0.0
 20
0.0
 30
0.0
  9
$PUCSORGRIGHT
 10
0.0
 20
0.0
 30
0.0
  9
$PUCSORGFRONT
 10
0.0
 20
0.0
 30
0.0
  9
$PUCSORGBACK
 10
0.0
 20
0.0
 30
0.0
  9
$USERI1
 70
     0
  9
$USERI2
 70
     0
  9
$USERI3
 70
     0
  9
$USERI4
 70
     0
  9
$USERI5
 70
     0
  9
$USERR1
 40
0.0
  9
$USERR2
 40
0.0
  9
$USERR3
 40
0.0
  9
$USERR4
 40
0.0
  9
$USERR5
 40
0.0
  9
$WORLDVIEW
 70
     1
  9
$SHADEDGE
 70
     3
  9
$SHADEDIF
 70
    70
  9
$TILEMODE
 70
     1
  9
$MAXACTVP
 70
    64
  9
$PINSBASE
 10
0.0
 20
0.0
 30
0.0
  9
$PLIMCHECK
 70
     0
  9
$PEXTMIN
 10
1.0000000000E+20
 20
1.0000000000E+20
 30
1.0000000000E+20
  9
$PEXTMAX
 10
-1.0000000000E+20
 20
-1.0000000000E+20
 30
-1.0000000000E+20
  9
$PLIMMIN
 10
0.0
 20
0.0
  9
$PLIMMAX
 10
420.0
 20
297.0
  9
$UNITMODE
 70
     0
  9
$VISRETAIN
 70
     1
  9
$PLINEGEN
 70
     0
  9
$PSLTSCALE
 70
     1
  9
$TREEDEPTH
 70
  3020
  9
$CMLSTYLE
  2
Standard
  9
$CMLJUST
 70
     0
  9
$CMLSCALE
 40
20.0
  9
$PROXYGRAPHICS
 70
     1
  9
$MEASUREMENT
 70
     1
  9
$CELWEIGHT
370
    -1
  9
$ENDCAPS
280
     0
  9
$JOINSTYLE
280
     0
  9
$LWDISPLAY
290
     1
  9
$INSUNITS
 70
     4
  9
$HYPERLINKBASE
  1

  9
$STYLESHEET
  1

  9
$XEDIT
290
     1
  9
$CEPSNTYPE
380
     0
  9
$PSTYLEMODE
290
     1
  9
$FINGERPRINTGUID
  2
{228F9304-BB16-4D7E-B64F-6BCF8145D8C6}
  9
$VERSIONGUID
  2
{FAEB1C32-E019-11D5-929B-00C0DF256EC4}
  9
$EXTNAMES
290
     1
  9
$PSVPSCALE
 40
0.0
  9
$OLESTARTUP
290
     0
  0
ENDSEC
  0
SECTION
  2
CLASSES
  0
CLASS
  1
ACDBDICTIONARYWDFLT
  2
AcDbDictionaryWithDefault
  3
ObjectDBX Classes
 90
        0
280
     0
281
     0
  0
CLASS
  1
VISUALSTYLE
  2
AcDbVisualStyle
  3
ObjectDBX Classes
 90
     4095
280
     0
281
     0
  0
CLASS
  1
MATERIAL
  2
AcDbMaterial
  3
ObjectDBX Classes
 90
     1153
280
     0
281
     0
  0
CLASS
  1
ACDBPLACEHOLDER
  2
AcDbPlaceHolder
  3
ObjectDBX Classes
 90
        0
280
     0
281
     0
  0
CLASS
  1
LAYOUT
  2
AcDbLayout
  3
ObjectDBX Classes
 90
        0
280
     0
281
     0
  0
ENDSEC
  0
SECTION
  2
TABLES
  0
TABLE
  2
VPORT
  5
8
330
0
100
AcDbSymbolTable
 70
     1
  0
VPORT
  5
29
330
8
100
AcDbSymbolTableRecord
100
AcDbViewportTableRecord
  2
*Active
 70
     0
 10
0.0
 20
0.0
 11
1.0
 21
1.0
 12
297.0
 22
210.0
 13
0.0
 23
0.0
 14
10.0
 24
10.0
 15
10.0
 25
10.0
 16
0.0
 26
0.0
 36
1.0
 17
0.0
 27
0.0
 37
0.0
 40
420.0
 41
1.4142857143
 42
50.0
 43
0.0
 44
0.0
 50
0.0
 51
0.0
 71
     0
 72
  2000
 73
     1
 74
     3
 75
     0
 76
     0
 77
     0
 78
     0
281
     0
 65
     1
110
0.0
120
0.0
130
0.0
111
1.0
121
0.0
131
0.0
112
0.0
122
1.0
132
0.0
 79
     0
146
0.0
  0
ENDTAB
  0
TABLE
  2
LTYPE
  5
5
330
0
100
AcDbSymbolTable
 70
     6
  0
LTYPE
  5
14
330
5
100
AcDbSymbolTableRecord
100
AcDbLinetypeTableRecord
  2
ByBlock
 70
     0
  3

 72
    65
 73
     0
 40
0.0
  0
LTYPE
  5
15
330
5
100
AcDbSymbolTableRecord
100
AcDbLinetypeTableRecord
  2
ByLayer
 70
     0
  3

 72
    65
 73
     0
 40
0.0
  0
LTYPE
  5
16
330
5
100
AcDbSymbolTableRecord
100
AcDbLinetypeTableRecord
  2
Continuous
 70
     0
  3
Solid line
 72
    65
 73
     0
 40
0.0
  0
LTYPE
  5
3F
330
5
100
AcDbSymbolTableRecord
100
AcDbLinetypeTableRecord
  2
HIDDEN
 70
     0
  3
Hidden __ __ __ __ __ __ __ __ __ __ __ __ __ __
 72
    65
 73
     2
 40
1.905
 49
1.27
 74
     0
 49
-0.635
 74
     0
  0
LTYPE
  5
40
330
5
100
AcDbSymbolTableRecord
100
AcDbLinetypeTableRecord
  2
PHANTOM
 70
     0
  3
Phantom ______  __  __  ______  __  __  ______
 72
    65
 73
     6
 40
12.7
 49
6.35
 74
     0
 49
-1.27
 74
     0
 49
1.27
 74
     0
 49
-1.27
 74
     0
 49
1.27
 74
     0
 49
-1.27
 74
     0
  0
LTYPE
  5
41
330
5
100
AcDbSymbolTableRecord
100
AcDbLinetypeTableRecord
  2
CENTER
 70
     0
  3
Center ____ _ ____ _ ____ _ ____ _ ____ _ ____
 72
    65
 73
     4
 40
10.16
 49
6.35
 74
     0
 49
-1.27
 74
     0
 49
1.27
 74
     0
 49
-1.27
 74
     0
  0
LTYPE
  5
42
330
5
100
AcDbSymbolTableRecord
100
AcDbLinetypeTableRecord
  2
CENTERX2
 70
     0
  3
Center (2x) ________  __  ________  __  _____
 72
    65
 73
     4
 40
20.32
 49
12.7
 74
     0
 49
-2.54
 74
     0
 49
2.54
 74
     0
 49
-2.54
 74
     0
  0
LTYPE
  5
43
330
5
100
AcDbSymbolTableRecord
100
AcDbLinetypeTableRecord
  2
DOT2
 70
     0
  3
Dot (.5x) ........................................
 72
    65
 73
     2
 40
0.635
 49
0.0
 74
     0
 49
-0.635
 74
     0
  0
ENDTAB
  0
TABLE
  2
LAYER
  5
2
330
0
100
AcDbSymbolTable
 70
     5
  0
LAYER
  5
10
330
2
100
AcDbSymbolTableRecord
100
AcDbLayerTableRecord
  2
0
 70
     0
 62
     7
  6
Continuous
370
    -3
390
F
  0
LAYER
  5
44
330
2
100
AcDbSymbolTableRecord
100
AcDbLayerTableRecord
  2
VORLAGE
 70
     0
 62
    -1
  6
Continuous
370
    -3
390
F
  0
LAYER
  5
45
330
2
100
AcDbSymbolTableRecord
100
AcDbLayerTableRecord
  2
RAHMEN
 70
     0
 62
   179
  6
Continuous
370
    -3
390
F
  0
LAYER
  5
46
330
2
100
AcDbSymbolTableRecord
100
AcDbLayerTableRecord
  2
KOPF
 70
     0
 62
     7
  6
Continuous
370
    -3
390
F
  0
LAYER
  5
47
330
2
100
AcDbSymbolTableRecord
100
AcDbLayerTableRecord
  2
TEMP
 70
     0
 62
     7
  6
Continuous
370
    -3
390
F
  0
ENDTAB
  0
TABLE
  2
STYLE
  5
3
330
0
100
AcDbSymbolTable
 70
     2
  0
STYLE
  5
11
330
3
100
AcDbSymbolTableRecord
100
AcDbTextStyleTableRecord
  2
Standard
 70
     0
 40
0.0
 41
1.0
 50
0.0
 71
     0
 42
2.5
  3
txt
  4

  0
STYLE
  5
86
330
3
100
AcDbSymbolTableRecord
100
AcDbTextStyleTableRecord
  2
SLDTEXTSTYLE0
 70
     0
 40
0.0
 41
0.605
 50
0.0
 71
     0
 42
0.2
  3
TXT
  4

  0
ENDTAB
  0
TABLE
  2
VIEW
  5
6
330
0
100
AcDbSymbolTable
 70
     0
  0
ENDTAB
  0
TABLE
  2
UCS
  5
7
330
0
100
AcDbSymbolTable
 70
     0
  0
ENDTAB
  0
TABLE
  2
APPID
  5
9
330
0
100
AcDbSymbolTable
 70
     1
  0
APPID
  5
12
330
9
100
AcDbSymbolTableRecord
100
AcDbRegAppTableRecord
  2
ACAD
 70
     0
  0
ENDTAB
  0
TABLE
  2
DIMSTYLE
  5
A
330
0
100
AcDbSymbolTable
 70
     2
100
AcDbDimStyleTable
  0
DIMSTYLE
105
27
330
A
100
AcDbSymbolTableRecord
100
AcDbDimStyleTableRecord
  2
ISO-25
 70
     0
 41
2.5
 42
0.625
 43
3.75
 44
1.25
 73
     0
 74
     0
 77
     1
 78
     8
140
2.5
141
2.5
143
0.0393700787
147
0.625
171
     3
172
     1
178
     0
271
     2
272
     2
274
     3
278
    44
283
     0
284
     8
340
11
  0
DIMSTYLE
105
87
102
{ACAD_REACTORS
330
85
330
12C
330
138
102
}
330
A
100
AcDbSymbolTableRecord
100
AcDbDimStyleTableRecord
  2
SLDDIMSTYLE0
 70
     0
 41
3.5
 44
0.0
 45
0.000000001
 73
     0
 74
     0
 77
     1
 78
    12
 79
     3
140
3.5
147
0.875
173
     1
178
     0
271
     1
272
     2
276
     2
284
    12
340
86
  0
ENDTAB
  0
TABLE
  2
BLOCK_RECORD
  5
1
330
0
100
AcDbSymbolTable
 70
     5
  0
BLOCK_RECORD
  5
1F
330
1
100
AcDbSymbolTableRecord
100
AcDbBlockTableRecord
  2
*Model_Space
340
22
  0
BLOCK_RECORD
  5
1B
330
1
100
AcDbSymbolTableRecord
100
AcDbBlockTableRecord
  2
*Paper_Space
340
1E
  0
BLOCK_RECORD
  5
23
330
1
100
AcDbSymbolTableRecord
100
AcDbBlockTableRecord
  2
*Paper_Space0
340
26
  0
BLOCK_RECORD
  5
88
330
1
100
AcDbSymbolTableRecord
100
AcDbBlockTableRecord
  2
*D1
340
0
  0
BLOCK_RECORD
  5
12D
330
1
100
AcDbSymbolTableRecord
100
AcDbBlockTableRecord
  2
*D2
340
0
  0
BLOCK_RECORD
  5
139
330
1
100
AcDbSymbolTableRecord
100
AcDbBlockTableRecord
  2
*D3
340
0
  0
BLOCK_RECORD
  5
144
330
1
100
AcDbSymbolTableRecord
100
AcDbBlockTableRecord
  2
SW_CENTERMARKSYMBOL_0
340
0
102
{BLKREFS
331
14F
102
}
  0
ENDTAB
  0
ENDSEC
  0
SECTION
  2
BLOCKS
  0
BLOCK
  5
20
330
1F
100
AcDbEntity
  8
0
100
AcDbBlockBegin
  2
*Model_Space
 70
     0
 10
0.0
 20
0.0
 30
0.0
  3
*Model_Space
  1

  0
ENDBLK
  5
21
330
1F
100
AcDbEntity
  8
0
100
AcDbBlockEnd
  0
BLOCK
  5
1C
330
1B
100
AcDbEntity
 67
     1
  8
0
100
AcDbBlockBegin
  2
*Paper_Space
 70
     0
 10
0.0
 20
0.0
 30
0.0
  3
*Paper_Space
  1

  0
ENDBLK
  5
1D
330
1B
100
AcDbEntity
 67
     1
  8
0
100
AcDbBlockEnd
  0
BLOCK
  5
24
330
23
100
AcDbEntity
  8
0
100
AcDbBlockBegin
  2
*Paper_Space0
 70
     0
 10
0.0
 20
0.0
 30
0.0
  3
*Paper_Space0
  1

  0
ENDBLK
  5
25
330
23
100
AcDbEntity
  8
0
100
AcDbBlockEnd
  0
BLOCK
  5
89
330
88
100
AcDbEntity
  8
0
100
AcDbBlockBegin
  2
*D1
 70
     1
 10
0.0
 20
0.0
 30
0.0
  3
*D1
  1

  0
ARC
  5
8B
330
88
100
AcDbEntity
  8
0
  6
Continuous
 62
     7
370
     0
100
AcDbCircle
 10
354.504815533
 20
203.4548589598
 30
0.0
 40
6.005137669660259
100
AcDbArc
 50
243.4349488229
 51
296.5650511771
  0
ARC
  5
8C
330
88
100
AcDbEntity
  8
0
  6
Continuous
 62
     7
370
     0
100
AcDbCircle
 10
354.504815533
 20
201.2340810233
 30
0.0
 40
6.005137669660234
100
AcDbArc
 50
63.4349488229
 51
116.5650511771
  0
SOLID
  5
8D
330
88
100
AcDbEntity
  8
0
  6
Continuous
 62
     7
370
     0
100
AcDbTrace
 10
357.1903947418
 20
224.8311813318
 30
0.0
 11
356.2903947418
 21
221.3311813318
 31
0.0
 12
358.0903947418
 22
221.3311813318
 32
0.0
 13
358.0903947418
 23
221.3311813318
 33
0.0
  0
SOLID
  5
8E
330
88
100
AcDbEntity
  8
0
  6
Continuous
 62
     7
370
     0
100
AcDbTrace
 10
357.1903947418
 20
180.8311813318
 30
0.0
 11
358.0903947418
 21
184.3311813318
 31
0.0
 12
356.2903947418
 22
184.3311813318
 32
0.0
 13
356.2903947418
 23
184.3311813318
 33
0.0
  0
LINE
  5
8F
330
88
100
AcDbEntity
  8
0
  6
Continuous
 62
     7
370
     0
100
AcDbLine
 10
346.754890541
 20
224.8311813318
 30
0.0
 11
358.1903947418
 21
224.8311813318
 31
0.0
  0
LINE
  5
90
330
88
100
AcDbEntity
  8
0
  6
Continuous
 62
     7
370
     0
100
AcDbLine
 10
218.954890541
 20
180.8311813318
 30
0.0
 11
358.1903947418
 21
180.8311813318
 31
0.0
  0
LINE
  5
91
330
88
100
AcDbEntity
  8
0
  6
Continuous
 62
     7
370
     0
100
AcDbLine
 10
357.1903947418
 20
224.8311813318
 30
0.0
 11
357.1903947418
 21
180.8311813318
 31
0.0
  0
MTEXT
  5
92
330
88
100
AcDbEntity
  8
0
  6
Continuous
 62
     7
370
     0
100
AcDbMText
 10
352.6786574197
 20
199.6712005424
 30
0.0
 40
3.5
 41
0.0
 71
     1
 72
     1
  1
44
  7
SLDTEXTSTYLE0
 11
-7.932373437343760E-15
 21
1.0
 31
0.0
 73
     1
 44
1.0
  0
ENDBLK
  5
8A
330
88
100
AcDbEntity
  8
0
100
AcDbBlockEnd
  0
BLOCK
  5
12E
330
12D
100
AcDbEntity
  8
0
100
AcDbBlockBegin
  2
*D2
 70
     1
 10
0.0
 20
0.0
 30
0.0
  3
*D2
  1

  0
ARC
  5
130
330
12D
100
AcDbEntity
  8
0
  6
Continuous
 62
     7
370
     0
100
AcDbCircle
 10
354.7043386534
 20
313.8789973209
 30
0.0
 40
6.005137669660285
100
AcDbArc
 50
243.4349488229
 51
296.5650511771
  0
ARC
  5
131
330
12D
100
AcDbEntity
  8
0
  6
Continuous
 62
     7
370
     0
100
AcDbCircle
 10
354.7043386534
 20
315.6670977448
 30
0.0
 40
6.005137669660183
100
AcDbArc
 50
63.4349488229
 51
116.5650511771
  0
SOLID
  5
132
330
12D
100
AcDbEntity
  8
0
  6
Continuous
 62
     7
370
     0
100
AcDbTrace
 10
357.3899178621
 20
360.3878154961
 30
0.0
 11
356.4899178621
 21
356.8878154961
 31
0.0
 12
358.2899178621
 22
356.8878154961
 32
0.0
 13
358.2899178621
 23
356.8878154961
 33
0.0
  0
SOLID
  5
133
330
12D
100
AcDbEntity
  8
0
  6
Continuous
 62
     7
370
     0
100
AcDbTrace
 10
357.3899178621
 20
263.8878154961
 30
0.0
 11
358.2899178621
 21
267.3878154961
 31
0.0
 12
356.4899178621
 22
267.3878154961
 32
0.0
 13
356.4899178621
 23
267.3878154961
 33
0.0
  0
LINE
  5
134
330
12D
100
AcDbEntity
  8
0
  6
Continuous
 62
     7
370
     0
100
AcDbLine
 10
339.254890541
 20
360.3878154961
 30
0.0
 11
358.3899178621
 21
360.3878154961
 31
0.0
  0
LINE
  5
135
330
12D
100
AcDbEntity
  8
0
  6
Continuous
 62
     7
370
     0
100
AcDbLine
 10
218.954890541
 20
263.8878154961
 30
0.0
 11
358.3899178621
 21
263.8878154961
 31
0.0
  0
LINE
  5
136
330
12D
100
AcDbEntity
  8
0
  6
Continuous
 62
     7
370
     0
100
AcDbLine
 10
357.3899178621
 20
360.3878154961
 30
0.0
 11
357.3899178621
 21
263.8878154961
 31
0.0
  0
MTEXT
  5
137
330
12D
100
AcDbEntity
  8
0
  6
Continuous
 62
     7
370
     0
100
AcDbMText
 10
352.8781805401
 20
310.0953389034
 30
0.0
 40
3.5
 41
0.0
 71
     1
 72
     1
  1
96.5
  7
SLDTEXTSTYLE0
 11
-7.044195017643634E-15
 21
1.0
 31
0.0
 73
     1
 44
1.0
  0
ENDBLK
  5
12F
330
12D
100
AcDbEntity
  8
0
100
AcDbBlockEnd
  0
BLOCK
  5
13A
330
139
100
AcDbEntity
  8
0
100
AcDbBlockBegin
  2
*D3
 70
     1
 10
0.0
 20
0.0
 30
0.0
  3
*D3
  1

  0
ARC
  5
13C
330
139
100
AcDbEntity
  8
0
  6
Continuous
 62
     7
370
     0
100
AcDbCircle
 10
192.203597949
 20
372.0121089098
 30
0.0
 40
6.005137669660183
100
AcDbArc
 50
153.4349488229
 51
206.5650511771
  0
ARC
  5
13D
330
139
100
AcDbEntity
  8
0
  6
Continuous
 62
     7
370
     0
100
AcDbCircle
 10
192.654037835
 20
372.0121089098
 30
0.0
 40
6.005137669660158
100
AcDbArc
 50
333.4349488229
 51
26.5650511771
  0
SOLID
  5
13E
330
139
100
AcDbEntity
  8
0
  6
Continuous
 62
     7
370
     0
100
AcDbTrace
 10
38.254890541
 20
369.3265297011
 30
0.0
 11
41.754890541
 21
368.4265297011
 31
0.0
 12
41.754890541
 22
370.2265297011
 32
0.0
 13
41.754890541
 23
370.2265297011
 33
0.0
  0
SOLID
  5
13F
330
139
100
AcDbEntity
  8
0
  6
Continuous
 62
     7
370
     0
100
AcDbTrace
 10
346.254890541
 20
369.3265297011
 30
0.0
 11
342.754890541
 21
370.2265297011
 31
0.0
 12
342.754890541
 22
368.4265297011
 32
0.0
 13
342.754890541
 23
368.4265297011
 33
0.0
  0
LINE
  5
140
330
139
100
AcDbEntity
  8
0
  6
Continuous
 62
     7
370
     0
100
AcDbLine
 10
38.254890541
 20
353.3878154961
 30
0.0
 11
38.254890541
 21
370.3265297011
 31
0.0
  0
LINE
  5
141
330
139
100
AcDbEntity
  8
0
  6
Continuous
 62
     7
370
     0
100
AcDbLine
 10
346.254890541
 20
353.3878154961
 30
0.0
 11
346.254890541
 21
370.3265297011
 31
0.0
  0
LINE
  5
142
330
139
100
AcDbEntity
  8
0
  6
Continuous
 62
     7
370
     0
100
AcDbLine
 10
38.254890541
 20
369.3265297011
 30
0.0
 11
346.254890541
 21
369.3265297011
 31
0.0
  0
MTEXT
  5
143
330
139
100
AcDbEntity
  8
0
  6
Continuous
 62
     7
370
     0
100
AcDbMText
 10
188.4199395315
 20
373.8382670231
 30
0.0
 40
3.5
 41
0.0
 71
     1
 72
     1
  1
308
  7
SLDTEXTSTYLE0
 73
     1
 44
1.0
  0
ENDBLK
  5
13B
330
139
100
AcDbEntity
  8
0
100
AcDbBlockEnd
  0
BLOCK
  5
145
330
144
100
AcDbEntity
  8
0
100
AcDbBlockBegin
  2
SW_CENTERMARKSYMBOL_0
 70
     0
 10
0.0
 20
0.0
 30
0.0
  3
SW_CENTERMARKSYMBOL_0
  1

  0
LINE
  5
147
330
144
100
AcDbEntity
  8
0
  6
Continuous
 62
     0
370
     0
100
AcDbLine
 10
0.0
 20
0.0
 30
0.0
 11
0.0
 21
2.5
 31
0.0
  0
LINE
  5
148
330
144
100
AcDbEntity
  8
0
  6
Continuous
 62
     0
370
     0
100
AcDbLine
 10
0.0
 20
0.0
 30
0.0
 11
-2.5
 21
0.0
 31
0.0
  0
LINE
  5
149
330
144
100
AcDbEntity
  8
0
  6
Continuous
 62
     0
370
     0
100
AcDbLine
 10
0.0
 20
0.0
 30
0.0
 11
0.0
 21
-2.5
 31
0.0
  0
LINE
  5
14A
330
144
100
AcDbEntity
  8
0
  6
Continuous
 62
     0
370
     0
100
AcDbLine
 10
0.0
 20
0.0
 30
0.0
 11
2.5
 21
0.0
 31
0.0
  0
LINE
  5
14B
330
144
100
AcDbEntity
  8
0
  6
Continuous
 62
     0
370
     0
100
AcDbLine
 10
0.0
 20
5.0
 30
0.0
 11
0.0
 21
93.0962499772
 31
0.0
  0
LINE
  5
14C
330
144
100
AcDbEntity
  8
0
  6
Continuous
 62
     0
370
     0
100
AcDbLine
 10
-5.0
 20
0.0
 30
0.0
 11
-6.0
 21
0.0
 31
0.0
  0
LINE
  5
14D
330
144
100
AcDbEntity
  8
0
  6
Continuous
 62
     0
370
     0
100
AcDbLine
 10
0.0
 20
-5.0
 30
0.0
 11
0.0
 21
-9.4260270877
 31
0.0
  0
LINE
  5
14E
330
144
100
AcDbEntity
  8
0
  6
Continuous
 62
     0
370
     0
100
AcDbLine
 10
5.0
 20
0.0
 30
0.0
 11
6.0
 21
0.0
 31
0.0
  0
ENDBLK
  5
146
330
144
100
AcDbEntity
  8
0
100
AcDbBlockEnd
  0
ENDSEC
  0
SECTION
  2
ENTITIES
  0
LINE
  5
48
330
1F
100
AcDbEntity
  8
0
  6
Continuous
 62
     7
370
    30
100
AcDbLine
 10
38.2548913755
 20
224.3311822258
 30
0.0
 11
38.2548913755
 21
203.3311813448
 31
0.0
  0
ARC
  5
49
330
1F
100
AcDbEntity
  8
0
  6
Continuous
 62
     7
370
    30
100
AcDbCircle
 10
38.754890541
 20
224.3311813318
 30
0.0
 40
0.5000000000000568
100
AcDbArc
 50
90.0
 51
180.0
  0
LINE
  5
4A
330
1F
100
AcDbEntity
  8
0
  6
Continuous
 62
     7
370
    30
100
AcDbLine
 10
38.7548849382
 20
224.8311813765
 30
0.0
 11
46.2548926868
 21
224.8311813765
 31
0.0
  0
LINE
  5
4B
330
1F
100
AcDbEntity
  8
0
  6
Continuous
 62
     7
370
    30
100
AcDbLine
 10
338.2548883952
 20
202.8311813793
 30
0.0
 11
46.2548926868
 21
202.8311813793
 31
0.0
  0
LINE
  5
4C
330
1F
100
AcDbEntity
  8
0
  6
Continuous
 62
     7
370
    30
100
AcDbLine
 10
46.2548926868
 20
202.8311813793
 30
0.0
 11
38.7548849382
 21
202.8311813793
 31
0.0
  0
ARC
  5
4D
330
1F
100
AcDbEntity
  8
0
  6
Continuous
 62
     7
370
    30
100
AcDbCircle
 10
38.754890541
 20
203.3311813318
 30
0.0
 40
0.5000000000000284
100
AcDbArc
 50
180.0
 51
270.0
  0
LINE
  5
4E
330
1F
100
AcDbEntity
  8
0
  6
Continuous
 62
     7
370
    30
100
AcDbLine
 10
46.2548926868
 20
224.8311813765
 30
0.0
 11
338.2548883952
 21
224.8311813765
 31
0.0
  0
LINE
  5
4F
330
1F
100
AcDbEntity
  8
0
  6
Continuous
 62
     7
370
    30
100
AcDbLine
 10
346.2548897065
 20
224.3311822258
 30
0.0
 11
346.2548897065
 21
203.3311813448
 31
0.0
  0
LINE
  5
50
330
1F
100
AcDbEntity
  8
0
  6
Continuous
 62
     7
370
    30
100
AcDbLine
 10
345.7548961438
 20
202.8311813793
 30
0.0
 11
338.2548883952
 21
202.8311813793
 31
0.0
  0
ARC
  5
51
330
1F
100
AcDbEntity
  8
0
  6
Continuous
 62
     7
370
    30
100
AcDbCircle
 10
345.754890541
 20
203.3311813318
 30
0.0
 40
0.5000000000000568
100
AcDbArc
 50
270.0
 51
360.0
  0
LINE
  5
52
330
1F
100
AcDbEntity
  8
0
  6
Continuous
 62
     7
370
    30
100
AcDbLine
 10
338.2548883952
 20
224.8311813765
 30
0.0
 11
345.7548961438
 21
224.8311813765
 31
0.0
  0
ARC
  5
53
330
1F
100
AcDbEntity
  8
0
  6
Continuous
 62
     7
370
    30
100
AcDbCircle
 10
345.754890541
 20
224.3311813318
 30
0.0
 40
0.5000000000000284
100
AcDbArc
 50
0.0
 51
90.0
  0
ELLIPSE
  5
54
330
1F
100
AcDbEntity
  8
0
  6
Continuous
 62
     7
370
    30
100
AcDbEllipse
 10
166.554890541
 20
202.0806259818
 30
0.0
 11
0.3000000000000114
 21
0.0
 31
0.0
210
0.0
220
0.0
230
1.0
 40
0.5773502692
 41
1.570796326794897
 42
3.141592653589793
  0
LINE
  5
55
330
1F
100
AcDbEntity
  8
0
  6
Continuous
 62
     7
370
    30
100
AcDbLine
 10
166.2548900046
 20
202.0806259843
 30
0.0
 11
166.2548900046
 21
202.5311813068
 31
0.0
  0
ARC
  5
56
330
1F
100
AcDbEntity
  8
0
  6
Continuous
 62
     7
370
    30
100
AcDbCircle
 10
166.554890541
 20
202.5311813318
 30
0.0
 40
0.3000000000000398
100
AcDbArc
 50
90.0
 51
180.0
  0
ARC
  5
57
330
1F
100
AcDbEntity
  8
0
  6
Continuous
 62
     7
370
    30
100
AcDbCircle
 10
217.954890541
 20
202.5311813318
 30
0.0
 40
0.3000000000000398
100
AcDbArc
 50
0.0
 51
90.0
  0
LINE
  5
58
330
1F
100
AcDbEntity
  8
0
  6
Continuous
 62
     7
370
    30
100
AcDbLine
 10
218.2548910774
 20
202.5311813068
 30
0.0
 11
218.2548910774
 21
202.0806259843
 31
0.0
  0
ELLIPSE
  5
59
330
1F
100
AcDbEntity
  8
0
  6
Continuous
 62
     7
370
    30
100
AcDbEllipse
 10
217.954890541
 20
202.0806259818
 30
0.0
 11
0.3000000000000114
 21
0.0
 31
0.0
210
0.0
220
0.0
230
1.0
 40
0.5773502692
 41
0.0
 42
1.570796326794897
  0
ARC
  5
5A
330
1F
100
AcDbEntity
  8
0
  6
Continuous
 62
     7
370
    30
100
AcDbCircle
 10
166.554890541
 20
199.6311813318
 30
0.0
 40
0.2999999999999829
100
AcDbArc
 50
180.0
 51
270.0
  0
LINE
  5
5B
330
1F
100
AcDbEntity
  8
0
  6
Continuous
 62
     7
370
    30
100
AcDbLine
 10
166.2548900046
 20
199.6311813437
 30
0.0
 11
166.2548900046
 21
202.0806259843
 31
0.0
  0
LINE
  5
5C
330
1F
100
AcDbEntity
  8
0
  6
Continuous
 62
     7
370
    30
100
AcDbLine
 10
218.2548910774
 20
202.0806259843
 30
0.0
 11
218.2548910774
 21
199.6311813437
 31
0.0
  0
ARC
  5
5D
330
1F
100
AcDbEntity
  8
0
  6
Continuous
 62
     7
370
    30
100
AcDbCircle
 10
217.954890541
 20
199.6311813318
 30
0.0
 40
0.3000000000000114
100
AcDbArc
 50
270.0
 51
0.0
  0
LINE
  5
5E
330
1F
100
AcDbEntity
  8
0
  6
Continuous
 62
     7
370
    30
100
AcDbLine
 10
217.9548897244
 20
202.2538310576
 30
0.0
 11
166.5548913576
 21
202.2538310576
 31
0.0
  0
LINE
  5
5F
330
1F
100
AcDbEntity
  8
0
  6
Continuous
 62
     7
370
    30
100
AcDbLine
 10
166.5548913576
 20
199.3311813876
 30
0.0
 11
217.9548897244
 21
199.3311813876
 31
0.0
  0
LINE
  5
60
330
1F
100
AcDbEntity
  8
0
  6
Continuous
 62
     7
370
    30
100
AcDbLine
 10
166.2548900046
 20
196.3311813616
 30
0.0
 11
166.2548900046
 21
199.6311813437
 31
0.0
  0
LINE
  5
61
330
1F
100
AcDbEntity
  8
0
  6
Continuous
 62
     7
370
    30
100
AcDbLine
 10
218.2548910774
 20
199.6311813437
 30
0.0
 11
218.2548910774
 21
196.3311813616
 31
0.0
  0
LINE
  5
62
330
1F
100
AcDbEntity
  8
0
  6
Continuous
 62
     7
370
    30
100
AcDbLine
 10
166.2548900046
 20
202.5311813068
 30
0.0
 11
166.2548900046
 21
202.8311813793
 31
0.0
  0
ARC
  5
63
330
1F
100
AcDbEntity
  8
0
  6
Continuous
 62
     7
370
    30
100
AcDbCircle
 10
217.954890541
 20
181.1311813318
 30
0.0
 40
0.3000000000000114
100
AcDbArc
 50
270.0
 51
0.0
  0
LINE
  5
64
330
1F
100
AcDbEntity
  8
0
  6
Continuous
 62
     7
370
    30
100
AcDbLine
 10
218.2548910774
 20
196.3311813616
 30
0.0
 11
218.2548910774
 21
181.1311811053
 31
0.0
  0
LINE
  5
65
330
1F
100
AcDbEntity
  8
0
  6
Continuous
 62
     7
370
    30
100
AcDbLine
 10
166.2548900046
 20
181.1311811053
 30
0.0
 11
166.2548900046
 21
196.3311813616
 31
0.0
  0
LINE
  5
66
330
1F
100
AcDbEntity
  8
0
  6
Continuous
 62
     7
370
    30
100
AcDbLine
 10
218.2548910774
 20
202.8311813793
 30
0.0
 11
218.2548910774
 21
202.5311813068
 31
0.0
  0
LINE
  5
67
330
1F
100
AcDbEntity
  8
0
  6
Continuous
 62
     7
370
    30
100
AcDbLine
 10
217.9548897244
 20
180.8311816149
 30
0.0
 11
166.5548913576
 21
180.8311816149
 31
0.0
  0
ARC
  5
68
330
1F
100
AcDbEntity
  8
0
  6
Continuous
 62
     7
370
    30
100
AcDbCircle
 10
166.554890541
 20
181.1311813318
 30
0.0
 40
0.2999999999999829
100
AcDbArc
 50
180.0
 51
270.0
  0
LINE
  5
69
330
1F
100
AcDbEntity
  8
0
  6
Continuous
 62
     8
370
     0
100
AcDbLine
 10
38.2548913755
 20
203.3311813448
 30
0.0
 11
46.2548926868
 21
203.3311813448
 31
0.0
  0
LINE
  5
6A
330
1F
100
AcDbEntity
  8
0
  6
Continuous
 62
     8
370
     0
100
AcDbLine
 10
46.2548926868
 20
224.3311822258
 30
0.0
 11
38.2548913755
 21
224.3311822258
 31
0.0
  0
LINE
  5
6B
330
1F
100
AcDbEntity
  8
0
  6
Continuous
 62
     8
370
     0
100
AcDbLine
 10
46.2548926868
 20
203.3311813448
 30
0.0
 11
46.2548926868
 21
224.3311822258
 31
0.0
  0
LINE
  5
6C
330
1F
100
AcDbEntity
  8
0
  6
Continuous
 62
     8
370
     0
100
AcDbLine
 10
46.2548926868
 20
224.3311822258
 30
0.0
 11
46.2548926868
 21
224.8311813765
 31
0.0
  0
LINE
  5
6D
330
1F
100
AcDbEntity
  8
0
  6
Continuous
 62
     8
370
     0
100
AcDbLine
 10
46.2548926868
 20
203.3311813448
 30
0.0
 11
338.2548883952
 21
203.3311813448
 31
0.0
  0
LINE
  5
6E
330
1F
100
AcDbEntity
  8
0
  6
Continuous
 62
     8
370
     0
100
AcDbLine
 10
338.2548883952
 20
224.3311822258
 30
0.0
 11
46.2548926868
 21
224.3311822258
 31
0.0
  0
LINE
  5
6F
330
1F
100
AcDbEntity
  8
0
  6
Continuous
 62
     8
370
     0
100
AcDbLine
 10
338.2548883952
 20
203.3311813448
 30
0.0
 11
338.2548883952
 21
224.3311822258
 31
0.0
  0
LINE
  5
70
330
1F
100
AcDbEntity
  8
0
  6
Continuous
 62
     8
370
     0
100
AcDbLine
 10
46.2548926868
 20
202.8311813793
 30
0.0
 11
46.2548926868
 21
203.3311813448
 31
0.0
  0
LINE
  5
71
330
1F
100
AcDbEntity
  8
0
  6
Continuous
 62
     8
370
     0
100
AcDbLine
 10
338.2548883952
 20
202.8311813793
 30
0.0
 11
338.2548883952
 21
203.3311813448
 31
0.0
  0
LINE
  5
72
330
1F
100
AcDbEntity
  8
0
  6
Continuous
 62
     8
370
     0
100
AcDbLine
 10
338.2548883952
 20
224.3311822258
 30
0.0
 11
338.2548883952
 21
224.8311813765
 31
0.0
  0
LINE
  5
73
330
1F
100
AcDbEntity
  8
0
  6
Continuous
 62
     8
370
     0
100
AcDbLine
 10
338.2548883952
 20
203.3311813448
 30
0.0
 11
346.2548897065
 21
203.3311813448
 31
0.0
  0
LINE
  5
74
330
1F
100
AcDbEntity
  8
0
  6
Continuous
 62
     8
370
     0
100
AcDbLine
 10
346.2548897065
 20
224.3311822258
 30
0.0
 11
338.2548883952
 21
224.3311822258
 31
0.0
  0
LINE
  5
75
330
1F
100
AcDbEntity
  8
0
  6
Continuous
 62
     8
370
     0
100
AcDbLine
 10
166.5548913576
 20
202.8311813793
 30
0.0
 11
166.5548913576
 21
202.2538310576
 31
0.0
  0
LINE
  5
76
330
1F
100
AcDbEntity
  8
0
  6
Continuous
 62
     8
370
     0
100
AcDbLine
 10
217.9548897244
 20
202.2538310576
 30
0.0
 11
217.9548897244
 21
202.8311813793
 31
0.0
  0
LINE
  5
77
330
1F
100
AcDbEntity
  8
0
  6
Continuous
 62
     8
370
     0
100
AcDbLine
 10
166.5548913576
 20
202.2538310576
 30
0.0
 11
166.5548913576
 21
199.3311813876
 31
0.0
  0
LINE
  5
78
330
1F
100
AcDbEntity
  8
0
  6
Continuous
 62
     8
370
     0
100
AcDbLine
 10
217.9548897244
 20
199.3311813876
 30
0.0
 11
217.9548897244
 21
202.2538310576
 31
0.0
  0
LINE
  5
79
330
1F
100
AcDbEntity
  8
0
  6
Continuous
 62
     8
370
     0
100
AcDbLine
 10
166.5548913576
 20
199.3311813876
 30
0.0
 11
166.5548913576
 21
196.3311813616
 31
0.0
  0
LINE
  5
7A
330
1F
100
AcDbEntity
  8
0
  6
Continuous
 62
     8
370
     0
100
AcDbLine
 10
166.2548900046
 20
196.3311813616
 30
0.0
 11
166.5548913576
 21
196.3311813616
 31
0.0
  0
LINE
  5
7B
330
1F
100
AcDbEntity
  8
0
  6
Continuous
 62
     8
370
     0
100
AcDbLine
 10
218.2548910774
 20
196.3311813616
 30
0.0
 11
217.9548897244
 21
196.3311813616
 31
0.0
  0
LINE
  5
7C
330
1F
100
AcDbEntity
  8
0
  6
Continuous
 62
     8
370
     0
100
AcDbLine
 10
217.9548897244
 20
196.3311813616
 30
0.0
 11
217.9548897244
 21
199.3311813876
 31
0.0
  0
LINE
  5
7D
330
1F
100
AcDbEntity
  8
0
  6
Continuous
 62
     8
370
     0
100
AcDbLine
 10
217.9548897244
 20
196.3311813616
 30
0.0
 11
166.5548913576
 21
196.3311813616
 31
0.0
  0
LINE
  5
7E
330
1F
100
AcDbEntity
  8
0
  6
Continuous
 62
     8
370
     0
100
AcDbLine
 10
217.9548897244
 20
180.8311816149
 30
0.0
 11
217.9548897244
 21
181.1311811053
 31
0.0
  0
LINE
  5
7F
330
1F
100
AcDbEntity
  8
0
  6
Continuous
 62
     8
370
     0
100
AcDbLine
 10
218.2548910774
 20
181.1311811053
 30
0.0
 11
217.9548897244
 21
181.1311811053
 31
0.0
  0
LINE
  5
80
330
1F
100
AcDbEntity
  8
0
  6
Continuous
 62
     8
370
     0
100
AcDbLine
 10
217.9548897244
 20
181.1311811053
 30
0.0
 11
217.9548897244
 21
196.3311813616
 31
0.0
  0
LINE
  5
81
330
1F
100
AcDbEntity
  8
0
  6
Continuous
 62
     8
370
     0
100
AcDbLine
 10
166.5548913576
 20
196.3311813616
 30
0.0
 11
166.5548913576
 21
181.1311811053
 31
0.0
  0
LINE
  5
82
330
1F
100
AcDbEntity
  8
0
  6
Continuous
 62
     8
370
     0
100
AcDbLine
 10
166.2548900046
 20
181.1311811053
 30
0.0
 11
166.5548913576
 21
181.1311811053
 31
0.0
  0
LINE
  5
83
330
1F
100
AcDbEntity
  8
0
  6
Continuous
 62
     8
370
     0
100
AcDbLine
 10
166.5548913576
 20
181.1311811053
 30
0.0
 11
217.9548897244
 21
181.1311811053
 31
0.0
  0
LINE
  5
84
330
1F
100
AcDbEntity
  8
0
  6
Continuous
 62
     8
370
     0
100
AcDbLine
 10
166.5548913576
 20
180.8311816149
 30
0.0
 11
166.5548913576
 21
181.1311811053
 31
0.0
  0
DIMENSION
  5
85
330
1F
100
AcDbEntity
  8
0
  6
Continuous
 62
     7
370
     0
100
AcDbDimension
  2
*D1
 10
357.1903947418
 20
180.8311813318
 30
0.0
 11
357.1903947418
 21
202.3444699916
 31
0.0
 70
   160
  1
(<>)
 71
     2
 42
-1.0
  3
SLDDIMSTYLE0
100
AcDbAlignedDimension
 13
345.754890541
 23
224.8311813318
 33
0.0
 14
217.954890541
 24
180.8311813318
 34
0.0
 50
90.0
100
AcDbRotatedDimension
  0
LINE
  5
93
330
1F
100
AcDbEntity
  8
0
  6
CENTER
 62
     7
370
     0
100
AcDbLine
 10
192.254890541
 20
237.090738466
 30
0.0
 11
192.254890541
 21
166.7335778815
 31
0.0
  0
LINE
  5
94
330
1F
100
AcDbEntity
  8
0
  6
Continuous
 62
     7
370
     0
100
AcDbLine
 10
180.254890541
 20
235.090738466
 30
0.0
 11
192.254890541
 21
235.090738466
 31
0.0
  0
SOLID
  5
95
330
1F
100
AcDbEntity
  8
0
  6
Continuous
 62
     7
370
     0
100
AcDbTrace
 10
192.254890541
 20
235.090738466
 30
0.0
 11
186.254890541
 21
236.590738466
 31
0.0
 12
186.254890541
 22
233.590738466
 32
0.0
 13
186.254890541
 23
233.590738466
 33
0.0
  0
LINE
  5
96
330
1F
100
AcDbEntity
  8
0
  6
Continuous
 62
     7
370
     0
100
AcDbLine
 10
180.254890541
 20
168.7335778815
 30
0.0
 11
192.254890541
 21
168.7335778815
 31
0.0
  0
SOLID
  5
97
330
1F
100
AcDbEntity
  8
0
  6
Continuous
 62
     7
370
     0
100
AcDbTrace
 10
192.254890541
 20
168.7335778815
 30
0.0
 11
186.254890541
 21
170.2335778815
 31
0.0
 12
186.254890541
 22
167.2335778815
 32
0.0
 13
186.254890541
 23
167.2335778815
 33
0.0
  0
MTEXT
  5
98
330
1F
100
AcDbEntity
  8
0
  6
Continuous
 62
     7
100
AcDbMText
 10
174.4780215713
 20
237.5340995413
 30
0.0
 40
5.0
 41
0.0
 71
     1
 72
     1
  1
A
  7
SLDTEXTSTYLE0
 73
     1
 44
1.0
  0
MTEXT
  5
99
330
1F
100
AcDbEntity
  8
0
  6
Continuous
 62
     7
100
AcDbMText
 10
173.6431777151
 20
171.3727239328
 30
0.0
 40
5.0
 41
0.0
 71
     1
 72
     1
  1
A
  7
SLDTEXTSTYLE0
 73
     1
 44
1.0
  0
LINE
  5
9A
330
1F
100
AcDbEntity
  8
0
  6
CENTERX2
 62
     7
370
     0
100
AcDbLine
 10
192.254890541
 20
227.0262268663
 30
0.0
 11
192.254890541
 21
179.1311813318
 31
0.0
  0
LINE
  5
9B
330
1F
100
AcDbEntity
  8
0
  6
Continuous
 62
     7
370
    30
100
AcDbLine
 10
176.4664415665
 20
293.3878156749
 30
0.0
 11
176.4664415665
 21
293.4003158865
 31
0.0
  0
LINE
  5
9C
330
1F
100
AcDbEntity
  8
0
  6
Continuous
 62
     7
370
    30
100
AcDbLine
 10
214.7548914351
 20
263.8878154961
 30
0.0
 11
214.7548914351
 21
263.1878155211
 31
0.0
  0
LINE
  5
9D
330
1F
100
AcDbEntity
  8
0
  6
Continuous
 62
     7
370
    30
100
AcDbLine
 10
214.7548914351
 20
263.1878155211
 30
0.0
 11
207.7548902877
 21
263.1878155211
 31
0.0
  0
LINE
  5
9E
330
1F
100
AcDbEntity
  8
0
  6
Continuous
 62
     7
370
    30
100
AcDbLine
 10
169.7548896469
 20
263.1878155211
 30
0.0
 11
169.7548896469
 21
263.8878154961
 31
0.0
  0
LINE
  5
9F
330
1F
100
AcDbEntity
  8
0
  6
Continuous
 62
     7
370
    30
100
AcDbLine
 10
176.7548907943
 20
263.1878155211
 30
0.0
 11
169.7548896469
 21
263.1878155211
 31
0.0
  0
LINE
  5
A0
330
1F
100
AcDbEntity
  8
0
  6
Continuous
 62
     7
370
    30
100
AcDbLine
 10
176.7548907943
 20
263.1878155211
 30
0.0
 11
207.7548902877
 21
263.1878155211
 31
0.0
  0
CIRCLE
  5
A1
330
1F
100
AcDbEntity
  8
0
  6
Continuous
 62
     7
370
    30
100
AcDbCircle
 10
192.254890541
 20
270.8878154961
 30
0.0
 40
2.445499999999981
  0
CIRCLE
  5
A2
330
1F
100
AcDbEntity
  8
0
  6
Continuous
 62
     7
370
    30
100
AcDbCircle
 10
192.254890541
 20
270.8878154961
 30
0.0
 40
3.0
  0
LINE
  5
A3
330
1F
100
AcDbEntity
  8
0
  6
Continuous
 62
     7
370
    30
100
AcDbLine
 10
191.3888651458
 20
272.387815958
 30
0.0
 11
190.5228397506
 21
270.8878157122
 31
0.0
  0
LINE
  5
A4
330
1F
100
AcDbEntity
  8
0
  6
Continuous
 62
     7
370
    30
100
AcDbLine
 10
191.3888651458
 20
269.3878154663
 30
0.0
 11
190.5228397506
 21
270.8878157122
 31
0.0
  0
LINE
  5
A5
330
1F
100
AcDbEntity
  8
0
  6
Continuous
 62
     7
370
    30
100
AcDbLine
 10
193.1209159362
 20
269.3878154663
 30
0.0
 11
191.3888651458
 21
269.3878154663
 31
0.0
  0
LINE
  5
A6
330
1F
100
AcDbEntity
  8
0
  6
Continuous
 62
     7
370
    30
100
AcDbLine
 10
193.1209159362
 20
269.3878154663
 30
0.0
 11
193.9869413315
 21
270.8878157122
 31
0.0
  0
LINE
  5
A7
330
1F
100
AcDbEntity
  8
0
  6
Continuous
 62
     7
370
    30
100
AcDbLine
 10
193.1209159362
 20
272.387815958
 30
0.0
 11
193.9869413315
 21
270.8878157122
 31
0.0
  0
LINE
  5
A8
330
1F
100
AcDbEntity
  8
0
  6
Continuous
 62
     7
370
    30
100
AcDbLine
 10
193.1209159362
 20
272.387815958
 30
0.0
 11
191.3888651458
 21
272.387815958
 31
0.0
  0
ARC
  5
A9
330
1F
100
AcDbEntity
  8
0
  6
Continuous
 62
     7
370
    30
100
AcDbCircle
 10
166.554890541
 20
289.6878154961
 30
0.0
 40
0.3000000000000114
100
AcDbArc
 50
180.0
 51
270.0
  0
ARC
  5
AA
330
1F
100
AcDbEntity
  8
0
  6
Continuous
 62
     7
370
    30
100
AcDbCircle
 10
217.954890541
 20
289.6878154961
 30
0.0
 40
0.3000000000000114
100
AcDbArc
 50
270.0
 51
0.0
  0
LINE
  5
AB
330
1F
100
AcDbEntity
  8
0
  6
Continuous
 62
     7
370
    30
100
AcDbLine
 10
193.7682836712
 20
289.3878150193
 30
0.0
 11
190.7414974109
 21
289.3878150193
 31
0.0
  0
LINE
  5
AC
330
1F
100
AcDbEntity
  8
0
  6
Continuous
 62
     7
370
    30
100
AcDbLine
 10
166.2548900046
 20
289.6878163723
 30
0.0
 11
166.2548900046
 21
291.3878153471
 31
0.0
  0
LINE
  5
AD
330
1F
100
AcDbEntity
  8
0
  6
Continuous
 62
     7
370
    30
100
AcDbLine
 10
218.2548910774
 20
291.3878153471
 30
0.0
 11
218.2548910774
 21
289.6878163723
 31
0.0
  0
ARC
  5
AE
330
1F
100
AcDbEntity
  8
0
  6
Continuous
 62
     7
370
    30
100
AcDbCircle
 10
216.254890541
 20
291.3878154961
 30
0.0
 40
2.0
100
AcDbArc
 50
0.0
 51
90.0
  0
ARC
  5
AF
330
1F
100
AcDbEntity
  8
0
  6
Continuous
 62
     7
370
    30
100
AcDbCircle
 10
168.254890541
 20
291.3878154961
 30
0.0
 40
2.0
100
AcDbArc
 50
90.0
 51
180.0
  0
LINE
  5
B0
330
1F
100
AcDbEntity
  8
0
  6
Continuous
 62
     7
370
    30
100
AcDbLine
 10
168.2548903324
 20
293.3878156749
 30
0.0
 11
216.2548907496
 21
293.3878156749
 31
0.0
  0
ARC
  5
B1
330
1F
100
AcDbEntity
  8
0
  6
Continuous
 62
     7
370
    30
100
AcDbCircle
 10
46.254890541
 20
293.3878154961
 30
0.0
 40
8.000000000000007
100
AcDbArc
 50
180.0
 51
270.0
  0
LINE
  5
B2
330
1F
100
AcDbEntity
  8
0
  6
Continuous
 62
     7
370
    30
100
AcDbLine
 10
166.2548900046
 20
285.3878162263
 30
0.0
 11
46.2548926868
 21
285.3878162263
 31
0.0
  0
LINE
  5
B3
330
1F
100
AcDbEntity
  8
0
  6
Continuous
 62
     7
370
    30
100
AcDbLine
 10
191.2548904935
 20
288.8878158686
 30
0.0
 11
191.2548904935
 21
287.8878157047
 31
0.0
  0
LINE
  5
B4
330
1F
100
AcDbEntity
  8
0
  6
Continuous
 62
     7
370
    30
100
AcDbLine
 10
38.2548913755
 20
293.3878156749
 30
0.0
 11
38.2548913755
 21
352.3878160325
 31
0.0
  0
LINE
  5
B5
330
1F
100
AcDbEntity
  8
0
  6
Continuous
 62
     7
370
    30
100
AcDbLine
 10
189.2548905149
 20
289.3878150193
 30
0.0
 11
190.7414974109
 21
289.3878150193
 31
0.0
  0
ARC
  5
B6
330
1F
100
AcDbEntity
  8
0
  6
Continuous
 62
     7
370
    30
100
AcDbCircle
 10
190.754890541
 20
288.8878154961
 30
0.0
 40
0.5
100
AcDbArc
 50
0.0
 51
90.0
  0
LINE
  5
B7
330
1F
100
AcDbEntity
  8
0
  6
Continuous
 62
     7
370
    30
100
AcDbLine
 10
46.2548926868
 20
289.3878150193
 30
0.0
 11
189.2548905149
 21
289.3878150193
 31
0.0
  0
ARC
  5
B8
330
1F
100
AcDbEntity
  8
0
  6
Continuous
 62
     7
370
    30
100
AcDbCircle
 10
46.254890541
 20
293.3878154961
 30
0.0
 40
4.000000000000007
100
AcDbArc
 50
180.0
 51
270.0
  0
LINE
  5
B9
330
1F
100
AcDbEntity
  8
0
  6
Continuous
 62
     7
370
    30
100
AcDbLine
 10
42.2548845805
 20
352.3878160325
 30
0.0
 11
42.2548845805
 21
293.3878156749
 31
0.0
  0
ARC
  5
BA
330
1F
100
AcDbEntity
  8
0
  6
Continuous
 62
     7
370
    30
100
AcDbCircle
 10
46.254890541
 20
352.3878154961
 30
0.0
 40
8.000000000000057
100
AcDbArc
 50
90.0
 51
180.0
  0
ARC
  5
BB
330
1F
100
AcDbEntity
  8
0
  6
Continuous
 62
     7
370
    30
100
AcDbCircle
 10
46.254890541
 20
352.3878154961
 30
0.0
 40
4.000000000000036
100
AcDbArc
 50
90.0
 51
180.0
  0
LINE
  5
BC
330
1F
100
AcDbEntity
  8
0
  6
Continuous
 62
     7
370
    30
100
AcDbLine
 10
338.2548883952
 20
356.3878166882
 30
0.0
 11
46.2548926868
 21
356.3878166882
 31
0.0
  0
LINE
  5
BD
330
1F
100
AcDbEntity
  8
0
  6
Continuous
 62
     7
370
    30
100
AcDbLine
 10
46.2548926868
 20
360.3878173439
 30
0.0
 11
338.2548883952
 21
360.3878173439
 31
0.0
  0
LINE
  5
BE
330
1F
100
AcDbEntity
  8
0
  6
Continuous
 62
     7
370
    30
100
AcDbLine
 10
338.2548883952
 20
285.3878162263
 30
0.0
 11
218.2548910774
 21
285.3878162263
 31
0.0
  0
ARC
  5
BF
330
1F
100
AcDbEntity
  8
0
  6
Continuous
 62
     7
370
    30
100
AcDbCircle
 10
338.254890541
 20
293.3878154961
 30
0.0
 40
8.000000000000057
100
AcDbArc
 50
270.0
 51
0.0
  0
LINE
  5
C0
330
1F
100
AcDbEntity
  8
0
  6
Continuous
 62
     7
370
    30
100
AcDbLine
 10
193.2548905885
 20
288.8878158686
 30
0.0
 11
193.2548905885
 21
287.8878157047
 31
0.0
  0
ARC
  5
C1
330
1F
100
AcDbEntity
  8
0
  6
Continuous
 62
     7
370
    30
100
AcDbCircle
 10
338.254890541
 20
293.3878154961
 30
0.0
 40
4.000000000000057
100
AcDbArc
 50
270.0
 51
0.0
  0
ARC
  5
C2
330
1F
100
AcDbEntity
  8
0
  6
Continuous
 62
     7
370
    30
100
AcDbCircle
 10
193.754890541
 20
288.8878154961
 30
0.0
 40
0.5000000000000568
100
AcDbArc
 50
90.0
 51
180.0
  0
LINE
  5
C3
330
1F
100
AcDbEntity
  8
0
  6
Continuous
 62
     7
370
    30
100
AcDbLine
 10
193.7682836712
 20
289.3878150193
 30
0.0
 11
195.2548905671
 21
289.3878150193
 31
0.0
  0
LINE
  5
C4
330
1F
100
AcDbEntity
  8
0
  6
Continuous
 62
     7
370
    30
100
AcDbLine
 10
195.2548905671
 20
289.3878150193
 30
0.0
 11
338.2548883952
 21
289.3878150193
 31
0.0
  0
LINE
  5
C5
330
1F
100
AcDbEntity
  8
0
  6
Continuous
 62
     7
370
    30
100
AcDbLine
 10
342.2548965015
 20
293.3878156749
 30
0.0
 11
342.2548965015
 21
352.3878160325
 31
0.0
  0
LINE
  5
C6
330
1F
100
AcDbEntity
  8
0
  6
Continuous
 62
     7
370
    30
100
AcDbLine
 10
346.2548897065
 20
352.3878160325
 30
0.0
 11
346.2548897065
 21
293.3878156749
 31
0.0
  0
ARC
  5
C7
330
1F
100
AcDbEntity
  8
0
  6
Continuous
 62
     7
370
    30
100
AcDbCircle
 10
338.254890541
 20
352.3878154961
 30
0.0
 40
4.0
100
AcDbArc
 50
0.0
 51
90.0
  0
ARC
  5
C8
330
1F
100
AcDbEntity
  8
0
  6
Continuous
 62
     7
370
    30
100
AcDbCircle
 10
338.254890541
 20
352.3878154961
 30
0.0
 40
8.000000000000057
100
AcDbArc
 50
0.0
 51
90.0
  0
ARC
  5
C9
330
1F
100
AcDbEntity
  8
0
  6
Continuous
 62
     7
370
    30
100
AcDbCircle
 10
217.954890541
 20
264.1878154961
 30
0.0
 40
0.3000000000000114
100
AcDbArc
 50
270.0
 51
0.0
  0
LINE
  5
CA
330
1F
100
AcDbEntity
  8
0
  6
Continuous
 62
     7
370
    30
100
AcDbLine
 10
166.2548900046
 20
264.1878155104
 30
0.0
 11
166.2548900046
 21
283.5878155587
 31
0.0
  0
LINE
  5
CB
330
1F
100
AcDbEntity
  8
0
  6
Continuous
 62
     7
370
    30
100
AcDbLine
 10
218.2548910774
 20
283.5878155587
 30
0.0
 11
218.2548910774
 21
264.1878155104
 31
0.0
  0
LINE
  5
CC
330
1F
100
AcDbEntity
  8
0
  6
Continuous
 62
     7
370
    30
100
AcDbLine
 10
217.9548897244
 20
263.8878154961
 30
0.0
 11
166.5548913576
 21
263.8878154961
 31
0.0
  0
ARC
  5
CD
330
1F
100
AcDbEntity
  8
0
  6
Continuous
 62
     7
370
    30
100
AcDbCircle
 10
166.554890541
 20
264.1878154961
 30
0.0
 40
0.2999999999999829
100
AcDbArc
 50
180.0
 51
270.0
  0
CIRCLE
  5
CE
330
1F
100
AcDbEntity
  8
0
  6
Continuous
 62
     7
370
    30
100
AcDbCircle
 10
192.254890541
 20
270.8878154961
 30
0.0
 40
3.5
  0
ARC
  5
CF
330
1F
100
AcDbEntity
  8
0
  6
Continuous
 62
     7
370
    30
100
AcDbCircle
 10
166.554890541
 20
283.5878154961
 30
0.0
 40
0.3000000000000114
100
AcDbArc
 50
90.0
 51
180.0
  0
LINE
  5
D0
330
1F
100
AcDbEntity
  8
0
  6
Continuous
 62
     7
370
    30
100
AcDbLine
 10
166.5548913576
 20
283.8878150491
 30
0.0
 11
217.9548897244
 21
283.8878150491
 31
0.0
  0
ARC
  5
D1
330
1F
100
AcDbEntity
  8
0
  6
Continuous
 62
     7
370
    30
100
AcDbCircle
 10
217.954890541
 20
283.5878154961
 30
0.0
 40
0.3000000000000114
100
AcDbArc
 50
0.0
 51
90.0
  0
LINE
  5
D2
330
1F
100
AcDbEntity
  8
0
  6
Continuous
 62
     7
370
    30
100
AcDbLine
 10
218.2548910774
 20
286.8878155408
 30
0.0
 11
218.2548910774
 21
283.5878155587
 31
0.0
  0
LINE
  5
D3
330
1F
100
AcDbEntity
  8
0
  6
Continuous
 62
     7
370
    30
100
AcDbLine
 10
166.2548900046
 20
283.5878155587
 30
0.0
 11
166.2548900046
 21
286.8878155408
 31
0.0
  0
ARC
  5
D4
330
1F
100
AcDbEntity
  8
0
  6
Continuous
 62
     7
370
    30
100
AcDbCircle
 10
217.954890541
 20
287.5878154961
 30
0.0
 40
0.3000000000000114
100
AcDbArc
 50
0.0
 51
90.0
  0
LINE
  5
D5
330
1F
100
AcDbEntity
  8
0
  6
Continuous
 62
     7
370
    30
100
AcDbLine
 10
218.2548910774
 20
287.5878162143
 30
0.0
 11
218.2548910774
 21
286.8878155408
 31
0.0
  0
LINE
  5
D6
330
1F
100
AcDbEntity
  8
0
  6
Continuous
 62
     7
370
    30
100
AcDbLine
 10
166.5548913576
 20
287.8878157047
 30
0.0
 11
217.9548897244
 21
287.8878157047
 31
0.0
  0
ARC
  5
D7
330
1F
100
AcDbEntity
  8
0
  6
Continuous
 62
     7
370
    30
100
AcDbCircle
 10
166.554890541
 20
287.5878154961
 30
0.0
 40
0.3000000000000114
100
AcDbArc
 50
90.0
 51
180.0
  0
LINE
  5
D8
330
1F
100
AcDbEntity
  8
0
  6
Continuous
 62
     7
370
    30
100
AcDbLine
 10
166.2548900046
 20
286.8878155408
 30
0.0
 11
166.2548900046
 21
287.5878162143
 31
0.0
  0
LINE
  5
D9
330
1F
100
AcDbEntity
  8
0
  6
Continuous
 62
     8
370
     0
100
AcDbLine
 10
207.7548902877
 20
263.1878155211
 30
0.0
 11
207.7548902877
 21
263.8878154961
 31
0.0
  0
LINE
  5
DA
330
1F
100
AcDbEntity
  8
0
  6
Continuous
 62
     8
370
     0
100
AcDbLine
 10
176.7548907943
 20
263.8878154961
 30
0.0
 11
176.7548907943
 21
263.1878155211
 31
0.0
  0
LINE
  5
DB
330
1F
100
AcDbEntity
  8
0
  6
Continuous
 62
     8
370
     0
100
AcDbLine
 10
166.2548900046
 20
289.6878163723
 30
0.0
 11
166.5548913576
 21
289.6878163723
 31
0.0
  0
LINE
  5
DC
330
1F
100
AcDbEntity
  8
0
  6
Continuous
 62
     8
370
     0
100
AcDbLine
 10
166.5548913576
 20
289.3878150193
 30
0.0
 11
166.5548913576
 21
289.6878163723
 31
0.0
  0
LINE
  5
DD
330
1F
100
AcDbEntity
  8
0
  6
Continuous
 62
     8
370
     0
100
AcDbLine
 10
217.9548897244
 20
289.3878150193
 30
0.0
 11
217.9548897244
 21
289.6878163723
 31
0.0
  0
LINE
  5
DE
330
1F
100
AcDbEntity
  8
0
  6
Continuous
 62
     8
370
     0
100
AcDbLine
 10
218.2548910774
 20
289.6878163723
 30
0.0
 11
217.9548897244
 21
289.6878163723
 31
0.0
  0
LINE
  5
DF
330
1F
100
AcDbEntity
  8
0
  6
Continuous
 62
     8
370
     0
100
AcDbLine
 10
166.5548913576
 20
289.6878163723
 30
0.0
 11
217.9548897244
 21
289.6878163723
 31
0.0
  0
ARC
  5
E0
330
1F
100
AcDbEntity
  8
0
  6
Continuous
 62
     8
370
     0
100
AcDbCircle
 10
168.254890541
 20
291.3878154961
 30
0.0
 40
1.700000000000017
100
AcDbArc
 50
90.0
 51
180.0
  0
LINE
  5
E1
330
1F
100
AcDbEntity
  8
0
  6
Continuous
 62
     8
370
     0
100
AcDbLine
 10
216.2548907496
 20
293.0878161845
 30
0.0
 11
168.2548903324
 21
293.0878161845
 31
0.0
  0
ARC
  5
E2
330
1F
100
AcDbEntity
  8
0
  6
Continuous
 62
     8
370
     0
100
AcDbCircle
 10
216.254890541
 20
291.3878154961
 30
0.0
 40
1.699999999999989
100
AcDbArc
 50
0.0
 51
90.0
  0
LINE
  5
E3
330
1F
100
AcDbEntity
  8
0
  6
Continuous
 62
     8
370
     0
100
AcDbLine
 10
217.9548897244
 20
289.6878163723
 30
0.0
 11
217.9548897244
 21
291.3878153471
 31
0.0
  0
LINE
  5
E4
330
1F
100
AcDbEntity
  8
0
  6
Continuous
 62
     8
370
     0
100
AcDbLine
 10
166.5548913576
 20
291.3878153471
 30
0.0
 11
166.5548913576
 21
289.6878163723
 31
0.0
  0
LINE
  5
E5
330
1F
100
AcDbEntity
  8
0
  6
Continuous
 62
     8
370
     0
100
AcDbLine
 10
166.5548913576
 20
291.3878153471
 30
0.0
 11
166.2548900046
 21
291.3878153471
 31
0.0
  0
LINE
  5
E6
330
1F
100
AcDbEntity
  8
0
  6
Continuous
 62
     8
370
     0
100
AcDbLine
 10
217.9548897244
 20
291.3878153471
 30
0.0
 11
218.2548910774
 21
291.3878153471
 31
0.0
  0
LINE
  5
E7
330
1F
100
AcDbEntity
  8
0
  6
Continuous
 62
     8
370
     0
100
AcDbLine
 10
216.2548907496
 20
293.0878161845
 30
0.0
 11
216.2548907496
 21
293.3878156749
 31
0.0
  0
LINE
  5
E8
330
1F
100
AcDbEntity
  8
0
  6
Continuous
 62
     8
370
     0
100
AcDbLine
 10
168.2548903324
 20
293.0878161845
 30
0.0
 11
168.2548903324
 21
293.3878156749
 31
0.0
  0
ARC
  5
E9
330
1F
100
AcDbEntity
  8
0
  6
Continuous
 62
     8
370
     0
100
AcDbCircle
 10
46.254890541
 20
293.3878154961
 30
0.0
 40
7.500000000000007
100
AcDbArc
 50
180.0
 51
270.0
  0
LINE
  5
EA
330
1F
100
AcDbEntity
  8
0
  6
Continuous
 62
     8
370
     0
100
AcDbLine
 10
46.2548926868
 20
285.8878153769
 30
0.0
 11
46.2548926868
 21
285.3878162263
 31
0.0
  0
LINE
  5
EB
330
1F
100
AcDbEntity
  8
0
  6
Continuous
 62
     8
370
     0
100
AcDbLine
 10
38.7548849382
 20
293.3878156749
 30
0.0
 11
38.2548913755
 21
293.3878156749
 31
0.0
  0
LINE
  5
EC
330
1F
100
AcDbEntity
  8
0
  6
Continuous
 62
     8
370
     0
100
AcDbLine
 10
46.2548926868
 20
285.8878153769
 30
0.0
 11
166.2548900046
 21
285.8878153769
 31
0.0
  0
LINE
  5
ED
330
1F
100
AcDbEntity
  8
0
  6
Continuous
 62
     8
370
     0
100
AcDbLine
 10
191.2548904935
 20
288.8878158686
 30
0.0
 11
189.2548905149
 21
288.8878158686
 31
0.0
  0
LINE
  5
EE
330
1F
100
AcDbEntity
  8
0
  6
Continuous
 62
     8
370
     0
100
AcDbLine
 10
189.2548905149
 20
288.8878158686
 30
0.0
 11
189.2548905149
 21
287.8878157047
 31
0.0
  0
LINE
  5
EF
330
1F
100
AcDbEntity
  8
0
  6
Continuous
 62
     8
370
     0
100
AcDbLine
 10
189.2548905149
 20
288.8878158686
 30
0.0
 11
46.2548926868
 21
288.8878158686
 31
0.0
  0
LINE
  5
F0
330
1F
100
AcDbEntity
  8
0
  6
Continuous
 62
     8
370
     0
100
AcDbLine
 10
46.2548926868
 20
288.8878158686
 30
0.0
 11
46.2548926868
 21
285.8878153769
 31
0.0
  0
ARC
  5
F1
330
1F
100
AcDbEntity
  8
0
  6
Continuous
 62
     8
370
     0
100
AcDbCircle
 10
46.254890541
 20
293.3878154961
 30
0.0
 40
4.500000000000007
100
AcDbArc
 50
180.0
 51
270.0
  0
LINE
  5
F2
330
1F
100
AcDbEntity
  8
0
  6
Continuous
 62
     8
370
     0
100
AcDbLine
 10
41.7548910178
 20
293.3878156749
 30
0.0
 11
38.7548849382
 21
293.3878156749
 31
0.0
  0
LINE
  5
F3
330
1F
100
AcDbEntity
  8
0
  6
Continuous
 62
     8
370
     0
100
AcDbLine
 10
38.7548849382
 20
352.3878160325
 30
0.0
 11
38.7548849382
 21
293.3878156749
 31
0.0
  0
LINE
  5
F4
330
1F
100
AcDbEntity
  8
0
  6
Continuous
 62
     8
370
     0
100
AcDbLine
 10
38.7548849382
 20
352.3878160325
 30
0.0
 11
38.2548913755
 21
352.3878160325
 31
0.0
  0
LINE
  5
F5
330
1F
100
AcDbEntity
  8
0
  6
Continuous
 62
     8
370
     0
100
AcDbLine
 10
189.2548905149
 20
289.3878150193
 30
0.0
 11
189.2548905149
 21
288.8878158686
 31
0.0
  0
LINE
  5
F6
330
1F
100
AcDbEntity
  8
0
  6
Continuous
 62
     8
370
     0
100
AcDbLine
 10
46.2548926868
 20
289.3878150193
 30
0.0
 11
46.2548926868
 21
288.8878158686
 31
0.0
  0
LINE
  5
F7
330
1F
100
AcDbEntity
  8
0
  6
Continuous
 62
     8
370
     0
100
AcDbLine
 10
42.2548845805
 20
293.3878156749
 30
0.0
 11
41.7548910178
 21
293.3878156749
 31
0.0
  0
LINE
  5
F8
330
1F
100
AcDbEntity
  8
0
  6
Continuous
 62
     8
370
     0
100
AcDbLine
 10
41.7548910178
 20
293.3878156749
 30
0.0
 11
41.7548910178
 21
352.3878160325
 31
0.0
  0
LINE
  5
F9
330
1F
100
AcDbEntity
  8
0
  6
Continuous
 62
     8
370
     0
100
AcDbLine
 10
42.2548845805
 20
352.3878160325
 30
0.0
 11
41.7548910178
 21
352.3878160325
 31
0.0
  0
LINE
  5
FA
330
1F
100
AcDbEntity
  8
0
  6
Continuous
 62
     8
370
     0
100
AcDbLine
 10
41.7548910178
 20
352.3878160325
 30
0.0
 11
38.7548849382
 21
352.3878160325
 31
0.0
  0
ARC
  5
FB
330
1F
100
AcDbEntity
  8
0
  6
Continuous
 62
     8
370
     0
100
AcDbCircle
 10
46.254890541
 20
352.3878154961
 30
0.0
 40
7.500000000000036
100
AcDbArc
 50
90.0
 51
180.0
  0
LINE
  5
FC
330
1F
100
AcDbEntity
  8
0
  6
Continuous
 62
     8
370
     0
100
AcDbLine
 10
46.2548926868
 20
359.8878163306
 30
0.0
 11
46.2548926868
 21
360.3878173439
 31
0.0
  0
ARC
  5
FD
330
1F
100
AcDbEntity
  8
0
  6
Continuous
 62
     8
370
     0
100
AcDbCircle
 10
46.254890541
 20
352.3878154961
 30
0.0
 40
4.500000000000036
100
AcDbArc
 50
90.0
 51
180.0
  0
LINE
  5
FE
330
1F
100
AcDbEntity
  8
0
  6
Continuous
 62
     8
370
     0
100
AcDbLine
 10
46.2548926868
 20
356.3878166882
 30
0.0
 11
46.2548926868
 21
356.8878177015
 31
0.0
  0
LINE
  5
FF
330
1F
100
AcDbEntity
  8
0
  6
Continuous
 62
     8
370
     0
100
AcDbLine
 10
46.2548926868
 20
356.8878177015
 30
0.0
 11
46.2548926868
 21
359.8878163306
 31
0.0
  0
LINE
  5
100
330
1F
100
AcDbEntity
  8
0
  6
Continuous
 62
     8
370
     0
100
AcDbLine
 10
46.2548926868
 20
356.8878177015
 30
0.0
 11
338.2548883952
 21
356.8878177015
 31
0.0
  0
LINE
  5
101
330
1F
100
AcDbEntity
  8
0
  6
Continuous
 62
     8
370
     0
100
AcDbLine
 10
338.2548883952
 20
356.3878166882
 30
0.0
 11
338.2548883952
 21
356.8878177015
 31
0.0
  0
LINE
  5
102
330
1F
100
AcDbEntity
  8
0
  6
Continuous
 62
     8
370
     0
100
AcDbLine
 10
338.2548883952
 20
359.8878163306
 30
0.0
 11
46.2548926868
 21
359.8878163306
 31
0.0
  0
LINE
  5
103
330
1F
100
AcDbEntity
  8
0
  6
Continuous
 62
     8
370
     0
100
AcDbLine
 10
338.2548883952
 20
356.8878177015
 30
0.0
 11
338.2548883952
 21
359.8878163306
 31
0.0
  0
LINE
  5
104
330
1F
100
AcDbEntity
  8
0
  6
Continuous
 62
     8
370
     0
100
AcDbLine
 10
338.2548883952
 20
359.8878163306
 30
0.0
 11
338.2548883952
 21
360.3878173439
 31
0.0
  0
ARC
  5
105
330
1F
100
AcDbEntity
  8
0
  6
Continuous
 62
     8
370
     0
100
AcDbCircle
 10
338.254890541
 20
293.3878154961
 30
0.0
 40
4.500000000000057
100
AcDbArc
 50
270.0
 51
0.0
  0
LINE
  5
106
330
1F
100
AcDbEntity
  8
0
  6
Continuous
 62
     8
370
     0
100
AcDbLine
 10
342.7548900642
 20
293.3878156749
 30
0.0
 11
345.7548961438
 21
293.3878156749
 31
0.0
  0
ARC
  5
107
330
1F
100
AcDbEntity
  8
0
  6
Continuous
 62
     8
370
     0
100
AcDbCircle
 10
338.254890541
 20
293.3878154961
 30
0.0
 40
7.500000000000114
100
AcDbArc
 50
270.0
 51
0.0
  0
LINE
  5
108
330
1F
100
AcDbEntity
  8
0
  6
Continuous
 62
     8
370
     0
100
AcDbLine
 10
338.2548883952
 20
288.8878158686
 30
0.0
 11
338.2548883952
 21
285.8878153769
 31
0.0
  0
LINE
  5
109
330
1F
100
AcDbEntity
  8
0
  6
Continuous
 62
     8
370
     0
100
AcDbLine
 10
218.2548910774
 20
285.8878153769
 30
0.0
 11
338.2548883952
 21
285.8878153769
 31
0.0
  0
LINE
  5
10A
330
1F
100
AcDbEntity
  8
0
  6
Continuous
 62
     8
370
     0
100
AcDbLine
 10
338.2548883952
 20
285.3878162263
 30
0.0
 11
338.2548883952
 21
285.8878153769
 31
0.0
  0
LINE
  5
10B
330
1F
100
AcDbEntity
  8
0
  6
Continuous
 62
     8
370
     0
100
AcDbLine
 10
345.7548961438
 20
293.3878156749
 30
0.0
 11
346.2548897065
 21
293.3878156749
 31
0.0
  0
LINE
  5
10C
330
1F
100
AcDbEntity
  8
0
  6
Continuous
 62
     8
370
     0
100
AcDbLine
 10
338.2548883952
 20
288.8878158686
 30
0.0
 11
195.2548905671
 21
288.8878158686
 31
0.0
  0
LINE
  5
10D
330
1F
100
AcDbEntity
  8
0
  6
Continuous
 62
     8
370
     0
100
AcDbLine
 10
195.2548905671
 20
288.8878158686
 30
0.0
 11
195.2548905671
 21
287.8878157047
 31
0.0
  0
LINE
  5
10E
330
1F
100
AcDbEntity
  8
0
  6
Continuous
 62
     8
370
     0
100
AcDbLine
 10
195.2548905671
 20
288.8878158686
 30
0.0
 11
193.2548905885
 21
288.8878158686
 31
0.0
  0
LINE
  5
10F
330
1F
100
AcDbEntity
  8
0
  6
Continuous
 62
     8
370
     0
100
AcDbLine
 10
338.2548883952
 20
288.8878158686
 30
0.0
 11
338.2548883952
 21
289.3878150193
 31
0.0
  0
LINE
  5
110
330
1F
100
AcDbEntity
  8
0
  6
Continuous
 62
     8
370
     0
100
AcDbLine
 10
342.2548965015
 20
293.3878156749
 30
0.0
 11
342.7548900642
 21
293.3878156749
 31
0.0
  0
LINE
  5
111
330
1F
100
AcDbEntity
  8
0
  6
Continuous
 62
     8
370
     0
100
AcDbLine
 10
195.2548905671
 20
288.8878158686
 30
0.0
 11
195.2548905671
 21
289.3878150193
 31
0.0
  0
LINE
  5
112
330
1F
100
AcDbEntity
  8
0
  6
Continuous
 62
     8
370
     0
100
AcDbLine
 10
342.7548900642
 20
352.3878160325
 30
0.0
 11
342.7548900642
 21
293.3878156749
 31
0.0
  0
LINE
  5
113
330
1F
100
AcDbEntity
  8
0
  6
Continuous
 62
     8
370
     0
100
AcDbLine
 10
342.7548900642
 20
352.3878160325
 30
0.0
 11
345.7548961438
 21
352.3878160325
 31
0.0
  0
LINE
  5
114
330
1F
100
AcDbEntity
  8
0
  6
Continuous
 62
     8
370
     0
100
AcDbLine
 10
345.7548961438
 20
293.3878156749
 30
0.0
 11
345.7548961438
 21
352.3878160325
 31
0.0
  0
LINE
  5
115
330
1F
100
AcDbEntity
  8
0
  6
Continuous
 62
     8
370
     0
100
AcDbLine
 10
342.2548965015
 20
352.3878160325
 30
0.0
 11
342.7548900642
 21
352.3878160325
 31
0.0
  0
LINE
  5
116
330
1F
100
AcDbEntity
  8
0
  6
Continuous
 62
     8
370
     0
100
AcDbLine
 10
345.7548961438
 20
352.3878160325
 30
0.0
 11
346.2548897065
 21
352.3878160325
 31
0.0
  0
ARC
  5
117
330
1F
100
AcDbEntity
  8
0
  6
Continuous
 62
     8
370
     0
100
AcDbCircle
 10
338.254890541
 20
352.3878154961
 30
0.0
 40
4.500000000000057
100
AcDbArc
 50
0.0
 51
90.0
  0
ARC
  5
118
330
1F
100
AcDbEntity
  8
0
  6
Continuous
 62
     8
370
     0
100
AcDbCircle
 10
338.254890541
 20
352.3878154961
 30
0.0
 40
7.500000000000057
100
AcDbArc
 50
0.0
 51
90.0
  0
LINE
  5
119
330
1F
100
AcDbEntity
  8
0
  6
Continuous
 62
     8
370
     0
100
AcDbLine
 10
217.9548897244
 20
264.1878155104
 30
0.0
 11
218.2548910774
 21
264.1878155104
 31
0.0
  0
LINE
  5
11A
330
1F
100
AcDbEntity
  8
0
  6
Continuous
 62
     8
370
     0
100
AcDbLine
 10
217.9548897244
 20
263.8878154961
 30
0.0
 11
217.9548897244
 21
264.1878155104
 31
0.0
  0
LINE
  5
11B
330
1F
100
AcDbEntity
  8
0
  6
Continuous
 62
     8
370
     0
100
AcDbLine
 10
166.2548900046
 20
283.5878155587
 30
0.0
 11
166.5548913576
 21
283.5878155587
 31
0.0
  0
LINE
  5
11C
330
1F
100
AcDbEntity
  8
0
  6
Continuous
 62
     8
370
     0
100
AcDbLine
 10
166.5548913576
 20
283.5878155587
 30
0.0
 11
166.5548913576
 21
264.1878155104
 31
0.0
  0
LINE
  5
11D
330
1F
100
AcDbEntity
  8
0
  6
Continuous
 62
     8
370
     0
100
AcDbLine
 10
166.2548900046
 20
264.1878155104
 30
0.0
 11
166.5548913576
 21
264.1878155104
 31
0.0
  0
LINE
  5
11E
330
1F
100
AcDbEntity
  8
0
  6
Continuous
 62
     8
370
     0
100
AcDbLine
 10
217.9548897244
 20
264.1878155104
 30
0.0
 11
217.9548897244
 21
283.5878155587
 31
0.0
  0
LINE
  5
11F
330
1F
100
AcDbEntity
  8
0
  6
Continuous
 62
     8
370
     0
100
AcDbLine
 10
217.9548897244
 20
283.5878155587
 30
0.0
 11
218.2548910774
 21
283.5878155587
 31
0.0
  0
LINE
  5
120
330
1F
100
AcDbEntity
  8
0
  6
Continuous
 62
     8
370
     0
100
AcDbLine
 10
166.5548913576
 20
263.8878154961
 30
0.0
 11
166.5548913576
 21
264.1878155104
 31
0.0
  0
LINE
  5
121
330
1F
100
AcDbEntity
  8
0
  6
Continuous
 62
     8
370
     0
100
AcDbLine
 10
166.5548913576
 20
264.1878155104
 30
0.0
 11
217.9548897244
 21
264.1878155104
 31
0.0
  0
LINE
  5
122
330
1F
100
AcDbEntity
  8
0
  6
Continuous
 62
     8
370
     0
100
AcDbLine
 10
217.9548897244
 20
283.5878155587
 30
0.0
 11
166.5548913576
 21
283.5878155587
 31
0.0
  0
LINE
  5
123
330
1F
100
AcDbEntity
  8
0
  6
Continuous
 62
     8
370
     0
100
AcDbLine
 10
166.5548913576
 20
283.5878155587
 30
0.0
 11
166.5548913576
 21
283.8878150491
 31
0.0
  0
LINE
  5
124
330
1F
100
AcDbEntity
  8
0
  6
Continuous
 62
     8
370
     0
100
AcDbLine
 10
217.9548897244
 20
283.5878155587
 30
0.0
 11
217.9548897244
 21
283.8878150491
 31
0.0
  0
LINE
  5
125
330
1F
100
AcDbEntity
  8
0
  6
Continuous
 62
     8
370
     0
100
AcDbLine
 10
217.9548897244
 20
283.8878150491
 30
0.0
 11
217.9548897244
 21
286.8878155408
 31
0.0
  0
LINE
  5
126
330
1F
100
AcDbEntity
  8
0
  6
Continuous
 62
     8
370
     0
100
AcDbLine
 10
218.2548910774
 20
286.8878155408
 30
0.0
 11
217.9548897244
 21
286.8878155408
 31
0.0
  0
LINE
  5
127
330
1F
100
AcDbEntity
  8
0
  6
Continuous
 62
     8
370
     0
100
AcDbLine
 10
166.2548900046
 20
286.8878155408
 30
0.0
 11
166.5548913576
 21
286.8878155408
 31
0.0
  0
LINE
  5
128
330
1F
100
AcDbEntity
  8
0
  6
Continuous
 62
     8
370
     0
100
AcDbLine
 10
166.5548913576
 20
286.8878155408
 30
0.0
 11
166.5548913576
 21
283.8878150491
 31
0.0
  0
LINE
  5
129
330
1F
100
AcDbEntity
  8
0
  6
Continuous
 62
     8
370
     0
100
AcDbLine
 10
166.5548913576
 20
286.8878155408
 30
0.0
 11
217.9548897244
 21
286.8878155408
 31
0.0
  0
LINE
  5
12A
330
1F
100
AcDbEntity
  8
0
  6
Continuous
 62
     8
370
     0
100
AcDbLine
 10
217.9548897244
 20
286.8878155408
 30
0.0
 11
217.9548897244
 21
287.8878157047
 31
0.0
  0
LINE
  5
12B
330
1F
100
AcDbEntity
  8
0
  6
Continuous
 62
     8
370
     0
100
AcDbLine
 10
166.5548913576
 20
287.8878157047
 30
0.0
 11
166.5548913576
 21
286.8878155408
 31
0.0
  0
DIMENSION
  5
12C
330
1F
100
AcDbEntity
  8
0
  6
Continuous
 62
     7
370
     0
100
AcDbDimension
  2
*D2
 10
357.3899178621
 20
263.8878154961
 30
0.0
 11
357.3899178621
 21
314.7730475328
 31
0.0
 70
   160
  1
(<>)
 71
     2
 42
-1.0
  3
SLDDIMSTYLE0
100
AcDbAlignedDimension
 13
338.254890541
 23
360.3878154961
 33
0.0
 14
217.954890541
 24
263.8878154961
 34
0.0
 50
90.0
100
AcDbRotatedDimension
  0
DIMENSION
  5
138
330
1F
100
AcDbEntity
  8
0
  6
Continuous
 62
     7
370
     0
100
AcDbDimension
  2
*D3
 10
346.254890541
 20
369.3265297011
 30
0.0
 11
192.428817892
 21
369.3265297011
 31
0.0
 70
   160
  1
(<>)
 71
     2
 42
-1.0
  3
SLDDIMSTYLE0
100
AcDbAlignedDimension
 13
38.254890541
 23
352.3878154961
 33
0.0
 14
346.254890541
 24
352.3878154961
 34
0.0
 50
0.0
100
AcDbRotatedDimension
  0
INSERT
  5
14F
330
1F
100
AcDbEntity
  8
0
  6
Continuous
 62
     7
370
     0
100
AcDbBlockReference
  2
SW_CENTERMARKSYMBOL_0
 10
192.254890541
 20
270.8878154961
 30
0.0
  0
LINE
  5
150
330
1F
100
AcDbEntity
  8
0
  6
Continuous
 62
     7
370
    30
100
AcDbLine
 10
176.4664415665
 20
117.0884252539
 30
0.0
 11
176.4664415665
 21
117.1009254655
 31
0.0
  0
LINE
  5
151
330
1F
100
AcDbEntity
  8
0
  6
Continuous
 62
     7
370
    30
100
AcDbLine
 10
169.7548896469
 20
146.6009256443
 30
0.0
 11
169.7548896469
 21
147.3009256194
 31
0.0
  0
LINE
  5
152
330
1F
100
AcDbEntity
  8
0
  6
Continuous
 62
     7
370
    30
100
AcDbLine
 10
169.7548896469
 20
147.3009256194
 30
0.0
 11
176.7548907943
 21
147.3009256194
 31
0.0
  0
LINE
  5
153
330
1F
100
AcDbEntity
  8
0
  6
Continuous
 62
     7
370
    30
100
AcDbLine
 10
207.7548902877
 20
147.3009256194
 30
0.0
 11
176.7548907943
 21
147.3009256194
 31
0.0
  0
LINE
  5
154
330
1F
100
AcDbEntity
  8
0
  6
Continuous
 62
     7
370
    30
100
AcDbLine
 10
214.7548914351
 20
147.3009256194
 30
0.0
 11
214.7548914351
 21
146.6009256443
 31
0.0
  0
LINE
  5
155
330
1F
100
AcDbEntity
  8
0
  6
Continuous
 62
     7
370
    30
100
AcDbLine
 10
207.7548902877
 20
147.3009256194
 30
0.0
 11
214.7548914351
 21
147.3009256194
 31
0.0
  0
ARC
  5
156
330
1F
100
AcDbEntity
  8
0
  6
Continuous
 62
     7
370
    30
100
AcDbCircle
 10
217.954890541
 20
120.8009256443
 30
0.0
 40
0.3000000000000114
100
AcDbArc
 50
0.0
 51
90.0
  0
ARC
  5
157
330
1F
100
AcDbEntity
  8
0
  6
Continuous
 62
     7
370
    30
100
AcDbCircle
 10
166.554890541
 20
120.8009256443
 30
0.0
 40
0.3000000000000114
100
AcDbArc
 50
90.0
 51
180.0
  0
LINE
  5
158
330
1F
100
AcDbEntity
  8
0
  6
Continuous
 62
     7
370
    30
100
AcDbLine
 10
218.2548910774
 20
120.8009247681
 30
0.0
 11
218.2548910774
 21
119.1009257933
 31
0.0
  0
LINE
  5
159
330
1F
100
AcDbEntity
  8
0
  6
Continuous
 62
     7
370
    30
100
AcDbLine
 10
190.7414974109
 20
121.1009261212
 30
0.0
 11
193.7682836712
 21
121.1009261212
 31
0.0
  0
LINE
  5
15A
330
1F
100
AcDbEntity
  8
0
  6
Continuous
 62
     7
370
    30
100
AcDbLine
 10
166.2548900046
 20
119.1009257933
 30
0.0
 11
166.2548900046
 21
120.8009247681
 31
0.0
  0
ARC
  5
15B
330
1F
100
AcDbEntity
  8
0
  6
Continuous
 62
     7
370
    30
100
AcDbCircle
 10
216.254890541
 20
119.1009256443
 30
0.0
 40
2.0
100
AcDbArc
 50
270.0
 51
0.0
  0
ARC
  5
15C
330
1F
100
AcDbEntity
  8
0
  6
Continuous
 62
     7
370
    30
100
AcDbCircle
 10
168.254890541
 20
119.1009256443
 30
0.0
 40
2.0
100
AcDbArc
 50
180.0
 51
270.0
  0
LINE
  5
15D
330
1F
100
AcDbEntity
  8
0
  6
Continuous
 62
     7
370
    30
100
AcDbLine
 10
216.2548907496
 20
117.1009254655
 30
0.0
 11
168.2548903324
 21
117.1009254655
 31
0.0
  0
LINE
  5
15E
330
1F
100
AcDbEntity
  8
0
  6
Continuous
 62
     7
370
    30
100
AcDbLine
 10
346.2548897065
 20
117.1009254655
 30
0.0
 11
346.2548897065
 21
58.1009251079
 31
0.0
  0
LINE
  5
15F
330
1F
100
AcDbEntity
  8
0
  6
Continuous
 62
     7
370
    30
100
AcDbLine
 10
342.2548965015
 20
58.1009251079
 30
0.0
 11
342.2548965015
 21
117.1009254655
 31
0.0
  0
ARC
  5
160
330
1F
100
AcDbEntity
  8
0
  6
Continuous
 62
     7
370
    30
100
AcDbCircle
 10
338.254890541
 20
117.1009256443
 30
0.0
 40
7.999999999999943
100
AcDbArc
 50
0.0
 51
90.0
  0
LINE
  5
161
330
1F
100
AcDbEntity
  8
0
  6
Continuous
 62
     7
370
    30
100
AcDbLine
 10
193.2548905885
 20
121.6009252718
 30
0.0
 11
193.2548905885
 21
124.6009257635
 31
0.0
  0
LINE
  5
162
330
1F
100
AcDbEntity
  8
0
  6
Continuous
 62
     7
370
    30
100
AcDbLine
 10
193.754890554
 20
125.1009249142
 30
0.0
 11
195.2548905671
 21
125.1009249142
 31
0.0
  0
ARC
  5
163
330
1F
100
AcDbEntity
  8
0
  6
Continuous
 62
     7
370
    30
100
AcDbCircle
 10
193.754890541
 20
124.6009256443
 30
0.0
 40
0.5
100
AcDbArc
 50
90.0
 51
180.0
  0
LINE
  5
164
330
1F
100
AcDbEntity
  8
0
  6
Continuous
 62
     7
370
    30
100
AcDbLine
 10
195.2548905671
 20
125.1009249142
 30
0.0
 11
338.2548883952
 21
125.1009249142
 31
0.0
  0
ARC
  5
165
330
1F
100
AcDbEntity
  8
0
  6
Continuous
 62
     7
370
    30
100
AcDbCircle
 10
338.254890541
 20
117.1009256443
 30
0.0
 40
3.999999999999943
100
AcDbArc
 50
0.0
 51
90.0
  0
LINE
  5
166
330
1F
100
AcDbEntity
  8
0
  6
Continuous
 62
     7
370
    30
100
AcDbLine
 10
195.2548905671
 20
121.1009261212
 30
0.0
 11
193.7682836712
 21
121.1009261212
 31
0.0
  0
ARC
  5
167
330
1F
100
AcDbEntity
  8
0
  6
Continuous
 62
     7
370
    30
100
AcDbCircle
 10
193.754890541
 20
121.6009256443
 30
0.0
 40
0.5
100
AcDbArc
 50
180.0
 51
270.0
  0
LINE
  5
168
330
1F
100
AcDbEntity
  8
0
  6
Continuous
 62
     7
370
    30
100
AcDbLine
 10
338.2548883952
 20
121.1009261212
 30
0.0
 11
195.2548905671
 21
121.1009261212
 31
0.0
  0
ARC
  5
169
330
1F
100
AcDbEntity
  8
0
  6
Continuous
 62
     7
370
    30
100
AcDbCircle
 10
338.254890541
 20
58.1009256443
 30
0.0
 40
8.000000000000007
100
AcDbArc
 50
270.0
 51
0.0
  0
ARC
  5
16A
330
1F
100
AcDbEntity
  8
0
  6
Continuous
 62
     7
370
    30
100
AcDbCircle
 10
338.254890541
 20
58.1009256443
 30
0.0
 40
4.0
100
AcDbArc
 50
270.0
 51
0.0
  0
LINE
  5
16B
330
1F
100
AcDbEntity
  8
0
  6
Continuous
 62
     7
370
    30
100
AcDbLine
 10
338.2548883952
 20
50.1009237966
 30
0.0
 11
46.2548926868
 21
50.1009237966
 31
0.0
  0
LINE
  5
16C
330
1F
100
AcDbEntity
  8
0
  6
Continuous
 62
     7
370
    30
100
AcDbLine
 10
46.2548926868
 20
54.1009244522
 30
0.0
 11
338.2548883952
 21
54.1009244522
 31
0.0
  0
LINE
  5
16D
330
1F
100
AcDbEntity
  8
0
  6
Continuous
 62
     7
370
    30
100
AcDbLine
 10
46.2548926868
 20
125.1009249142
 30
0.0
 11
189.2548905149
 21
125.1009249142
 31
0.0
  0
LINE
  5
16E
330
1F
100
AcDbEntity
  8
0
  6
Continuous
 62
     7
370
    30
100
AcDbLine
 10
191.2548904935
 20
121.6009252718
 30
0.0
 11
191.2548904935
 21
124.6009257635
 31
0.0
  0
LINE
  5
16F
330
1F
100
AcDbEntity
  8
0
  6
Continuous
 62
     7
370
    30
100
AcDbLine
 10
189.2548905149
 20
125.1009249142
 30
0.0
 11
190.754890528
 21
125.1009249142
 31
0.0
  0
ARC
  5
170
330
1F
100
AcDbEntity
  8
0
  6
Continuous
 62
     7
370
    30
100
AcDbCircle
 10
190.754890541
 20
124.6009256443
 30
0.0
 40
0.5
100
AcDbArc
 50
0.0
 51
90.0
  0
ARC
  5
171
330
1F
100
AcDbEntity
  8
0
  6
Continuous
 62
     7
370
    30
100
AcDbCircle
 10
46.254890541
 20
117.1009256443
 30
0.0
 40
8.000000000000014
100
AcDbArc
 50
90.0
 51
180.0
  0
LINE
  5
172
330
1F
100
AcDbEntity
  8
0
  6
Continuous
 62
     7
370
    30
100
AcDbLine
 10
189.2548905149
 20
121.1009261212
 30
0.0
 11
46.2548926868
 21
121.1009261212
 31
0.0
  0
ARC
  5
173
330
1F
100
AcDbEntity
  8
0
  6
Continuous
 62
     7
370
    30
100
AcDbCircle
 10
46.254890541
 20
117.1009256443
 30
0.0
 40
4.000000000000014
100
AcDbArc
 50
90.0
 51
180.0
  0
LINE
  5
174
330
1F
100
AcDbEntity
  8
0
  6
Continuous
 62
     7
370
    30
100
AcDbLine
 10
190.7414974109
 20
121.1009261212
 30
0.0
 11
189.2548905149
 21
121.1009261212
 31
0.0
  0
ARC
  5
175
330
1F
100
AcDbEntity
  8
0
  6
Continuous
 62
     7
370
    30
100
AcDbCircle
 10
190.754890541
 20
121.6009256443
 30
0.0
 40
0.5
100
AcDbArc
 50
270.0
 51
0.0
  0
LINE
  5
176
330
1F
100
AcDbEntity
  8
0
  6
Continuous
 62
     7
370
    30
100
AcDbLine
 10
42.2548845805
 20
117.1009254655
 30
0.0
 11
42.2548845805
 21
58.1009251079
 31
0.0
  0
LINE
  5
177
330
1F
100
AcDbEntity
  8
0
  6
Continuous
 62
     7
370
    30
100
AcDbLine
 10
38.2548913755
 20
58.1009251079
 30
0.0
 11
38.2548913755
 21
117.1009254655
 31
0.0
  0
ARC
  5
178
330
1F
100
AcDbEntity
  8
0
  6
Continuous
 62
     7
370
    30
100
AcDbCircle
 10
46.254890541
 20
58.1009256443
 30
0.0
 40
8.000000000000007
100
AcDbArc
 50
180.0
 51
270.0
  0
ARC
  5
179
330
1F
100
AcDbEntity
  8
0
  6
Continuous
 62
     7
370
    30
100
AcDbCircle
 10
46.254890541
 20
58.1009256443
 30
0.0
 40
4.000000000000007
100
AcDbArc
 50
180.0
 51
270.0
  0
LINE
  5
17A
330
1F
100
AcDbEntity
  8
0
  6
Continuous
 62
     7
370
    30
100
AcDbLine
 10
217.9548897244
 20
126.6009260913
 30
0.0
 11
166.5548913576
 21
126.6009260913
 31
0.0
  0
LINE
  5
17B
330
1F
100
AcDbEntity
  8
0
  6
Continuous
 62
     7
370
    30
100
AcDbLine
 10
193.754890554
 20
125.1009249142
 30
0.0
 11
190.754890528
 21
125.1009249142
 31
0.0
  0
LINE
  5
17C
330
1F
100
AcDbEntity
  8
0
  6
Continuous
 62
     7
370
    30
100
AcDbLine
 10
166.2548900046
 20
125.1009249142
 30
0.0
 11
166.2548900046
 21
126.6009260913
 31
0.0
  0
LINE
  5
17D
330
1F
100
AcDbEntity
  8
0
  6
Continuous
 62
     7
370
    30
100
AcDbLine
 10
166.2548900046
 20
126.6009260913
 30
0.0
 11
166.5548913576
 21
126.6009260913
 31
0.0
  0
LINE
  5
17E
330
1F
100
AcDbEntity
  8
0
  6
Continuous
 62
     7
370
    30
100
AcDbLine
 10
218.2548910774
 20
126.6009260913
 30
0.0
 11
218.2548910774
 21
125.1009249142
 31
0.0
  0
LINE
  5
17F
330
1F
100
AcDbEntity
  8
0
  6
Continuous
 62
     7
370
    30
100
AcDbLine
 10
217.9548897244
 20
126.6009260913
 30
0.0
 11
218.2548910774
 21
126.6009260913
 31
0.0
  0
ARC
  5
180
330
1F
100
AcDbEntity
  8
0
  6
Continuous
 62
     7
370
    30
100
AcDbCircle
 10
166.554890541
 20
146.3009256443
 30
0.0
 40
0.3000000000000114
100
AcDbArc
 50
90.0
 51
180.0
  0
LINE
  5
181
330
1F
100
AcDbEntity
  8
0
  6
Continuous
 62
     7
370
    30
100
AcDbLine
 10
166.2548900046
 20
126.9009255817
 30
0.0
 11
166.2548900046
 21
146.3009256301
 31
0.0
  0
ARC
  5
182
330
1F
100
AcDbEntity
  8
0
  6
Continuous
 62
     7
370
    30
100
AcDbCircle
 10
217.954890541
 20
146.3009256443
 30
0.0
 40
0.3000000000000114
100
AcDbArc
 50
0.0
 51
90.0
  0
LINE
  5
183
330
1F
100
AcDbEntity
  8
0
  6
Continuous
 62
     7
370
    30
100
AcDbLine
 10
166.5548913576
 20
146.6009256443
 30
0.0
 11
217.9548897244
 21
146.6009256443
 31
0.0
  0
LINE
  5
184
330
1F
100
AcDbEntity
  8
0
  6
Continuous
 62
     7
370
    30
100
AcDbLine
 10
218.2548910774
 20
146.3009256301
 30
0.0
 11
218.2548910774
 21
126.9009255817
 31
0.0
  0
ARC
  5
185
330
1F
100
AcDbEntity
  8
0
  6
Continuous
 62
     7
370
    30
100
AcDbCircle
 10
217.954890541
 20
126.9009256443
 30
0.0
 40
0.3000000000000114
100
AcDbArc
 50
270.0
 51
0.0
  0
ARC
  5
186
330
1F
100
AcDbEntity
  8
0
  6
Continuous
 62
     7
370
    30
100
AcDbCircle
 10
166.554890541
 20
126.9009256443
 30
0.0
 40
0.2999999999999972
100
AcDbArc
 50
180.0
 51
270.0
  0
LINE
  5
187
330
1F
100
AcDbEntity
  8
0
  6
Continuous
 62
     7
370
    30
100
AcDbLine
 10
218.2548910774
 20
126.9009255817
 30
0.0
 11
218.2548910774
 21
126.6009260913
 31
0.0
  0
LINE
  5
188
330
1F
100
AcDbEntity
  8
0
  6
Continuous
 62
     7
370
    30
100
AcDbLine
 10
166.2548900046
 20
126.6009260913
 30
0.0
 11
166.2548900046
 21
126.9009255817
 31
0.0
  0
LINE
  5
189
330
1F
100
AcDbEntity
  8
0
  6
Continuous
 62
     7
370
    30
100
AcDbLine
 10
191.2548904935
 20
123.6009255996
 30
0.0
 11
193.2548905885
 21
123.6009255996
 31
0.0
  0
LINE
  5
18A
330
1F
100
AcDbEntity
  8
0
  6
Continuous
 62
     7
370
    30
100
AcDbLine
 10
193.2548905885
 20
122.6009254357
 30
0.0
 11
191.2548904935
 21
122.6009254357
 31
0.0
  0
LINE
  5
18B
330
1F
100
AcDbEntity
  8
0
  6
Continuous
 62
     8
370
     0
100
AcDbLine
 10
176.7548907943
 20
147.3009256194
 30
0.0
 11
176.7548907943
 21
146.6009256443
 31
0.0
  0
LINE
  5
18C
330
1F
100
AcDbEntity
  8
0
  6
Continuous
 62
     8
370
     0
100
AcDbLine
 10
207.7548902877
 20
146.6009256443
 30
0.0
 11
207.7548902877
 21
147.3009256194
 31
0.0
  0
LINE
  5
18D
330
1F
100
AcDbEntity
  8
0
  6
Continuous
 62
     8
370
     0
100
AcDbLine
 10
217.9548897244
 20
120.8009247681
 30
0.0
 11
218.2548910774
 21
120.8009247681
 31
0.0
  0
LINE
  5
18E
330
1F
100
AcDbEntity
  8
0
  6
Continuous
 62
     8
370
     0
100
AcDbLine
 10
217.9548897244
 20
120.8009247681
 30
0.0
 11
217.9548897244
 21
121.1009261212
 31
0.0
  0
LINE
  5
18F
330
1F
100
AcDbEntity
  8
0
  6
Continuous
 62
     8
370
     0
100
AcDbLine
 10
166.5548913576
 20
120.8009247681
 30
0.0
 11
166.5548913576
 21
121.1009261212
 31
0.0
  0
LINE
  5
190
330
1F
100
AcDbEntity
  8
0
  6
Continuous
 62
     8
370
     0
100
AcDbLine
 10
166.2548900046
 20
120.8009247681
 30
0.0
 11
166.5548913576
 21
120.8009247681
 31
0.0
  0
LINE
  5
191
330
1F
100
AcDbEntity
  8
0
  6
Continuous
 62
     8
370
     0
100
AcDbLine
 10
217.9548897244
 20
119.1009257933
 30
0.0
 11
217.9548897244
 21
120.8009247681
 31
0.0
  0
LINE
  5
192
330
1F
100
AcDbEntity
  8
0
  6
Continuous
 62
     8
370
     0
100
AcDbLine
 10
217.9548897244
 20
119.1009257933
 30
0.0
 11
218.2548910774
 21
119.1009257933
 31
0.0
  0
LINE
  5
193
330
1F
100
AcDbEntity
  8
0
  6
Continuous
 62
     8
370
     0
100
AcDbLine
 10
217.9548897244
 20
120.8009247681
 30
0.0
 11
166.5548913576
 21
120.8009247681
 31
0.0
  0
LINE
  5
194
330
1F
100
AcDbEntity
  8
0
  6
Continuous
 62
     8
370
     0
100
AcDbLine
 10
166.5548913576
 20
120.8009247681
 30
0.0
 11
166.5548913576
 21
119.1009257933
 31
0.0
  0
LINE
  5
195
330
1F
100
AcDbEntity
  8
0
  6
Continuous
 62
     8
370
     0
100
AcDbLine
 10
166.2548900046
 20
119.1009257933
 30
0.0
 11
166.5548913576
 21
119.1009257933
 31
0.0
  0
ARC
  5
196
330
1F
100
AcDbEntity
  8
0
  6
Continuous
 62
     8
370
     0
100
AcDbCircle
 10
216.254890541
 20
119.1009256443
 30
0.0
 40
1.700000000000003
100
AcDbArc
 50
270.0
 51
0.0
  0
LINE
  5
197
330
1F
100
AcDbEntity
  8
0
  6
Continuous
 62
     8
370
     0
100
AcDbLine
 10
168.2548903324
 20
117.4009249559
 30
0.0
 11
216.2548907496
 21
117.4009249559
 31
0.0
  0
ARC
  5
198
330
1F
100
AcDbEntity
  8
0
  6
Continuous
 62
     8
370
     0
100
AcDbCircle
 10
168.254890541
 20
119.1009256443
 30
0.0
 40
1.700000000000017
100
AcDbArc
 50
180.0
 51
270.0
  0
LINE
  5
199
330
1F
100
AcDbEntity
  8
0
  6
Continuous
 62
     8
370
     0
100
AcDbLine
 10
216.2548907496
 20
117.1009254655
 30
0.0
 11
216.2548907496
 21
117.4009249559
 31
0.0
  0
LINE
  5
19A
330
1F
100
AcDbEntity
  8
0
  6
Continuous
 62
     8
370
     0
100
AcDbLine
 10
168.2548903324
 20
117.1009254655
 30
0.0
 11
168.2548903324
 21
117.4009249559
 31
0.0
  0
LINE
  5
19B
330
1F
100
AcDbEntity
  8
0
  6
Continuous
 62
     8
370
     0
100
AcDbLine
 10
342.7548900642
 20
117.1009254655
 30
0.0
 11
342.7548900642
 21
58.1009251079
 31
0.0
  0
LINE
  5
19C
330
1F
100
AcDbEntity
  8
0
  6
Continuous
 62
     8
370
     0
100
AcDbLine
 10
342.7548900642
 20
117.1009254655
 30
0.0
 11
345.7548961438
 21
117.1009254655
 31
0.0
  0
LINE
  5
19D
330
1F
100
AcDbEntity
  8
0
  6
Continuous
 62
     8
370
     0
100
AcDbLine
 10
345.7548961438
 20
58.1009251079
 30
0.0
 11
345.7548961438
 21
117.1009254655
 31
0.0
  0
LINE
  5
19E
330
1F
100
AcDbEntity
  8
0
  6
Continuous
 62
     8
370
     0
100
AcDbLine
 10
342.7548900642
 20
58.1009251079
 30
0.0
 11
345.7548961438
 21
58.1009251079
 31
0.0
  0
LINE
  5
19F
330
1F
100
AcDbEntity
  8
0
  6
Continuous
 62
     8
370
     0
100
AcDbLine
 10
346.2548897065
 20
58.1009251079
 30
0.0
 11
345.7548961438
 21
58.1009251079
 31
0.0
  0
LINE
  5
1A0
330
1F
100
AcDbEntity
  8
0
  6
Continuous
 62
     8
370
     0
100
AcDbLine
 10
346.2548897065
 20
117.1009254655
 30
0.0
 11
345.7548961438
 21
117.1009254655
 31
0.0
  0
LINE
  5
1A1
330
1F
100
AcDbEntity
  8
0
  6
Continuous
 62
     8
370
     0
100
AcDbLine
 10
342.7548900642
 20
58.1009251079
 30
0.0
 11
342.2548965015
 21
58.1009251079
 31
0.0
  0
LINE
  5
1A2
330
1F
100
AcDbEntity
  8
0
  6
Continuous
 62
     8
370
     0
100
AcDbLine
 10
342.7548900642
 20
117.1009254655
 30
0.0
 11
342.2548965015
 21
117.1009254655
 31
0.0
  0
ARC
  5
1A3
330
1F
100
AcDbEntity
  8
0
  6
Continuous
 62
     8
370
     0
100
AcDbCircle
 10
338.254890541
 20
117.1009256443
 30
0.0
 40
7.5
100
AcDbArc
 50
0.0
 51
90.0
  0
LINE
  5
1A4
330
1F
100
AcDbEntity
  8
0
  6
Continuous
 62
     8
370
     0
100
AcDbLine
 10
338.2548883952
 20
125.1009249142
 30
0.0
 11
338.2548883952
 21
124.6009257635
 31
0.0
  0
ARC
  5
1A5
330
1F
100
AcDbEntity
  8
0
  6
Continuous
 62
     8
370
     0
100
AcDbCircle
 10
338.254890541
 20
117.1009256443
 30
0.0
 40
4.499999999999943
100
AcDbArc
 50
0.0
 51
90.0
  0
LINE
  5
1A6
330
1F
100
AcDbEntity
  8
0
  6
Continuous
 62
     8
370
     0
100
AcDbLine
 10
338.2548883952
 20
121.6009252718
 30
0.0
 11
338.2548883952
 21
124.6009257635
 31
0.0
  0
LINE
  5
1A7
330
1F
100
AcDbEntity
  8
0
  6
Continuous
 62
     8
370
     0
100
AcDbLine
 10
193.2548905885
 20
121.6009252718
 30
0.0
 11
195.2548905671
 21
121.6009252718
 31
0.0
  0
LINE
  5
1A8
330
1F
100
AcDbEntity
  8
0
  6
Continuous
 62
     8
370
     0
100
AcDbLine
 10
195.2548905671
 20
124.6009257635
 30
0.0
 11
193.2548905885
 21
124.6009257635
 31
0.0
  0
LINE
  5
1A9
330
1F
100
AcDbEntity
  8
0
  6
Continuous
 62
     8
370
     0
100
AcDbLine
 10
195.2548905671
 20
121.6009252718
 30
0.0
 11
195.2548905671
 21
124.6009257635
 31
0.0
  0
LINE
  5
1AA
330
1F
100
AcDbEntity
  8
0
  6
Continuous
 62
     8
370
     0
100
AcDbLine
 10
195.2548905671
 20
121.6009252718
 30
0.0
 11
338.2548883952
 21
121.6009252718
 31
0.0
  0
LINE
  5
1AB
330
1F
100
AcDbEntity
  8
0
  6
Continuous
 62
     8
370
     0
100
AcDbLine
 10
338.2548883952
 20
124.6009257635
 30
0.0
 11
195.2548905671
 21
124.6009257635
 31
0.0
  0
LINE
  5
1AC
330
1F
100
AcDbEntity
  8
0
  6
Continuous
 62
     8
370
     0
100
AcDbLine
 10
195.2548905671
 20
125.1009249142
 30
0.0
 11
195.2548905671
 21
124.6009257635
 31
0.0
  0
LINE
  5
1AD
330
1F
100
AcDbEntity
  8
0
  6
Continuous
 62
     8
370
     0
100
AcDbLine
 10
338.2548883952
 20
121.6009252718
 30
0.0
 11
338.2548883952
 21
121.1009261212
 31
0.0
  0
LINE
  5
1AE
330
1F
100
AcDbEntity
  8
0
  6
Continuous
 62
     8
370
     0
100
AcDbLine
 10
195.2548905671
 20
121.6009252718
 30
0.0
 11
195.2548905671
 21
121.1009261212
 31
0.0
  0
LINE
  5
1AF
330
1F
100
AcDbEntity
  8
0
  6
Continuous
 62
     8
370
     0
100
AcDbLine
 10
338.2548883952
 20
50.1009237966
 30
0.0
 11
338.2548883952
 21
50.6009248098
 31
0.0
  0
ARC
  5
1B0
330
1F
100
AcDbEntity
  8
0
  6
Continuous
 62
     8
370
     0
100
AcDbCircle
 10
338.254890541
 20
58.1009256443
 30
0.0
 40
7.5
100
AcDbArc
 50
270.0
 51
0.0
  0
ARC
  5
1B1
330
1F
100
AcDbEntity
  8
0
  6
Continuous
 62
     8
370
     0
100
AcDbCircle
 10
338.254890541
 20
58.1009256443
 30
0.0
 40
4.5
100
AcDbArc
 50
270.0
 51
0.0
  0
LINE
  5
1B2
330
1F
100
AcDbEntity
  8
0
  6
Continuous
 62
     8
370
     0
100
AcDbLine
 10
338.2548883952
 20
53.6009234389
 30
0.0
 11
338.2548883952
 21
50.6009248098
 31
0.0
  0
LINE
  5
1B3
330
1F
100
AcDbEntity
  8
0
  6
Continuous
 62
     8
370
     0
100
AcDbLine
 10
338.2548883952
 20
53.6009234389
 30
0.0
 11
338.2548883952
 21
54.1009244522
 31
0.0
  0
LINE
  5
1B4
330
1F
100
AcDbEntity
  8
0
  6
Continuous
 62
     8
370
     0
100
AcDbLine
 10
46.2548926868
 20
50.1009237966
 30
0.0
 11
46.2548926868
 21
50.6009248098
 31
0.0
  0
LINE
  5
1B5
330
1F
100
AcDbEntity
  8
0
  6
Continuous
 62
     8
370
     0
100
AcDbLine
 10
46.2548926868
 20
50.6009248098
 30
0.0
 11
338.2548883952
 21
50.6009248098
 31
0.0
  0
LINE
  5
1B6
330
1F
100
AcDbEntity
  8
0
  6
Continuous
 62
     8
370
     0
100
AcDbLine
 10
338.2548883952
 20
53.6009234389
 30
0.0
 11
46.2548926868
 21
53.6009234389
 31
0.0
  0
LINE
  5
1B7
330
1F
100
AcDbEntity
  8
0
  6
Continuous
 62
     8
370
     0
100
AcDbLine
 10
46.2548926868
 20
53.6009234389
 30
0.0
 11
46.2548926868
 21
54.1009244522
 31
0.0
  0
LINE
  5
1B8
330
1F
100
AcDbEntity
  8
0
  6
Continuous
 62
     8
370
     0
100
AcDbLine
 10
46.2548926868
 20
53.6009234389
 30
0.0
 11
46.2548926868
 21
50.6009248098
 31
0.0
  0
LINE
  5
1B9
330
1F
100
AcDbEntity
  8
0
  6
Continuous
 62
     8
370
     0
100
AcDbLine
 10
189.2548905149
 20
124.6009257635
 30
0.0
 11
46.2548926868
 21
124.6009257635
 31
0.0
  0
LINE
  5
1BA
330
1F
100
AcDbEntity
  8
0
  6
Continuous
 62
     8
370
     0
100
AcDbLine
 10
46.2548926868
 20
124.6009257635
 30
0.0
 11
46.2548926868
 21
125.1009249142
 31
0.0
  0
LINE
  5
1BB
330
1F
100
AcDbEntity
  8
0
  6
Continuous
 62
     8
370
     0
100
AcDbLine
 10
189.2548905149
 20
124.6009257635
 30
0.0
 11
189.2548905149
 21
125.1009249142
 31
0.0
  0
LINE
  5
1BC
330
1F
100
AcDbEntity
  8
0
  6
Continuous
 62
     8
370
     0
100
AcDbLine
 10
189.2548905149
 20
121.6009252718
 30
0.0
 11
191.2548904935
 21
121.6009252718
 31
0.0
  0
LINE
  5
1BD
330
1F
100
AcDbEntity
  8
0
  6
Continuous
 62
     8
370
     0
100
AcDbLine
 10
189.2548905149
 20
121.6009252718
 30
0.0
 11
189.2548905149
 21
124.6009257635
 31
0.0
  0
LINE
  5
1BE
330
1F
100
AcDbEntity
  8
0
  6
Continuous
 62
     8
370
     0
100
AcDbLine
 10
191.2548904935
 20
124.6009257635
 30
0.0
 11
189.2548905149
 21
124.6009257635
 31
0.0
  0
ARC
  5
1BF
330
1F
100
AcDbEntity
  8
0
  6
Continuous
 62
     8
370
     0
100
AcDbCircle
 10
46.254890541
 20
117.1009256443
 30
0.0
 40
4.500000000000014
100
AcDbArc
 50
90.0
 51
180.0
  0
LINE
  5
1C0
330
1F
100
AcDbEntity
  8
0
  6
Continuous
 62
     8
370
     0
100
AcDbLine
 10
41.7548910178
 20
117.1009254655
 30
0.0
 11
38.7548849382
 21
117.1009254655
 31
0.0
  0
ARC
  5
1C1
330
1F
100
AcDbEntity
  8
0
  6
Continuous
 62
     8
370
     0
100
AcDbCircle
 10
46.254890541
 20
117.1009256443
 30
0.0
 40
7.500000000000014
100
AcDbArc
 50
90.0
 51
180.0
  0
LINE
  5
1C2
330
1F
100
AcDbEntity
  8
0
  6
Continuous
 62
     8
370
     0
100
AcDbLine
 10
46.2548926868
 20
121.6009252718
 30
0.0
 11
46.2548926868
 21
124.6009257635
 31
0.0
  0
LINE
  5
1C3
330
1F
100
AcDbEntity
  8
0
  6
Continuous
 62
     8
370
     0
100
AcDbLine
 10
46.2548926868
 20
121.6009252718
 30
0.0
 11
189.2548905149
 21
121.6009252718
 31
0.0
  0
LINE
  5
1C4
330
1F
100
AcDbEntity
  8
0
  6
Continuous
 62
     8
370
     0
100
AcDbLine
 10
38.2548913755
 20
117.1009254655
 30
0.0
 11
38.7548849382
 21
117.1009254655
 31
0.0
  0
LINE
  5
1C5
330
1F
100
AcDbEntity
  8
0
  6
Continuous
 62
     8
370
     0
100
AcDbLine
 10
46.2548926868
 20
121.1009261212
 30
0.0
 11
46.2548926868
 21
121.6009252718
 31
0.0
  0
LINE
  5
1C6
330
1F
100
AcDbEntity
  8
0
  6
Continuous
 62
     8
370
     0
100
AcDbLine
 10
189.2548905149
 20
121.1009261212
 30
0.0
 11
189.2548905149
 21
121.6009252718
 31
0.0
  0
LINE
  5
1C7
330
1F
100
AcDbEntity
  8
0
  6
Continuous
 62
     8
370
     0
100
AcDbLine
 10
41.7548910178
 20
117.1009254655
 30
0.0
 11
42.2548845805
 21
117.1009254655
 31
0.0
  0
LINE
  5
1C8
330
1F
100
AcDbEntity
  8
0
  6
Continuous
 62
     8
370
     0
100
AcDbLine
 10
41.7548910178
 20
58.1009251079
 30
0.0
 11
41.7548910178
 21
117.1009254655
 31
0.0
  0
LINE
  5
1C9
330
1F
100
AcDbEntity
  8
0
  6
Continuous
 62
     8
370
     0
100
AcDbLine
 10
41.7548910178
 20
58.1009251079
 30
0.0
 11
42.2548845805
 21
58.1009251079
 31
0.0
  0
LINE
  5
1CA
330
1F
100
AcDbEntity
  8
0
  6
Continuous
 62
     8
370
     0
100
AcDbLine
 10
41.7548910178
 20
58.1009251079
 30
0.0
 11
38.7548849382
 21
58.1009251079
 31
0.0
  0
LINE
  5
1CB
330
1F
100
AcDbEntity
  8
0
  6
Continuous
 62
     8
370
     0
100
AcDbLine
 10
38.7548849382
 20
117.1009254655
 30
0.0
 11
38.7548849382
 21
58.1009251079
 31
0.0
  0
LINE
  5
1CC
330
1F
100
AcDbEntity
  8
0
  6
Continuous
 62
     8
370
     0
100
AcDbLine
 10
38.2548913755
 20
58.1009251079
 30
0.0
 11
38.7548849382
 21
58.1009251079
 31
0.0
  0
ARC
  5
1CD
330
1F
100
AcDbEntity
  8
0
  6
Continuous
 62
     8
370
     0
100
AcDbCircle
 10
46.254890541
 20
58.1009256443
 30
0.0
 40
4.500000000000007
100
AcDbArc
 50
180.0
 51
270.0
  0
ARC
  5
1CE
330
1F
100
AcDbEntity
  8
0
  6
Continuous
 62
     8
370
     0
100
AcDbCircle
 10
46.254890541
 20
58.1009256443
 30
0.0
 40
7.500000000000036
100
AcDbArc
 50
180.0
 51
270.0
  0
LINE
  5
1CF
330
1F
100
AcDbEntity
  8
0
  6
Continuous
 62
     8
370
     0
100
AcDbLine
 10
166.5548913576
 20
126.6009260913
 30
0.0
 11
166.5548913576
 21
125.1009249142
 31
0.0
  0
LINE
  5
1D0
330
1F
100
AcDbEntity
  8
0
  6
Continuous
 62
     8
370
     0
100
AcDbLine
 10
217.9548897244
 20
125.1009249142
 30
0.0
 11
217.9548897244
 21
126.6009260913
 31
0.0
  0
LINE
  5
1D1
330
1F
100
AcDbEntity
  8
0
  6
Continuous
 62
     8
370
     0
100
AcDbLine
 10
166.5548913576
 20
146.3009256301
 30
0.0
 11
166.5548913576
 21
146.6009256443
 31
0.0
  0
LINE
  5
1D2
330
1F
100
AcDbEntity
  8
0
  6
Continuous
 62
     8
370
     0
100
AcDbLine
 10
166.5548913576
 20
146.3009256301
 30
0.0
 11
166.2548900046
 21
146.3009256301
 31
0.0
  0
LINE
  5
1D3
330
1F
100
AcDbEntity
  8
0
  6
Continuous
 62
     8
370
     0
100
AcDbLine
 10
166.5548913576
 20
146.3009256301
 30
0.0
 11
166.5548913576
 21
126.9009255817
 31
0.0
  0
LINE
  5
1D4
330
1F
100
AcDbEntity
  8
0
  6
Continuous
 62
     8
370
     0
100
AcDbLine
 10
166.5548913576
 20
126.9009255817
 30
0.0
 11
166.2548900046
 21
126.9009255817
 31
0.0
  0
LINE
  5
1D5
330
1F
100
AcDbEntity
  8
0
  6
Continuous
 62
     8
370
     0
100
AcDbLine
 10
218.2548910774
 20
146.3009256301
 30
0.0
 11
217.9548897244
 21
146.3009256301
 31
0.0
  0
LINE
  5
1D6
330
1F
100
AcDbEntity
  8
0
  6
Continuous
 62
     8
370
     0
100
AcDbLine
 10
217.9548897244
 20
146.3009256301
 30
0.0
 11
217.9548897244
 21
146.6009256443
 31
0.0
  0
LINE
  5
1D7
330
1F
100
AcDbEntity
  8
0
  6
Continuous
 62
     8
370
     0
100
AcDbLine
 10
217.9548897244
 20
146.3009256301
 30
0.0
 11
166.5548913576
 21
146.3009256301
 31
0.0
  0
LINE
  5
1D8
330
1F
100
AcDbEntity
  8
0
  6
Continuous
 62
     8
370
     0
100
AcDbLine
 10
166.5548913576
 20
126.9009255817
 30
0.0
 11
217.9548897244
 21
126.9009255817
 31
0.0
  0
LINE
  5
1D9
330
1F
100
AcDbEntity
  8
0
  6
Continuous
 62
     8
370
     0
100
AcDbLine
 10
217.9548897244
 20
126.9009255817
 30
0.0
 11
217.9548897244
 21
146.3009256301
 31
0.0
  0
LINE
  5
1DA
330
1F
100
AcDbEntity
  8
0
  6
Continuous
 62
     8
370
     0
100
AcDbLine
 10
218.2548910774
 20
126.9009255817
 30
0.0
 11
217.9548897244
 21
126.9009255817
 31
0.0
  0
LINE
  5
1DB
330
1F
100
AcDbEntity
  8
0
  6
Continuous
 62
     8
370
     0
100
AcDbLine
 10
217.9548897244
 20
126.6009260913
 30
0.0
 11
217.9548897244
 21
126.9009255817
 31
0.0
  0
LINE
  5
1DC
330
1F
100
AcDbEntity
  8
0
  6
Continuous
 62
     8
370
     0
100
AcDbLine
 10
166.5548913576
 20
126.6009260913
 30
0.0
 11
166.5548913576
 21
126.9009255817
 31
0.0
  0
LINE
  5
1DD
330
1F
100
AcDbEntity
  8
0
  6
CENTERX2
 62
     7
370
     0
100
AcDbLine
 10
192.254890541
 20
150.8938375609
 30
0.0
 11
192.254890541
 21
43.2891522579
 31
0.0
  0
LINE
  5
1DE
330
1F
100
AcDbEntity
  8
0
  6
Continuous
 62
     7
370
    30
100
AcDbLine
 10
390.9490649512
 20
187.8311808996
 30
0.0
 11
387.9490653908
 21
190.8311813914
 31
0.0
  0
LINE
  5
1DF
330
1F
100
AcDbEntity
  8
0
  6
Continuous
 62
     7
370
    30
100
AcDbLine
 10
387.9490653908
 20
190.8311813914
 30
0.0
 11
384.9490653647
 21
187.8311808996
 31
0.0
  0
LINE
  5
1E0
330
1F
100
AcDbEntity
  8
0
  6
Continuous
 62
     7
370
    30
100
AcDbLine
 10
384.9490653647
 20
181.1513218873
 30
0.0
 11
385.5035650467
 21
180.8311816149
 31
0.0
  0
LINE
  5
1E1
330
1F
100
AcDbEntity
  8
0
  6
Continuous
 62
     7
370
    30
100
AcDbLine
 10
390.3945648035
 20
180.8311816149
 30
0.0
 11
390.9490649512
 21
181.1513218873
 31
0.0
  0
LINE
  5
1E2
330
1F
100
AcDbEntity
  8
0
  6
Continuous
 62
     7
370
    30
100
AcDbLine
 10
390.9490649512
 20
181.1513218873
 30
0.0
 11
390.9490649512
 21
187.8311808996
 31
0.0
  0
LINE
  5
1E3
330
1F
100
AcDbEntity
  8
0
  6
Continuous
 62
     7
370
    30
100
AcDbLine
 10
384.9490653647
 20
187.8311808996
 30
0.0
 11
384.9490653647
 21
181.1513218873
 31
0.0
  0
LINE
  5
1E4
330
1F
100
AcDbEntity
  8
0
  6
Continuous
 62
     7
370
    30
100
AcDbLine
 10
396.9490659346
 20
218.8311822556
 30
0.0
 11
394.5000265648
 21
218.5737777345
 31
0.0
  0
LINE
  5
1E5
330
1F
100
AcDbEntity
  8
0
  6
Continuous
 62
     7
370
    30
100
AcDbLine
 10
394.5000265648
 20
209.0885856033
 30
0.0
 11
396.9490659346
 21
208.8311815478
 31
0.0
  0
ARC
  5
1E6
330
1F
100
AcDbEntity
  8
0
  6
Continuous
 62
     7
370
    30
100
AcDbCircle
 10
402.1490651747
 20
213.8311813318
 30
0.0
 40
8.999999999999988
100
AcDbArc
 50
194.4775121859
 51
211.7999516825
  0
ARC
  5
1E7
330
1F
100
AcDbEntity
  8
0
  6
Continuous
 62
     7
370
    30
100
AcDbCircle
 10
402.1490651747
 20
213.8311813318
 30
0.0
 40
8.999999999999995
100
AcDbArc
 50
148.2000483175
 51
165.5224878141
  0
LINE
  5
1E8
330
1F
100
AcDbEntity
  8
0
  6
Continuous
 62
     7
370
    30
100
AcDbLine
 10
383.4490651188
 20
219.8311805569
 30
0.0
 11
383.4490651188
 21
187.8311808996
 31
0.0
  0
LINE
  5
1E9
330
1F
100
AcDbEntity
  8
0
  6
Continuous
 62
     7
370
    30
100
AcDbLine
 10
380.2490651996
 20
219.8311805569
 30
0.0
 11
380.2490651996
 21
187.8311808996
 31
0.0
  0
LINE
  5
1EA
330
1F
100
AcDbEntity
  8
0
  6
Continuous
 62
     7
370
    30
100
AcDbLine
 10
383.4490651188
 20
187.8311808996
 30
0.0
 11
380.2490651996
 21
187.8311808996
 31
0.0
  0
LINE
  5
1EB
330
1F
100
AcDbEntity
  8
0
  6
Continuous
 62
     7
370
    30
100
AcDbLine
 10
380.2490651996
 20
219.8311805569
 30
0.0
 11
383.4490651188
 21
219.8311805569
 31
0.0
  0
LINE
  5
1EC
330
1F
100
AcDbEntity
  8
0
  6
Continuous
 62
     7
370
    30
100
AcDbLine
 10
387.9490653908
 20
216.8311809965
 30
0.0
 11
389.9490647873
 21
218.8311822556
 31
0.0
  0
LINE
  5
1ED
330
1F
100
AcDbEntity
  8
0
  6
Continuous
 62
     7
370
    30
100
AcDbLine
 10
391.9490651151
 20
218.8311822556
 30
0.0
 11
389.9490647873
 21
218.8311822556
 31
0.0
  0
LINE
  5
1EE
330
1F
100
AcDbEntity
  8
0
  6
Continuous
 62
     7
370
    30
100
AcDbLine
 10
391.9490651151
 20
218.8311822556
 30
0.0
 11
391.9490651151
 21
217.6240745776
 31
0.0
  0
ARC
  5
1EF
330
1F
100
AcDbEntity
  8
0
  6
Continuous
 62
     7
370
    30
100
AcDbCircle
 10
389.4490651747
 20
217.6240745506
 30
0.0
 40
2.50000000000002
100
AcDbArc
 50
315.0
 51
0.0
  0
LINE
  5
1F0
330
1F
100
AcDbEntity
  8
0
  6
Continuous
 62
     7
370
    30
100
AcDbLine
 10
391.2168322986
 20
215.8563079156
 30
0.0
 11
389.5348516216
 21
214.1743272387
 31
0.0
  0
ARC
  5
1F1
330
1F
100
AcDbEntity
  8
0
  6
Continuous
 62
     7
370
    30
100
AcDbCircle
 10
390.9490651747
 20
212.7601135199
 30
0.0
 40
2.000000000000036
100
AcDbArc
 50
135.0
 51
180.0
  0
LINE
  5
1F2
330
1F
100
AcDbEntity
  8
0
  6
Continuous
 62
     7
370
    30
100
AcDbLine
 10
388.9490655547
 20
212.7601139091
 30
0.0
 11
388.9490655547
 21
198.7332408626
 31
0.0
  0
LINE
  5
1F3
330
1F
100
AcDbEntity
  8
0
  6
Continuous
 62
     7
370
    30
100
AcDbLine
 10
388.8490647932
 20
198.7332408626
 30
0.0
 11
388.9490655547
 21
198.7332408626
 31
0.0
  0
LINE
  5
1F4
330
1F
100
AcDbEntity
  8
0
  6
Continuous
 62
     7
370
    30
100
AcDbLine
 10
388.9490655547
 20
198.5198960483
 30
0.0
 11
388.9490655547
 21
197.8142641329
 31
0.0
  0
LINE
  5
1F5
330
1F
100
AcDbEntity
  8
0
  6
Continuous
 62
     7
370
    30
100
AcDbLine
 10
388.8490647932
 20
197.8142641329
 30
0.0
 11
388.9490655547
 21
197.8142641329
 31
0.0
  0
LINE
  5
1F6
330
1F
100
AcDbEntity
  8
0
  6
Continuous
 62
     7
370
    30
100
AcDbLine
 10
388.8490647932
 20
197.6563509398
 30
0.0
 11
388.8490647932
 21
197.8142641329
 31
0.0
  0
LINE
  5
1F7
330
1F
100
AcDbEntity
  8
0
  6
Continuous
 62
     7
370
    30
100
AcDbLine
 10
388.9490655547
 20
197.6563509398
 30
0.0
 11
388.8490647932
 21
197.6563509398
 31
0.0
  0
LINE
  5
1F8
330
1F
100
AcDbEntity
  8
0
  6
Continuous
 62
     7
370
    30
100
AcDbLine
 10
388.9490655547
 20
197.6563509398
 30
0.0
 11
388.9490655547
 21
197.0785020695
 31
0.0
  0
LINE
  5
1F9
330
1F
100
AcDbEntity
  8
0
  6
Continuous
 62
     7
370
    30
100
AcDbLine
 10
388.8490647932
 20
197.0785025351
 30
0.0
 11
388.9490655547
 21
197.0785020695
 31
0.0
  0
LINE
  5
1FA
330
1F
100
AcDbEntity
  8
0
  6
Continuous
 62
     7
370
    30
100
AcDbLine
 10
388.8490647932
 20
196.9217539609
 30
0.0
 11
388.8490647932
 21
197.0785025351
 31
0.0
  0
LINE
  5
1FB
330
1F
100
AcDbEntity
  8
0
  6
Continuous
 62
     7
370
    30
100
AcDbLine
 10
388.9490655547
 20
196.9217539609
 30
0.0
 11
388.8490647932
 21
196.9217539609
 31
0.0
  0
LINE
  5
1FC
330
1F
100
AcDbEntity
  8
0
  6
Continuous
 62
     7
370
    30
100
AcDbLine
 10
388.9490655547
 20
196.9217539609
 30
0.0
 11
388.9490655547
 21
194.9022489444
 31
0.0
  0
ARC
  5
1FD
330
1F
100
AcDbEntity
  8
0
  6
Continuous
 62
     7
370
    30
100
AcDbCircle
 10
390.9490651747
 20
194.9022491436
 30
0.0
 40
2.0
100
AcDbArc
 50
180.0
 51
225.0
  0
LINE
  5
1FE
330
1F
100
AcDbEntity
  8
0
  6
Continuous
 62
     7
370
    30
100
AcDbLine
 10
389.5348516216
 20
193.4880351492
 30
0.0
 11
391.2168322986
 21
191.8060554035
 31
0.0
  0
ARC
  5
1FF
330
1F
100
AcDbEntity
  8
0
  6
Continuous
 62
     7
370
    30
100
AcDbCircle
 10
389.4490651747
 20
190.038288113
 30
0.0
 40
2.5
100
AcDbArc
 50
0.0
 51
45.0
  0
LINE
  5
200
330
1F
100
AcDbEntity
  8
0
  6
Continuous
 62
     7
370
    30
100
AcDbLine
 10
391.9490651151
 20
190.0382878103
 30
0.0
 11
391.9490651151
 21
188.8311810635
 31
0.0
  0
LINE
  5
201
330
1F
100
AcDbEntity
  8
0
  6
Continuous
 62
     7
370
    30
100
AcDbLine
 10
391.9490651151
 20
188.8311810635
 30
0.0
 11
389.9490647873
 21
188.8311810635
 31
0.0
  0
LINE
  5
202
330
1F
100
AcDbEntity
  8
0
  6
Continuous
 62
     7
370
    30
100
AcDbLine
 10
389.9490647873
 20
188.8311810635
 30
0.0
 11
387.9490653908
 21
190.8311813914
 31
0.0
  0
LINE
  5
203
330
1F
100
AcDbEntity
  8
0
  6
Continuous
 62
     7
370
    30
100
AcDbLine
 10
387.9490653908
 20
190.8311813914
 30
0.0
 11
385.9490650629
 21
188.8311810635
 31
0.0
  0
LINE
  5
204
330
1F
100
AcDbEntity
  8
0
  6
Continuous
 62
     7
370
    30
100
AcDbLine
 10
385.9490650629
 20
188.8311810635
 30
0.0
 11
383.4490651188
 21
188.8311810635
 31
0.0
  0
LINE
  5
205
330
1F
100
AcDbEntity
  8
0
  6
Continuous
 62
     7
370
    30
100
AcDbLine
 10
383.4490651188
 20
188.8311810635
 30
0.0
 11
383.4490651188
 21
218.8311822556
 31
0.0
  0
LINE
  5
206
330
1F
100
AcDbEntity
  8
0
  6
Continuous
 62
     7
370
    30
100
AcDbLine
 10
385.9490650629
 20
218.8311822556
 30
0.0
 11
383.4490651188
 21
218.8311822556
 31
0.0
  0
LINE
  5
207
330
1F
100
AcDbEntity
  8
0
  6
Continuous
 62
     7
370
    30
100
AcDbLine
 10
385.9490650629
 20
218.8311822556
 30
0.0
 11
387.9490653908
 21
216.8311809965
 31
0.0
  0
LINE
  5
208
330
1F
100
AcDbEntity
  8
0
  6
Continuous
 62
     7
370
    30
100
AcDbLine
 10
388.8490647932
 20
198.5198960483
 30
0.0
 11
388.8490647932
 21
198.7332408626
 31
0.0
  0
LINE
  5
209
330
1F
100
AcDbEntity
  8
0
  6
Continuous
 62
     7
370
    30
100
AcDbLine
 10
388.9490655547
 20
198.5198960483
 30
0.0
 11
388.8490647932
 21
198.5198960483
 31
0.0
  0
SPLINE
  5
20A
330
1F
100
AcDbEntity
  8
0
  6
Continuous
 62
     7
370
    30
100
AcDbSpline
210
0.0
220
0.0
230
1.0
 70
    24
 71
     3
 72
     9
 73
     5
 74
     0
 42
0.00000001
 43
0.00000001
 40
0.0
 40
0.0
 40
0.0
 40
0.0
 40
0.5597370966290703
 40
0.9999999999999999
 40
0.9999999999999999
 40
0.9999999999999999
 40
0.9999999999999999
 10
388.9490655546666
 20
198.7332408626044
 30
0.0
 10
388.9490655546666
 20
198.724757378785
 30
0.0
 10
388.9490655546666
 20
198.7096011851533
 30
0.0
 10
388.9490655546666
 20
198.6932283611401
 30
0.0
 10
388.9490655546666
 20
198.6860200141037
 30
0.0
  0
LINE
  5
20B
330
1F
100
AcDbEntity
  8
0
  6
Continuous
 62
     7
370
    30
100
AcDbLine
 10
388.8490647932
 20
198.6860200141
 30
0.0
 11
388.9490655547
 21
198.6860200141
 31
0.0
  0
LINE
  5
20C
330
1F
100
AcDbEntity
  8
0
  6
Continuous
 62
     7
370
    30
100
AcDbLine
 10
388.9490655547
 20
197.031424179
 30
0.0
 11
388.9490655547
 21
196.9217539609
 31
0.0
  0
SPLINE
  5
20D
330
1F
100
AcDbEntity
  8
0
  6
Continuous
 62
     7
370
    30
100
AcDbSpline
210
0.0
220
0.0
230
1.0
 70
    24
 71
     3
 72
     9
 73
     5
 74
     0
 42
0.00000001
 43
0.00000001
 40
0.0
 40
0.0
 40
0.0
 40
0.0
 40
0.8748291038273177
 40
1.0
 40
1.0
 40
1.0
 40
1.0
 10
388.9490655546666
 20
197.8142641328687
 30
0.0
 10
388.9490655546666
 20
197.7914374974602
 30
0.0
 10
388.9490655546666
 20
197.7653448179773
 30
0.0
 10
388.9490655546666
 20
197.718138665045
 30
0.0
 10
388.9490655546666
 20
197.7122298285776
 30
0.0
  0
LINE
  5
20E
330
1F
100
AcDbEntity
  8
0
  6
Continuous
 62
     7
370
    30
100
AcDbLine
 10
384.9490653647
 20
219.8311805569
 30
0.0
 11
383.4490651188
 21
219.8311805569
 31
0.0
  0
LINE
  5
20F
330
1F
100
AcDbEntity
  8
0
  6
Continuous
 62
     7
370
    30
100
AcDbLine
 10
383.4490651188
 20
187.8311808996
 30
0.0
 11
384.9490653647
 21
187.8311808996
 31
0.0
  0
LINE
  5
210
330
1F
100
AcDbEntity
  8
0
  6
Continuous
 62
     7
370
    30
100
AcDbLine
 10
391.9490651151
 20
219.8311805569
 30
0.0
 11
390.9490649512
 21
219.8311805569
 31
0.0
  0
LINE
  5
211
330
1F
100
AcDbEntity
  8
0
  6
Continuous
 62
     7
370
    30
100
AcDbLine
 10
391.9490651151
 20
218.8311822556
 30
0.0
 11
391.9490651151
 21
219.8311805569
 31
0.0
  0
LINE
  5
212
330
1F
100
AcDbEntity
  8
0
  6
Continuous
 62
     7
370
    30
100
AcDbLine
 10
391.9490651151
 20
187.8311808996
 30
0.0
 11
390.9490649512
 21
187.8311808996
 31
0.0
  0
LINE
  5
213
330
1F
100
AcDbEntity
  8
0
  6
Continuous
 62
     7
370
    30
100
AcDbLine
 10
391.9490651151
 20
187.8311808996
 30
0.0
 11
391.9490651151
 21
188.8311810635
 31
0.0
  0
LINE
  5
214
330
1F
100
AcDbEntity
  8
0
  6
Continuous
 62
     7
370
    30
100
AcDbLine
 10
388.9490655547
 20
198.6801531475
 30
0.0
 11
388.9490655547
 21
198.5198960483
 31
0.0
  0
ARC
  5
215
330
1F
100
AcDbEntity
  8
0
  6
Continuous
 62
     7
370
    30
100
AcDbCircle
 10
410.1490651747
 20
204.6311813318
 30
0.0
 40
0.3000000000000114
100
AcDbArc
 50
270.0
 51
0.0
  0
LINE
  5
216
330
1F
100
AcDbEntity
  8
0
  6
Continuous
 62
     7
370
    30
100
AcDbLine
 10
410.1490658631
 20
204.3311812759
 30
0.0
 11
406.7490660509
 21
204.3311812759
 31
0.0
  0
LINE
  5
217
330
1F
100
AcDbEntity
  8
0
  6
Continuous
 62
     7
370
    30
100
AcDbLine
 10
406.7490660509
 20
223.3311820619
 30
0.0
 11
410.1490658631
 21
223.3311820619
 31
0.0
  0
ARC
  5
218
330
1F
100
AcDbEntity
  8
0
  6
Continuous
 62
     7
370
    30
100
AcDbCircle
 10
410.1490651747
 20
223.0311813318
 30
0.0
 40
0.3000000000000398
100
AcDbArc
 50
0.0
 51
90.0
  0
LINE
  5
219
330
1F
100
AcDbEntity
  8
0
  6
Continuous
 62
     7
370
    30
100
AcDbLine
 10
410.4490653535
 20
223.0311807089
 30
0.0
 11
410.4490653535
 21
204.6311812319
 31
0.0
  0
ARC
  5
21A
330
1F
100
AcDbEntity
  8
0
  6
Continuous
 62
     7
370
    30
100
AcDbCircle
 10
406.7490651747
 20
204.6311813318
 30
0.0
 40
0.2999999999999829
100
AcDbArc
 50
180.0
 51
270.0
  0
LINE
  5
21B
330
1F
100
AcDbEntity
  8
0
  6
Continuous
 62
     7
370
    30
100
AcDbLine
 10
406.4490646978
 20
223.0311807089
 30
0.0
 11
406.4490646978
 21
204.6311812319
 31
0.0
  0
ARC
  5
21C
330
1F
100
AcDbEntity
  8
0
  6
Continuous
 62
     7
370
    30
100
AcDbCircle
 10
406.7490651747
 20
223.0311813318
 30
0.0
 40
0.3000000000000398
100
AcDbArc
 50
90.0
 51
180.0
  0
ARC
  5
21D
330
1F
100
AcDbEntity
  8
0
  6
Continuous
 62
     7
370
    30
100
AcDbCircle
 10
473.9490651747
 20
203.3311813318
 30
0.0
 40
0.5000000000000568
100
AcDbArc
 50
180.0
 51
270.0
  0
ARC
  5
21E
330
1F
100
AcDbEntity
  8
0
  6
Continuous
 62
     7
370
    30
100
AcDbCircle
 10
473.9490651747
 20
224.3311813318
 30
0.0
 40
0.5
100
AcDbArc
 50
90.0
 51
180.0
  0
LINE
  5
21F
330
1F
100
AcDbEntity
  8
0
  6
Continuous
 62
     7
370
    30
100
AcDbLine
 10
473.9490673801
 20
224.8311813765
 30
0.0
 11
476.9490660092
 21
224.8311813765
 31
0.0
  0
ARC
  5
220
330
1F
100
AcDbEntity
  8
0
  6
Continuous
 62
     7
370
    30
100
AcDbCircle
 10
476.9490651747
 20
224.3311813318
 30
0.0
 40
0.5
100
AcDbArc
 50
0.0
 51
90.0
  0
LINE
  5
221
330
1F
100
AcDbEntity
  8
0
  6
Continuous
 62
     7
370
    30
100
AcDbLine
 10
477.4490670224
 20
203.3311813448
 30
0.0
 11
477.4490670224
 21
224.3311822258
 31
0.0
  0
ARC
  5
222
330
1F
100
AcDbEntity
  8
0
  6
Continuous
 62
     7
370
    30
100
AcDbCircle
 10
476.9490651747
 20
203.3311813318
 30
0.0
 40
0.5
100
AcDbArc
 50
270.0
 51
0.0
  0
LINE
  5
223
330
1F
100
AcDbEntity
  8
0
  6
Continuous
 62
     7
370
    30
100
AcDbLine
 10
473.9490673801
 20
202.8311813793
 30
0.0
 11
476.9490660092
 21
202.8311813793
 31
0.0
  0
LINE
  5
224
330
1F
100
AcDbEntity
  8
0
  6
Continuous
 62
     7
370
    30
100
AcDbLine
 10
473.4490663668
 20
224.3311822258
 30
0.0
 11
473.4490663668
 21
203.3311813448
 31
0.0
  0
LINE
  5
225
330
1F
100
AcDbEntity
  8
0
  6
Continuous
 62
     7
370
    30
100
AcDbLine
 10
402.4490659048
 20
222.8311810486
 30
0.0
 11
402.4490659048
 21
224.3311822258
 31
0.0
  0
ARC
  5
226
330
1F
100
AcDbEntity
  8
0
  6
Continuous
 62
     7
370
    30
100
AcDbCircle
 10
402.9490651747
 20
224.3311813318
 30
0.0
 40
0.5
100
AcDbArc
 50
90.0
 51
180.0
  0
ARC
  5
227
330
1F
100
AcDbEntity
  8
0
  6
Continuous
 62
     7
370
    30
100
AcDbCircle
 10
405.9490651747
 20
224.3311813318
 30
0.0
 40
0.5
100
AcDbArc
 50
0.0
 51
90.0
  0
LINE
  5
228
330
1F
100
AcDbEntity
  8
0
  6
Continuous
 62
     7
370
    30
100
AcDbLine
 10
406.4490646978
 20
224.3311822258
 30
0.0
 11
406.4490646978
 21
223.0311807089
 31
0.0
  0
LINE
  5
229
330
1F
100
AcDbEntity
  8
0
  6
Continuous
 62
     7
370
    30
100
AcDbLine
 10
405.9490655472
 20
224.8311813765
 30
0.0
 11
402.9490650555
 21
224.8311813765
 31
0.0
  0
ARC
  5
22A
330
1F
100
AcDbEntity
  8
0
  6
Continuous
 62
     7
370
    30
100
AcDbCircle
 10
402.9490651747
 20
203.3311813318
 30
0.0
 40
0.5
100
AcDbArc
 50
180.0
 51
270.0
  0
LINE
  5
22B
330
1F
100
AcDbEntity
  8
0
  6
Continuous
 62
     7
370
    30
100
AcDbLine
 10
405.9490655472
 20
202.8311813793
 30
0.0
 11
403.9490652194
 21
202.8311813793
 31
0.0
  0
LINE
  5
22C
330
1F
100
AcDbEntity
  8
0
  6
Continuous
 62
     7
370
    30
100
AcDbLine
 10
406.4490646978
 20
204.6311812319
 30
0.0
 11
406.4490646978
 21
203.3311813448
 31
0.0
  0
ARC
  5
22D
330
1F
100
AcDbEntity
  8
0
  6
Continuous
 62
     7
370
    30
100
AcDbCircle
 10
405.9490651747
 20
203.3311813318
 30
0.0
 40
0.5
100
AcDbArc
 50
270.0
 51
0.0
  0
LINE
  5
22E
330
1F
100
AcDbEntity
  8
0
  6
Continuous
 62
     7
370
    30
100
AcDbLine
 10
405.9490655472
 20
224.8311813765
 30
0.0
 11
410.4490653535
 21
224.8311813765
 31
0.0
  0
LINE
  5
22F
330
1F
100
AcDbEntity
  8
0
  6
Continuous
 62
     7
370
    30
100
AcDbLine
 10
410.4490653535
 20
202.8311813793
 30
0.0
 11
405.9490655472
 21
202.8311813793
 31
0.0
  0
LINE
  5
230
330
1F
100
AcDbEntity
  8
0
  6
Continuous
 62
     7
370
    30
100
AcDbLine
 10
469.4490657111
 20
224.8311813765
 30
0.0
 11
473.9490673801
 21
224.8311813765
 31
0.0
  0
LINE
  5
231
330
1F
100
AcDbEntity
  8
0
  6
Continuous
 62
     7
370
    30
100
AcDbLine
 10
473.9490673801
 20
202.8311813793
 30
0.0
 11
469.4490657111
 21
202.8311813793
 31
0.0
  0
LINE
  5
232
330
1F
100
AcDbEntity
  8
0
  6
Continuous
 62
     7
370
    30
100
AcDbLine
 10
410.4490653535
 20
224.8311813765
 30
0.0
 11
469.4490657111
 21
224.8311813765
 31
0.0
  0
LINE
  5
233
330
1F
100
AcDbEntity
  8
0
  6
Continuous
 62
     7
370
    30
100
AcDbLine
 10
469.4490657111
 20
202.8311813793
 30
0.0
 11
410.4490653535
 21
202.8311813793
 31
0.0
  0
LINE
  5
234
330
1F
100
AcDbEntity
  8
0
  6
Continuous
 62
     7
370
    30
100
AcDbLine
 10
400.9490647277
 20
222.8311810486
 30
0.0
 11
400.9490647277
 21
202.8311813793
 31
0.0
  0
LINE
  5
235
330
1F
100
AcDbEntity
  8
0
  6
Continuous
 62
     7
370
    30
100
AcDbLine
 10
400.9490647277
 20
222.8311810486
 30
0.0
 11
402.4490659048
 21
222.8311810486
 31
0.0
  0
LINE
  5
236
330
1F
100
AcDbEntity
  8
0
  6
Continuous
 62
     7
370
    30
100
AcDbLine
 10
402.4490659048
 20
222.8311810486
 30
0.0
 11
402.4490659048
 21
202.8311813793
 31
0.0
  0
LINE
  5
237
330
1F
100
AcDbEntity
  8
0
  6
Continuous
 62
     7
370
    30
100
AcDbLine
 10
402.4490659048
 20
202.8311813793
 30
0.0
 11
400.9490647277
 21
202.8311813793
 31
0.0
  0
LINE
  5
238
330
1F
100
AcDbEntity
  8
0
  6
Continuous
 62
     7
370
    30
100
AcDbLine
 10
400.9490647277
 20
202.8311813793
 30
0.0
 11
403.9490652194
 21
202.8311813793
 31
0.0
  0
LINE
  5
239
330
1F
100
AcDbEntity
  8
0
  6
Continuous
 62
     7
370
    30
100
AcDbLine
 10
404.9490653833
 20
202.2538310576
 30
0.0
 11
403.9490652194
 21
202.8311813793
 31
0.0
  0
LINE
  5
23A
330
1F
100
AcDbEntity
  8
0
  6
Continuous
 62
     7
370
    30
100
AcDbLine
 10
404.9490653833
 20
202.2538310576
 30
0.0
 11
404.9490653833
 21
199.3311813876
 31
0.0
  0
LINE
  5
23B
330
1F
100
AcDbEntity
  8
0
  6
Continuous
 62
     7
370
    30
100
AcDbLine
 10
404.9490653833
 20
199.3311813876
 30
0.0
 11
403.9490652194
 21
199.3311813876
 31
0.0
  0
ARC
  5
23C
330
1F
100
AcDbEntity
  8
0
  6
Continuous
 62
     7
370
    30
100
AcDbCircle
 10
403.9490651747
 20
196.3311813318
 30
0.0
 40
3.0
100
AcDbArc
 50
90.0
 51
180.0
  0
LINE
  5
23D
330
1F
100
AcDbEntity
  8
0
  6
Continuous
 62
     7
370
    30
100
AcDbLine
 10
400.9490647277
 20
196.3311813616
 30
0.0
 11
400.9490647277
 21
181.1311811053
 31
0.0
  0
ARC
  5
23E
330
1F
100
AcDbEntity
  8
0
  6
Continuous
 62
     7
370
    30
100
AcDbCircle
 10
400.6490651747
 20
181.1311813318
 30
0.0
 40
0.3000000000000682
100
AcDbArc
 50
270.0
 51
0.0
  0
LINE
  5
23F
330
1F
100
AcDbEntity
  8
0
  6
Continuous
 62
     7
370
    30
100
AcDbLine
 10
400.6490652373
 20
180.8311816149
 30
0.0
 11
391.4490650331
 21
180.8311816149
 31
0.0
  0
LINE
  5
240
330
1F
100
AcDbEntity
  8
0
  6
Continuous
 62
     7
370
    30
100
AcDbLine
 10
391.4490650331
 20
180.8311816149
 30
0.0
 11
390.9490649512
 21
181.3311807655
 31
0.0
  0
LINE
  5
241
330
1F
100
AcDbEntity
  8
0
  6
Continuous
 62
     7
370
    30
100
AcDbLine
 10
390.9490649512
 20
185.3311814212
 30
0.0
 11
395.9490648394
 21
185.3311814212
 31
0.0
  0
ARC
  5
242
330
1F
100
AcDbEntity
  8
0
  6
Continuous
 62
     7
370
    30
100
AcDbCircle
 10
395.9490651747
 20
186.3311813318
 30
0.0
 40
1.000000000000028
100
AcDbArc
 50
270.0
 51
360.0
  0
LINE
  5
243
330
1F
100
AcDbEntity
  8
0
  6
Continuous
 62
     7
370
    30
100
AcDbLine
 10
396.9490659346
 20
186.3311815851
 30
0.0
 11
396.9490659346
 21
219.8311805569
 31
0.0
  0
ARC
  5
244
330
1F
100
AcDbEntity
  8
0
  6
Continuous
 62
     7
370
    30
100
AcDbCircle
 10
395.9490651747
 20
219.8311813318
 30
0.0
 40
1.0
100
AcDbArc
 50
0.0
 51
90.0
  0
LINE
  5
245
330
1F
100
AcDbEntity
  8
0
  6
Continuous
 62
     7
370
    30
100
AcDbLine
 10
395.9490648394
 20
220.8311807208
 30
0.0
 11
391.9490651151
 21
220.8311807208
 31
0.0
  0
LINE
  5
246
330
1F
100
AcDbEntity
  8
0
  6
Continuous
 62
     7
370
    30
100
AcDbLine
 10
391.9490651151
 20
220.8311807208
 30
0.0
 11
388.9490655547
 21
217.8311820917
 31
0.0
  0
LINE
  5
247
330
1F
100
AcDbEntity
  8
0
  6
Continuous
 62
     7
370
    30
100
AcDbLine
 10
388.9490655547
 20
217.8311820917
 30
0.0
 11
386.9490652268
 21
217.8311820917
 31
0.0
  0
LINE
  5
248
330
1F
100
AcDbEntity
  8
0
  6
Continuous
 62
     7
370
    30
100
AcDbLine
 10
386.9490652268
 20
217.8311820917
 30
0.0
 11
383.9490652008
 21
220.8311807208
 31
0.0
  0
LINE
  5
249
330
1F
100
AcDbEntity
  8
0
  6
Continuous
 62
     7
370
    30
100
AcDbLine
 10
383.9490652008
 20
220.8311807208
 30
0.0
 11
380.9490651747
 21
220.8311807208
 31
0.0
  0
LINE
  5
24A
330
1F
100
AcDbEntity
  8
0
  6
Continuous
 62
     7
370
    30
100
AcDbLine
 10
380.9490651747
 20
220.8311807208
 30
0.0
 11
380.9490651747
 21
222.5311815583
 31
0.0
  0
ARC
  5
24B
330
1F
100
AcDbEntity
  8
0
  6
Continuous
 62
     7
370
    30
100
AcDbCircle
 10
381.2490651747
 20
222.5311813318
 30
0.0
 40
0.2999999999999829
100
AcDbArc
 50
90.0
 51
180.0
  0
LINE
  5
24C
330
1F
100
AcDbEntity
  8
0
  6
Continuous
 62
     7
370
    30
100
AcDbLine
 10
381.2490651889
 20
222.8311810486
 30
0.0
 11
400.6490652373
 21
222.8311810486
 31
0.0
  0
ARC
  5
24D
330
1F
100
AcDbEntity
  8
0
  6
Continuous
 62
     7
370
    30
100
AcDbCircle
 10
400.6490651747
 20
222.5311813318
 30
0.0
 40
0.3000000000000682
100
AcDbArc
 50
0.0
 51
90.0
  0
LINE
  5
24E
330
1F
100
AcDbEntity
  8
0
  6
Continuous
 62
     7
370
    30
100
AcDbLine
 10
400.9490647277
 20
222.5311815583
 30
0.0
 11
400.9490647277
 21
202.8311813793
 31
0.0
  0
LINE
  5
24F
330
1F
100
AcDbEntity
  8
0
  6
Continuous
 62
     7
370
    30
100
AcDbLine
 10
384.9490653647
 20
181.3311807655
 30
0.0
 11
384.4490652827
 21
180.8311816149
 31
0.0
  0
LINE
  5
250
330
1F
100
AcDbEntity
  8
0
  6
Continuous
 62
     7
370
    30
100
AcDbLine
 10
384.4490652827
 20
180.8311816149
 30
0.0
 11
381.2490651889
 21
180.8311816149
 31
0.0
  0
LINE
  5
251
330
1F
100
AcDbEntity
  8
0
  6
Continuous
 62
     7
370
    30
100
AcDbLine
 10
380.9490651747
 20
181.1311811053
 30
0.0
 11
380.9490651747
 21
185.3311814212
 31
0.0
  0
LINE
  5
252
330
1F
100
AcDbEntity
  8
0
  6
Continuous
 62
     7
370
    30
100
AcDbLine
 10
380.9490651747
 20
185.3311814212
 30
0.0
 11
384.9490653647
 21
185.3311814212
 31
0.0
  0
ARC
  5
253
330
1F
100
AcDbEntity
  8
0
  6
Continuous
 62
     7
370
    30
100
AcDbCircle
 10
381.2490651747
 20
181.1311813318
 30
0.0
 40
0.2999999999999829
100
AcDbArc
 50
180.0
 51
270.0
  0
LINE
  5
254
330
1F
100
AcDbEntity
  8
0
  6
Continuous
 62
     7
370
    30
100
AcDbLine
 10
384.4490652827
 20
180.8311816149
 30
0.0
 11
385.5035650467
 21
180.8311816149
 31
0.0
  0
LINE
  5
255
330
1F
100
AcDbEntity
  8
0
  6
Continuous
 62
     7
370
    30
100
AcDbLine
 10
390.3945648035
 20
180.8311816149
 30
0.0
 11
391.4490650331
 21
180.8311816149
 31
0.0
  0
LINE
  5
256
330
1F
100
AcDbEntity
  8
0
  6
Continuous
 62
     7
370
    30
100
AcDbLine
 10
383.9490652008
 20
220.8311807208
 30
0.0
 11
383.9490652008
 21
219.8311805569
 31
0.0
  0
LINE
  5
257
330
1F
100
AcDbEntity
  8
0
  6
Continuous
 62
     7
370
    30
100
AcDbLine
 10
380.9490651747
 20
219.8311805569
 30
0.0
 11
380.9490651747
 21
220.8311807208
 31
0.0
  0
LINE
  5
258
330
1F
100
AcDbEntity
  8
0
  6
Continuous
 62
     7
370
    30
100
AcDbLine
 10
380.9490651747
 20
185.3311814212
 30
0.0
 11
380.9490651747
 21
187.8311808996
 31
0.0
  0
LINE
  5
259
330
1F
100
AcDbEntity
  8
0
  6
Continuous
 62
     7
370
    30
100
AcDbLine
 10
390.9490649512
 20
187.8311808996
 30
0.0
 11
384.9490653647
 21
187.8311808996
 31
0.0
  0
LINE
  5
25A
330
1F
100
AcDbEntity
  8
0
  6
Continuous
 62
     7
370
    30
100
AcDbLine
 10
390.3945648035
 20
180.8311816149
 30
0.0
 11
385.5035650467
 21
180.8311816149
 31
0.0
  0
LINE
  5
25B
330
1F
100
AcDbEntity
  8
0
  6
Continuous
 62
     7
370
    30
100
AcDbLine
 10
390.9490649512
 20
181.1513218873
 30
0.0
 11
384.9490653647
 21
181.1513218873
 31
0.0
  0
LINE
  5
25C
330
1F
100
AcDbEntity
  8
0
  6
Continuous
 62
     7
370
    30
100
AcDbLine
 10
394.5000265648
 20
209.0885856033
 30
0.0
 11
394.5000265648
 21
218.5737777345
 31
0.0
  0
LINE
  5
25D
330
1F
100
AcDbEntity
  8
0
  6
Continuous
 62
     7
370
    30
100
AcDbLine
 10
393.4348524471
 20
211.5811815329
 30
0.0
 11
393.4348524471
 21
211.8826245733
 31
0.0
  0
LINE
  5
25E
330
1F
100
AcDbEntity
  8
0
  6
Continuous
 62
     7
370
    30
100
AcDbLine
 10
393.4348524471
 20
211.8826245733
 30
0.0
 11
393.4348524471
 21
213.8311814361
 31
0.0
  0
LINE
  5
25F
330
1F
100
AcDbEntity
  8
0
  6
Continuous
 62
     7
370
    30
100
AcDbLine
 10
393.4348524471
 20
213.8311814361
 30
0.0
 11
393.4348524471
 21
215.7797382988
 31
0.0
  0
LINE
  5
260
330
1F
100
AcDbEntity
  8
0
  6
Continuous
 62
     7
370
    30
100
AcDbLine
 10
393.4348524471
 20
215.7797382988
 30
0.0
 11
393.4348524471
 21
216.0811813392
 31
0.0
  0
LINE
  5
261
330
1F
100
AcDbEntity
  8
0
  6
Continuous
 62
     8
370
     0
100
AcDbLine
 10
402.9490650555
 20
224.8311813765
 30
0.0
 11
402.9490650555
 21
222.8311810486
 31
0.0
  0
LINE
  5
262
330
1F
100
AcDbEntity
  8
0
  6
Continuous
 62
     8
370
     0
100
AcDbLine
 10
402.4490659048
 20
222.8311810486
 30
0.0
 11
402.9490650555
 21
222.8311810486
 31
0.0
  0
LINE
  5
263
330
1F
100
AcDbEntity
  8
0
  6
Continuous
 62
     8
370
     0
100
AcDbLine
 10
402.9490650555
 20
222.8311810486
 30
0.0
 11
402.9490650555
 21
204.8311813578
 31
0.0
  0
LINE
  5
264
330
1F
100
AcDbEntity
  8
0
  6
Continuous
 62
     8
370
     0
100
AcDbLine
 10
402.4490659048
 20
204.8311813578
 30
0.0
 11
402.9490650555
 21
204.8311813578
 31
0.0
  0
LINE
  5
265
330
1F
100
AcDbEntity
  8
0
  6
Continuous
 62
     8
370
     0
100
AcDbLine
 10
405.9490655472
 20
204.8311813578
 30
0.0
 11
405.9490655472
 21
222.8311810486
 31
0.0
  0
LINE
  5
266
330
1F
100
AcDbEntity
  8
0
  6
Continuous
 62
     8
370
     0
100
AcDbLine
 10
405.9490655472
 20
222.8311810486
 30
0.0
 11
406.4490646978
 21
222.8311810486
 31
0.0
  0
LINE
  5
267
330
1F
100
AcDbEntity
  8
0
  6
Continuous
 62
     8
370
     0
100
AcDbLine
 10
405.9490655472
 20
204.8311813578
 30
0.0
 11
406.4490646978
 21
204.8311813578
 31
0.0
  0
LINE
  5
268
330
1F
100
AcDbEntity
  8
0
  6
Continuous
 62
     8
370
     0
100
AcDbLine
 10
405.9490655472
 20
222.8311810486
 30
0.0
 11
405.9490655472
 21
224.8311813765
 31
0.0
  0
LINE
  5
269
330
1F
100
AcDbEntity
  8
0
  6
Continuous
 62
     8
370
     0
100
AcDbLine
 10
405.9490655472
 20
222.8311810486
 30
0.0
 11
402.9490650555
 21
222.8311810486
 31
0.0
  0
LINE
  5
26A
330
1F
100
AcDbEntity
  8
0
  6
Continuous
 62
     8
370
     0
100
AcDbLine
 10
405.9490655472
 20
204.8311813578
 30
0.0
 11
402.9490650555
 21
204.8311813578
 31
0.0
  0
LINE
  5
26B
330
1F
100
AcDbEntity
  8
0
  6
Continuous
 62
     8
370
     0
100
AcDbLine
 10
402.9490650555
 20
204.8311813578
 30
0.0
 11
402.9490650555
 21
202.8311813793
 31
0.0
  0
LINE
  5
26C
330
1F
100
AcDbEntity
  8
0
  6
Continuous
 62
     8
370
     0
100
AcDbLine
 10
405.9490655472
 20
202.8311813793
 30
0.0
 11
405.9490655472
 21
204.8311813578
 31
0.0
  0
LINE
  5
26D
330
1F
100
AcDbEntity
  8
0
  6
Continuous
 62
     8
370
     0
100
AcDbLine
 10
406.4490646978
 20
203.3311813448
 30
0.0
 11
410.4490653535
 21
203.3311813448
 31
0.0
  0
LINE
  5
26E
330
1F
100
AcDbEntity
  8
0
  6
Continuous
 62
     8
370
     0
100
AcDbLine
 10
410.4490653535
 20
224.3311822258
 30
0.0
 11
406.4490646978
 21
224.3311822258
 31
0.0
  0
LINE
  5
26F
330
1F
100
AcDbEntity
  8
0
  6
Continuous
 62
     8
370
     0
100
AcDbLine
 10
410.4490653535
 20
203.3311813448
 30
0.0
 11
410.4490653535
 21
204.6311812319
 31
0.0
  0
LINE
  5
270
330
1F
100
AcDbEntity
  8
0
  6
Continuous
 62
     8
370
     0
100
AcDbLine
 10
410.4490653535
 20
223.0311807089
 30
0.0
 11
410.4490653535
 21
224.3311822258
 31
0.0
  0
LINE
  5
271
330
1F
100
AcDbEntity
  8
0
  6
Continuous
 62
     8
370
     0
100
AcDbLine
 10
410.4490653535
 20
224.8311813765
 30
0.0
 11
410.4490653535
 21
224.3311822258
 31
0.0
  0
LINE
  5
272
330
1F
100
AcDbEntity
  8
0
  6
Continuous
 62
     8
370
     0
100
AcDbLine
 10
410.4490653535
 20
203.3311813448
 30
0.0
 11
410.4490653535
 21
202.8311813793
 31
0.0
  0
LINE
  5
273
330
1F
100
AcDbEntity
  8
0
  6
Continuous
 62
     8
370
     0
100
AcDbLine
 10
473.4490663668
 20
224.3311822258
 30
0.0
 11
469.4490657111
 21
224.3311822258
 31
0.0
  0
LINE
  5
274
330
1F
100
AcDbEntity
  8
0
  6
Continuous
 62
     8
370
     0
100
AcDbLine
 10
469.4490657111
 20
224.8311813765
 30
0.0
 11
469.4490657111
 21
224.3311822258
 31
0.0
  0
LINE
  5
275
330
1F
100
AcDbEntity
  8
0
  6
Continuous
 62
     8
370
     0
100
AcDbLine
 10
469.4490657111
 20
203.3311813448
 30
0.0
 11
473.4490663668
 21
203.3311813448
 31
0.0
  0
LINE
  5
276
330
1F
100
AcDbEntity
  8
0
  6
Continuous
 62
     8
370
     0
100
AcDbLine
 10
469.4490657111
 20
203.3311813448
 30
0.0
 11
469.4490657111
 21
224.3311822258
 31
0.0
  0
LINE
  5
277
330
1F
100
AcDbEntity
  8
0
  6
Continuous
 62
     8
370
     0
100
AcDbLine
 10
469.4490657111
 20
203.3311813448
 30
0.0
 11
469.4490657111
 21
202.8311813793
 31
0.0
  0
LINE
  5
278
330
1F
100
AcDbEntity
  8
0
  6
Continuous
 62
     8
370
     0
100
AcDbLine
 10
469.4490657111
 20
224.3311822258
 30
0.0
 11
410.4490653535
 21
224.3311822258
 31
0.0
  0
LINE
  5
279
330
1F
100
AcDbEntity
  8
0
  6
Continuous
 62
     8
370
     0
100
AcDbLine
 10
410.4490653535
 20
203.3311813448
 30
0.0
 11
469.4490657111
 21
203.3311813448
 31
0.0
  0
LINE
  5
27A
330
1F
100
AcDbEntity
  8
0
  6
Continuous
 62
     8
370
     0
100
AcDbLine
 10
395.9490648394
 20
218.7260769152
 30
0.0
 11
395.9490648394
 21
220.8311807208
 31
0.0
  0
LINE
  5
27B
330
1F
100
AcDbEntity
  8
0
  6
Continuous
 62
     8
370
     0
100
AcDbLine
 10
393.4348524471
 20
213.8311814361
 30
0.0
 11
389.2600378876
 21
213.8311814361
 31
0.0
  0
LINE
  5
27C
330
1F
100
AcDbEntity
  8
0
  6
Continuous
 62
     8
370
     0
100
AcDbLine
 10
391.9490651151
 20
187.8311808996
 30
0.0
 11
395.9490648394
 21
187.8311808996
 31
0.0
  0
LINE
  5
27D
330
1F
100
AcDbEntity
  8
0
  6
Continuous
 62
     8
370
     0
100
AcDbLine
 10
395.9490648394
 20
185.3311814212
 30
0.0
 11
395.9490648394
 21
187.8311808996
 31
0.0
  0
LINE
  5
27E
330
1F
100
AcDbEntity
  8
0
  6
Continuous
 62
     8
370
     0
100
AcDbLine
 10
395.9490648394
 20
187.8311808996
 30
0.0
 11
396.9490659346
 21
187.8311808996
 31
0.0
  0
LINE
  5
27F
330
1F
100
AcDbEntity
  8
0
  6
Continuous
 62
     8
370
     0
100
AcDbLine
 10
395.9490648394
 20
187.8311808996
 30
0.0
 11
395.9490648394
 21
208.9362854913
 31
0.0
  0
HATCH
  5
280
330
1F
100
AcDbEntity
  8
0
  6
Continuous
 62
     7
370
     0
100
AcDbHatch
 10
0.0
 20
0.0
 30
0.0
210
0.0
220
0.0
230
1.0
  2
ANSI31
 70
     0
 71
     0
 91
        1
 92
        0
 93
       24
 72
     1
 10
400.949065174687
 20
202.8311813317651
 11
400.949065174687
 21
222.5311813317651
 72
     2
 10
400.6490651746869
 20
222.5311813317651
 40
0.3
 50
0.0
 51
90.0
 73
     1
 72
     1
 10
400.6490651746869
 20
222.831181331765
 11
381.249065174687
 21
222.831181331765
 72
     2
 10
381.249065174687
 20
222.5311813317651
 40
0.3
 50
90.0
 51
180.0
 73
     1
 72
     1
 10
380.949065174687
 20
222.5311813317651
 11
380.949065174687
 21
220.831181331765
 72
     1
 10
380.949065174687
 20
220.831181331765
 11
383.949065174687
 21
220.831181331765
 72
     1
 10
383.949065174687
 20
220.831181331765
 11
386.949065174687
 21
217.831181331765
 72
     1
 10
386.949065174687
 20
217.831181331765
 11
388.949065174687
 21
217.831181331765
 72
     1
 10
388.949065174687
 20
217.831181331765
 11
391.949065174687
 21
220.831181331765
 72
     1
 10
391.949065174687
 20
220.831181331765
 11
395.949065174687
 21
220.831181331765
 72
     2
 10
395.949065174687
 20
219.831181331765
 40
1.0
 50
270.0000000000008
 51
360.0000000000008
 73
     0
 72
     1
 10
396.949065174687
 20
219.831181331765
 11
396.949065174687
 21
186.3311813317651
 72
     2
 10
395.949065174687
 20
186.3311813317651
 40
1.0
 50
0.0
 51
90.0
 73
     0
 72
     1
 10
395.949065174687
 20
185.3311813317651
 11
390.449065174687
 21
185.3311813317651
 72
     1
 10
390.449065174687
 20
185.3311813317651
 11
390.449065174687
 21
181.8311813317651
 72
     1
 10
390.449065174687
 20
181.8311813317651
 11
391.449065174687
 21
180.8311813317651
 72
     1
 10
391.449065174687
 20
180.8311813317651
 11
400.6490651746869
 21
180.8311813317651
 72
     2
 10
400.6490651746869
 20
181.131181331765
 40
0.3
 50
270.0000000000008
 51
360.0000000000008
 73
     1
 72
     1
 10
400.949065174687
 20
181.131181331765
 11
400.949065174687
 21
196.3311813317651
 72
     2
 10
403.949065174687
 20
196.3311813317651
 40
3.0
 50
180.0
 51
270.0000000000008
 73
     0
 72
     1
 10
403.949065174687
 20
199.3311813317651
 11
404.949065174687
 21
199.3311813317651
 72
     1
 10
404.949065174687
 20
199.3311813317651
 11
404.949065174687
 21
202.2538310625754
 72
     1
 10
404.949065174687
 20
202.2538310625754
 11
403.949065174687
 21
202.8311813317651
 72
     1
 10
403.949065174687
 20
202.8311813317651
 11
400.949065174687
 21
202.8311813317651
 97
        0
 75
     0
 76
     1
 52
0.0
 41
1.0
 77
     0
 78
     1
 53
45.0
 43
0.0
 44
0.0
 45
-2.245064030267288
 46
2.245064030267288
 79
     0
 98
        1
 10
0.0
 20
0.0
  0
HATCH
  5
281
330
1F
100
AcDbEntity
  8
0
  6
Continuous
 62
     7
370
     0
100
AcDbHatch
 10
0.0
 20
0.0
 30
0.0
210
0.0
220
0.0
230
1.0
  2
ANSI31
 70
     0
 71
     0
 91
        1
 92
        0
 93
        6
 72
     1
 10
380.949065174687
 20
185.3311813317651
 11
380.949065174687
 21
181.131181331765
 72
     2
 10
381.249065174687
 20
181.131181331765
 40
0.3
 50
180.0
 51
270.0000000000008
 73
     1
 72
     1
 10
381.249065174687
 20
180.8311813317651
 11
384.449065174687
 21
180.8311813317651
 72
     1
 10
384.449065174687
 20
180.8311813317651
 11
385.449065174687
 21
181.8311813317651
 72
     1
 10
385.449065174687
 20
181.8311813317651
 11
385.449065174687
 21
185.3311813317651
 72
     1
 10
385.449065174687
 20
185.3311813317651
 11
380.949065174687
 21
185.3311813317651
 97
        0
 75
     0
 76
     1
 52
0.0
 41
1.0
 77
     0
 78
     1
 53
45.0
 43
0.0
 44
0.0
 45
-2.245064030267288
 46
2.245064030267288
 79
     0
 98
        1
 10
0.0
 20
0.0
  0
HATCH
  5
282
330
1F
100
AcDbEntity
  8
0
  6
Continuous
 62
     7
370
     0
100
AcDbHatch
 10
0.0
 20
0.0
 30
0.0
210
0.0
220
0.0
230
1.0
  2
NET
 70
     0
 71
     0
 91
        1
 92
        0
 93
        4
 72
     1
 10
400.949065174687
 20
202.8311813317651
 11
402.449065174687
 21
202.8311813317651
 72
     1
 10
402.449065174687
 20
202.8311813317651
 11
402.449065174687
 21
222.831181331765
 72
     1
 10
402.449065174687
 20
222.831181331765
 11
400.949065174687
 21
222.831181331765
 72
     1
 10
400.949065174687
 20
222.831181331765
 11
400.949065174687
 21
202.8311813317651
 97
        0
 75
     0
 76
     1
 52
134.999991007
 41
1.0
 77
     0
 78
     2
 53
134.9999910069555
 43
0.0
 44
0.0
 45
-2.24506438264855
 46
-2.245063677885971
 79
     0
 53
224.9999910069555
 43
0.0
 44
0.0
 45
2.245063677885971
 46
-2.24506438264855
 79
     0
 98
        1
 10
0.0
 20
0.0
  0
HATCH
  5
283
330
1F
100
AcDbEntity
  8
0
  6
Continuous
 62
     7
370
     0
100
AcDbHatch
 10
0.0
 20
0.0
 30
0.0
210
0.0
220
0.0
230
1.0
  2
ANSI33
 70
     0
 71
     0
 91
        1
 92
        0
 93
        8
 72
     1
 10
473.9490651746868
 20
202.8311813317648
 11
476.9490651746868
 21
202.8311813317648
 72
     2
 10
476.9490651746867
 20
203.3311813317648
 40
0.5
 50
270.0000000000138
 51
360.0000000000008
 73
     1
 72
     1
 10
477.4490651746868
 20
203.3311813317648
 11
477.4490651746868
 21
224.3311813317648
 72
     2
 10
476.9490651746868
 20
224.3311813317648
 40
0.5
 50
359.9999999999976
 51
450.0000000000073
 73
     1
 72
     1
 10
476.9490651746868
 20
224.8311813317648
 11
473.9490651746867
 21
224.8311813317648
 72
     2
 10
473.9490651746867
 20
224.3311813317648
 40
0.5
 50
90.0
 51
180.0
 73
     1
 72
     1
 10
473.4490651746867
 20
224.3311813317648
 11
473.4490651746868
 21
203.3311813317648
 72
     2
 10
473.9490651746868
 20
203.3311813317648
 40
0.5
 50
180.0
 51
270.0000000000008
 73
     1
 97
        0
 75
     0
 76
     1
 52
0.0
 41
1.0
 77
     0
 78
     2
 53
45.0
 43
0.0
 44
0.0
 45
-4.490128060534576
 46
4.490128060534577
 79
     0
 53
45.0
 43
4.49013
 44
0.0
 45
-4.490128060534576
 46
4.490128060534577
 79
     2
 49
3.175
 49
-1.5875
 98
        1
 10
0.0
 20
0.0
  0
HATCH
  5
284
330
1F
100
AcDbEntity
  8
0
  6
Continuous
 62
     7
370
     0
100
AcDbHatch
 10
0.0
 20
0.0
 30
0.0
210
0.0
220
0.0
230
1.0
  2
ANSI31
 70
     0
 71
     0
 91
        1
 92
        0
 93
        8
 72
     1
 10
410.4490651746868
 20
204.6311813317648
 11
410.4490651746868
 21
223.0311813317648
 72
     2
 10
410.1490651746868
 20
223.0311813317648
 40
0.3
 50
0.0
 51
90.0
 73
     1
 72
     1
 10
410.1490651746868
 20
223.3311813317648
 11
406.7490651746868
 21
223.3311813317648
 72
     2
 10
406.7490651746868
 20
223.0311813317648
 40
0.3
 50
90.0
 51
180.0
 73
     1
 72
     1
 10
406.4490651746868
 20
223.0311813317648
 11
406.4490651746868
 21
204.6311813317648
 72
     2
 10
406.7490651746868
 20
204.6311813317648
 40
0.3
 50
180.0
 51
270.0000000000008
 73
     1
 72
     1
 10
406.7490651746868
 20
204.3311813317648
 11
410.1490651746868
 21
204.3311813317648
 72
     2
 10
410.1490651746868
 20
204.6311813317648
 40
0.3
 50
270.0000000000008
 51
360.0000000000008
 73
     1
 97
        0
 75
     0
 76
     1
 52
0.0
 41
1.0
 77
     0
 78
     1
 53
45.0
 43
0.0
 44
0.0
 45
-2.245064030267288
 46
2.245064030267288
 79
     0
 98
        1
 10
0.0
 20
0.0
  0
HATCH
  5
285
330
1F
100
AcDbEntity
  8
0
  6
Continuous
 62
     7
370
     0
100
AcDbHatch
 10
0.0
 20
0.0
 30
0.0
210
0.0
220
0.0
230
1.0
  2
ANSI33
 70
     0
 71
     0
 91
        1
 92
        0
 93
       30
 72
     1
 10
387.949065174687
 20
216.831181331765
 11
385.949065174687
 21
218.831181331765
 72
     1
 10
385.949065174687
 20
218.831181331765
 11
383.449065174687
 21
218.831181331765
 72
     1
 10
383.449065174687
 20
218.831181331765
 11
383.449065174687
 21
188.831181331765
 72
     1
 10
383.449065174687
 20
188.831181331765
 11
385.949065174687
 21
188.831181331765
 72
     1
 10
385.949065174687
 20
188.831181331765
 11
387.949065174687
 21
190.8311813317651
 72
     1
 10
387.949065174687
 20
190.8311813317651
 11
389.949065174687
 21
188.831181331765
 72
     1
 10
389.949065174687
 20
188.831181331765
 11
391.949065174687
 21
188.831181331765
 72
     1
 10
391.949065174687
 20
188.831181331765
 11
391.949065174687
 21
190.0382881129516
 72
     2
 10
389.449065174687
 20
190.0382881129516
 40
2.5
 50
0.0
 51
44.99999999999954
 73
     1
 72
     1
 10
391.2168321276533
 20
191.806055065918
 11
389.5348516123139
 21
193.4880355812575
 72
     2
 10
390.949065174687
 20
194.9022491436305
 40
2.0
 50
134.9999999999994
 51
180.0
 73
     0
 72
     1
 10
388.949065174687
 20
194.9022491436305
 11
388.949065174687
 21
196.9217539662404
 72
     1
 10
388.949065174687
 20
196.9217539662404
 11
388.849065174687
 21
196.9217539654113
 72
     1
 10
388.849065174687
 20
196.9217539654113
 11
388.849065174687
 21
197.0785023023535
 72
     1
 10
388.849065174687
 20
197.0785023023535
 11
388.949065174687
 21
197.0785022996177
 72
     1
 10
388.949065174687
 20
197.0785022996177
 11
388.949065174687
 21
197.6563508308456
 72
     1
 10
388.949065174687
 20
197.6563508308456
 11
388.849065174687
 21
197.6563508379403
 72
     1
 10
388.849065174687
 20
197.6563508379403
 11
388.849065174687
 21
197.8142642486067
 72
     1
 10
388.849065174687
 20
197.8142642486067
 11
388.949065174687
 21
197.8142642506089
 72
     1
 10
388.949065174687
 20
197.8142642506089
 11
388.949065174687
 21
198.5198961160828
 72
     1
 10
388.949065174687
 20
198.5198961160828
 11
388.849065174687
 21
198.5198961293783
 72
     1
 10
388.849065174687
 20
198.5198961293783
 11
388.849065174687
 21
198.7332408199845
 72
     1
 10
388.849065174687
 20
198.7332408199845
 11
388.949065174687
 21
198.7332408139444
 72
     1
 10
388.949065174687
 20
198.7332408139444
 11
388.949065174687
 21
212.7601135198995
 72
     2
 10
390.949065174687
 20
212.7601135198995
 40
2.0
 50
180.0
 51
225.0000000000026
 73
     0
 72
     1
 10
389.5348516123139
 20
214.1743270822727
 11
391.2168321276533
 21
215.8563075976121
 72
     2
 10
389.449065174687
 20
217.6240745505785
 40
2.5
 50
315.0000000000008
 51
360.0000000000008
 73
     1
 72
     1
 10
391.949065174687
 20
217.6240745505785
 11
391.949065174687
 21
218.831181331765
 72
     1
 10
391.949065174687
 20
218.831181331765
 11
389.949065174687
 21
218.831181331765
 72
     1
 10
389.949065174687
 20
218.831181331765
 11
387.949065174687
 21
216.831181331765
 97
        0
 75
     0
 76
     1
 52
90.0
 41
1.0
 77
     0
 78
     2
 53
135.0000000000002
 43
0.0
 44
0.0
 45
-4.490128060534562
 46
-4.490128060534592
 79
     0
 53
135.0000000000002
 43
-0.0000000000000157
 44
4.49013
 45
-4.490128060534562
 46
-4.490128060534592
 79
     2
 49
3.175
 49
-1.5875
 98
        1
 10
0.0
 20
0.0
  0
HATCH
  5
286
330
1F
100
AcDbEntity
  8
0
  6
Continuous
 62
     7
370
     0
100
AcDbHatch
 10
0.0
 20
0.0
 30
0.0
210
0.0
220
0.0
230
1.0
  2
ANSI37
 70
     0
 71
     0
 91
        1
 92
        0
 93
        4
 72
     1
 10
383.449065174687
 20
187.8311813317651
 11
383.449065174687
 21
219.8311813317651
 72
     1
 10
383.449065174687
 20
219.8311813317651
 11
380.249065174687
 21
219.8311813317651
 72
     1
 10
380.249065174687
 20
219.8311813317651
 11
380.249065174687
 21
187.8311813317651
 72
     1
 10
380.249065174687
 20
187.8311813317651
 11
383.449065174687
 21
187.8311813317651
 97
        0
 75
     0
 76
     1
 52
0.0
 41
1.0
 77
     0
 78
     2
 53
45.0
 43
0.0
 44
0.0
 45
-2.245064030267288
 46
2.245064030267288
 79
     0
 53
135.0
 43
0.0
 44
0.0
 45
-2.245064030267288
 46
-2.245064030267288
 79
     0
 98
        1
 10
0.0
 20
0.0
  0
MTEXT
  5
287
330
1F
100
AcDbEntity
  8
0
  6
Continuous
 62
     7
370
     0
100
AcDbMText
 10
437.2752341637
 20
237.8391745741
 30
0.0
 40
5.0
 41
0.0
 71
     2
 72
     1
  1
A-A
  7
SLDTEXTSTYLE0
 73
     1
 44
1.0
  0
LINE
  5
288
330
1F
100
AcDbEntity
  8
0
  6
CENTERX2
 62
     7
370
     0
100
AcDbLine
 10
378.2490651747
 20
203.8311813318
 30
0.0
 11
385.4490651747
 21
203.8311813318
 31
0.0
  0
LINE
  5
289
330
1F
100
AcDbEntity
  8
0
  6
CENTERX2
 62
     7
370
     0
100
AcDbLine
 10
390.9490651747
 20
203.8311813318
 30
0.0
 11
385.4490651747
 21
203.8311813318
 31
0.0
  0
LINE
  5
28A
330
1F
100
AcDbEntity
  8
0
  6
CENTERX2
 62
     7
370
     0
100
AcDbLine
 10
387.9490651747
 20
178.8311813318
 30
0.0
 11
387.9490651747
 21
192.8311813318
 31
0.0
  0
LINE
  5
28B
330
1F
100
AcDbEntity
  8
0
  6
CENTERX2
 62
     7
370
     0
100
AcDbLine
 10
381.9490651747
 20
213.8311813318
 30
0.0
 11
411.6490651747
 21
213.8311813318
 31
0.0
  0
ENDSEC
  0
SECTION
  2
OBJECTS
  0
DICTIONARY
  5
C
330
0
100
AcDbDictionary
281
     1
  3
ACAD_GROUP
350
D
  3
ACAD_LAYOUT
350
1A
  3
ACAD_MLINESTYLE
350
17
  3
ACAD_PLOTSETTINGS
350
19
  3
ACAD_PLOTSTYLENAME
350
E
  0
DICTIONARY
  5
D
102
{ACAD_REACTORS
330
C
102
}
330
C
100
AcDbDictionary
281
     1
  0
DICTIONARY
  5
1A
102
{ACAD_REACTORS
330
C
102
}
330
C
100
AcDbDictionary
281
     1
  3
Layout1
350
1E
  3
Layout2
350
26
  3
Model
350
22
  0
DICTIONARY
  5
17
102
{ACAD_REACTORS
330
C
102
}
330
C
100
AcDbDictionary
281
     1
  3
Standard
350
18
  0
DICTIONARY
  5
19
102
{ACAD_REACTORS
330
C
102
}
330
C
100
AcDbDictionary
281
     1
  0
ACDBDICTIONARYWDFLT
  5
E
102
{ACAD_REACTORS
330
C
102
}
330
C
100
AcDbDictionary
281
     1
  3
Normal
350
F
100
AcDbDictionaryWithDefault
340
F
  0
LAYOUT
  5
1E
102
{ACAD_REACTORS
330
1A
102
}
330
1A
100
AcDbPlotSettings
  1

  2
none_device
  4

  6

 40
0.0
 41
0.0
 42
0.0
 43
0.0
 44
0.0
 45
0.0
 46
0.0
 47
0.0
 48
0.0
 49
0.0
140
0.0
141
0.0
142
1.0
143
1.0
 70
   688
 72
     0
 73
     0
 74
     5
  7

 75
    16
147
1.0
148
0.0
149
0.0
100
AcDbLayout
  1
Layout1
 70
     1
 71
     1
 10
0.0
 20
0.0
 11
420.0
 21
297.0
 12
0.0
 22
0.0
 32
0.0
 14
1.0000000000E+20
 24
1.0000000000E+20
 34
1.0000000000E+20
 15
-1.0000000000E+20
 25
-1.0000000000E+20
 35
-1.0000000000E+20
146
0.0
 13
0.0
 23
0.0
 33
0.0
 16
1.0
 26
0.0
 36
0.0
 17
0.0
 27
1.0
 37
0.0
 76
     0
330
1B
  0
LAYOUT
  5
26
102
{ACAD_REACTORS
330
1A
102
}
330
1A
100
AcDbPlotSettings
  1

  2
none_device
  4

  6

 40
0.0
 41
0.0
 42
0.0
 43
0.0
 44
0.0
 45
0.0
 46
0.0
 47
0.0
 48
0.0
 49
0.0
140
0.0
141
0.0
142
1.0
143
1.0
 70
   688
 72
     0
 73
     0
 74
     5
  7

 75
    16
147
1.0
148
0.0
149
0.0
100
AcDbLayout
  1
Layout2
 70
     1
 71
     2
 10
0.0
 20
0.0
 11
0.0
 21
0.0
 12
0.0
 22
0.0
 32
0.0
 14
0.0
 24
0.0
 34
0.0
 15
0.0
 25
0.0
 35
0.0
146
0.0
 13
0.0
 23
0.0
 33
0.0
 16
1.0
 26
0.0
 36
0.0
 17
0.0
 27
1.0
 37
0.0
 76
     0
330
23
  0
LAYOUT
  5
22
102
{ACAD_REACTORS
330
1A
102
}
330
1A
100
AcDbPlotSettings
  1

  2
none_device
  4

  6

 40
0.0
 41
0.0
 42
0.0
 43
0.0
 44
0.0
 45
0.0
 46
0.0
 47
0.0
 48
0.0
 49
0.0
140
0.0
141
0.0
142
1.0
143
1.0
 70
  1712
 72
     0
 73
     0
 74
     0
  7

 75
     0
147
1.0
148
0.0
149
0.0
100
AcDbLayout
  1
Model
 70
     1
 71
     0
 10
0.0
 20
0.0
 11
594.0
 21
420.0
 12
0.0
 22
0.0
 32
0.0
 14
0.0
 24
0.0
 34
0.0
 15
594.0
 25
420.0
 35
0.0
146
0.0
 13
0.0
 23
0.0
 33
0.0
 16
1.0
 26
0.0
 36
0.0
 17
0.0
 27
1.0
 37
0.0
 76
     0
330
1F
331
29
  0
MLINESTYLE
  5
18
102
{ACAD_REACTORS
330
17
102
}
330
17
100
AcDbMlineStyle
  2
Standard
 70
     0
  3

 62
   256
 51
90.0
 52
90.0
 71
     2
 49
0.5
 62
   256
  6
BYLAYER
 49
-0.5
 62
   256
  6
BYLAYER
  0
ACDBPLACEHOLDER
  5
F
102
{ACAD_REACTORS
330
E
102
}
330
E
  0
ENDSEC
  0
EOF
