  0
SECTION
  2
HEADER
  9
$ACADVER
  1
AC1027
  9
$ACADMAINTVER
 70
   105
  9
$DWGCODEPAGE
  3
ANSI_1252
  9
$LASTSAVEDBY
  1
p.perez
  9
$REQUIREDVERSIONS
160
                 0
  9
$INSBASE
 10
0.0
 20
0.0
 30
0.0
  9
$EXTMIN
 10
0.0
 20
0.0
 30
0.0
  9
$EXTMAX
 10
594.0
 20
420.0
 30
0.0
  9
$LIMMIN
 10
0.0
 20
0.0
  9
$LIMMAX
 10
594.0
 20
420.0
  9
$ORTHOMODE
 70
     0
  9
$REGENMODE
 70
     1
  9
$FILLMODE
 70
     1
  9
$QTEXTMODE
 70
     0
  9
$MIRRTEXT
 70
     1
  9
$LTSCALE
 40
1.0
  9
$ATTMODE
 70
     1
  9
$TEXTSIZE
 40
3.5
  9
$TRACEWID
 40
1.0
  9
$TEXTSTYLE
  7
Standard
  9
$CLAYER
  8
0
  9
$CELTYPE
  6
ByLayer
  9
$CECOLOR
 62
   256
  9
$CELTSCALE
 40
1.0
  9
$DISPSILH
 70
     0
  9
$DIMSCALE
 40
1.0
  9
$DIMASZ
 40
3.5
  9
$DIMEXO
 40
1.0
  9
$DIMDLI
 40
3.75
  9
$DIMRND
 40
0.0
  9
$DIMDLE
 40
0.0
  9
$DIMEXE
 40
1.0
  9
$DIMTP
 40
0.0
  9
$DIMTM
 40
0.0
  9
$DIMTXT
 40
3.5
  9
$DIMCEN
 40
2.5
  9
$DIMTSZ
 40
0.0
  9
$DIMTOL
 70
     0
  9
$DIMLIM
 70
     0
  9
$DIMTIH
 70
     1
  9
$DIMTOH
 70
     1
  9
$DIMSE1
 70
     0
  9
$DIMSE2
 70
     0
  9
$DIMTAD
 70
     1
  9
$DIMZIN
 70
     0
  9
$DIMBLK
  1

  9
$DIMASO
 70
     1
  9
$DIMSHO
 70
     1
  9
$DIMPOST
  1

  9
$DIMAPOST
  1

  9
$DIMALT
 70
     0
  9
$DIMALTD
 70
     3
  9
$DIMALTF
 40
0.0393700787
  9
$DIMLFAC
 40
1.0
  9
$DIMTOFL
 70
     1
  9
$DIMTVP
 40
0.0
  9
$DIMTIX
 70
     0
  9
$DIMSOXD
 70
     0
  9
$DIMSAH
 70
     0
  9
$DIMBLK1
  1

  9
$DIMBLK2
  1

  9
$DIMSTYLE
  2
ISO-25
  9
$DIMCLRD
 70
     0
  9
$DIMCLRE
 70
     0
  9
$DIMCLRT
 70
     0
  9
$DIMTFAC
 40
1.0
  9
$DIMGAP
 40
4.0
  9
$DIMJUST
 70
     0
  9
$DIMSD1
 70
     0
  9
$DIMSD2
 70
     0
  9
$DIMTOLJ
 70
     0
  9
$DIMTZIN
 70
     0
  9
$DIMALTZ
 70
     0
  9
$DIMALTTZ
 70
     0
  9
$DIMUPT
 70
     0
  9
$DIMDEC
 70
     1
  9
$DIMTDEC
 70
     1
  9
$DIMALTU
 70
     2
  9
$DIMALTTD
 70
     3
  9
$DIMTXSTY
  7
Standard
  9
$DIMAUNIT
 70
     0
  9
$DIMADEC
 70
     1
  9
$DIMALTRND
 40
0.0
  9
$DIMAZIN
 70
     0
  9
$DIMDSEP
 70
    44
  9
$DIMATFIT
 70
     3
  9
$DIMFRAC
 70
     0
  9
$DIMLDRBLK
  1

  9
$DIMLUNIT
 70
     2
  9
$DIMLWD
 70
    -2
  9
$DIMLWE
 70
    -2
  9
$DIMTMOVE
 70
     0
  9
$DIMFXL
 40
1.0
  9
$DIMFXLON
 70
     0
  9
$DIMJOGANG
 40
0.7853981634
  9
$DIMTFILL
 70
     0
  9
$DIMTFILLCLR
 70
     0
  9
$DIMARCSYM
 70
     0
  9
$DIMLTYPE
  6

  9
$DIMLTEX1
  6

  9
$DIMLTEX2
  6

  9
$DIMTXTDIRECTION
 70
     0
  9
$LUNITS
 70
     2
  9
$LUPREC
 70
     1
  9
$SKETCHINC
 40
1.0
  9
$FILLETRAD
 40
10.0
  9
$AUNITS
 70
     0
  9
$AUPREC
 70
     1
  9
$MENU
  1
.
  9
$ELEVATION
 40
0.0
  9
$PELEVATION
 40
0.0
  9
$THICKNESS
 40
0.0
  9
$LIMCHECK
 70
     0
  9
$CHAMFERA
 40
0.0
  9
$CHAMFERB
 40
0.0
  9
$CHAMFERC
 40
0.0
  9
$CHAMFERD
 40
0.0
  9
$SKPOLY
 70
     0
  9
$TDCREATE
 40
2459675.334881678
  9
$TDUCREATE
 40
2459675.251548345
  9
$TDUPDATE
 40
2459675.334883322
  9
$TDUUPDATE
 40
2459675.251549989
  9
$TDINDWG
 40
0.0000000116
  9
$TDUSRTIMER
 40
0.0000000116
  9
$USRTIMER
 70
     1
  9
$ANGBASE
 50
0.0
  9
$ANGDIR
 70
     0
  9
$PDMODE
 70
     0
  9
$PDSIZE
 40
-1.0
  9
$PLINEWID
 40
0.0
  9
$SPLFRAME
 70
     0
  9
$SPLINETYPE
 70
     6
  9
$SPLINESEGS
 70
     8
  9
$HANDSEED
  5
2CB
  9
$SURFTAB1
 70
     6
  9
$SURFTAB2
 70
     6
  9
$SURFTYPE
 70
     6
  9
$SURFU
 70
     6
  9
$SURFV
 70
     6
  9
$UCSBASE
  2

  9
$UCSNAME
  2

  9
$UCSORG
 10
0.0
 20
0.0
 30
0.0
  9
$UCSXDIR
 10
1.0
 20
0.0
 30
0.0
  9
$UCSYDIR
 10
0.0
 20
1.0
 30
0.0
  9
$UCSORTHOREF
  2

  9
$UCSORTHOVIEW
 70
     0
  9
$UCSORGTOP
 10
0.0
 20
0.0
 30
0.0
  9
$UCSORGBOTTOM
 10
0.0
 20
0.0
 30
0.0
  9
$UCSORGLEFT
 10
0.0
 20
0.0
 30
0.0
  9
$UCSORGRIGHT
 10
0.0
 20
0.0
 30
0.0
  9
$UCSORGFRONT
 10
0.0
 20
0.0
 30
0.0
  9
$UCSORGBACK
 10
0.0
 20
0.0
 30
0.0
  9
$PUCSBASE
  2

  9
$PUCSNAME
  2

  9
$PUCSORG
 10
0.0
 20
0.0
 30
0.0
  9
$PUCSXDIR
 10
1.0
 20
0.0
 30
0.0
  9
$PUCSYDIR
 10
0.0
 20
1.0
 30
0.0
  9
$PUCSORTHOREF
  2

  9
$PUCSORTHOVIEW
 70
     0
  9
$PUCSORGTOP
 10
0.0
 20
0.0
 30
0.0
  9
$PUCSORGBOTTOM
 10
0.0
 20
0.0
 30
0.0
  9
$PUCSORGLEFT
 10
0.0
 20
0.0
 30
0.0
  9
$PUCSORGRIGHT
 10
0.0
 20
0.0
 30
0.0
  9
$PUCSORGFRONT
 10
0.0
 20
0.0
 30
0.0
  9
$PUCSORGBACK
 10
0.0
 20
0.0
 30
0.0
  9
$USERI1
 70
     0
  9
$USERI2
 70
     0
  9
$USERI3
 70
     0
  9
$USERI4
 70
     0
  9
$USERI5
 70
     0
  9
$USERR1
 40
0.0
  9
$USERR2
 40
0.0
  9
$USERR3
 40
0.0
  9
$USERR4
 40
0.0
  9
$USERR5
 40
0.0
  9
$WORLDVIEW
 70
     1
  9
$SHADEDGE
 70
     3
  9
$SHADEDIF
 70
    70
  9
$TILEMODE
 70
     1
  9
$MAXACTVP
 70
    64
  9
$PINSBASE
 10
0.0
 20
0.0
 30
0.0
  9
$PLIMCHECK
 70
     0
  9
$PEXTMIN
 10
1.0000000000E+20
 20
1.0000000000E+20
 30
1.0000000000E+20
  9
$PEXTMAX
 10
-1.0000000000E+20
 20
-1.0000000000E+20
 30
-1.0000000000E+20
  9
$PLIMMIN
 10
0.0
 20
0.0
  9
$PLIMMAX
 10
420.0
 20
297.0
  9
$UNITMODE
 70
     0
  9
$VISRETAIN
 70
     1
  9
$PLINEGEN
 70
     0
  9
$PSLTSCALE
 70
     1
  9
$TREEDEPTH
 70
  3020
  9
$CMLSTYLE
  2
Standard
  9
$CMLJUST
 70
     0
  9
$CMLSCALE
 40
20.0
  9
$PROXYGRAPHICS
 70
     1
  9
$MEASUREMENT
 70
     1
  9
$CELWEIGHT
370
    -1
  9
$ENDCAPS
280
     0
  9
$JOINSTYLE
280
     0
  9
$LWDISPLAY
290
     1
  9
$INSUNITS
 70
     4
  9
$HYPERLINKBASE
  1

  9
$STYLESHEET
  1

  9
$XEDIT
290
     1
  9
$CEPSNTYPE
380
     0
  9
$PSTYLEMODE
290
     1
  9
$FINGERPRINTGUID
  2
{3aa7efef-edd3-4059-9813-6631b0f01a2d}
  9
$VERSIONGUID
  2
{FAEB1C32-E019-11D5-929B-00C0DF256EC4}
  9
$EXTNAMES
290
     1
  9
$PSVPSCALE
 40
0.0
  9
$OLESTARTUP
290
     0
  9
$SORTENTS
280
   127
  9
$INDEXCTL
280
     0
  9
$HIDETEXT
280
     1
  9
$XCLIPFRAME
280
     2
  9
$HALOGAP
280
     0
  9
$OBSCOLOR
 70
   257
  9
$OBSLTYPE
280
     0
  9
$INTERSECTIONDISPLAY
280
     0
  9
$INTERSECTIONCOLOR
 70
   257
  9
$DIMASSOC
280
     2
  9
$PROJECTNAME
  1

  9
$CAMERADISPLAY
290
     0
  9
$LENSLENGTH
 40
50.0
  9
$CAMERAHEIGHT
 40
0.0
  9
$STEPSPERSEC
 40
2.0
  9
$STEPSIZE
 40
6.0
  9
$3DDWFPREC
 40
2.0
  9
$PSOLWIDTH
 40
5.0
  9
$PSOLHEIGHT
 40
80.0
  9
$LOFTANG1
 40
1.5707963268
  9
$LOFTANG2
 40
1.5707963268
  9
$LOFTMAG1
 40
0.0
  9
$LOFTMAG2
 40
0.0
  9
$LOFTPARAM
 70
     7
  9
$LOFTNORMALS
280
     1
  9
$LATITUDE
 40
37.795
  9
$LONGITUDE
 40
-122.394
  9
$NORTHDIRECTION
 40
0.0
  9
$TIMEZONE
 70
 -8000
  9
$LIGHTGLYPHDISPLAY
280
     1
  9
$TILEMODELIGHTSYNCH
280
     1
  9
$CMATERIAL
347
44
  9
$SOLIDHIST
280
     0
  9
$SHOWHIST
280
     1
  9
$DWFFRAME
280
     2
  9
$DGNFRAME
280
     2
  9
$REALWORLDSCALE
290
     1
  9
$INTERFERECOLOR
 62
   256
  9
$CSHADOW
280
     0
  9
$SHADOWPLANELOCATION
 40
0.0
  0
ENDSEC
  0
SECTION
  2
CLASSES
  0
CLASS
  1
ACDBDICTIONARYWDFLT
  2
AcDbDictionaryWithDefault
  3
ObjectDBX Classes
 90
        0
 91
        3
280
     0
281
     0
  0
CLASS
  1
VISUALSTYLE
  2
AcDbVisualStyle
  3
ObjectDBX Classes
 90
     4095
 91
        3
280
     0
281
     0
  0
CLASS
  1
MATERIAL
  2
AcDbMaterial
  3
ObjectDBX Classes
 90
     1153
 91
        3
280
     0
281
     0
  0
CLASS
  1
SCALE
  2
AcDbScale
  3
ObjectDBX Classes
 90
     1153
 91
        3
280
     0
281
     0
  0
CLASS
  1
TABLESTYLE
  2
AcDbTableStyle
  3
ObjectDBX Classes
 90
     4095
 91
        3
280
     0
281
     0
  0
CLASS
  1
MLEADERSTYLE
  2
AcDbMLeaderStyle
  3
ACDB_MLEADERSTYLE_CLASS
 90
     4095
 91
        3
280
     0
281
     0
  0
CLASS
  1
SUN
  2
AcDbSun
  3
SCENEOE
 90
     1153
 91
        3
280
     0
281
     0
  0
CLASS
  1
DICTIONARYVAR
  2
AcDbDictionaryVar
  3
ObjectDBX Classes
 90
        0
 91
        3
280
     0
281
     0
  0
CLASS
  1
CELLSTYLEMAP
  2
AcDbCellStyleMap
  3
ObjectDBX Classes
 90
     1152
 91
        3
280
     0
281
     0
  0
ENDSEC
  0
SECTION
  2
TABLES
  0
TABLE
  2
VPORT
  5
8
330
0
100
AcDbSymbolTable
 70
     1
  0
VPORT
  5
29
330
8
100
AcDbSymbolTableRecord
100
AcDbViewportTableRecord
  2
*Active
 70
     0
 10
0.0
 20
0.0
 11
1.0
 21
1.0
 12
297.0
 22
210.0
 13
0.0
 23
0.0
 14
10.0
 24
10.0
 15
10.0
 25
10.0
 16
0.0
 26
0.0
 36
1.0
 17
0.0
 27
0.0
 37
0.0
 40
420.0
 41
1.4142857143
 42
50.0
 43
0.0
 44
0.0
 50
0.0
 51
0.0
 71
     0
 72
  2000
 73
     1
 74
     3
 75
     0
 76
     0
 77
     0
 78
     0
281
     0
 65
     1
110
0.0
120
0.0
130
0.0
111
1.0
121
0.0
131
0.0
112
0.0
122
1.0
132
0.0
 79
     0
146
0.0
348
2F
 60
     3
 61
     5
292
     1
282
     1
141
0.0
142
0.0
 63
   250
361
6D
  0
ENDTAB
  0
TABLE
  2
LTYPE
  5
5
330
0
100
AcDbSymbolTable
 70
     8
  0
LTYPE
  5
14
330
5
100
AcDbSymbolTableRecord
100
AcDbLinetypeTableRecord
  2
ByBlock
 70
     0
  3

 72
    65
 73
     0
 40
0.0
  0
LTYPE
  5
15
330
5
100
AcDbSymbolTableRecord
100
AcDbLinetypeTableRecord
  2
ByLayer
 70
     0
  3

 72
    65
 73
     0
 40
0.0
  0
LTYPE
  5
16
330
5
100
AcDbSymbolTableRecord
100
AcDbLinetypeTableRecord
  2
Continuous
 70
     0
  3
Solid line
 72
    65
 73
     0
 40
0.0
  0
LTYPE
  5
6E
330
5
100
AcDbSymbolTableRecord
100
AcDbLinetypeTableRecord
  2
SLD-Durchgehend
 70
     0
  3
SolidWorks Line Style
 72
    65
 73
     0
 40
0.0
  0
LTYPE
  5
6F
330
5
100
AcDbSymbolTableRecord
100
AcDbLinetypeTableRecord
  2
SLD-Gestrichelt
 70
     0
  3
SolidWorks Line Style
 72
    65
 73
     2
 40
1.905
 49
1.27
 74
     0
 49
-0.635
 74
     0
  0
LTYPE
  5
70
330
5
100
AcDbSymbolTableRecord
100
AcDbLinetypeTableRecord
  2
SLD-Phantom
 70
     0
  3
SolidWorks Line Style
 72
    65
 73
     6
 40
12.7
 49
6.35
 74
     0
 49
-1.27
 74
     0
 49
1.27
 74
     0
 49
-1.27
 74
     0
 49
1.27
 74
     0
 49
-1.27
 74
     0
  0
LTYPE
  5
71
330
5
100
AcDbSymbolTableRecord
100
AcDbLinetypeTableRecord
  2
SLD-Kette
 70
     0
  3
SolidWorks Line Style
 72
    65
 73
     4
 40
10.16
 49
6.35
 74
     0
 49
-1.27
 74
     0
 49
1.27
 74
     0
 49
-1.27
 74
     0
  0
LTYPE
  5
72
330
5
100
AcDbSymbolTableRecord
100
AcDbLinetypeTableRecord
  2
SLD-Punktstrich
 70
     0
  3
SolidWorks Line Style
 72
    65
 73
     4
 40
19.05
 49
15.24
 74
     0
 49
-1.27
 74
     0
 49
1.27
 74
     0
 49
-1.27
 74
     0
  0
LTYPE
  5
73
330
5
100
AcDbSymbolTableRecord
100
AcDbLinetypeTableRecord
  2
SLD-Naht
 70
     0
  3
SolidWorks Line Style
 72
    65
 73
     2
 40
0.635
 49
0.0
 74
     0
 49
-0.635
 74
     0
  0
LTYPE
  5
74
330
5
100
AcDbSymbolTableRecord
100
AcDbLinetypeTableRecord
  2
SLD-Dicke-Dünne-Kette
 70
     0
  3
SolidWorks Line Style
 72
    65
 73
     4
 40
10.16
 49
6.35
 74
     0
 49
-1.27
 74
     0
 49
1.27
 74
     0
 49
-1.27
 74
     0
  0
ENDTAB
  0
TABLE
  2
LAYER
  5
2
330
0
100
AcDbSymbolTable
 70
     3
  0
LAYER
  5
10
330
2
100
AcDbSymbolTableRecord
100
AcDbLayerTableRecord
  2
0
 70
     0
 62
     7
  6
Continuous
370
    -3
390
F
347
46
348
0
  0
LAYER
  5
75
330
2
100
AcDbSymbolTableRecord
100
AcDbLayerTableRecord
  2
RAHMEN
 70
     0
 62
   179
  6
SLD-Durchgehend
370
    -3
390
F
347
46
348
0
  0
LAYER
  5
76
330
2
100
AcDbSymbolTableRecord
100
AcDbLayerTableRecord
  2
KOPF
 70
     0
 62
     7
  6
SLD-Durchgehend
370
    -3
390
F
347
46
348
0
  0
ENDTAB
  0
TABLE
  2
STYLE
  5
3
330
0
100
AcDbSymbolTable
 70
     2
  0
STYLE
  5
11
330
3
100
AcDbSymbolTableRecord
100
AcDbTextStyleTableRecord
  2
Standard
 70
     0
 40
0.0
 41
1.0
 50
0.0
 71
     0
 42
3.5
  3
txt
  4

  0
STYLE
  5
D2
330
3
100
AcDbSymbolTableRecord
100
AcDbTextStyleTableRecord
  2
SLDTEXTSTYLE0
 70
     0
 40
0.0
 41
0.605
 50
0.0
 71
     0
 42
3.5
  3
TXT
  4

  0
ENDTAB
  0
TABLE
  2
VIEW
  5
6
330
0
100
AcDbSymbolTable
 70
     0
  0
ENDTAB
  0
TABLE
  2
UCS
  5
7
330
0
100
AcDbSymbolTable
 70
     0
  0
ENDTAB
  0
TABLE
  2
APPID
  5
9
330
0
100
AcDbSymbolTable
 70
     1
  0
APPID
  5
12
330
9
100
AcDbSymbolTableRecord
100
AcDbRegAppTableRecord
  2
ACAD
 70
     0
  0
ENDTAB
  0
TABLE
  2
DIMSTYLE
  5
A
330
0
100
AcDbSymbolTable
 70
     3
100
AcDbDimStyleTable
  0
DIMSTYLE
105
27
330
A
100
AcDbSymbolTableRecord
100
AcDbDimStyleTableRecord
  2
ISO-25
 70
     0
 41
2.5
 42
0.625
 43
3.75
 44
1.25
 73
     0
 74
     0
 77
     1
 78
     8
140
2.5
141
2.5
143
0.0393700787
147
0.625
171
     3
172
     1
178
     0
271
     2
272
     2
274
     3
278
    44
283
     0
284
     8
340
11
  0
DIMSTYLE
105
D3
102
{ACAD_REACTORS
330
D1
330
27A
330
286
102
}
330
A
100
AcDbSymbolTableRecord
100
AcDbDimStyleTableRecord
  2
SLDDIMSTYLE0
 70
     0
 41
3.5
 44
0.0
 45
0.000000001
 73
     0
 74
     0
 77
     1
 78
    12
 79
     3
140
3.5
147
0.875
173
     1
178
     0
271
     1
272
     1
276
     2
284
    12
340
D2
  0
DIMSTYLE
105
E0
102
{ACAD_REACTORS
330
DF
102
}
330
A
100
AcDbSymbolTableRecord
100
AcDbDimStyleTableRecord
  2
SLDDIMSTYLE1
 70
     0
 41
3.5
 44
0.0
 45
0.000000001
 73
     0
 74
     0
 77
     1
 78
    12
 79
     3
140
3.5
147
0.875
173
     1
178
     0
271
     0
272
     0
276
     2
284
    12
340
D2
  0
ENDTAB
  0
TABLE
  2
BLOCK_RECORD
  5
1
330
0
100
AcDbSymbolTable
 70
     8
  0
BLOCK_RECORD
  5
1F
330
1
100
AcDbSymbolTableRecord
100
AcDbBlockTableRecord
  2
*Model_Space
340
22
 70
     0
280
     1
281
     0
  0
BLOCK_RECORD
  5
1B
330
1
100
AcDbSymbolTableRecord
100
AcDbBlockTableRecord
  2
*Paper_Space
340
1E
 70
     0
280
     1
281
     0
  0
BLOCK_RECORD
  5
23
330
1
100
AcDbSymbolTableRecord
100
AcDbBlockTableRecord
  2
*Paper_Space0
340
26
 70
     0
280
     1
281
     0
  0
BLOCK_RECORD
  5
D4
330
1
100
AcDbSymbolTableRecord
100
AcDbBlockTableRecord
  2
_D
340
0
 70
     0
280
     1
281
     0
  0
BLOCK_RECORD
  5
E1
330
1
100
AcDbSymbolTableRecord
100
AcDbBlockTableRecord
  2
_D_1
340
0
 70
     0
280
     1
281
     0
  0
BLOCK_RECORD
  5
27B
330
1
100
AcDbSymbolTableRecord
100
AcDbBlockTableRecord
  2
_D_2
340
0
 70
     0
280
     1
281
     0
  0
BLOCK_RECORD
  5
287
330
1
100
AcDbSymbolTableRecord
100
AcDbBlockTableRecord
  2
_D_3
340
0
 70
     0
280
     1
281
     0
  0
BLOCK_RECORD
  5
292
330
1
100
AcDbSymbolTableRecord
100
AcDbBlockTableRecord
  2
SW_CENTERMARKSYMBOL_0
340
0
102
{BLKREFS
331
29D
102
}
 70
     0
280
     1
281
     0
  0
BLOCK_RECORD
  5
29E
330
1
100
AcDbSymbolTableRecord
100
AcDbBlockTableRecord
  2
SW_CENTERMARKSYMBOL_1
340
0
102
{BLKREFS
331
2A9
102
}
 70
     0
280
     1
281
     0
  0
BLOCK_RECORD
  5
2AA
330
1
100
AcDbSymbolTableRecord
100
AcDbBlockTableRecord
  2
SW_CENTERMARKSYMBOL_2
340
0
102
{BLKREFS
331
2B5
102
}
 70
     0
280
     1
281
     0
  0
ENDTAB
  0
ENDSEC
  0
SECTION
  2
BLOCKS
  0
BLOCK
  5
20
330
1F
100
AcDbEntity
  8
0
100
AcDbBlockBegin
  2
*Model_Space
 70
     0
 10
0.0
 20
0.0
 30
0.0
  3
*Model_Space
  1

  0
ENDBLK
  5
21
330
1F
100
AcDbEntity
  8
0
100
AcDbBlockEnd
  0
BLOCK
  5
1C
330
1B
100
AcDbEntity
 67
     1
  8
0
100
AcDbBlockBegin
  2
*Paper_Space
 70
     0
 10
0.0
 20
0.0
 30
0.0
  3
*Paper_Space
  1

  0
ENDBLK
  5
1D
330
1B
100
AcDbEntity
 67
     1
  8
0
100
AcDbBlockEnd
  0
BLOCK
  5
24
330
23
100
AcDbEntity
  8
0
100
AcDbBlockBegin
  2
*Paper_Space0
 70
     0
 10
0.0
 20
0.0
 30
0.0
  3
*Paper_Space0
  1

  0
ENDBLK
  5
25
330
23
100
AcDbEntity
  8
0
100
AcDbBlockEnd
  0
BLOCK
  5
D5
330
D4
100
AcDbEntity
  8
0
100
AcDbBlockBegin
  2
_D
 70
     0
 10
0.0
 20
0.0
 30
0.0
  3
_D
  1

  0
ARC
  5
D7
330
D4
100
AcDbEntity
  8
0
  6
SLD-Durchgehend
 62
     7
370
    18
100
AcDbCircle
 10
463.6368388362
 20
175.1689906959
 30
0.0
 40
6.005346454827409
100
AcDbArc
 50
243.4349488229
 51
296.5650511771
  0
ARC
  5
D8
330
D4
100
AcDbEntity
  8
0
  6
SLD-Durchgehend
 62
     7
370
    18
100
AcDbCircle
 10
463.6368388362
 20
172.9482635782
 30
0.0
 40
6.005346454827383
100
AcDbArc
 50
63.4349488229
 51
116.5650511771
  0
SOLID
  5
D9
330
D4
100
AcDbEntity
  8
0
  6
SLD-Durchgehend
 62
     7
370
    18
100
AcDbTrace
 10
466.3225114164
 20
195.6986662745
 30
0.0
 11
465.4225114164
 21
192.1986662745
 31
0.0
 12
467.2225114164
 22
192.1986662745
 32
0.0
 13
467.2225114164
 23
192.1986662745
 33
0.0
  0
SOLID
  5
DA
330
D4
100
AcDbEntity
  8
0
  6
SLD-Durchgehend
 62
     7
370
    18
100
AcDbTrace
 10
466.3225114164
 20
151.6986662745
 30
0.0
 11
467.2225114164
 21
155.1986662745
 31
0.0
 12
465.4225114164
 22
155.1986662745
 32
0.0
 13
465.4225114164
 23
155.1986662745
 33
0.0
  0
LINE
  5
DB
330
D4
100
AcDbEntity
  8
0
  6
SLD-Durchgehend
 62
     7
370
     0
100
AcDbLine
 10
436.2882118356
 20
195.6986662745
 30
0.0
 11
467.3225114164
 21
195.6986662745
 31
0.0
  0
LINE
  5
DC
330
D4
100
AcDbEntity
  8
0
  6
SLD-Durchgehend
 62
     7
370
     0
100
AcDbLine
 10
457.7882118356
 20
151.6986662745
 30
0.0
 11
467.3225114164
 21
151.6986662745
 31
0.0
  0
LINE
  5
DD
330
D4
100
AcDbEntity
  8
0
  6
SLD-Durchgehend
 62
     7
370
     0
100
AcDbLine
 10
466.3225114164
 20
195.6986662745
 30
0.0
 11
466.3225114164
 21
151.6986662745
 31
0.0
  0
MTEXT
  5
DE
330
D4
100
AcDbEntity
  8
0
  6
SLD-Durchgehend
 62
     7
370
    18
100
AcDbMText
 10
461.8107740944
 20
171.3851455354
 30
0.0
 40
3.5
 41
0.0
 46
0.0
 71
     1
 72
     1
  1
44
  7
SLDTEXTSTYLE0
 11
-7.044195017643634E-15
 21
1.0
 31
0.0
 73
     1
 44
1.0
  0
ENDBLK
  5
D6
330
D4
100
AcDbEntity
  8
0
100
AcDbBlockEnd
  0
BLOCK
  5
E2
330
E1
100
AcDbEntity
  8
0
100
AcDbBlockBegin
  2
_D_1
 70
     0
 10
0.0
 20
0.0
 30
0.0
  3
_D_1
  1

  0
ARC
  5
E4
330
E1
100
AcDbEntity
  8
0
  6
SLD-Durchgehend
 62
     7
370
    18
100
AcDbCircle
 10
270.9558143173
 20
149.6728039026
 30
0.0
 40
6.005346454827282
100
AcDbArc
 50
153.4349488229
 51
206.5650511771
  0
ARC
  5
E5
330
E1
100
AcDbEntity
  8
0
  6
SLD-Durchgehend
 62
     7
370
    18
100
AcDbCircle
 10
271.4073497034
 20
149.6728039026
 30
0.0
 40
6.005346454827333
100
AcDbArc
 50
333.4349488229
 51
26.5650511771
  0
SOLID
  5
E6
330
E1
100
AcDbEntity
  8
0
  6
SLD-Durchgehend
 62
     7
370
    18
100
AcDbTrace
 10
35.6486870038
 20
146.9871313223
 30
0.0
 11
39.1486870038
 21
146.0871313223
 31
0.0
 12
39.1486870038
 22
147.8871313223
 32
0.0
 13
39.1486870038
 23
147.8871313223
 33
0.0
  0
SOLID
  5
E7
330
E1
100
AcDbEntity
  8
0
  6
SLD-Durchgehend
 62
     7
370
    18
100
AcDbTrace
 10
457.7882118356
 20
146.9871313223
 30
0.0
 11
454.2882118356
 21
147.8871313223
 31
0.0
 12
454.2882118356
 22
146.0871313223
 32
0.0
 13
454.2882118356
 23
146.0871313223
 33
0.0
  0
LINE
  5
E8
330
E1
100
AcDbEntity
  8
0
  6
SLD-Durchgehend
 62
     7
370
     0
100
AcDbLine
 10
35.6486870038
 20
164.2986662745
 30
0.0
 11
35.6486870038
 21
145.9871313223
 31
0.0
  0
LINE
  5
E9
330
E1
100
AcDbEntity
  8
0
  6
SLD-Durchgehend
 62
     7
370
     0
100
AcDbLine
 10
457.7882118356
 20
157.6986662745
 30
0.0
 11
457.7882118356
 21
145.9871313223
 31
0.0
  0
LINE
  5
EA
330
E1
100
AcDbEntity
  8
0
  6
SLD-Durchgehend
 62
     7
370
     0
100
AcDbLine
 10
35.6486870038
 20
146.9871313223
 30
0.0
 11
457.7882118356
 21
146.9871313223
 31
0.0
  0
MTEXT
  5
EB
330
E1
100
AcDbEntity
  8
0
  6
SLD-Durchgehend
 62
     7
370
    18
100
AcDbMText
 10
267.1719691567
 20
151.4988686443
 30
0.0
 40
3.5
 41
0.0
 46
0.0
 71
     1
 72
     1
  1
487
  7
SLDTEXTSTYLE0
 73
     1
 44
1.0
  0
ENDBLK
  5
E3
330
E1
100
AcDbEntity
  8
0
100
AcDbBlockEnd
  0
BLOCK
  5
27C
330
27B
100
AcDbEntity
  8
0
100
AcDbBlockBegin
  2
_D_2
 70
     0
 10
0.0
 20
0.0
 30
0.0
  3
_D_2
  1

  0
ARC
  5
27E
330
27B
100
AcDbEntity
  8
0
  6
SLD-Durchgehend
 62
     7
370
    18
100
AcDbCircle
 10
464.4687385842
 20
292.842825436
 30
0.0
 40
6.005346454827357
100
AcDbArc
 50
243.4349488229
 51
296.5650511771
  0
ARC
  5
27F
330
27B
100
AcDbEntity
  8
0
  6
SLD-Durchgehend
 62
     7
370
    18
100
AcDbCircle
 10
464.4687385842
 20
290.6220983183
 30
0.0
 40
6.005346454827307
100
AcDbArc
 50
63.4349488229
 51
116.5650511771
  0
SOLID
  5
280
330
27B
100
AcDbEntity
  8
0
  6
SLD-Durchgehend
 62
     7
370
    18
100
AcDbTrace
 10
467.1544111645
 20
327.6606620432
 30
0.0
 11
466.2544111645
 21
324.1606620432
 31
0.0
 12
468.0544111645
 22
324.1606620432
 32
0.0
 13
468.0544111645
 23
324.1606620432
 33
0.0
  0
SOLID
  5
281
330
27B
100
AcDbEntity
  8
0
  6
SLD-Durchgehend
 62
     7
370
    18
100
AcDbTrace
 10
467.1544111645
 20
255.6606620432
 30
0.0
 11
468.0544111645
 21
259.1606620432
 31
0.0
 12
466.2544111645
 22
259.1606620432
 32
0.0
 13
466.2544111645
 23
259.1606620432
 33
0.0
  0
LINE
  5
282
330
27B
100
AcDbEntity
  8
0
  6
SLD-Durchgehend
 62
     7
370
     0
100
AcDbLine
 10
438.7882118356
 20
327.6606620432
 30
0.0
 11
468.1544111645
 21
327.6606620432
 31
0.0
  0
LINE
  5
283
330
27B
100
AcDbEntity
  8
0
  6
SLD-Durchgehend
 62
     7
370
     0
100
AcDbLine
 10
438.7882118356
 20
255.6606620432
 30
0.0
 11
468.1544111645
 21
255.6606620432
 31
0.0
  0
LINE
  5
284
330
27B
100
AcDbEntity
  8
0
  6
SLD-Durchgehend
 62
     7
370
     0
100
AcDbLine
 10
467.1544111645
 20
327.6606620432
 30
0.0
 11
467.1544111645
 21
255.6606620432
 31
0.0
  0
MTEXT
  5
285
330
27B
100
AcDbEntity
  8
0
  6
SLD-Durchgehend
 62
     7
370
    18
100
AcDbMText
 10
462.6426738425
 20
289.0589802754
 30
0.0
 40
3.5
 41
0.0
 46
0.0
 71
     1
 72
     1
  1
72
  7
SLDTEXTSTYLE0
 11
-7.044195017643634E-15
 21
1.0
 31
0.0
 73
     1
 44
1.0
  0
ENDBLK
  5
27D
330
27B
100
AcDbEntity
  8
0
100
AcDbBlockEnd
  0
BLOCK
  5
288
330
287
100
AcDbEntity
  8
0
100
AcDbBlockBegin
  2
_D_3
 70
     0
 10
0.0
 20
0.0
 30
0.0
  3
_D_3
  1

  0
ARC
  5
28A
330
287
100
AcDbEntity
  8
0
  6
SLD-Durchgehend
 62
     7
370
    18
100
AcDbCircle
 10
480.7562252749
 20
292.842825436
 30
0.0
 40
6.005346454827383
100
AcDbArc
 50
243.4349488229
 51
296.5650511771
  0
ARC
  5
28B
330
287
100
AcDbEntity
  8
0
  6
SLD-Durchgehend
 62
     7
370
    18
100
AcDbCircle
 10
480.7562252749
 20
290.6220983183
 30
0.0
 40
6.005346454827307
100
AcDbArc
 50
63.4349488229
 51
116.5650511771
  0
SOLID
  5
28C
330
287
100
AcDbEntity
  8
0
  6
SLD-Durchgehend
 62
     7
370
    18
100
AcDbTrace
 10
483.4418978552
 20
335.6606620432
 30
0.0
 11
482.5418978552
 21
332.1606620432
 31
0.0
 12
484.3418978552
 22
332.1606620432
 32
0.0
 13
484.3418978552
 23
332.1606620432
 33
0.0
  0
SOLID
  5
28D
330
287
100
AcDbEntity
  8
0
  6
SLD-Durchgehend
 62
     7
370
    18
100
AcDbTrace
 10
483.4418978552
 20
247.6606620432
 30
0.0
 11
484.3418978552
 21
251.1606620432
 31
0.0
 12
482.5418978552
 22
251.1606620432
 32
0.0
 13
482.5418978552
 23
251.1606620432
 33
0.0
  0
LINE
  5
28E
330
287
100
AcDbEntity
  8
0
  6
SLD-Durchgehend
 62
     7
370
     0
100
AcDbLine
 10
428.5882118356
 20
335.6606620432
 30
0.0
 11
484.4418978552
 21
335.6606620432
 31
0.0
  0
LINE
  5
28F
330
287
100
AcDbEntity
  8
0
  6
SLD-Durchgehend
 62
     7
370
     0
100
AcDbLine
 10
428.5882118356
 20
247.6606620432
 30
0.0
 11
484.4418978552
 21
247.6606620432
 31
0.0
  0
LINE
  5
290
330
287
100
AcDbEntity
  8
0
  6
SLD-Durchgehend
 62
     7
370
     0
100
AcDbLine
 10
483.4418978552
 20
335.6606620432
 30
0.0
 11
483.4418978552
 21
247.6606620432
 31
0.0
  0
MTEXT
  5
291
330
287
100
AcDbEntity
  8
0
  6
SLD-Durchgehend
 62
     7
370
    18
100
AcDbMText
 10
478.9301605332
 20
289.0589802754
 30
0.0
 40
3.5
 41
0.0
 46
0.0
 71
     1
 72
     1
  1
88
  7
SLDTEXTSTYLE0
 11
-7.044195017643634E-15
 21
1.0
 31
0.0
 73
     1
 44
1.0
  0
ENDBLK
  5
289
330
287
100
AcDbEntity
  8
0
100
AcDbBlockEnd
  0
BLOCK
  5
293
330
292
100
AcDbEntity
  8
0
100
AcDbBlockBegin
  2
SW_CENTERMARKSYMBOL_0
 70
     0
 10
0.0
 20
0.0
 30
0.0
  3
SW_CENTERMARKSYMBOL_0
  1

  0
LINE
  5
295
330
292
100
AcDbEntity
  8
0
  6
SLD-Durchgehend
 62
     0
370
    18
100
AcDbLine
 10
0.0
 20
0.0
 30
0.0
 11
0.0
 21
2.4999976158
 31
0.0
  0
LINE
  5
296
330
292
100
AcDbEntity
  8
0
  6
SLD-Durchgehend
 62
     0
370
    18
100
AcDbLine
 10
0.0
 20
0.0
 30
0.0
 11
-2.500012517
 21
0.0
 31
0.0
  0
LINE
  5
297
330
292
100
AcDbEntity
  8
0
  6
SLD-Durchgehend
 62
     0
370
    18
100
AcDbLine
 10
0.0
 20
0.0
 30
0.0
 11
0.0
 21
-2.5000013411
 31
0.0
  0
LINE
  5
298
330
292
100
AcDbEntity
  8
0
  6
SLD-Durchgehend
 62
     0
370
    18
100
AcDbLine
 10
0.0
 20
0.0
 30
0.0
 11
2.4999976158
 21
0.0
 31
0.0
  0
LINE
  5
299
330
292
100
AcDbEntity
  8
0
  6
SLD-Durchgehend
 62
     0
370
    18
100
AcDbLine
 10
0.0
 20
4.9999989569
 30
0.0
 11
0.0
 21
10.1999975741
 31
0.0
  0
LINE
  5
29A
330
292
100
AcDbEntity
  8
0
  6
SLD-Durchgehend
 62
     0
370
    18
100
AcDbLine
 10
-5.0000101328
 20
0.0
 30
0.0
 11
-10.20000875
 21
0.0
 31
0.0
  0
LINE
  5
29B
330
292
100
AcDbEntity
  8
0
  6
SLD-Durchgehend
 62
     0
370
    18
100
AcDbLine
 10
0.0
 20
-5.0000026822
 30
0.0
 11
0.0
 21
-10.2000012994
 31
0.0
  0
LINE
  5
29C
330
292
100
AcDbEntity
  8
0
  6
SLD-Durchgehend
 62
     0
370
    18
100
AcDbLine
 10
4.9999952316
 20
0.0
 30
0.0
 11
10.1999938488
 21
0.0
 31
0.0
  0
ENDBLK
  5
294
330
292
100
AcDbEntity
  8
0
100
AcDbBlockEnd
  0
BLOCK
  5
29F
330
29E
100
AcDbEntity
  8
0
100
AcDbBlockBegin
  2
SW_CENTERMARKSYMBOL_1
 70
     0
 10
0.0
 20
0.0
 30
0.0
  3
SW_CENTERMARKSYMBOL_1
  1

  0
LINE
  5
2A1
330
29E
100
AcDbEntity
  8
0
  6
SLD-Durchgehend
 62
     0
370
    18
100
AcDbLine
 10
0.0
 20
0.0
 30
0.0
 11
0.0
 21
2.5000013411
 31
0.0
  0
LINE
  5
2A2
330
29E
100
AcDbEntity
  8
0
  6
SLD-Durchgehend
 62
     0
370
    18
100
AcDbLine
 10
0.0
 20
0.0
 30
0.0
 11
-2.500012517
 21
0.0
 31
0.0
  0
LINE
  5
2A3
330
29E
100
AcDbEntity
  8
0
  6
SLD-Durchgehend
 62
     0
370
    18
100
AcDbLine
 10
0.0
 20
0.0
 30
0.0
 11
0.0
 21
-2.4999976158
 31
0.0
  0
LINE
  5
2A4
330
29E
100
AcDbEntity
  8
0
  6
SLD-Durchgehend
 62
     0
370
    18
100
AcDbLine
 10
0.0
 20
0.0
 30
0.0
 11
2.4999976158
 21
0.0
 31
0.0
  0
LINE
  5
2A5
330
29E
100
AcDbEntity
  8
0
  6
SLD-Durchgehend
 62
     0
370
    18
100
AcDbLine
 10
0.0
 20
5.0000026822
 30
0.0
 11
0.0
 21
10.2000012994
 31
0.0
  0
LINE
  5
2A6
330
29E
100
AcDbEntity
  8
0
  6
SLD-Durchgehend
 62
     0
370
    18
100
AcDbLine
 10
-5.0000101328
 20
0.0
 30
0.0
 11
-10.20000875
 21
0.0
 31
0.0
  0
LINE
  5
2A7
330
29E
100
AcDbEntity
  8
0
  6
SLD-Durchgehend
 62
     0
370
    18
100
AcDbLine
 10
0.0
 20
-4.9999989569
 30
0.0
 11
0.0
 21
-10.1999975741
 31
0.0
  0
LINE
  5
2A8
330
29E
100
AcDbEntity
  8
0
  6
SLD-Durchgehend
 62
     0
370
    18
100
AcDbLine
 10
4.9999952316
 20
0.0
 30
0.0
 11
10.1999938488
 21
0.0
 31
0.0
  0
ENDBLK
  5
2A0
330
29E
100
AcDbEntity
  8
0
100
AcDbBlockEnd
  0
BLOCK
  5
2AB
330
2AA
100
AcDbEntity
  8
0
100
AcDbBlockBegin
  2
SW_CENTERMARKSYMBOL_2
 70
     0
 10
0.0
 20
0.0
 30
0.0
  3
SW_CENTERMARKSYMBOL_2
  1

  0
LINE
  5
2AD
330
2AA
100
AcDbEntity
  8
0
  6
SLD-Durchgehend
 62
     0
370
    18
100
AcDbLine
 10
0.0
 20
0.0
 30
0.0
 11
0.0
 21
2.4999999441
 31
0.0
  0
LINE
  5
2AE
330
2AA
100
AcDbEntity
  8
0
  6
SLD-Durchgehend
 62
     0
370
    18
100
AcDbLine
 10
0.0
 20
0.0
 30
0.0
 11
-2.4999976158
 21
0.0
 31
0.0
  0
LINE
  5
2AF
330
2AA
100
AcDbEntity
  8
0
  6
SLD-Durchgehend
 62
     0
370
    18
100
AcDbLine
 10
0.0
 20
0.0
 30
0.0
 11
0.0
 21
-2.4999999441
 31
0.0
  0
LINE
  5
2B0
330
2AA
100
AcDbEntity
  8
0
  6
SLD-Durchgehend
 62
     0
370
    18
100
AcDbLine
 10
0.0
 20
0.0
 30
0.0
 11
2.4999976158
 21
0.0
 31
0.0
  0
LINE
  5
2B1
330
2AA
100
AcDbEntity
  8
0
  6
SLD-Durchgehend
 62
     0
370
    18
100
AcDbLine
 10
0.0
 20
4.9999998882
 30
0.0
 11
0.0
 21
6.0000000522
 31
0.0
  0
LINE
  5
2B2
330
2AA
100
AcDbEntity
  8
0
  6
SLD-Durchgehend
 62
     0
370
    18
100
AcDbLine
 10
-4.9999952316
 20
0.0
 30
0.0
 11
-5.9999972582
 21
0.0
 31
0.0
  0
LINE
  5
2B3
330
2AA
100
AcDbEntity
  8
0
  6
SLD-Durchgehend
 62
     0
370
    18
100
AcDbLine
 10
0.0
 20
-4.9999998882
 30
0.0
 11
0.0
 21
-6.0000000522
 31
0.0
  0
LINE
  5
2B4
330
2AA
100
AcDbEntity
  8
0
  6
SLD-Durchgehend
 62
     0
370
    18
100
AcDbLine
 10
4.9999952316
 20
0.0
 30
0.0
 11
5.9999972582
 21
0.0
 31
0.0
  0
ENDBLK
  5
2AC
330
2AA
100
AcDbEntity
  8
0
100
AcDbBlockEnd
  0
ENDSEC
  0
SECTION
  2
ENTITIES
  0
ARC
  5
77
330
1F
100
AcDbEntity
  8
0
  6
SLD-Durchgehend
 62
     7
370
    35
100
AcDbCircle
 10
432.2882070328
 20
158.3986730264
 30
0.0
 40
0.3000063287130863
100
AcDbArc
 50
270.0002387884
 51
359.9986940027
  0
ARC
  5
78
330
1F
100
AcDbEntity
  8
0
  6
SLD-Durchgehend
 62
     7
370
    35
100
AcDbCircle
 10
422.8882143257
 20
158.3986730264
 30
0.0
 40
0.3000063287130996
100
AcDbArc
 50
180.0013059973
 51
269.9997612116
  0
LINE
  5
79
330
1F
100
AcDbEntity
  8
0
  6
SLD-Durchgehend
 62
     7
370
    35
100
AcDbLine
 10
432.5882133615
 20
158.3986661881
 30
0.0
 11
432.5882133615
 21
160.2986666858
 31
0.0
  0
LINE
  5
7A
330
1F
100
AcDbEntity
  8
0
  6
SLD-Durchgehend
 62
     7
370
    35
100
AcDbLine
 10
422.588207997
 20
160.2986666858
 30
0.0
 11
422.588207997
 21
158.3986661881
 31
0.0
  0
ARC
  5
7B
330
1F
100
AcDbEntity
  8
0
  6
SLD-Durchgehend
 62
     7
370
    35
100
AcDbCircle
 10
435.2882236488
 20
160.5986475774
 30
0.0
 40
0.299980891764332
100
AcDbArc
 50
269.998226398
 51
0.0035523277
  0
LINE
  5
7C
330
1F
100
AcDbEntity
  8
0
  6
SLD-Durchgehend
 62
     7
370
    35
100
AcDbLine
 10
435.58820454
 20
160.5986661762
 30
0.0
 11
435.58820454
 21
179.9986662827
 31
0.0
  0
ARC
  5
7D
330
1F
100
AcDbEntity
  8
0
  6
SLD-Durchgehend
 62
     7
370
    35
100
AcDbCircle
 10
435.2882228539
 20
179.9986845523
 30
0.0
 40
0.2999816866035071
100
AcDbArc
 50
359.9965105584
 51
90.0016217811
  0
LINE
  5
7E
330
1F
100
AcDbEntity
  8
0
  6
SLD-Durchgehend
 62
     7
370
    35
100
AcDbLine
 10
421.5882059705
 20
180.6986664906
 30
0.0
 11
421.5882059705
 21
180.2986662388
 31
0.0
  0
LINE
  5
7F
330
1F
100
AcDbEntity
  8
0
  6
SLD-Durchgehend
 62
     7
370
    35
100
AcDbLine
 10
433.588215388
 20
180.2986662388
 30
0.0
 11
433.588215388
 21
180.6986664906
 31
0.0
  0
ARC
  5
80
330
1F
100
AcDbEntity
  8
0
  6
SLD-Durchgehend
 62
     7
370
    35
100
AcDbCircle
 10
419.8881985046
 20
180.9986481771
 30
0.0
 40
0.2999816866035355
100
AcDbArc
 50
179.9965105584
 51
270.001621781
  0
LINE
  5
81
330
1F
100
AcDbEntity
  8
0
  6
SLD-Durchgehend
 62
     7
370
    35
100
AcDbLine
 10
419.5882168185
 20
195.3986666649
 30
0.0
 11
419.5882168185
 21
180.9986664466
 31
0.0
  0
ARC
  5
82
330
1F
100
AcDbEntity
  8
0
  6
SLD-Durchgehend
 62
     7
370
    35
100
AcDbCircle
 10
419.8881992994
 20
195.3986836741
 30
0.0
 40
0.2999824813534909
100
AcDbArc
 50
89.9985300323
 51
180.0032486934
  0
LINE
  5
83
330
1F
100
AcDbEntity
  8
0
  6
SLD-Durchgehend
 62
     7
370
    35
100
AcDbLine
 10
424.8570737016
 20
158.0986666977
 30
0.0
 11
422.8882130754
 21
158.0986666977
 31
0.0
  0
LINE
  5
84
330
1F
100
AcDbEntity
  8
0
  6
SLD-Durchgehend
 62
     7
370
    35
100
AcDbLine
 10
432.2882082831
 20
158.0986666977
 30
0.0
 11
424.8570737016
 21
158.0986666977
 31
0.0
  0
LINE
  5
85
330
1F
100
AcDbEntity
  8
0
  6
SLD-Durchgehend
 62
     7
370
    35
100
AcDbLine
 10
457.0882108581
 20
190.6986671984
 30
0.0
 11
457.7882078063
 21
190.6986671984
 31
0.0
  0
LINE
  5
86
330
1F
100
AcDbEntity
  8
0
  6
SLD-Durchgehend
 62
     7
370
    35
100
AcDbLine
 10
457.7882078063
 20
190.6986671984
 30
0.0
 11
457.7882078063
 21
183.698666051
 31
0.0
  0
LINE
  5
87
330
1F
100
AcDbEntity
  8
0
  6
SLD-Durchgehend
 62
     7
370
    35
100
AcDbLine
 10
457.7882078063
 20
165.6986658945
 30
0.0
 11
457.7882078063
 21
183.698666051
 31
0.0
  0
LINE
  5
88
330
1F
100
AcDbEntity
  8
0
  6
SLD-Durchgehend
 62
     7
370
    35
100
AcDbLine
 10
457.7882078063
 20
158.6986666098
 30
0.0
 11
457.0882108581
 21
158.6986666098
 31
0.0
  0
LINE
  5
89
330
1F
100
AcDbEntity
  8
0
  6
SLD-Durchgehend
 62
     7
370
    35
100
AcDbLine
 10
457.7882078063
 20
165.6986658945
 30
0.0
 11
457.7882078063
 21
158.6986666098
 31
0.0
  0
LINE
  5
8A
330
1F
100
AcDbEntity
  8
0
  6
SLD-Durchgehend
 62
     7
370
    35
100
AcDbLine
 10
420.4966661107
 20
160.2986666858
 30
0.0
 11
244.4108065736
 21
160.2986666858
 31
0.0
  0
LINE
  5
8B
330
1F
100
AcDbEntity
  8
0
  6
SLD-Durchgehend
 62
     7
370
    35
100
AcDbLine
 10
244.4241188985
 20
180.2986662388
 30
0.0
 11
420.4966661107
 21
180.2986662388
 31
0.0
  0
LINE
  5
8C
330
1F
100
AcDbEntity
  8
0
  6
SLD-Durchgehend
 62
     7
370
    35
100
AcDbLine
 10
435.2882143628
 20
160.2986666858
 30
0.0
 11
420.4966661107
 21
160.2986666858
 31
0.0
  0
SPLINE
  5
8D
330
1F
100
AcDbEntity
  8
0
  6
SLD-Durchgehend
 62
     7
370
    35
100
AcDbSpline
210
0.0
220
0.0
230
1.0
 70
     8
 71
     3
 72
    12
 73
     8
 74
     0
 42
0.00000001
 43
0.00000001
 40
0.0
 40
0.0
 40
0.0
 40
0.0
 40
0.2380616050095455
 40
0.4764933350972725
 40
0.7036386425610915
 40
0.9130531505291096
 40
1.0
 40
1.0
 40
1.0
 40
1.0
 10
420.4966661107165
 20
160.2986666857886
 30
0.0
 10
420.4577248640056
 20
160.3023925632355
 30
0.0
 10
420.3797818268768
 20
160.3098501109184
 30
0.0
 10
420.2772813167491
 20
160.3686764588189
 30
0.0
 10
420.2048187599195
 20
160.4537086518916
 30
0.0
 10
420.1749073867212
 20
160.5362314395953
 30
0.0
 10
420.172670710524
 20
160.5845039340234
 30
0.0
 10
420.1720145117862
 20
160.5986661761688
 30
0.0
  0
LINE
  5
8E
330
1F
100
AcDbEntity
  8
0
  6
SLD-Durchgehend
 62
     7
370
    35
100
AcDbLine
 10
420.1720145118
 20
179.9986662827
 30
0.0
 11
420.1720145118
 21
160.5986661762
 31
0.0
  0
LINE
  5
8F
330
1F
100
AcDbEntity
  8
0
  6
SLD-Durchgehend
 62
     7
370
    35
100
AcDbLine
 10
420.4966661107
 20
180.2986662388
 30
0.0
 11
435.2882143628
 21
180.2986662388
 31
0.0
  0
SPLINE
  5
90
330
1F
100
AcDbEntity
  8
0
  6
SLD-Durchgehend
 62
     7
370
    35
100
AcDbSpline
210
0.0
220
0.0
230
1.0
 70
     8
 71
     3
 72
    12
 73
     8
 74
     0
 42
0.00000001
 43
0.00000001
 40
0.0
 40
0.0
 40
0.0
 40
0.0
 40
0.1948464553505973
 40
0.3894954589420377
 40
0.5899384755878928
 40
0.8043632198766478
 40
1.0
 40
1.0
 40
1.0
 40
1.0
 10
420.1720145117862
 20
179.9986662827122
 30
0.0
 10
420.175226997746
 20
180.0305631937939
 30
0.0
 10
420.1816487142253
 20
180.0943246925507
 30
0.0
 10
420.2313498034189
 20
180.1798364660128
 30
0.0
 10
420.3054152073833
 20
180.2474549393606
 30
0.0
 10
420.3976974306083
 20
180.2908544644235
 30
0.0
 10
420.4646998434108
 20
180.2961430842962
 30
0.0
 10
420.4966661107165
 20
180.2986662387537
 30
0.0
  0
ARC
  5
91
330
1F
100
AcDbEntity
  8
0
  6
SLD-Durchgehend
 62
     7
370
    35
100
AcDbCircle
 10
435.2882228539
 20
180.9986481771
 30
0.0
 40
0.2999816866035639
100
AcDbArc
 50
269.9983782189
 51
0.0034894416
  0
LINE
  5
92
330
1F
100
AcDbEntity
  8
0
  6
SLD-Durchgehend
 62
     7
370
    35
100
AcDbLine
 10
435.2882143628
 20
180.6986664906
 30
0.0
 11
419.8882069957
 21
180.6986664906
 31
0.0
  0
LINE
  5
93
330
1F
100
AcDbEntity
  8
0
  6
SLD-Durchgehend
 62
     7
370
    35
100
AcDbLine
 10
435.58820454
 20
195.3986666649
 30
0.0
 11
435.58820454
 21
180.9986664466
 31
0.0
  0
LINE
  5
94
330
1F
100
AcDbEntity
  8
0
  6
SLD-Durchgehend
 62
     7
370
    35
100
AcDbLine
 10
419.8882069957
 20
195.6986661553
 30
0.0
 11
435.2882143628
 21
195.6986661553
 31
0.0
  0
ARC
  5
95
330
1F
100
AcDbEntity
  8
0
  6
SLD-Durchgehend
 62
     7
370
    35
100
AcDbCircle
 10
435.2882220591
 20
195.3986836741
 30
0.0
 40
0.2999824813533863
100
AcDbArc
 50
359.9967513066
 51
90.0014699677
  0
LINE
  5
96
330
1F
100
AcDbEntity
  8
0
  6
SLD-Durchgehend
 62
     7
370
    35
100
AcDbLine
 10
435.58820454
 20
180.9986664466
 30
0.0
 11
435.58820454
 21
173.9986662888
 31
0.0
  0
LINE
  5
97
330
1F
100
AcDbEntity
  8
0
  6
SLD-Durchgehend
 62
     7
370
    35
100
AcDbLine
 10
437.0882150304
 20
173.6986662745
 30
0.0
 11
435.58820454
 21
173.6986662745
 31
0.0
  0
LINE
  5
98
330
1F
100
AcDbEntity
  8
0
  6
SLD-Durchgehend
 62
     7
370
    35
100
AcDbLine
 10
437.0882150304
 20
173.9986662888
 30
0.0
 11
437.0882150304
 21
173.6986662745
 31
0.0
  0
LINE
  5
99
330
1F
100
AcDbEntity
  8
0
  6
SLD-Durchgehend
 62
     7
370
    35
100
AcDbLine
 10
435.58820454
 20
193.6986658275
 30
0.0
 11
437.0882150304
 21
193.6986658275
 31
0.0
  0
LINE
  5
9A
330
1F
100
AcDbEntity
  8
0
  6
SLD-Durchgehend
 62
     7
370
    35
100
AcDbLine
 10
437.0882150304
 20
193.6986658275
 30
0.0
 11
437.0882150304
 21
193.3986663371
 31
0.0
  0
LINE
  5
9B
330
1F
100
AcDbEntity
  8
0
  6
SLD-Durchgehend
 62
     7
370
    35
100
AcDbLine
 10
437.0882150304
 20
173.9986662888
 30
0.0
 11
437.0882150304
 21
193.3986663371
 31
0.0
  0
ARC
  5
9C
330
1F
100
AcDbEntity
  8
0
  6
SLD-Durchgehend
 62
     7
370
    35
100
AcDbCircle
 10
437.3882229498
 20
193.3986579085
 30
0.0
 40
0.3000079195560899
100
AcDbArc
 50
90.003388437
 51
179.9983902887
  0
ARC
  5
9D
330
1F
100
AcDbEntity
  8
0
  6
SLD-Durchgehend
 62
     7
370
    35
100
AcDbCircle
 10
437.3882229498
 20
151.9986743128
 30
0.0
 40
0.3000079195561486
100
AcDbArc
 50
180.0016097113
 51
269.996611563
  0
LINE
  5
9E
330
1F
100
AcDbEntity
  8
0
  6
SLD-Durchgehend
 62
     7
370
    35
100
AcDbLine
 10
456.7882057798
 20
151.6986663937
 30
0.0
 11
437.3882052075
 21
151.6986663937
 31
0.0
  0
ARC
  5
9F
330
1F
100
AcDbEntity
  8
0
  6
SLD-Durchgehend
 62
     7
370
    35
100
AcDbCircle
 10
434.0882080381
 20
167.1986561957
 30
0.0
 40
3.000006992265259
100
AcDbArc
 50
0.000189929
 51
60.0001542459
  0
LINE
  5
A0
330
1F
100
AcDbEntity
  8
0
  6
SLD-Durchgehend
 62
     7
370
    35
100
AcDbLine
 10
457.0882108581
 20
193.3986663371
 30
0.0
 11
457.0882108581
 21
151.9986658841
 31
0.0
  0
ARC
  5
A1
330
1F
100
AcDbEntity
  8
0
  6
SLD-Durchgehend
 62
     7
370
    35
100
AcDbCircle
 10
456.7882029395
 20
151.9986743124
 30
0.0
 40
0.3000079186834353
100
AcDbArc
 50
270.0005424333
 51
359.9983903577
  0
LWPOLYLINE
  5
A2
330
1F
100
AcDbEntity
  8
0
  6
SLD-Durchgehend
 62
     7
370
    35
100
AcDbPolyline
 90
       10
 70
   128
 43
0.0
 10
437.0882150304
 20
173.6986662745
 10
437.0927747857
 20
173.6941086006
 10
437.1063050401
 20
173.6805740602
 10
437.1284034621
 20
173.6584738956
 10
437.1583994996
 20
173.628479608
 10
437.1953692805
 20
173.5915025584
 10
437.238210119
 20
173.5486662674
 10
437.2856107127
 20
173.5012723239
 10
437.336110748
 20
173.4507607198
 10
437.3882052075
 20
173.3986662603
  0
LINE
  5
A3
330
1F
100
AcDbEntity
  8
0
  6
SLD-Durchgehend
 62
     7
370
    35
100
AcDbLine
 10
437.3882052075
 20
193.6986658275
 30
0.0
 11
456.7882057798
 21
193.6986658275
 31
0.0
  0
LINE
  5
A4
330
1F
100
AcDbEntity
  8
0
  6
SLD-Durchgehend
 62
     7
370
    35
100
AcDbLine
 10
437.0882150304
 20
151.9986658841
 30
0.0
 11
437.0882150304
 21
167.1986661404
 31
0.0
  0
ARC
  5
A5
330
1F
100
AcDbEntity
  8
0
  6
SLD-Durchgehend
 62
     7
370
    35
100
AcDbCircle
 10
456.7882029395
 20
193.3986579088
 30
0.0
 40
0.3000079186834353
100
AcDbArc
 50
0.0016096423
 51
89.9994575667
  0
LINE
  5
A6
330
1F
100
AcDbEntity
  8
0
  6
SLD-Durchgehend
 62
     8
370
    18
100
AcDbLine
 10
424.6827450168
 20
158.3986661881
 30
0.0
 11
432.5882133615
 21
158.3986661881
 31
0.0
  0
LINE
  5
A7
330
1F
100
AcDbEntity
  8
0
  6
SLD-Durchgehend
 62
     8
370
    18
100
AcDbLine
 10
422.588207997
 20
158.3986661881
 30
0.0
 11
424.6827450168
 21
158.3986661881
 31
0.0
  0
LINE
  5
A8
330
1F
100
AcDbEntity
  8
0
  6
SLD-Durchgehend
 62
     8
370
    18
100
AcDbLine
 10
457.7882078063
 20
183.698666051
 30
0.0
 11
457.0882108581
 21
183.698666051
 31
0.0
  0
LINE
  5
A9
330
1F
100
AcDbEntity
  8
0
  6
SLD-Durchgehend
 62
     8
370
    18
100
AcDbLine
 10
457.0882108581
 20
165.6986658945
 30
0.0
 11
457.7882078063
 21
165.6986658945
 31
0.0
  0
LINE
  5
AA
330
1F
100
AcDbEntity
  8
0
  6
SLD-Durchgehend
 62
     8
370
    18
100
AcDbLine
 10
244.2111403268
 20
160.5986661762
 30
0.0
 11
420.1720145118
 21
160.5986661762
 31
0.0
  0
LINE
  5
AB
330
1F
100
AcDbEntity
  8
0
  6
SLD-Durchgehend
 62
     8
370
    18
100
AcDbLine
 10
420.1720145118
 20
179.9986662827
 30
0.0
 11
244.6237851452
 21
179.9986662827
 31
0.0
  0
LINE
  5
AC
330
1F
100
AcDbEntity
  8
0
  6
SLD-Durchgehend
 62
     8
370
    18
100
AcDbLine
 10
420.1720145118
 20
160.5986661762
 30
0.0
 11
435.58820454
 21
160.5986661762
 31
0.0
  0
LINE
  5
AD
330
1F
100
AcDbEntity
  8
0
  6
SLD-Durchgehend
 62
     8
370
    18
100
AcDbLine
 10
435.58820454
 20
179.9986662827
 30
0.0
 11
420.1720145118
 21
179.9986662827
 31
0.0
  0
LINE
  5
AE
330
1F
100
AcDbEntity
  8
0
  6
SLD-Durchgehend
 62
     8
370
    18
100
AcDbLine
 10
419.5882168185
 20
180.9986664466
 30
0.0
 11
435.58820454
 21
180.9986664466
 31
0.0
  0
LINE
  5
AF
330
1F
100
AcDbEntity
  8
0
  6
SLD-Durchgehend
 62
     8
370
    18
100
AcDbLine
 10
435.58820454
 20
195.3986666649
 30
0.0
 11
419.5882168185
 21
195.3986666649
 31
0.0
  0
LINE
  5
B0
330
1F
100
AcDbEntity
  8
0
  6
SLD-Durchgehend
 62
     8
370
    18
100
AcDbLine
 10
434.0882089507
 20
180.2986662388
 30
0.0
 11
434.0882089507
 21
180.6986664906
 31
0.0
  0
LINE
  5
B1
330
1F
100
AcDbEntity
  8
0
  6
SLD-Durchgehend
 62
     8
370
    18
100
AcDbLine
 10
435.58820454
 20
173.9986662888
 30
0.0
 11
437.0882150304
 21
173.9986662888
 31
0.0
  0
LINE
  5
B2
330
1F
100
AcDbEntity
  8
0
  6
SLD-Durchgehend
 62
     8
370
    18
100
AcDbLine
 10
437.0882150304
 20
193.3986663371
 30
0.0
 11
435.58820454
 21
193.3986663371
 31
0.0
  0
LINE
  5
B3
330
1F
100
AcDbEntity
  8
0
  6
SLD-Durchgehend
 62
     8
370
    18
100
AcDbLine
 10
437.3882052075
 20
193.3986663371
 30
0.0
 11
437.3882052075
 21
193.6986658275
 31
0.0
  0
LINE
  5
B4
330
1F
100
AcDbEntity
  8
0
  6
SLD-Durchgehend
 62
     8
370
    18
100
AcDbLine
 10
437.0882150304
 20
193.3986663371
 30
0.0
 11
437.3882052075
 21
193.3986663371
 31
0.0
  0
LINE
  5
B5
330
1F
100
AcDbEntity
  8
0
  6
SLD-Durchgehend
 62
     8
370
    18
100
AcDbLine
 10
437.3882052075
 20
151.9986658841
 30
0.0
 11
437.0882150304
 21
151.9986658841
 31
0.0
  0
LINE
  5
B6
330
1F
100
AcDbEntity
  8
0
  6
SLD-Durchgehend
 62
     8
370
    18
100
AcDbLine
 10
437.3882052075
 20
151.6986663937
 30
0.0
 11
437.3882052075
 21
151.9986658841
 31
0.0
  0
LINE
  5
B7
330
1F
100
AcDbEntity
  8
0
  6
SLD-Durchgehend
 62
     8
370
    18
100
AcDbLine
 10
437.3882052075
 20
151.9986658841
 30
0.0
 11
456.7882057798
 21
151.9986658841
 31
0.0
  0
LINE
  5
B8
330
1F
100
AcDbEntity
  8
0
  6
SLD-Durchgehend
 62
     8
370
    18
100
AcDbLine
 10
456.7882057798
 20
151.6986663937
 30
0.0
 11
456.7882057798
 21
151.9986658841
 31
0.0
  0
ARC
  5
B9
330
1F
100
AcDbEntity
  8
0
  6
SLD-Durchgehend
 62
     8
370
    18
100
AcDbCircle
 10
434.0882507808
 20
167.1986939393
 30
0.0
 40
3.29995442691263
100
AcDbArc
 50
359.9995173392
 51
62.9648057747
  0
LINE
  5
BA
330
1F
100
AcDbEntity
  8
0
  6
SLD-Durchgehend
 62
     8
370
    18
100
AcDbLine
 10
437.3882052075
 20
167.1986661404
 30
0.0
 11
437.0882150304
 21
167.1986661404
 31
0.0
  0
LINE
  5
BB
330
1F
100
AcDbEntity
  8
0
  6
SLD-Durchgehend
 62
     8
370
    18
100
AcDbLine
 10
457.0882108581
 20
151.9986658841
 30
0.0
 11
456.7882057798
 21
151.9986658841
 31
0.0
  0
LINE
  5
BC
330
1F
100
AcDbEntity
  8
0
  6
SLD-Durchgehend
 62
     8
370
    18
100
AcDbLine
 10
456.7882057798
 20
151.9986658841
 30
0.0
 11
456.7882057798
 21
193.3986663371
 31
0.0
  0
LINE
  5
BD
330
1F
100
AcDbEntity
  8
0
  6
SLD-Durchgehend
 62
     8
370
    18
100
AcDbLine
 10
457.0882108581
 20
193.3986663371
 30
0.0
 11
456.7882057798
 21
193.3986663371
 31
0.0
  0
LINE
  5
BE
330
1F
100
AcDbEntity
  8
0
  6
SLD-Durchgehend
 62
     8
370
    18
100
AcDbLine
 10
437.3882052075
 20
173.3986662603
 30
0.0
 11
435.58820454
 21
173.3986662603
 31
0.0
  0
LINE
  5
BF
330
1F
100
AcDbEntity
  8
0
  6
SLD-Durchgehend
 62
     8
370
    18
100
AcDbLine
 10
437.3882052075
 20
193.3986663371
 30
0.0
 11
437.3882052075
 21
173.3986662603
 31
0.0
  0
LINE
  5
C0
330
1F
100
AcDbEntity
  8
0
  6
SLD-Durchgehend
 62
     8
370
    18
100
AcDbLine
 10
456.7882057798
 20
193.3986663371
 30
0.0
 11
437.3882052075
 21
193.3986663371
 31
0.0
  0
LINE
  5
C1
330
1F
100
AcDbEntity
  8
0
  6
SLD-Durchgehend
 62
     8
370
    18
100
AcDbLine
 10
437.3882052075
 20
167.1986661404
 30
0.0
 11
437.3882052075
 21
151.9986658841
 31
0.0
  0
LINE
  5
C2
330
1F
100
AcDbEntity
  8
0
  6
SLD-Durchgehend
 62
     8
370
    18
100
AcDbLine
 10
456.7882057798
 20
193.3986663371
 30
0.0
 11
456.7882057798
 21
193.6986658275
 31
0.0
  0
LINE
  5
C3
330
1F
100
AcDbEntity
  8
0
  6
SLD-Durchgehend
 62
     7
370
    35
100
AcDbLine
 10
234.4108074772
 20
160.2986666858
 30
0.0
 11
40.3486862647
 21
160.2986666858
 31
0.0
  0
LINE
  5
C4
330
1F
100
AcDbEntity
  8
0
  6
SLD-Durchgehend
 62
     7
370
    35
100
AcDbLine
 10
35.3486910331
 20
165.298666574
 30
0.0
 11
35.3486910331
 21
175.2986662341
 31
0.0
  0
LINE
  5
C5
330
1F
100
AcDbEntity
  8
0
  6
SLD-Durchgehend
 62
     7
370
    35
100
AcDbLine
 10
40.3486862647
 20
180.2986662388
 30
0.0
 11
234.4241179395
 21
180.2986662388
 31
0.0
  0
ARC
  5
C6
330
1F
100
AcDbEntity
  8
0
  6
SLD-Durchgehend
 62
     7
370
    35
100
AcDbCircle
 10
40.3486766639
 20
165.2986523166
 30
0.0
 40
4.999985630821792
100
AcDbArc
 50
179.9998366214
 51
270.0001100177
  0
ARC
  5
C7
330
1F
100
AcDbEntity
  8
0
  6
SLD-Durchgehend
 62
     7
370
    35
100
AcDbCircle
 10
40.3486783591
 20
175.2986789127
 30
0.0
 40
4.999987326036828
100
AcDbArc
 50
89.9999094082
 51
180.0001452867
  0
LINE
  5
C8
330
1F
100
AcDbEntity
  8
0
  6
SLD-Durchgehend
 62
     8
370
    18
100
AcDbLine
 10
40.3486862647
 20
160.5986661762
 30
0.0
 11
234.2111393678
 21
160.5986661762
 31
0.0
  0
LINE
  5
C9
330
1F
100
AcDbEntity
  8
0
  6
SLD-Durchgehend
 62
     8
370
    18
100
AcDbLine
 10
40.3486862647
 20
160.5986661762
 30
0.0
 11
40.3486862647
 21
160.2986666858
 31
0.0
  0
LINE
  5
CA
330
1F
100
AcDbEntity
  8
0
  6
SLD-Durchgehend
 62
     8
370
    18
100
AcDbLine
 10
35.6486812103
 20
175.2986662341
 30
0.0
 11
35.6486812103
 21
165.298666574
 31
0.0
  0
LINE
  5
CB
330
1F
100
AcDbEntity
  8
0
  6
SLD-Durchgehend
 62
     8
370
    18
100
AcDbLine
 10
35.6486812103
 20
165.298666574
 30
0.0
 11
35.3486910331
 21
165.298666574
 31
0.0
  0
LINE
  5
CC
330
1F
100
AcDbEntity
  8
0
  6
SLD-Durchgehend
 62
     8
370
    18
100
AcDbLine
 10
35.6486812103
 20
175.2986662341
 30
0.0
 11
35.3486910331
 21
175.2986662341
 31
0.0
  0
LINE
  5
CD
330
1F
100
AcDbEntity
  8
0
  6
SLD-Durchgehend
 62
     8
370
    18
100
AcDbLine
 10
234.6237860489
 20
179.9986662827
 30
0.0
 11
40.3486862647
 21
179.9986662827
 31
0.0
  0
LINE
  5
CE
330
1F
100
AcDbEntity
  8
0
  6
SLD-Durchgehend
 62
     8
370
    18
100
AcDbLine
 10
40.3486862647
 20
179.9986662827
 30
0.0
 11
40.3486862647
 21
180.2986662388
 31
0.0
  0
ARC
  5
CF
330
1F
100
AcDbEntity
  8
0
  6
SLD-Durchgehend
 62
     8
370
    18
100
AcDbCircle
 10
40.3486828468
 20
175.2986646462
 30
0.0
 40
4.700001636522165
100
AcDbArc
 50
89.9999583332
 51
179.9999806425
  0
ARC
  5
D0
330
1F
100
AcDbEntity
  8
0
  6
SLD-Durchgehend
 62
     8
370
    18
100
AcDbCircle
 10
40.3486828468
 20
165.2986678127
 30
0.0
 40
4.70000163652201
100
AcDbArc
 50
180.0000151
 51
270.0000416668
  0
DIMENSION
  5
D1
330
1F
100
AcDbEntity
  8
0
  6
SLD-Durchgehend
 62
     7
370
    18
100
AcDbDimension
280
     0
  2
_D
 10
466.3225114164
 20
151.6986662745
 30
0.0
 11
466.3225114164
 21
174.0586271371
 31
0.0
 70
   160
  1
(<>)
 71
     2
 42
-1.0
 73
     0
 74
     0
 75
     0
  3
SLDDIMSTYLE0
100
AcDbAlignedDimension
 13
435.2882118356
 23
195.6986662745
 33
0.0
 14
456.7882118356
 24
151.6986662745
 34
0.0
 50
90.0
100
AcDbRotatedDimension
  0
DIMENSION
  5
DF
330
1F
100
AcDbEntity
  8
0
  6
SLD-Durchgehend
 62
     7
370
    18
100
AcDbDimension
280
     0
  2
_D_1
 10
457.7882118356
 20
146.9871313223
 30
0.0
 11
271.1815820104
 21
146.9871313223
 31
0.0
 70
   160
  1
(487)
 71
     2
 42
-1.0
 73
     0
 74
     0
 75
     0
  3
SLDDIMSTYLE1
100
AcDbAlignedDimension
 13
35.6486870038
 23
165.2986662745
 33
0.0
 14
457.7882118356
 24
158.6986662745
 34
0.0
 50
0.0
100
AcDbRotatedDimension
  0
LINE
  5
EC
330
1F
100
AcDbEntity
  8
0
  6
SLD-Gestrichelt
 62
     7
370
    18
100
AcDbLine
 10
234.4174630668
 20
180.2986662745
 30
0.0
 11
236.4174630668
 21
177.2986662745
 31
0.0
  0
LINE
  5
ED
330
1F
100
AcDbEntity
  8
0
  6
SLD-Gestrichelt
 62
     7
370
    18
100
AcDbLine
 10
236.4174630668
 20
177.2986662745
 30
0.0
 11
232.4174630668
 21
173.2986662745
 31
0.0
  0
LINE
  5
EE
330
1F
100
AcDbEntity
  8
0
  6
SLD-Gestrichelt
 62
     7
370
    18
100
AcDbLine
 10
232.4174630668
 20
173.2986662745
 30
0.0
 11
236.4174630668
 21
167.2986662745
 31
0.0
  0
LINE
  5
EF
330
1F
100
AcDbEntity
  8
0
  6
SLD-Gestrichelt
 62
     7
370
    18
100
AcDbLine
 10
236.4174630668
 20
167.2986662745
 30
0.0
 11
232.4174630668
 21
163.2986662745
 31
0.0
  0
LINE
  5
F0
330
1F
100
AcDbEntity
  8
0
  6
SLD-Gestrichelt
 62
     7
370
    18
100
AcDbLine
 10
232.4174630668
 20
163.2986662745
 30
0.0
 11
234.4174630668
 21
160.2986662745
 31
0.0
  0
LINE
  5
F1
330
1F
100
AcDbEntity
  8
0
  6
SLD-Gestrichelt
 62
     7
370
    18
100
AcDbLine
 10
244.4174630668
 20
180.2986662745
 30
0.0
 11
246.4174630668
 21
177.2986662745
 31
0.0
  0
LINE
  5
F2
330
1F
100
AcDbEntity
  8
0
  6
SLD-Gestrichelt
 62
     7
370
    18
100
AcDbLine
 10
246.4174630668
 20
177.2986662745
 30
0.0
 11
242.4174630668
 21
173.2986662745
 31
0.0
  0
LINE
  5
F3
330
1F
100
AcDbEntity
  8
0
  6
SLD-Gestrichelt
 62
     7
370
    18
100
AcDbLine
 10
242.4174630668
 20
173.2986662745
 30
0.0
 11
246.4174630668
 21
167.2986662745
 31
0.0
  0
LINE
  5
F4
330
1F
100
AcDbEntity
  8
0
  6
SLD-Gestrichelt
 62
     7
370
    18
100
AcDbLine
 10
246.4174630668
 20
167.2986662745
 30
0.0
 11
242.4174630668
 21
163.2986662745
 31
0.0
  0
LINE
  5
F5
330
1F
100
AcDbEntity
  8
0
  6
SLD-Gestrichelt
 62
     7
370
    18
100
AcDbLine
 10
242.4174630668
 20
163.2986662745
 30
0.0
 11
244.4174630668
 21
160.2986662745
 31
0.0
  0
LINE
  5
F6
330
1F
100
AcDbEntity
  8
0
  6
SLD-Durchgehend
 62
     7
370
    35
100
AcDbLine
 10
574.6089020153
 20
158.3986662745
 30
0.0
 11
574.6089020153
 21
160.2986662745
 31
0.0
  0
LINE
  5
F7
330
1F
100
AcDbEntity
  8
0
  6
SLD-Durchgehend
 62
     7
370
    35
100
AcDbLine
 10
564.6089020153
 20
160.2986662745
 30
0.0
 11
564.6089020153
 21
158.3986662745
 31
0.0
  0
ARC
  5
F8
330
1F
100
AcDbEntity
  8
0
  6
SLD-Durchgehend
 62
     7
370
    35
100
AcDbCircle
 10
574.3089020153
 20
158.3986662745
 30
0.0
 40
0.3000000000000682
100
AcDbArc
 50
270.0
 51
0.0
  0
ARC
  5
F9
330
1F
100
AcDbEntity
  8
0
  6
SLD-Durchgehend
 62
     7
370
    35
100
AcDbCircle
 10
564.9089020153
 20
158.3986662745
 30
0.0
 40
0.3000000000000114
100
AcDbArc
 50
180.0
 51
270.0
  0
ARC
  5
FA
330
1F
100
AcDbEntity
  8
0
  6
SLD-Durchgehend
 62
     7
370
    35
100
AcDbCircle
 10
502.3089020153
 20
158.3986662745
 30
0.0
 40
0.3000000000000114
100
AcDbArc
 50
270.0
 51
0.0
  0
ARC
  5
FB
330
1F
100
AcDbEntity
  8
0
  6
SLD-Durchgehend
 62
     7
370
    35
100
AcDbCircle
 10
492.9089020153
 20
158.3986662745
 30
0.0
 40
0.3000000000000114
100
AcDbArc
 50
180.0
 51
270.0
  0
LINE
  5
FC
330
1F
100
AcDbEntity
  8
0
  6
SLD-Durchgehend
 62
     7
370
    35
100
AcDbLine
 10
502.6089020153
 20
158.3986662745
 30
0.0
 11
502.6089020153
 21
160.2986662745
 31
0.0
  0
LINE
  5
FD
330
1F
100
AcDbEntity
  8
0
  6
SLD-Durchgehend
 62
     7
370
    35
100
AcDbLine
 10
492.6089020153
 20
160.2986662745
 30
0.0
 11
492.6089020153
 21
158.3986662745
 31
0.0
  0
ARC
  5
FE
330
1F
100
AcDbEntity
  8
0
  6
SLD-Durchgehend
 62
     7
370
    35
100
AcDbCircle
 10
561.9089020153
 20
179.9986662745
 30
0.0
 40
0.2999999999999829
100
AcDbArc
 50
90.0
 51
180.0
  0
ARC
  5
FF
330
1F
100
AcDbEntity
  8
0
  6
SLD-Durchgehend
 62
     7
370
    35
100
AcDbCircle
 10
577.3089020153
 20
179.9986662745
 30
0.0
 40
0.2999999999999829
100
AcDbArc
 50
0.0
 51
90.0
  0
ARC
  5
100
330
1F
100
AcDbEntity
  8
0
  6
SLD-Durchgehend
 62
     7
370
    35
100
AcDbCircle
 10
561.9089020153
 20
160.5986662745
 30
0.0
 40
0.2999999999999829
100
AcDbArc
 50
180.0
 51
270.0
  0
ARC
  5
101
330
1F
100
AcDbEntity
  8
0
  6
SLD-Durchgehend
 62
     7
370
    35
100
AcDbCircle
 10
577.3089020153
 20
160.5986662745
 30
0.0
 40
0.2999999999999829
100
AcDbArc
 50
270.0
 51
0.0
  0
LINE
  5
102
330
1F
100
AcDbEntity
  8
0
  6
SLD-Durchgehend
 62
     7
370
    35
100
AcDbLine
 10
577.6089020153
 20
160.5986662745
 30
0.0
 11
577.6089020153
 21
179.9986662745
 31
0.0
  0
LINE
  5
103
330
1F
100
AcDbEntity
  8
0
  6
SLD-Durchgehend
 62
     7
370
    35
100
AcDbLine
 10
561.6089020153
 20
179.9986662745
 30
0.0
 11
561.6089020153
 21
160.5986662745
 31
0.0
  0
ARC
  5
104
330
1F
100
AcDbEntity
  8
0
  6
SLD-Durchgehend
 62
     7
370
    35
100
AcDbCircle
 10
489.9089020153
 20
160.5986662745
 30
0.0
 40
0.3000000000000114
100
AcDbArc
 50
180.0
 51
270.0
  0
ARC
  5
105
330
1F
100
AcDbEntity
  8
0
  6
SLD-Durchgehend
 62
     7
370
    35
100
AcDbCircle
 10
505.3089020153
 20
160.5986662745
 30
0.0
 40
0.2999999999999829
100
AcDbArc
 50
270.0
 51
0.0
  0
ARC
  5
106
330
1F
100
AcDbEntity
  8
0
  6
SLD-Durchgehend
 62
     7
370
    35
100
AcDbCircle
 10
489.9089020153
 20
179.9986662745
 30
0.0
 40
0.3000000000000114
100
AcDbArc
 50
90.0
 51
180.0
  0
ARC
  5
107
330
1F
100
AcDbEntity
  8
0
  6
SLD-Durchgehend
 62
     7
370
    35
100
AcDbCircle
 10
505.3089020153
 20
179.9986662745
 30
0.0
 40
0.2999999999999829
100
AcDbArc
 50
0.0
 51
90.0
  0
LINE
  5
108
330
1F
100
AcDbEntity
  8
0
  6
SLD-Durchgehend
 62
     7
370
    35
100
AcDbLine
 10
505.6089020153
 20
160.5986662745
 30
0.0
 11
505.6089020153
 21
179.9986662745
 31
0.0
  0
LINE
  5
109
330
1F
100
AcDbEntity
  8
0
  6
SLD-Durchgehend
 62
     7
370
    35
100
AcDbLine
 10
489.6089020153
 20
179.9986662745
 30
0.0
 11
489.6089020153
 21
160.5986662745
 31
0.0
  0
LINE
  5
10A
330
1F
100
AcDbEntity
  8
0
  6
SLD-Durchgehend
 62
     7
370
    35
100
AcDbLine
 10
491.6089020153
 20
180.6986662745
 30
0.0
 11
491.6089020153
 21
180.2986662745
 31
0.0
  0
LINE
  5
10B
330
1F
100
AcDbEntity
  8
0
  6
SLD-Durchgehend
 62
     7
370
    35
100
AcDbLine
 10
503.6089020153
 20
180.2986662745
 30
0.0
 11
503.6089020153
 21
180.6986662745
 31
0.0
  0
LINE
  5
10C
330
1F
100
AcDbEntity
  8
0
  6
SLD-Durchgehend
 62
     7
370
    35
100
AcDbLine
 10
563.6089020153
 20
180.6986662745
 30
0.0
 11
563.6089020153
 21
180.2986662745
 31
0.0
  0
LINE
  5
10D
330
1F
100
AcDbEntity
  8
0
  6
SLD-Durchgehend
 62
     7
370
    35
100
AcDbLine
 10
575.6089020153
 20
180.2986662745
 30
0.0
 11
575.6089020153
 21
180.6986662745
 31
0.0
  0
ARC
  5
10E
330
1F
100
AcDbEntity
  8
0
  6
SLD-Durchgehend
 62
     7
370
    35
100
AcDbCircle
 10
489.9089020153
 20
180.9986662745
 30
0.0
 40
0.2999999999999829
100
AcDbArc
 50
180.0
 51
270.0
  0
ARC
  5
10F
330
1F
100
AcDbEntity
  8
0
  6
SLD-Durchgehend
 62
     7
370
    35
100
AcDbCircle
 10
577.3089020153
 20
180.9986662745
 30
0.0
 40
0.3000000000000682
100
AcDbArc
 50
270.0
 51
0.0
  0
ARC
  5
110
330
1F
100
AcDbEntity
  8
0
  6
SLD-Durchgehend
 62
     7
370
    35
100
AcDbCircle
 10
489.9089020153
 20
195.3986662745
 30
0.0
 40
0.2999999999999829
100
AcDbArc
 50
90.0
 51
180.0
  0
ARC
  5
111
330
1F
100
AcDbEntity
  8
0
  6
SLD-Durchgehend
 62
     7
370
    35
100
AcDbCircle
 10
577.3089020153
 20
195.3986662745
 30
0.0
 40
0.3000000000000682
100
AcDbArc
 50
0.0
 51
90.0
  0
LINE
  5
112
330
1F
100
AcDbEntity
  8
0
  6
SLD-Durchgehend
 62
     7
370
    35
100
AcDbLine
 10
577.6089020153
 20
180.9986662745
 30
0.0
 11
577.6089020153
 21
195.3986662745
 31
0.0
  0
LINE
  5
113
330
1F
100
AcDbEntity
  8
0
  6
SLD-Durchgehend
 62
     7
370
    35
100
AcDbLine
 10
489.6089020153
 20
195.3986662745
 30
0.0
 11
489.6089020153
 21
180.9986662745
 31
0.0
  0
LINE
  5
114
330
1F
100
AcDbEntity
  8
0
  6
SLD-Durchgehend
 62
     7
370
    35
100
AcDbLine
 10
573.4339367321
 20
158.0986662745
 30
0.0
 11
564.9089020153
 21
158.0986662745
 31
0.0
  0
LINE
  5
115
330
1F
100
AcDbEntity
  8
0
  6
SLD-Durchgehend
 62
     7
370
    35
100
AcDbLine
 10
574.3089020153
 20
158.0986662745
 30
0.0
 11
573.4339367321
 21
158.0986662745
 31
0.0
  0
LINE
  5
116
330
1F
100
AcDbEntity
  8
0
  6
SLD-Durchgehend
 62
     7
370
    35
100
AcDbLine
 10
497.6089020153
 20
158.0986662745
 30
0.0
 11
492.9089020153
 21
158.0986662745
 31
0.0
  0
LINE
  5
117
330
1F
100
AcDbEntity
  8
0
  6
SLD-Durchgehend
 62
     7
370
    35
100
AcDbLine
 10
502.3089020153
 20
158.0986662745
 30
0.0
 11
497.6089020153
 21
158.0986662745
 31
0.0
  0
LINE
  5
118
330
1F
100
AcDbEntity
  8
0
  6
SLD-Durchgehend
 62
     7
370
    35
100
AcDbLine
 10
572.6089020153
 20
165.2986662745
 30
0.0
 11
572.6089020153
 21
160.5986662745
 31
0.0
  0
ARC
  5
119
330
1F
100
AcDbEntity
  8
0
  6
SLD-Durchgehend
 62
     7
370
    35
100
AcDbCircle
 10
572.3089020153
 20
160.5986662745
 30
0.0
 40
0.2999999999999829
100
AcDbArc
 50
270.0
 51
0.0
  0
LINE
  5
11A
330
1F
100
AcDbEntity
  8
0
  6
SLD-Durchgehend
 62
     7
370
    35
100
AcDbLine
 10
572.3089020153
 20
160.2986662745
 30
0.0
 11
566.9089020153
 21
160.2986662745
 31
0.0
  0
LINE
  5
11B
330
1F
100
AcDbEntity
  8
0
  6
SLD-Durchgehend
 62
     7
370
    35
100
AcDbLine
 10
566.9089020153
 20
180.2986662745
 30
0.0
 11
572.3089020153
 21
180.2986662745
 31
0.0
  0
LINE
  5
11C
330
1F
100
AcDbEntity
  8
0
  6
SLD-Durchgehend
 62
     7
370
    35
100
AcDbLine
 10
572.6089020153
 20
179.9986662745
 30
0.0
 11
572.6089020153
 21
175.2986662745
 31
0.0
  0
ARC
  5
11D
330
1F
100
AcDbEntity
  8
0
  6
SLD-Durchgehend
 62
     7
370
    35
100
AcDbCircle
 10
572.3089020153
 20
179.9986662745
 30
0.0
 40
0.2999999999999829
100
AcDbArc
 50
0.0
 51
90.0
  0
LINE
  5
11E
330
1F
100
AcDbEntity
  8
0
  6
SLD-Durchgehend
 62
     7
370
    35
100
AcDbLine
 10
572.6089020153
 20
175.2986662745
 30
0.0
 11
572.6089020153
 21
165.2986662745
 31
0.0
  0
ARC
  5
11F
330
1F
100
AcDbEntity
  8
0
  6
SLD-Durchgehend
 62
     7
370
    35
100
AcDbCircle
 10
566.9089020153
 20
160.5986662745
 30
0.0
 40
0.2999999999999829
100
AcDbArc
 50
180.0
 51
270.0
  0
LINE
  5
120
330
1F
100
AcDbEntity
  8
0
  6
SLD-Durchgehend
 62
     7
370
    35
100
AcDbLine
 10
566.6089020153
 20
160.5986662745
 30
0.0
 11
566.6089020153
 21
165.2986662745
 31
0.0
  0
LINE
  5
121
330
1F
100
AcDbEntity
  8
0
  6
SLD-Durchgehend
 62
     7
370
    35
100
AcDbLine
 10
566.6089020153
 20
165.2986662745
 30
0.0
 11
566.6089020153
 21
175.2986662745
 31
0.0
  0
LINE
  5
122
330
1F
100
AcDbEntity
  8
0
  6
SLD-Durchgehend
 62
     7
370
    35
100
AcDbLine
 10
566.6089020153
 20
175.2986662745
 30
0.0
 11
566.6089020153
 21
179.9986662745
 31
0.0
  0
ARC
  5
123
330
1F
100
AcDbEntity
  8
0
  6
SLD-Durchgehend
 62
     7
370
    35
100
AcDbCircle
 10
566.9089020153
 20
179.9986662745
 30
0.0
 40
0.2999999999999829
100
AcDbArc
 50
90.0
 51
180.0
  0
LINE
  5
124
330
1F
100
AcDbEntity
  8
0
  6
SLD-Durchgehend
 62
     7
370
    35
100
AcDbLine
 10
494.6089020153
 20
165.2986662745
 30
0.0
 11
494.6089020153
 21
175.2986662745
 31
0.0
  0
LINE
  5
125
330
1F
100
AcDbEntity
  8
0
  6
SLD-Durchgehend
 62
     7
370
    35
100
AcDbLine
 10
494.9089020153
 20
180.2986662745
 30
0.0
 11
500.3089020153
 21
180.2986662745
 31
0.0
  0
LINE
  5
126
330
1F
100
AcDbEntity
  8
0
  6
SLD-Durchgehend
 62
     7
370
    35
100
AcDbLine
 10
500.6089020153
 20
175.2986662745
 30
0.0
 11
500.6089020153
 21
165.2986662745
 31
0.0
  0
LINE
  5
127
330
1F
100
AcDbEntity
  8
0
  6
SLD-Durchgehend
 62
     7
370
    35
100
AcDbLine
 10
494.6089020153
 20
175.2986662745
 30
0.0
 11
494.6089020153
 21
179.9986662745
 31
0.0
  0
ARC
  5
128
330
1F
100
AcDbEntity
  8
0
  6
SLD-Durchgehend
 62
     7
370
    35
100
AcDbCircle
 10
494.9089020153
 20
179.9986662745
 30
0.0
 40
0.3000000000000114
100
AcDbArc
 50
90.0
 51
180.0
  0
LINE
  5
129
330
1F
100
AcDbEntity
  8
0
  6
SLD-Durchgehend
 62
     7
370
    35
100
AcDbLine
 10
500.6089020153
 20
179.9986662745
 30
0.0
 11
500.6089020153
 21
175.2986662745
 31
0.0
  0
ARC
  5
12A
330
1F
100
AcDbEntity
  8
0
  6
SLD-Durchgehend
 62
     7
370
    35
100
AcDbCircle
 10
500.3089020153
 20
179.9986662745
 30
0.0
 40
0.2999999999999829
100
AcDbArc
 50
0.0
 51
90.0
  0
LINE
  5
12B
330
1F
100
AcDbEntity
  8
0
  6
SLD-Durchgehend
 62
     7
370
    35
100
AcDbLine
 10
500.3089020153
 20
160.2986662745
 30
0.0
 11
494.9089020153
 21
160.2986662745
 31
0.0
  0
LINE
  5
12C
330
1F
100
AcDbEntity
  8
0
  6
SLD-Durchgehend
 62
     7
370
    35
100
AcDbLine
 10
500.6089020153
 20
165.2986662745
 30
0.0
 11
500.6089020153
 21
160.5986662745
 31
0.0
  0
ARC
  5
12D
330
1F
100
AcDbEntity
  8
0
  6
SLD-Durchgehend
 62
     7
370
    35
100
AcDbCircle
 10
500.3089020153
 20
160.5986662745
 30
0.0
 40
0.2999999999999829
100
AcDbArc
 50
270.0
 51
0.0
  0
ARC
  5
12E
330
1F
100
AcDbEntity
  8
0
  6
SLD-Durchgehend
 62
     7
370
    35
100
AcDbCircle
 10
494.9089020153
 20
160.5986662745
 30
0.0
 40
0.3000000000000114
100
AcDbArc
 50
180.0
 51
270.0
  0
LINE
  5
12F
330
1F
100
AcDbEntity
  8
0
  6
SLD-Durchgehend
 62
     7
370
    35
100
AcDbLine
 10
494.6089020153
 20
160.5986662745
 30
0.0
 11
494.6089020153
 21
165.2986662745
 31
0.0
  0
LINE
  5
130
330
1F
100
AcDbEntity
  8
0
  6
SLD-Durchgehend
 62
     7
370
    35
100
AcDbLine
 10
572.6089020153
 20
180.2986662745
 30
0.0
 11
577.3089020153
 21
180.2986662745
 31
0.0
  0
LINE
  5
131
330
1F
100
AcDbEntity
  8
0
  6
SLD-Durchgehend
 62
     7
370
    35
100
AcDbLine
 10
561.9089020153
 20
180.2986662745
 30
0.0
 11
566.6089020153
 21
180.2986662745
 31
0.0
  0
SPLINE
  5
132
330
1F
100
AcDbEntity
  8
0
  6
SLD-Durchgehend
 62
     7
370
    35
100
AcDbSpline
210
0.0
220
0.0
230
1.0
 70
    24
 71
     3
 72
    12
 73
     8
 74
     0
 42
0.00000001
 43
0.00000001
 40
0.0
 40
0.0
 40
0.0
 40
0.0
 40
0.2380621733365598
 40
0.4764935088930528
 40
0.7036422113013598
 40
0.9130521452387784
 40
1.0
 40
1.0
 40
1.0
 40
1.0
 10
566.6089020152866
 20
180.2986662745165
 30
0.0
 10
566.6089020152866
 20
180.2949405316289
 30
0.0
 10
566.6089020152866
 20
180.2874832683566
 30
0.0
 10
566.6089020152866
 20
180.2286539183405
 30
0.0
 10
566.6089020152866
 20
180.1436269766135
 30
0.0
 10
566.6089020152866
 20
180.0610992191259
 30
0.0
 10
566.6089020152866
 20
180.0128283686386
 30
0.0
 10
566.6089020152866
 20
179.9986662745165
 30
0.0
  0
SPLINE
  5
133
330
1F
100
AcDbEntity
  8
0
  6
SLD-Durchgehend
 62
     7
370
    35
100
AcDbSpline
210
0.0
220
0.0
230
1.0
 70
    24
 71
     3
 72
    12
 73
     8
 74
     0
 42
0.00000001
 43
0.00000001
 40
0.0
 40
0.0
 40
0.0
 40
0.0
 40
0.1948497224873753
 40
0.3894885411669576
 40
0.5899429024322935
 40
0.8043591232087548
 40
1.0
 40
1.0
 40
1.0
 40
1.0
 10
572.6089020152866
 20
179.9986662745165
 30
0.0
 10
572.6089020152866
 20
180.0305626061907
 30
0.0
 10
572.6089020152866
 20
180.0943207452003
 30
0.0
 10
572.6089020152866
 20
180.1798423180556
 30
0.0
 10
572.6089020152866
 20
180.2474508378586
 30
0.0
 10
572.6089020152866
 20
180.2908560454208
 30
0.0
 10
572.6089020152866
 20
180.2961435649601
 30
0.0
 10
572.6089020152866
 20
180.2986662745165
 30
0.0
  0
LINE
  5
134
330
1F
100
AcDbEntity
  8
0
  6
SLD-Durchgehend
 62
     7
370
    35
100
AcDbLine
 10
566.6089020153
 20
160.2986662745
 30
0.0
 11
561.9089020153
 21
160.2986662745
 31
0.0
  0
LINE
  5
135
330
1F
100
AcDbEntity
  8
0
  6
SLD-Durchgehend
 62
     7
370
    35
100
AcDbLine
 10
577.3089020153
 20
160.2986662745
 30
0.0
 11
572.6089020153
 21
160.2986662745
 31
0.0
  0
SPLINE
  5
136
330
1F
100
AcDbEntity
  8
0
  6
SLD-Durchgehend
 62
     7
370
    35
100
AcDbSpline
210
0.0
220
0.0
230
1.0
 70
    24
 71
     3
 72
    12
 73
     8
 74
     0
 42
0.00000001
 43
0.00000001
 40
0.0
 40
0.0
 40
0.0
 40
0.0
 40
0.1948497224873754
 40
0.3894885411669548
 40
0.5899429024322956
 40
0.8043591232087541
 40
1.0
 40
1.0
 40
1.0
 40
1.0
 10
566.6089020152866
 20
160.5986662745165
 30
0.0
 10
566.6089020152866
 20
160.5667699428424
 30
0.0
 10
566.6089020152866
 20
160.5030118038327
 30
0.0
 10
566.6089020152866
 20
160.4174902309774
 30
0.0
 10
566.6089020152866
 20
160.3498817111744
 30
0.0
 10
566.6089020152866
 20
160.3064765036122
 30
0.0
 10
566.6089020152866
 20
160.301188984073
 30
0.0
 10
566.6089020152866
 20
160.2986662745165
 30
0.0
  0
SPLINE
  5
137
330
1F
100
AcDbEntity
  8
0
  6
SLD-Durchgehend
 62
     7
370
    35
100
AcDbSpline
210
0.0
220
0.0
230
1.0
 70
    24
 71
     3
 72
    12
 73
     8
 74
     0
 42
0.00000001
 43
0.00000001
 40
0.0
 40
0.0
 40
0.0
 40
0.0
 40
0.2380621733365606
 40
0.4764935088930525
 40
0.7036422113013512
 40
0.9130521452387818
 40
1.0
 40
1.0
 40
1.0
 40
1.0
 10
572.6089020152866
 20
160.2986662745165
 30
0.0
 10
572.6089020152866
 20
160.3023920174041
 30
0.0
 10
572.6089020152866
 20
160.3098492806764
 30
0.0
 10
572.6089020152866
 20
160.3686786306926
 30
0.0
 10
572.6089020152866
 20
160.4537055724195
 30
0.0
 10
572.6089020152866
 20
160.5362333299071
 30
0.0
 10
572.6089020152866
 20
160.5845041803944
 30
0.0
 10
572.6089020152866
 20
160.5986662745165
 30
0.0
  0
LINE
  5
138
330
1F
100
AcDbEntity
  8
0
  6
SLD-Durchgehend
 62
     7
370
    35
100
AcDbLine
 10
572.6089020153
 20
160.2986662745
 30
0.0
 11
572.3089020153
 21
160.2986662745
 31
0.0
  0
LINE
  5
139
330
1F
100
AcDbEntity
  8
0
  6
SLD-Durchgehend
 62
     7
370
    35
100
AcDbLine
 10
566.9089020153
 20
160.2986662745
 30
0.0
 11
566.6089020153
 21
160.2986662745
 31
0.0
  0
LINE
  5
13A
330
1F
100
AcDbEntity
  8
0
  6
SLD-Durchgehend
 62
     7
370
    35
100
AcDbLine
 10
572.6089020153
 20
180.2986662745
 30
0.0
 11
572.3089020153
 21
180.2986662745
 31
0.0
  0
LINE
  5
13B
330
1F
100
AcDbEntity
  8
0
  6
SLD-Durchgehend
 62
     7
370
    35
100
AcDbLine
 10
566.9089020153
 20
180.2986662745
 30
0.0
 11
566.6089020153
 21
180.2986662745
 31
0.0
  0
SPLINE
  5
13C
330
1F
100
AcDbEntity
  8
0
  6
SLD-Durchgehend
 62
     7
370
    35
100
AcDbSpline
210
0.0
220
0.0
230
1.0
 70
    24
 71
     3
 72
    12
 73
     8
 74
     0
 42
0.00000001
 43
0.00000001
 40
0.0
 40
0.0
 40
0.0
 40
0.0
 40
0.1948497224873754
 40
0.3894885411669548
 40
0.5899429024322956
 40
0.8043591232087541
 40
1.0
 40
1.0
 40
1.0
 40
1.0
 10
494.6089020152865
 20
160.5986662745165
 30
0.0
 10
494.6089020152865
 20
160.5667699428424
 30
0.0
 10
494.6089020152865
 20
160.5030118038327
 30
0.0
 10
494.6089020152865
 20
160.4174902309774
 30
0.0
 10
494.6089020152865
 20
160.3498817111745
 30
0.0
 10
494.6089020152865
 20
160.3064765036122
 30
0.0
 10
494.6089020152865
 20
160.301188984073
 30
0.0
 10
494.6089020152865
 20
160.2986662745165
 30
0.0
  0
LINE
  5
13D
330
1F
100
AcDbEntity
  8
0
  6
SLD-Durchgehend
 62
     7
370
    35
100
AcDbLine
 10
494.6089020153
 20
160.2986662745
 30
0.0
 11
489.9089020153
 21
160.2986662745
 31
0.0
  0
LINE
  5
13E
330
1F
100
AcDbEntity
  8
0
  6
SLD-Durchgehend
 62
     7
370
    35
100
AcDbLine
 10
505.3089020153
 20
160.2986662745
 30
0.0
 11
500.6089020153
 21
160.2986662745
 31
0.0
  0
SPLINE
  5
13F
330
1F
100
AcDbEntity
  8
0
  6
SLD-Durchgehend
 62
     7
370
    35
100
AcDbSpline
210
0.0
220
0.0
230
1.0
 70
    24
 71
     3
 72
    12
 73
     8
 74
     0
 42
0.00000001
 43
0.00000001
 40
0.0
 40
0.0
 40
0.0
 40
0.0
 40
0.2380621733365606
 40
0.4764935088930525
 40
0.7036422113013512
 40
0.9130521452387818
 40
1.0
 40
1.0
 40
1.0
 40
1.0
 10
500.6089020152865
 20
160.2986662745165
 30
0.0
 10
500.6089020152865
 20
160.3023920174041
 30
0.0
 10
500.6089020152865
 20
160.3098492806764
 30
0.0
 10
500.6089020152865
 20
160.3686786306926
 30
0.0
 10
500.6089020152865
 20
160.4537055724195
 30
0.0
 10
500.6089020152865
 20
160.5362333299071
 30
0.0
 10
500.6089020152865
 20
160.5845041803944
 30
0.0
 10
500.6089020152865
 20
160.5986662745165
 30
0.0
  0
LINE
  5
140
330
1F
100
AcDbEntity
  8
0
  6
SLD-Durchgehend
 62
     7
370
    35
100
AcDbLine
 10
500.6089020153
 20
180.2986662745
 30
0.0
 11
505.3089020153
 21
180.2986662745
 31
0.0
  0
LINE
  5
141
330
1F
100
AcDbEntity
  8
0
  6
SLD-Durchgehend
 62
     7
370
    35
100
AcDbLine
 10
489.9089020153
 20
180.2986662745
 30
0.0
 11
494.6089020153
 21
180.2986662745
 31
0.0
  0
SPLINE
  5
142
330
1F
100
AcDbEntity
  8
0
  6
SLD-Durchgehend
 62
     7
370
    35
100
AcDbSpline
210
0.0
220
0.0
230
1.0
 70
    24
 71
     3
 72
    12
 73
     8
 74
     0
 42
0.00000001
 43
0.00000001
 40
0.0
 40
0.0
 40
0.0
 40
0.0
 40
0.2380621733365598
 40
0.4764935088930528
 40
0.7036422113013598
 40
0.9130521452387784
 40
1.0
 40
1.0
 40
1.0
 40
1.0
 10
494.6089020152865
 20
180.2986662745165
 30
0.0
 10
494.6089020152865
 20
180.2949405316289
 30
0.0
 10
494.6089020152865
 20
180.2874832683566
 30
0.0
 10
494.6089020152865
 20
180.2286539183405
 30
0.0
 10
494.6089020152865
 20
180.1436269766135
 30
0.0
 10
494.6089020152865
 20
180.061099219126
 30
0.0
 10
494.6089020152865
 20
180.0128283686386
 30
0.0
 10
494.6089020152865
 20
179.9986662745165
 30
0.0
  0
SPLINE
  5
143
330
1F
100
AcDbEntity
  8
0
  6
SLD-Durchgehend
 62
     7
370
    35
100
AcDbSpline
210
0.0
220
0.0
230
1.0
 70
    24
 71
     3
 72
    12
 73
     8
 74
     0
 42
0.00000001
 43
0.00000001
 40
0.0
 40
0.0
 40
0.0
 40
0.0
 40
0.1948497224873753
 40
0.3894885411669576
 40
0.5899429024322935
 40
0.8043591232087548
 40
1.0
 40
1.0
 40
1.0
 40
1.0
 10
500.6089020152865
 20
179.9986662745165
 30
0.0
 10
500.6089020152865
 20
180.0305626061907
 30
0.0
 10
500.6089020152865
 20
180.0943207452004
 30
0.0
 10
500.6089020152865
 20
180.1798423180557
 30
0.0
 10
500.6089020152865
 20
180.2474508378586
 30
0.0
 10
500.6089020152865
 20
180.2908560454208
 30
0.0
 10
500.6089020152865
 20
180.2961435649601
 30
0.0
 10
500.6089020152865
 20
180.2986662745165
 30
0.0
  0
LINE
  5
144
330
1F
100
AcDbEntity
  8
0
  6
SLD-Durchgehend
 62
     7
370
    35
100
AcDbLine
 10
500.6089020153
 20
180.2986662745
 30
0.0
 11
500.3089020153
 21
180.2986662745
 31
0.0
  0
LINE
  5
145
330
1F
100
AcDbEntity
  8
0
  6
SLD-Durchgehend
 62
     7
370
    35
100
AcDbLine
 10
494.9089020153
 20
180.2986662745
 30
0.0
 11
494.6089020153
 21
180.2986662745
 31
0.0
  0
LINE
  5
146
330
1F
100
AcDbEntity
  8
0
  6
SLD-Durchgehend
 62
     7
370
    35
100
AcDbLine
 10
500.6089020153
 20
160.2986662745
 30
0.0
 11
500.3089020153
 21
160.2986662745
 31
0.0
  0
LINE
  5
147
330
1F
100
AcDbEntity
  8
0
  6
SLD-Durchgehend
 62
     7
370
    35
100
AcDbLine
 10
494.9089020153
 20
160.2986662745
 30
0.0
 11
494.6089020153
 21
160.2986662745
 31
0.0
  0
LINE
  5
148
330
1F
100
AcDbEntity
  8
0
  6
SLD-Durchgehend
 62
     7
370
    35
100
AcDbLine
 10
504.9542338662
 20
180.6986662745
 30
0.0
 11
489.9089020153
 21
180.6986662745
 31
0.0
  0
LINE
  5
149
330
1F
100
AcDbEntity
  8
0
  6
SLD-Durchgehend
 62
     7
370
    35
100
AcDbLine
 10
577.3089020153
 20
180.6986662745
 30
0.0
 11
562.2635701644
 21
180.6986662745
 31
0.0
  0
LINE
  5
14A
330
1F
100
AcDbEntity
  8
0
  6
SLD-Durchgehend
 62
     7
370
    35
100
AcDbLine
 10
489.9089020153
 20
195.6986662745
 30
0.0
 11
504.9542338662
 21
195.6986662745
 31
0.0
  0
LINE
  5
14B
330
1F
100
AcDbEntity
  8
0
  6
SLD-Durchgehend
 62
     7
370
    35
100
AcDbLine
 10
562.2635701644
 20
195.6986662745
 30
0.0
 11
577.3089020153
 21
195.6986662745
 31
0.0
  0
LINE
  5
14C
330
1F
100
AcDbEntity
  8
0
  6
SLD-Durchgehend
 62
     7
370
    35
100
AcDbLine
 10
504.9542338662
 20
195.6986662745
 30
0.0
 11
507.1482940295
 21
195.6986662745
 31
0.0
  0
LINE
  5
14D
330
1F
100
AcDbEntity
  8
0
  6
SLD-Durchgehend
 62
     7
370
    35
100
AcDbLine
 10
507.1482940295
 20
180.6986662745
 30
0.0
 11
504.9542338662
 21
180.6986662745
 31
0.0
  0
LINE
  5
14E
330
1F
100
AcDbEntity
  8
0
  6
SLD-Durchgehend
 62
     7
370
    35
100
AcDbLine
 10
562.2635701644
 20
180.6986662745
 30
0.0
 11
560.0695100011
 21
180.6986662745
 31
0.0
  0
LINE
  5
14F
330
1F
100
AcDbEntity
  8
0
  6
SLD-Durchgehend
 62
     7
370
    35
100
AcDbLine
 10
560.0695100011
 20
195.6986662745
 30
0.0
 11
562.2635701644
 21
195.6986662745
 31
0.0
  0
SPLINE
  5
150
330
1F
100
AcDbEntity
  8
0
  6
SLD-Durchgehend
 62
     7
370
    35
100
AcDbSpline
210
0.0
220
0.0
230
1.0
 70
     8
 71
     3
 72
    11
 73
     7
 74
     0
 42
0.00000001
 43
0.00000001
 40
0.0
 40
0.0
 40
0.0
 40
0.0
 40
0.253679931831292
 40
0.5545978950508622
 40
0.9926027423502036
 40
1.0
 40
1.0
 40
1.0
 40
1.0
 10
507.8568692934024
 20
180.7028622853615
 30
0.0
 10
507.8858365049587
 20
180.7156843620327
 30
0.0
 10
507.9491649457961
 20
180.7437161289947
 30
0.0
 10
508.0984318855532
 20
180.8509646012748
 30
0.0
 10
508.2177444864219
 20
180.9427870191368
 30
0.0
 10
508.288703504812
 20
180.9977533906137
 30
0.0
 10
508.2898819952947
 20
180.9986662745165
 30
0.0
  0
ELLIPSE
  5
151
330
1F
100
AcDbEntity
  8
0
  6
SLD-Durchgehend
 62
     7
370
    35
100
AcDbEllipse
 10
507.8280017799
 20
180.9986662745
 30
0.0
 11
0.0
 21
0.2999999999999829
 31
0.0
210
0.0
220
0.0
230
1.0
 40
0.5773502692
 41
3.141592653589793
 42
3.309040732809815
  0
LINE
  5
152
330
1F
100
AcDbEntity
  8
0
  6
SLD-Durchgehend
 62
     7
370
    35
100
AcDbLine
 10
507.8280017799
 20
180.6986662745
 30
0.0
 11
507.1482940295
 21
180.6986662745
 31
0.0
  0
LINE
  5
153
330
1F
100
AcDbEntity
  8
0
  6
SLD-Durchgehend
 62
     7
370
    35
100
AcDbLine
 10
558.9279220353
 20
173.6986662745
 30
0.0
 11
508.2898819953
 21
173.6986662745
 31
0.0
  0
SPLINE
  5
154
330
1F
100
AcDbEntity
  8
0
  6
SLD-Durchgehend
 62
     7
370
    35
100
AcDbSpline
210
0.0
220
0.0
230
1.0
 70
     8
 71
     3
 72
    11
 73
     7
 74
     0
 42
0.00000001
 43
0.00000001
 40
0.0
 40
0.0
 40
0.0
 40
0.0
 40
0.007397257649792
 40
0.4454021049491411
 40
0.7463200681687132
 40
1.0
 40
1.0
 40
1.0
 40
1.0
 10
558.9279220352784
 20
180.9986662745165
 30
0.0
 10
558.9291005257611
 20
180.9977533906137
 30
0.0
 10
559.0000595441508
 20
180.9427870191363
 30
0.0
 10
559.1193721450201
 20
180.8509646012749
 30
0.0
 10
559.268639084777
 20
180.7437161289947
 30
0.0
 10
559.3319675256143
 20
180.7156843620327
 30
0.0
 10
559.3609347371706
 20
180.7028622853615
 30
0.0
  0
LINE
  5
155
330
1F
100
AcDbEntity
  8
0
  6
SLD-Durchgehend
 62
     7
370
    35
100
AcDbLine
 10
508.1166769145
 20
173.6986662745
 30
0.0
 11
508.2898819953
 21
173.6986662745
 31
0.0
  0
LINE
  5
156
330
1F
100
AcDbEntity
  8
0
  6
SLD-Durchgehend
 62
     7
370
    35
100
AcDbLine
 10
507.1482940295
 20
195.6986662745
 30
0.0
 11
560.0695100011
 21
195.6986662745
 31
0.0
  0
ELLIPSE
  5
157
330
1F
100
AcDbEntity
  8
0
  6
SLD-Durchgehend
 62
     7
370
    35
100
AcDbEllipse
 10
559.3898022506
 20
180.9986662745
 30
0.0
 11
0.0
 21
0.2999999999999829
 31
0.0
210
0.0
220
0.0
230
1.0
 40
0.5773502692
 41
2.974144574369795
 42
3.141592653589793
  0
LINE
  5
158
330
1F
100
AcDbEntity
  8
0
  6
SLD-Durchgehend
 62
     7
370
    35
100
AcDbLine
 10
560.0695100011
 20
180.6986662745
 30
0.0
 11
559.3898022506
 21
180.6986662745
 31
0.0
  0
LINE
  5
159
330
1F
100
AcDbEntity
  8
0
  6
SLD-Durchgehend
 62
     7
370
    35
100
AcDbLine
 10
558.9279220353
 20
173.6986662745
 30
0.0
 11
559.101127116
 21
173.6986662745
 31
0.0
  0
LINE
  5
15A
330
1F
100
AcDbEntity
  8
0
  6
SLD-Durchgehend
 62
     7
370
    35
100
AcDbLine
 10
561.6089020153
 20
173.6986662745
 30
0.0
 11
559.101127116
 21
173.6986662745
 31
0.0
  0
LINE
  5
15B
330
1F
100
AcDbEntity
  8
0
  6
SLD-Durchgehend
 62
     7
370
    35
100
AcDbLine
 10
508.1166769145
 20
173.6986662745
 30
0.0
 11
505.6089020153
 21
173.6986662745
 31
0.0
  0
ARC
  5
15C
330
1F
100
AcDbEntity
  8
0
  6
SLD-Durchgehend
 62
     7
370
    35
100
AcDbCircle
 10
507.9089020153
 20
170.4986662745
 30
0.0
 40
0.3000000000001251
100
AcDbArc
 50
180.0
 51
270.0
  0
LINE
  5
15D
330
1F
100
AcDbEntity
  8
0
  6
SLD-Durchgehend
 62
     7
370
    35
100
AcDbLine
 10
507.6089020153
 20
170.4986662745
 30
0.0
 11
507.6089020153
 21
172.9481109246
 31
0.0
  0
ELLIPSE
  5
15E
330
1F
100
AcDbEntity
  8
0
  6
SLD-Durchgehend
 62
     7
370
    35
100
AcDbEllipse
 10
507.9089020153
 20
172.9481109246
 30
0.0
 11
0.2999999999999545
 21
0.0
 31
0.0
210
0.0
220
0.0
230
1.0
 40
0.5773502692
 41
1.570796326794897
 42
3.141592653589793
  0
LINE
  5
15F
330
1F
100
AcDbEntity
  8
0
  6
SLD-Durchgehend
 62
     7
370
    35
100
AcDbLine
 10
507.6089020153
 20
172.9481109246
 30
0.0
 11
507.6089020153
 21
173.3986662745
 31
0.0
  0
ARC
  5
160
330
1F
100
AcDbEntity
  8
0
  6
SLD-Durchgehend
 62
     7
370
    35
100
AcDbCircle
 10
507.9089020153
 20
173.3986662745
 30
0.0
 40
0.3000000000001251
100
AcDbArc
 50
90.0
 51
180.0
  0
ARC
  5
161
330
1F
100
AcDbEntity
  8
0
  6
SLD-Durchgehend
 62
     7
370
    35
100
AcDbCircle
 10
559.3089020153
 20
173.3986662745
 30
0.0
 40
0.3000000000001819
100
AcDbArc
 50
0.0
 51
90.0
  0
LINE
  5
162
330
1F
100
AcDbEntity
  8
0
  6
SLD-Durchgehend
 62
     7
370
    35
100
AcDbLine
 10
559.6089020153
 20
173.3986662745
 30
0.0
 11
559.6089020153
 21
172.9481109246
 31
0.0
  0
ELLIPSE
  5
163
330
1F
100
AcDbEntity
  8
0
  6
SLD-Durchgehend
 62
     7
370
    35
100
AcDbEllipse
 10
559.3089020153
 20
172.9481109246
 30
0.0
 11
0.3000000000001819
 21
0.0
 31
0.0
210
0.0
220
0.0
230
1.0
 40
0.5773502692
 41
0.0
 42
1.570796326794897
  0
LINE
  5
164
330
1F
100
AcDbEntity
  8
0
  6
SLD-Durchgehend
 62
     7
370
    35
100
AcDbLine
 10
559.6089020153
 20
172.9481109246
 30
0.0
 11
559.6089020153
 21
170.4986662745
 31
0.0
  0
ARC
  5
165
330
1F
100
AcDbEntity
  8
0
  6
SLD-Durchgehend
 62
     7
370
    35
100
AcDbCircle
 10
559.3089020153
 20
170.4986662745
 30
0.0
 40
0.3000000000001819
100
AcDbArc
 50
270.0
 51
0.0
  0
LINE
  5
166
330
1F
100
AcDbEntity
  8
0
  6
SLD-Durchgehend
 62
     7
370
    35
100
AcDbLine
 10
507.9089020153
 20
170.1986662745
 30
0.0
 11
559.3089020153
 21
170.1986662745
 31
0.0
  0
LINE
  5
167
330
1F
100
AcDbEntity
  8
0
  6
SLD-Durchgehend
 62
     7
370
    35
100
AcDbLine
 10
559.3089020153
 20
173.1213160053
 30
0.0
 11
507.9089020153
 21
173.1213160053
 31
0.0
  0
LINE
  5
168
330
1F
100
AcDbEntity
  8
0
  6
SLD-Durchgehend
 62
     7
370
    35
100
AcDbLine
 10
559.6089020153
 20
170.4986662745
 30
0.0
 11
559.6089020153
 21
167.1986662745
 31
0.0
  0
LINE
  5
169
330
1F
100
AcDbEntity
  8
0
  6
SLD-Durchgehend
 62
     7
370
    35
100
AcDbLine
 10
507.6089020153
 20
167.1986662745
 30
0.0
 11
507.6089020153
 21
170.4986662745
 31
0.0
  0
LINE
  5
16A
330
1F
100
AcDbEntity
  8
0
  6
SLD-Durchgehend
 62
     7
370
    35
100
AcDbLine
 10
507.6089020153
 20
173.3986662745
 30
0.0
 11
507.6089020153
 21
173.6986662745
 31
0.0
  0
LINE
  5
16B
330
1F
100
AcDbEntity
  8
0
  6
SLD-Durchgehend
 62
     7
370
    35
100
AcDbLine
 10
559.6089020153
 20
167.1986662745
 30
0.0
 11
559.6089020153
 21
151.9986662745
 31
0.0
  0
LINE
  5
16C
330
1F
100
AcDbEntity
  8
0
  6
SLD-Durchgehend
 62
     7
370
    35
100
AcDbLine
 10
507.6089020153
 20
151.9986662745
 30
0.0
 11
507.6089020153
 21
167.1986662745
 31
0.0
  0
ARC
  5
16D
330
1F
100
AcDbEntity
  8
0
  6
SLD-Durchgehend
 62
     7
370
    35
100
AcDbCircle
 10
559.3089020153
 20
151.9986662745
 30
0.0
 40
0.3000000000001819
100
AcDbArc
 50
270.0
 51
0.0
  0
LINE
  5
16E
330
1F
100
AcDbEntity
  8
0
  6
SLD-Durchgehend
 62
     7
370
    35
100
AcDbLine
 10
559.6089020153
 20
173.6986662745
 30
0.0
 11
559.6089020153
 21
173.3986662745
 31
0.0
  0
ARC
  5
16F
330
1F
100
AcDbEntity
  8
0
  6
SLD-Durchgehend
 62
     7
370
    35
100
AcDbCircle
 10
507.9089020153
 20
151.9986662745
 30
0.0
 40
0.3000000000001251
100
AcDbArc
 50
180.0
 51
270.0
  0
LINE
  5
170
330
1F
100
AcDbEntity
  8
0
  6
SLD-Durchgehend
 62
     7
370
    35
100
AcDbLine
 10
559.3089020153
 20
151.6986662745
 30
0.0
 11
507.9089020153
 21
151.6986662745
 31
0.0
  0
LINE
  5
171
330
1F
100
AcDbEntity
  8
0
  6
SLD-Durchgehend
 62
     8
370
    18
100
AcDbLine
 10
573.6780878842
 20
158.3986662745
 30
0.0
 11
574.6089020153
 21
158.3986662745
 31
0.0
  0
LINE
  5
172
330
1F
100
AcDbEntity
  8
0
  6
SLD-Durchgehend
 62
     8
370
    18
100
AcDbLine
 10
564.6089020153
 20
158.3986662745
 30
0.0
 11
573.6780878842
 21
158.3986662745
 31
0.0
  0
LINE
  5
173
330
1F
100
AcDbEntity
  8
0
  6
SLD-Durchgehend
 62
     8
370
    18
100
AcDbLine
 10
497.6089020153
 20
158.3986662745
 30
0.0
 11
502.6089020153
 21
158.3986662745
 31
0.0
  0
LINE
  5
174
330
1F
100
AcDbEntity
  8
0
  6
SLD-Durchgehend
 62
     8
370
    18
100
AcDbLine
 10
492.6089020153
 20
158.3986662745
 30
0.0
 11
497.6089020153
 21
158.3986662745
 31
0.0
  0
LINE
  5
175
330
1F
100
AcDbEntity
  8
0
  6
SLD-Durchgehend
 62
     8
370
    18
100
AcDbLine
 10
572.3089020153
 20
160.2986662745
 30
0.0
 11
572.3089020153
 21
165.2986662745
 31
0.0
  0
LINE
  5
176
330
1F
100
AcDbEntity
  8
0
  6
SLD-Durchgehend
 62
     8
370
    18
100
AcDbLine
 10
572.6089020153
 20
165.2986662745
 30
0.0
 11
572.3089020153
 21
165.2986662745
 31
0.0
  0
LINE
  5
177
330
1F
100
AcDbEntity
  8
0
  6
SLD-Durchgehend
 62
     8
370
    18
100
AcDbLine
 10
566.9089020153
 20
175.2986662745
 30
0.0
 11
566.9089020153
 21
165.2986662745
 31
0.0
  0
LINE
  5
178
330
1F
100
AcDbEntity
  8
0
  6
SLD-Durchgehend
 62
     8
370
    18
100
AcDbLine
 10
572.3089020153
 20
175.2986662745
 30
0.0
 11
566.9089020153
 21
175.2986662745
 31
0.0
  0
LINE
  5
179
330
1F
100
AcDbEntity
  8
0
  6
SLD-Durchgehend
 62
     8
370
    18
100
AcDbLine
 10
572.3089020153
 20
165.2986662745
 30
0.0
 11
572.3089020153
 21
175.2986662745
 31
0.0
  0
LINE
  5
17A
330
1F
100
AcDbEntity
  8
0
  6
SLD-Durchgehend
 62
     8
370
    18
100
AcDbLine
 10
566.9089020153
 20
165.2986662745
 30
0.0
 11
572.3089020153
 21
165.2986662745
 31
0.0
  0
LINE
  5
17B
330
1F
100
AcDbEntity
  8
0
  6
SLD-Durchgehend
 62
     8
370
    18
100
AcDbLine
 10
566.9089020153
 20
165.2986662745
 30
0.0
 11
566.9089020153
 21
160.2986662745
 31
0.0
  0
LINE
  5
17C
330
1F
100
AcDbEntity
  8
0
  6
SLD-Durchgehend
 62
     8
370
    18
100
AcDbLine
 10
566.9089020153
 20
180.2986662745
 30
0.0
 11
566.9089020153
 21
175.2986662745
 31
0.0
  0
LINE
  5
17D
330
1F
100
AcDbEntity
  8
0
  6
SLD-Durchgehend
 62
     8
370
    18
100
AcDbLine
 10
572.3089020153
 20
175.2986662745
 30
0.0
 11
572.3089020153
 21
180.2986662745
 31
0.0
  0
LINE
  5
17E
330
1F
100
AcDbEntity
  8
0
  6
SLD-Durchgehend
 62
     8
370
    18
100
AcDbLine
 10
572.6089020153
 20
175.2986662745
 30
0.0
 11
572.3089020153
 21
175.2986662745
 31
0.0
  0
LINE
  5
17F
330
1F
100
AcDbEntity
  8
0
  6
SLD-Durchgehend
 62
     8
370
    18
100
AcDbLine
 10
566.9089020153
 20
165.2986662745
 30
0.0
 11
566.6089020153
 21
165.2986662745
 31
0.0
  0
LINE
  5
180
330
1F
100
AcDbEntity
  8
0
  6
SLD-Durchgehend
 62
     8
370
    18
100
AcDbLine
 10
566.9089020153
 20
175.2986662745
 30
0.0
 11
566.6089020153
 21
175.2986662745
 31
0.0
  0
LINE
  5
181
330
1F
100
AcDbEntity
  8
0
  6
SLD-Durchgehend
 62
     8
370
    18
100
AcDbLine
 10
494.9089020153
 20
175.2986662745
 30
0.0
 11
494.9089020153
 21
165.2986662745
 31
0.0
  0
LINE
  5
182
330
1F
100
AcDbEntity
  8
0
  6
SLD-Durchgehend
 62
     8
370
    18
100
AcDbLine
 10
500.3089020153
 20
175.2986662745
 30
0.0
 11
494.9089020153
 21
175.2986662745
 31
0.0
  0
LINE
  5
183
330
1F
100
AcDbEntity
  8
0
  6
SLD-Durchgehend
 62
     8
370
    18
100
AcDbLine
 10
500.3089020153
 20
165.2986662745
 30
0.0
 11
500.3089020153
 21
175.2986662745
 31
0.0
  0
LINE
  5
184
330
1F
100
AcDbEntity
  8
0
  6
SLD-Durchgehend
 62
     8
370
    18
100
AcDbLine
 10
494.9089020153
 20
165.2986662745
 30
0.0
 11
500.3089020153
 21
165.2986662745
 31
0.0
  0
LINE
  5
185
330
1F
100
AcDbEntity
  8
0
  6
SLD-Durchgehend
 62
     8
370
    18
100
AcDbLine
 10
494.9089020153
 20
165.2986662745
 30
0.0
 11
494.6089020153
 21
165.2986662745
 31
0.0
  0
LINE
  5
186
330
1F
100
AcDbEntity
  8
0
  6
SLD-Durchgehend
 62
     8
370
    18
100
AcDbLine
 10
494.9089020153
 20
175.2986662745
 30
0.0
 11
494.6089020153
 21
175.2986662745
 31
0.0
  0
LINE
  5
187
330
1F
100
AcDbEntity
  8
0
  6
SLD-Durchgehend
 62
     8
370
    18
100
AcDbLine
 10
494.9089020153
 20
180.2986662745
 30
0.0
 11
494.9089020153
 21
175.2986662745
 31
0.0
  0
LINE
  5
188
330
1F
100
AcDbEntity
  8
0
  6
SLD-Durchgehend
 62
     8
370
    18
100
AcDbLine
 10
500.3089020153
 20
175.2986662745
 30
0.0
 11
500.3089020153
 21
180.2986662745
 31
0.0
  0
LINE
  5
189
330
1F
100
AcDbEntity
  8
0
  6
SLD-Durchgehend
 62
     8
370
    18
100
AcDbLine
 10
500.6089020153
 20
165.2986662745
 30
0.0
 11
500.3089020153
 21
165.2986662745
 31
0.0
  0
LINE
  5
18A
330
1F
100
AcDbEntity
  8
0
  6
SLD-Durchgehend
 62
     8
370
    18
100
AcDbLine
 10
500.6089020153
 20
175.2986662745
 30
0.0
 11
500.3089020153
 21
175.2986662745
 31
0.0
  0
LINE
  5
18B
330
1F
100
AcDbEntity
  8
0
  6
SLD-Durchgehend
 62
     8
370
    18
100
AcDbLine
 10
494.9089020153
 20
165.2986662745
 30
0.0
 11
494.9089020153
 21
160.2986662745
 31
0.0
  0
LINE
  5
18C
330
1F
100
AcDbEntity
  8
0
  6
SLD-Durchgehend
 62
     8
370
    18
100
AcDbLine
 10
500.3089020153
 20
160.2986662745
 30
0.0
 11
500.3089020153
 21
165.2986662745
 31
0.0
  0
LINE
  5
18D
330
1F
100
AcDbEntity
  8
0
  6
SLD-Durchgehend
 62
     8
370
    18
100
AcDbLine
 10
566.6089020153
 20
179.9986662745
 30
0.0
 11
561.6089020153
 21
179.9986662745
 31
0.0
  0
LINE
  5
18E
330
1F
100
AcDbEntity
  8
0
  6
SLD-Durchgehend
 62
     8
370
    18
100
AcDbLine
 10
577.6089020153
 20
179.9986662745
 30
0.0
 11
572.6089020153
 21
179.9986662745
 31
0.0
  0
LINE
  5
18F
330
1F
100
AcDbEntity
  8
0
  6
SLD-Durchgehend
 62
     8
370
    18
100
AcDbLine
 10
572.6089020153
 20
160.5986662745
 30
0.0
 11
577.6089020153
 21
160.5986662745
 31
0.0
  0
LINE
  5
190
330
1F
100
AcDbEntity
  8
0
  6
SLD-Durchgehend
 62
     8
370
    18
100
AcDbLine
 10
561.6089020153
 20
160.5986662745
 30
0.0
 11
566.6089020153
 21
160.5986662745
 31
0.0
  0
LINE
  5
191
330
1F
100
AcDbEntity
  8
0
  6
SLD-Durchgehend
 62
     8
370
    18
100
AcDbLine
 10
500.6089020153
 20
160.5986662745
 30
0.0
 11
505.6089020153
 21
160.5986662745
 31
0.0
  0
LINE
  5
192
330
1F
100
AcDbEntity
  8
0
  6
SLD-Durchgehend
 62
     8
370
    18
100
AcDbLine
 10
489.6089020153
 20
160.5986662745
 30
0.0
 11
494.6089020153
 21
160.5986662745
 31
0.0
  0
LINE
  5
193
330
1F
100
AcDbEntity
  8
0
  6
SLD-Durchgehend
 62
     8
370
    18
100
AcDbLine
 10
494.6089020153
 20
179.9986662745
 30
0.0
 11
489.6089020153
 21
179.9986662745
 31
0.0
  0
LINE
  5
194
330
1F
100
AcDbEntity
  8
0
  6
SLD-Durchgehend
 62
     8
370
    18
100
AcDbLine
 10
505.6089020153
 20
179.9986662745
 30
0.0
 11
500.6089020153
 21
179.9986662745
 31
0.0
  0
LINE
  5
195
330
1F
100
AcDbEntity
  8
0
  6
SLD-Durchgehend
 62
     8
370
    18
100
AcDbLine
 10
489.6089020153
 20
180.9986662745
 30
0.0
 11
505.2404156266
 21
180.9986662745
 31
0.0
  0
ARC
  5
196
330
1F
100
AcDbEntity
  8
0
  6
SLD-Durchgehend
 62
     8
370
    18
100
AcDbCircle
 10
504.9471579435
 20
180.9919162745
 30
0.0
 40
0.2933353561733676
100
AcDbArc
 50
271.382239896
 51
1.3185613091
  0
LINE
  5
197
330
1F
100
AcDbEntity
  8
0
  6
SLD-Durchgehend
 62
     8
370
    18
100
AcDbLine
 10
561.977388404
 20
180.9986662745
 30
0.0
 11
577.6089020153
 21
180.9986662745
 31
0.0
  0
ARC
  5
198
330
1F
100
AcDbEntity
  8
0
  6
SLD-Durchgehend
 62
     8
370
    18
100
AcDbCircle
 10
562.270646087
 20
180.9919162745
 30
0.0
 40
0.293335356173425
100
AcDbArc
 50
178.6814386909
 51
268.617760104
  0
LINE
  5
199
330
1F
100
AcDbEntity
  8
0
  6
SLD-Durchgehend
 62
     8
370
    18
100
AcDbLine
 10
505.2404156266
 20
195.3986662745
 30
0.0
 11
489.6089020153
 21
195.3986662745
 31
0.0
  0
ARC
  5
19A
330
1F
100
AcDbEntity
  8
0
  6
SLD-Durchgehend
 62
     8
370
    18
100
AcDbCircle
 10
504.9471579435
 20
195.4054162745
 30
0.0
 40
0.2933353561734454
100
AcDbArc
 50
358.681438691
 51
88.617760104
  0
LINE
  5
19B
330
1F
100
AcDbEntity
  8
0
  6
SLD-Durchgehend
 62
     8
370
    18
100
AcDbLine
 10
577.6089020153
 20
195.3986662745
 30
0.0
 11
561.977388404
 21
195.3986662745
 31
0.0
  0
ARC
  5
19C
330
1F
100
AcDbEntity
  8
0
  6
SLD-Durchgehend
 62
     8
370
    18
100
AcDbCircle
 10
562.270646087
 20
195.4054162745
 30
0.0
 40
0.293335356173425
100
AcDbArc
 50
91.382239896
 51
181.3185613091
  0
LINE
  5
19D
330
1F
100
AcDbEntity
  8
0
  6
SLD-Durchgehend
 62
     8
370
    18
100
AcDbLine
 10
561.977388404
 20
195.3986662745
 30
0.0
 11
561.977388404
 21
180.9986662745
 31
0.0
  0
LINE
  5
19E
330
1F
100
AcDbEntity
  8
0
  6
SLD-Durchgehend
 62
     8
370
    18
100
AcDbLine
 10
505.2404156266
 20
195.3986662745
 30
0.0
 11
505.2404156266
 21
180.9986662745
 31
0.0
  0
LINE
  5
19F
330
1F
100
AcDbEntity
  8
0
  6
SLD-Durchgehend
 62
     8
370
    18
100
AcDbLine
 10
507.1482940295
 20
195.3986662745
 30
0.0
 11
505.2404156266
 21
195.3986662745
 31
0.0
  0
LINE
  5
1A0
330
1F
100
AcDbEntity
  8
0
  6
SLD-Durchgehend
 62
     8
370
    18
100
AcDbLine
 10
507.1482940295
 20
195.3986662745
 30
0.0
 11
507.1482940295
 21
195.6986662745
 31
0.0
  0
LINE
  5
1A1
330
1F
100
AcDbEntity
  8
0
  6
SLD-Durchgehend
 62
     8
370
    18
100
AcDbLine
 10
505.2404156266
 20
180.9986662745
 30
0.0
 11
507.1482940295
 21
180.9986662745
 31
0.0
  0
LINE
  5
1A2
330
1F
100
AcDbEntity
  8
0
  6
SLD-Durchgehend
 62
     8
370
    18
100
AcDbLine
 10
507.1482940295
 20
180.9986662745
 30
0.0
 11
507.1482940295
 21
180.6986662745
 31
0.0
  0
LINE
  5
1A3
330
1F
100
AcDbEntity
  8
0
  6
SLD-Durchgehend
 62
     8
370
    18
100
AcDbLine
 10
560.0695100011
 20
180.9986662745
 30
0.0
 11
561.977388404
 21
180.9986662745
 31
0.0
  0
LINE
  5
1A4
330
1F
100
AcDbEntity
  8
0
  6
SLD-Durchgehend
 62
     8
370
    18
100
AcDbLine
 10
560.0695100011
 20
180.9986662745
 30
0.0
 11
560.0695100011
 21
180.6986662745
 31
0.0
  0
LINE
  5
1A5
330
1F
100
AcDbEntity
  8
0
  6
SLD-Durchgehend
 62
     8
370
    18
100
AcDbLine
 10
561.977388404
 20
195.3986662745
 30
0.0
 11
560.0695100011
 21
195.3986662745
 31
0.0
  0
LINE
  5
1A6
330
1F
100
AcDbEntity
  8
0
  6
SLD-Durchgehend
 62
     8
370
    18
100
AcDbLine
 10
560.0695100011
 20
195.3986662745
 30
0.0
 11
560.0695100011
 21
180.9986662745
 31
0.0
  0
LINE
  5
1A7
330
1F
100
AcDbEntity
  8
0
  6
SLD-Durchgehend
 62
     8
370
    18
100
AcDbLine
 10
507.1482940295
 20
195.3986662745
 30
0.0
 11
507.1482940295
 21
180.9986662745
 31
0.0
  0
LINE
  5
1A8
330
1F
100
AcDbEntity
  8
0
  6
SLD-Durchgehend
 62
     8
370
    18
100
AcDbLine
 10
560.0695100011
 20
195.6986662745
 30
0.0
 11
560.0695100011
 21
195.3986662745
 31
0.0
  0
LINE
  5
1A9
330
1F
100
AcDbEntity
  8
0
  6
SLD-Durchgehend
 62
     8
370
    18
100
AcDbLine
 10
507.1482940295
 20
180.9986662745
 30
0.0
 11
508.2898819953
 21
180.9986662745
 31
0.0
  0
LINE
  5
1AA
330
1F
100
AcDbEntity
  8
0
  6
SLD-Durchgehend
 62
     8
370
    18
100
AcDbLine
 10
558.9279220353
 20
173.6986662745
 30
0.0
 11
558.9279220353
 21
173.9986662745
 31
0.0
  0
LINE
  5
1AB
330
1F
100
AcDbEntity
  8
0
  6
SLD-Durchgehend
 62
     8
370
    18
100
AcDbLine
 10
508.2898819953
 20
173.9986662745
 30
0.0
 11
508.2898819953
 21
173.6986662745
 31
0.0
  0
LINE
  5
1AC
330
1F
100
AcDbEntity
  8
0
  6
SLD-Durchgehend
 62
     8
370
    18
100
AcDbLine
 10
508.2898819953
 20
173.9986662745
 30
0.0
 11
558.9279220353
 21
173.9986662745
 31
0.0
  0
LINE
  5
1AD
330
1F
100
AcDbEntity
  8
0
  6
SLD-Durchgehend
 62
     8
370
    18
100
AcDbLine
 10
559.3609347372
 20
180.7028622854
 30
0.0
 11
559.3609347372
 21
173.9986662745
 31
0.0
  0
LINE
  5
1AE
330
1F
100
AcDbEntity
  8
0
  6
SLD-Durchgehend
 62
     8
370
    18
100
AcDbLine
 10
559.3609347372
 20
173.9986662745
 30
0.0
 11
558.9279220353
 21
173.9986662745
 31
0.0
  0
LINE
  5
1AF
330
1F
100
AcDbEntity
  8
0
  6
SLD-Durchgehend
 62
     8
370
    18
100
AcDbLine
 10
558.9279220353
 20
173.9986662745
 30
0.0
 11
558.9279220353
 21
180.9986662745
 31
0.0
  0
LINE
  5
1B0
330
1F
100
AcDbEntity
  8
0
  6
SLD-Durchgehend
 62
     8
370
    18
100
AcDbLine
 10
508.2898819953
 20
180.9986662745
 30
0.0
 11
508.2898819953
 21
173.9986662745
 31
0.0
  0
LINE
  5
1B1
330
1F
100
AcDbEntity
  8
0
  6
SLD-Durchgehend
 62
     8
370
    18
100
AcDbLine
 10
560.0695100011
 20
195.3986662745
 30
0.0
 11
507.1482940295
 21
195.3986662745
 31
0.0
  0
LINE
  5
1B2
330
1F
100
AcDbEntity
  8
0
  6
SLD-Durchgehend
 62
     8
370
    18
100
AcDbLine
 10
558.9279220353
 20
180.9986662745
 30
0.0
 11
560.0695100011
 21
180.9986662745
 31
0.0
  0
LINE
  5
1B3
330
1F
100
AcDbEntity
  8
0
  6
SLD-Durchgehend
 62
     8
370
    18
100
AcDbLine
 10
508.2898819953
 20
173.9986662745
 30
0.0
 11
507.8568692934
 21
173.9986662745
 31
0.0
  0
ARC
  5
1B4
330
1F
100
AcDbEntity
  8
0
  6
SLD-Durchgehend
 62
     8
370
    18
100
AcDbCircle
 10
508.1383275496
 20
173.9799162745
 30
0.0
 40
0.2820821024098245
100
AcDbArc
 50
176.1887389505
 51
265.5980503478
  0
LINE
  5
1B5
330
1F
100
AcDbEntity
  8
0
  6
SLD-Durchgehend
 62
     8
370
    18
100
AcDbLine
 10
507.8568692934
 20
173.9986662745
 30
0.0
 11
507.8568692934
 21
180.7028622854
 31
0.0
  0
ARC
  5
1B6
330
1F
100
AcDbEntity
  8
0
  6
SLD-Durchgehend
 62
     8
370
    18
100
AcDbCircle
 10
559.0794764809
 20
173.9799162745
 30
0.0
 40
0.2820821024098245
100
AcDbArc
 50
274.4019496523
 51
3.8112610495
  0
LINE
  5
1B7
330
1F
100
AcDbEntity
  8
0
  6
SLD-Durchgehend
 62
     8
370
    18
100
AcDbLine
 10
563.5467241888
 20
180.2986662745
 30
0.0
 11
563.5467241888
 21
180.6986662745
 31
0.0
  0
LINE
  5
1B8
330
1F
100
AcDbEntity
  8
0
  6
SLD-Durchgehend
 62
     8
370
    18
100
AcDbLine
 10
559.3609347372
 20
173.9986662745
 30
0.0
 11
561.6089020153
 21
173.9986662745
 31
0.0
  0
LINE
  5
1B9
330
1F
100
AcDbEntity
  8
0
  6
SLD-Durchgehend
 62
     8
370
    18
100
AcDbLine
 10
503.6710798418
 20
180.6986662745
 30
0.0
 11
503.6710798418
 21
180.2986662745
 31
0.0
  0
LINE
  5
1BA
330
1F
100
AcDbEntity
  8
0
  6
SLD-Durchgehend
 62
     8
370
    18
100
AcDbLine
 10
505.6089020153
 20
173.9986662745
 30
0.0
 11
507.8568692934
 21
173.9986662745
 31
0.0
  0
LINE
  5
1BB
330
1F
100
AcDbEntity
  8
0
  6
SLD-Durchgehend
 62
     8
370
    18
100
AcDbLine
 10
507.9089020153
 20
173.1213160053
 30
0.0
 11
507.9089020153
 21
170.1986662745
 31
0.0
  0
LINE
  5
1BC
330
1F
100
AcDbEntity
  8
0
  6
SLD-Durchgehend
 62
     8
370
    18
100
AcDbLine
 10
507.9089020153
 20
173.6986662745
 30
0.0
 11
507.9089020153
 21
173.1213160053
 31
0.0
  0
LINE
  5
1BD
330
1F
100
AcDbEntity
  8
0
  6
SLD-Durchgehend
 62
     8
370
    18
100
AcDbLine
 10
559.3089020153
 20
173.1213160053
 30
0.0
 11
559.3089020153
 21
173.6986662745
 31
0.0
  0
LINE
  5
1BE
330
1F
100
AcDbEntity
  8
0
  6
SLD-Durchgehend
 62
     8
370
    18
100
AcDbLine
 10
559.3089020153
 20
170.1986662745
 30
0.0
 11
559.3089020153
 21
173.1213160053
 31
0.0
  0
LINE
  5
1BF
330
1F
100
AcDbEntity
  8
0
  6
SLD-Durchgehend
 62
     8
370
    18
100
AcDbLine
 10
559.6089020153
 20
167.1986662745
 30
0.0
 11
559.3089020153
 21
167.1986662745
 31
0.0
  0
LINE
  5
1C0
330
1F
100
AcDbEntity
  8
0
  6
SLD-Durchgehend
 62
     8
370
    18
100
AcDbLine
 10
559.3089020153
 20
167.1986662745
 30
0.0
 11
559.3089020153
 21
170.1986662745
 31
0.0
  0
LINE
  5
1C1
330
1F
100
AcDbEntity
  8
0
  6
SLD-Durchgehend
 62
     8
370
    18
100
AcDbLine
 10
507.9089020153
 20
170.1986662745
 30
0.0
 11
507.9089020153
 21
167.1986662745
 31
0.0
  0
LINE
  5
1C2
330
1F
100
AcDbEntity
  8
0
  6
SLD-Durchgehend
 62
     8
370
    18
100
AcDbLine
 10
507.6089020153
 20
167.1986662745
 30
0.0
 11
507.9089020153
 21
167.1986662745
 31
0.0
  0
LINE
  5
1C3
330
1F
100
AcDbEntity
  8
0
  6
SLD-Durchgehend
 62
     8
370
    18
100
AcDbLine
 10
559.3089020153
 20
167.1986662745
 30
0.0
 11
507.9089020153
 21
167.1986662745
 31
0.0
  0
LINE
  5
1C4
330
1F
100
AcDbEntity
  8
0
  6
SLD-Durchgehend
 62
     8
370
    18
100
AcDbLine
 10
559.6089020153
 20
151.9986662745
 30
0.0
 11
559.3089020153
 21
151.9986662745
 31
0.0
  0
LINE
  5
1C5
330
1F
100
AcDbEntity
  8
0
  6
SLD-Durchgehend
 62
     8
370
    18
100
AcDbLine
 10
559.3089020153
 20
151.9986662745
 30
0.0
 11
559.3089020153
 21
167.1986662745
 31
0.0
  0
LINE
  5
1C6
330
1F
100
AcDbEntity
  8
0
  6
SLD-Durchgehend
 62
     8
370
    18
100
AcDbLine
 10
507.9089020153
 20
167.1986662745
 30
0.0
 11
507.9089020153
 21
151.9986662745
 31
0.0
  0
LINE
  5
1C7
330
1F
100
AcDbEntity
  8
0
  6
SLD-Durchgehend
 62
     8
370
    18
100
AcDbLine
 10
507.6089020153
 20
151.9986662745
 30
0.0
 11
507.9089020153
 21
151.9986662745
 31
0.0
  0
LINE
  5
1C8
330
1F
100
AcDbEntity
  8
0
  6
SLD-Durchgehend
 62
     8
370
    18
100
AcDbLine
 10
559.3089020153
 20
151.6986662745
 30
0.0
 11
559.3089020153
 21
151.9986662745
 31
0.0
  0
LINE
  5
1C9
330
1F
100
AcDbEntity
  8
0
  6
SLD-Durchgehend
 62
     8
370
    18
100
AcDbLine
 10
507.9089020153
 20
151.9986662745
 30
0.0
 11
559.3089020153
 21
151.9986662745
 31
0.0
  0
LINE
  5
1CA
330
1F
100
AcDbEntity
  8
0
  6
SLD-Durchgehend
 62
     8
370
    18
100
AcDbLine
 10
507.9089020153
 20
151.6986662745
 30
0.0
 11
507.9089020153
 21
151.9986662745
 31
0.0
  0
LINE
  5
1CB
330
1F
100
AcDbEntity
  8
0
  6
SLD-Punktstrich
 62
     7
370
    18
100
AcDbLine
 10
533.6089020153
 20
149.6986662745
 30
0.0
 11
533.6089020153
 21
196.9582596186
 31
0.0
  0
CIRCLE
  5
1CC
330
1F
100
AcDbEntity
  8
0
  6
SLD-Durchgehend
 62
     7
370
    35
100
AcDbCircle
 10
427.5882061991
 20
327.6606604638
 30
0.0
 40
4.999998982146167
  0
LINE
  5
1CD
330
1F
100
AcDbEntity
  8
0
  6
SLD-Durchgehend
 62
     7
370
    35
100
AcDbLine
 10
425.1993980777
 20
325.9550102533
 30
0.0
 11
427.8709378612
 21
324.7390605987
 31
0.0
  0
LINE
  5
1CE
330
1F
100
AcDbEntity
  8
0
  6
SLD-Durchgehend
 62
     7
370
    35
100
AcDbLine
 10
427.8709378612
 20
324.7390605987
 30
0.0
 11
430.2597579133
 21
326.4447145642
 31
0.0
  0
LINE
  5
1CF
330
1F
100
AcDbEntity
  8
0
  6
SLD-Durchgehend
 62
     7
370
    35
100
AcDbLine
 10
429.9770232808
 20
329.366314459
 30
0.0
 11
430.2597579133
 21
326.4447145642
 31
0.0
  0
LINE
  5
1D0
330
1F
100
AcDbEntity
  8
0
  6
SLD-Durchgehend
 62
     7
370
    35
100
AcDbLine
 10
427.3054834973
 20
330.5822641135
 30
0.0
 11
429.9770232808
 21
329.366314459
 31
0.0
  0
LINE
  5
1D1
330
1F
100
AcDbEntity
  8
0
  6
SLD-Durchgehend
 62
     7
370
    35
100
AcDbLine
 10
427.3054834973
 20
330.5822641135
 30
0.0
 11
424.9166634452
 21
328.8766101481
 31
0.0
  0
LINE
  5
1D2
330
1F
100
AcDbEntity
  8
0
  6
SLD-Durchgehend
 62
     7
370
    35
100
AcDbLine
 10
425.1993980777
 20
325.9550102533
 30
0.0
 11
424.9166634452
 21
328.8766101481
 31
0.0
  0
ARC
  5
1D3
330
1F
100
AcDbEntity
  8
0
  6
SLD-Durchgehend
 62
     7
370
    35
100
AcDbCircle
 10
427.5882164451
 20
327.6606581794
 30
0.0
 40
2.542002302070026
100
AcDbArc
 50
65.5275963957
 51
125.5273383227
  0
ARC
  5
1D4
330
1F
100
AcDbEntity
  8
0
  6
SLD-Durchgehend
 62
     7
370
    35
100
AcDbCircle
 10
427.5882418705
 20
327.6606861832
 30
0.0
 40
2.541966281626078
100
AcDbArc
 50
5.5269425516
 51
65.5278565179
  0
ARC
  5
1D5
330
1F
100
AcDbEntity
  8
0
  6
SLD-Durchgehend
 62
     7
370
    35
100
AcDbCircle
 10
427.5881620007
 20
327.6606794705
 30
0.0
 40
2.542046426677341
100
AcDbArc
 50
305.5282293709
 51
5.5269197625
  0
ARC
  5
1D6
330
1F
100
AcDbEntity
  8
0
  6
SLD-Durchgehend
 62
     7
370
    35
100
AcDbCircle
 10
427.5882130853
 20
327.6606719842
 30
0.0
 40
2.542010648959015
100
AcDbArc
 50
245.5274796533
 51
305.5273903619
  0
ARC
  5
1D7
330
1F
100
AcDbEntity
  8
0
  6
SLD-Durchgehend
 62
     7
370
    35
100
AcDbCircle
 10
427.5881803693
 20
327.6606395992
 30
0.0
 40
2.54196762065247
100
AcDbArc
 50
185.5270482238
 51
245.5278484306
  0
ARC
  5
1D8
330
1F
100
AcDbEntity
  8
0
  6
SLD-Durchgehend
 62
     7
370
    35
100
AcDbCircle
 10
427.5882274274
 20
327.6606498668
 30
0.0
 40
2.542015448973186
100
AcDbArc
 50
125.5274309016
 51
185.5271764146
  0
CIRCLE
  5
1D9
330
1F
100
AcDbEntity
  8
0
  6
SLD-Durchgehend
 62
     7
370
    35
100
AcDbCircle
 10
427.5882154438
 20
255.6606593143
 30
0.0
 40
4.999999228372408
  0
LINE
  5
1DA
330
1F
100
AcDbEntity
  8
0
  6
SLD-Durchgehend
 62
     7
370
    35
100
AcDbLine
 10
427.5882181298
 20
252.7254142345
 30
0.0
 11
430.1302072179
 21
254.1930370511
 31
0.0
  0
LINE
  5
1DB
330
1F
100
AcDbEntity
  8
0
  6
SLD-Durchgehend
 62
     7
370
    35
100
AcDbLine
 10
430.1302072179
 20
254.1930370511
 30
0.0
 11
430.1302072179
 21
257.1282864095
 31
0.0
  0
LINE
  5
1DC
330
1F
100
AcDbEntity
  8
0
  6
SLD-Durchgehend
 62
     7
370
    35
100
AcDbLine
 10
427.5882181298
 20
258.5959092261
 30
0.0
 11
430.1302072179
 21
257.1282864095
 31
0.0
  0
LINE
  5
1DD
330
1F
100
AcDbEntity
  8
0
  6
SLD-Durchgehend
 62
     7
370
    35
100
AcDbLine
 10
425.0462141406
 20
257.1282864095
 30
0.0
 11
427.5882181298
 21
258.5959092261
 31
0.0
  0
LINE
  5
1DE
330
1F
100
AcDbEntity
  8
0
  6
SLD-Durchgehend
 62
     7
370
    35
100
AcDbLine
 10
425.0462141406
 20
257.1282864095
 30
0.0
 11
425.0462141406
 21
254.1930370511
 31
0.0
  0
LINE
  5
1DF
330
1F
100
AcDbEntity
  8
0
  6
SLD-Durchgehend
 62
     7
370
    35
100
AcDbLine
 10
427.5882181298
 20
252.7254142345
 30
0.0
 11
425.0462141406
 21
254.1930370511
 31
0.0
  0
ARC
  5
1E0
330
1F
100
AcDbEntity
  8
0
  6
SLD-Durchgehend
 62
     7
370
    35
100
AcDbCircle
 10
427.588236957
 20
255.6606512184
 30
0.0
 40
2.542022816402543
100
AcDbArc
 50
120.0004389123
 51
179.9997210844
  0
ARC
  5
1E1
330
1F
100
AcDbEntity
  8
0
  6
SLD-Durchgehend
 62
     7
370
    35
100
AcDbCircle
 10
427.5882106793
 20
255.6606733198
 30
0.0
 40
2.541990537110365
100
AcDbArc
 50
59.9998249433
 51
120.0001750567
  0
ARC
  5
1E2
330
1F
100
AcDbEntity
  8
0
  6
SLD-Durchgehend
 62
     7
370
    35
100
AcDbCircle
 10
427.5881844015
 20
255.6606512184
 30
0.0
 40
2.542022816402487
100
AcDbArc
 50
0.0002789156
 51
59.9995610877
  0
ARC
  5
1E3
330
1F
100
AcDbEntity
  8
0
  6
SLD-Durchgehend
 62
     7
370
    35
100
AcDbCircle
 10
427.5881844016
 20
255.6606722422
 30
0.0
 40
2.54202281634492
100
AcDbArc
 50
300.000438912
 51
359.9998050513
  0
ARC
  5
1E4
330
1F
100
AcDbEntity
  8
0
  6
SLD-Durchgehend
 62
     7
370
    35
100
AcDbCircle
 10
427.5882106793
 20
255.6606779467
 30
0.0
 40
2.542014617732048
100
AcDbArc
 50
240.0001383108
 51
299.9998616892
  0
ARC
  5
1E5
330
1F
100
AcDbEntity
  8
0
  6
SLD-Durchgehend
 62
     7
370
    35
100
AcDbCircle
 10
427.5882369569
 20
255.6606722422
 30
0.0
 40
2.54202281634496
100
AcDbArc
 50
180.0001949487
 51
239.999561088
  0
CIRCLE
  5
1E6
330
1F
100
AcDbEntity
  8
0
  6
SLD-Durchgehend
 62
     7
370
    35
100
AcDbCircle
 10
427.5882114059
 20
255.6606663181
 30
0.0
 40
5.999994865378713
  0
CIRCLE
  5
1E7
330
1F
100
AcDbEntity
  8
0
  6
SLD-Durchgehend
 62
     7
370
    35
100
AcDbCircle
 10
427.5882114059
 20
327.6606669439
 30
0.0
 40
5.999994865378764
  0
LINE
  5
1E8
330
1F
100
AcDbEntity
  8
0
  6
SLD-Durchgehend
 62
     7
370
    35
100
AcDbLine
 10
457.7882078063
 20
276.1606622965
 30
0.0
 11
457.7882078063
 21
269.1606611491
 31
0.0
  0
LINE
  5
1E9
330
1F
100
AcDbEntity
  8
0
  6
SLD-Durchgehend
 62
     7
370
    35
100
AcDbLine
 10
457.7882078063
 20
269.1606611491
 30
0.0
 11
457.0882108581
 21
269.1606611491
 31
0.0
  0
LINE
  5
1EA
330
1F
100
AcDbEntity
  8
0
  6
SLD-Durchgehend
 62
     7
370
    35
100
AcDbLine
 10
457.7882078063
 20
276.1606622965
 30
0.0
 11
457.7882078063
 21
307.1606617899
 31
0.0
  0
LINE
  5
1EB
330
1F
100
AcDbEntity
  8
0
  6
SLD-Durchgehend
 62
     7
370
    35
100
AcDbLine
 10
457.0882108581
 20
314.1606629373
 30
0.0
 11
457.7882078063
 21
314.1606629373
 31
0.0
  0
LINE
  5
1EC
330
1F
100
AcDbEntity
  8
0
  6
SLD-Durchgehend
 62
     7
370
    35
100
AcDbLine
 10
457.7882078063
 20
314.1606629373
 30
0.0
 11
457.7882078063
 21
307.1606617899
 31
0.0
  0
CIRCLE
  5
1ED
330
1F
100
AcDbEntity
  8
0
  6
SLD-Durchgehend
 62
     7
370
    35
100
AcDbCircle
 10
450.0882100473
 20
291.6606632516
 30
0.0
 40
2.44550166727692
  0
CIRCLE
  5
1EE
330
1F
100
AcDbEntity
  8
0
  6
SLD-Durchgehend
 62
     7
370
    35
100
AcDbCircle
 10
450.0882109878
 20
291.6606594779
 30
0.0
 40
3.000001254369661
  0
LINE
  5
1EF
330
1F
100
AcDbEntity
  8
0
  6
SLD-Durchgehend
 62
     7
370
    35
100
AcDbLine
 10
450.9542372596
 20
293.1606620562
 30
0.0
 11
451.8202629459
 21
291.6606620432
 31
0.0
  0
LINE
  5
1F0
330
1F
100
AcDbEntity
  8
0
  6
SLD-Durchgehend
 62
     7
370
    35
100
AcDbLine
 10
449.2221858871
 20
293.1606620562
 30
0.0
 11
450.9542372596
 21
293.1606620562
 31
0.0
  0
LINE
  5
1F1
330
1F
100
AcDbEntity
  8
0
  6
SLD-Durchgehend
 62
     7
370
    35
100
AcDbLine
 10
449.2221858871
 20
293.1606620562
 30
0.0
 11
448.3561602008
 21
291.6606620432
 31
0.0
  0
LINE
  5
1F2
330
1F
100
AcDbEntity
  8
0
  6
SLD-Durchgehend
 62
     7
370
    35
100
AcDbLine
 10
449.2221858871
 20
290.1606620302
 30
0.0
 11
448.3561602008
 21
291.6606620432
 31
0.0
  0
LINE
  5
1F3
330
1F
100
AcDbEntity
  8
0
  6
SLD-Durchgehend
 62
     7
370
    35
100
AcDbLine
 10
449.2221858871
 20
290.1606620302
 30
0.0
 11
450.9542372596
 21
290.1606620302
 31
0.0
  0
LINE
  5
1F4
330
1F
100
AcDbEntity
  8
0
  6
SLD-Durchgehend
 62
     7
370
    35
100
AcDbLine
 10
450.9542372596
 20
290.1606620302
 30
0.0
 11
451.8202629459
 21
291.6606620432
 31
0.0
  0
LINE
  5
1F5
330
1F
100
AcDbEntity
  8
0
  6
SLD-Durchgehend
 62
     7
370
    35
100
AcDbLine
 10
420.4966661107
 20
324.6606618644
 30
0.0
 11
245.1041240763
 21
324.6606618644
 31
0.0
  0
LINE
  5
1F6
330
1F
100
AcDbEntity
  8
0
  6
SLD-Durchgehend
 62
     7
370
    35
100
AcDbLine
 10
420.5882188451
 20
324.9606632174
 30
0.0
 11
420.5882188451
 21
330.3606614948
 31
0.0
  0
LINE
  5
1F7
330
1F
100
AcDbEntity
  8
0
  6
SLD-Durchgehend
 62
     7
370
    35
100
AcDbLine
 10
244.4186054688
 20
330.6606628479
 30
0.0
 11
420.4966661107
 21
330.6606628479
 31
0.0
  0
LINE
  5
1F8
330
1F
100
AcDbEntity
  8
0
  6
SLD-Durchgehend
 62
     7
370
    35
100
AcDbLine
 10
420.4966661107
 20
252.6606612385
 30
0.0
 11
244.4163200032
 21
252.6606612385
 31
0.0
  0
LINE
  5
1F9
330
1F
100
AcDbEntity
  8
0
  6
SLD-Durchgehend
 62
     7
370
    35
100
AcDbLine
 10
420.5882188451
 20
252.9606625916
 30
0.0
 11
420.5882188451
 21
258.360660869
 31
0.0
  0
LINE
  5
1FA
330
1F
100
AcDbEntity
  8
0
  6
SLD-Durchgehend
 62
     7
370
    35
100
AcDbLine
 10
243.7308013957
 20
258.660662222
 30
0.0
 11
420.4966661107
 21
258.660662222
 31
0.0
  0
ARC
  5
1FB
330
1F
100
AcDbEntity
  8
0
  6
SLD-Durchgehend
 62
     7
370
    35
100
AcDbCircle
 10
427.5882124507
 20
327.6606623561
 30
0.0
 40
7.999999676216645
100
AcDbArc
 50
202.0243175741
 51
157.9756824259
  0
LINE
  5
1FC
330
1F
100
AcDbEntity
  8
0
  6
SLD-Durchgehend
 62
     7
370
    35
100
AcDbLine
 10
420.1720145118
 20
324.6606618644
 30
0.0
 11
420.4966661107
 21
324.6606618644
 31
0.0
  0
LINE
  5
1FD
330
1F
100
AcDbEntity
  8
0
  6
SLD-Durchgehend
 62
     7
370
    35
100
AcDbLine
 10
420.4966661107
 20
330.6606628479
 30
0.0
 11
420.1720145118
 21
330.6606628479
 31
0.0
  0
CIRCLE
  5
1FE
330
1F
100
AcDbEntity
  8
0
  6
SLD-Durchgehend
 62
     7
370
    35
100
AcDbCircle
 10
427.5882072782
 20
327.6606616288
 30
0.0
 40
6.199999978354271
  0
LINE
  5
1FF
330
1F
100
AcDbEntity
  8
0
  6
SLD-Durchgehend
 62
     7
370
    35
100
AcDbLine
 10
420.5882188451
 20
330.6606628479
 30
0.0
 11
420.5882188451
 21
324.6606618644
 31
0.0
  0
LINE
  5
200
330
1F
100
AcDbEntity
  8
0
  6
SLD-Durchgehend
 62
     7
370
    35
100
AcDbLine
 10
420.5882188451
 20
324.6606618644
 30
0.0
 11
420.4966661107
 21
324.6606618644
 31
0.0
  0
LINE
  5
201
330
1F
100
AcDbEntity
  8
0
  6
SLD-Durchgehend
 62
     7
370
    35
100
AcDbLine
 10
420.4966661107
 20
330.6606628479
 30
0.0
 11
420.5882188451
 21
330.6606628479
 31
0.0
  0
ARC
  5
202
330
1F
100
AcDbEntity
  8
0
  6
SLD-Durchgehend
 62
     7
370
    35
100
AcDbCircle
 10
427.5882124507
 20
255.6606617303
 30
0.0
 40
7.999999676216645
100
AcDbArc
 50
202.0243175741
 51
157.9756824259
  0
LINE
  5
203
330
1F
100
AcDbEntity
  8
0
  6
SLD-Durchgehend
 62
     7
370
    35
100
AcDbLine
 10
420.1720145118
 20
252.6606612385
 30
0.0
 11
420.4966661107
 21
252.6606612385
 31
0.0
  0
LINE
  5
204
330
1F
100
AcDbEntity
  8
0
  6
SLD-Durchgehend
 62
     7
370
    35
100
AcDbLine
 10
420.4966661107
 20
258.660662222
 30
0.0
 11
420.1720145118
 21
258.660662222
 31
0.0
  0
CIRCLE
  5
205
330
1F
100
AcDbEntity
  8
0
  6
SLD-Durchgehend
 62
     7
370
    35
100
AcDbCircle
 10
427.5882076085
 20
255.660662706
 30
0.0
 40
6.199999911910469
  0
LINE
  5
206
330
1F
100
AcDbEntity
  8
0
  6
SLD-Durchgehend
 62
     7
370
    35
100
AcDbLine
 10
420.5882188451
 20
258.660662222
 30
0.0
 11
420.5882188451
 21
252.6606612385
 31
0.0
  0
LINE
  5
207
330
1F
100
AcDbEntity
  8
0
  6
SLD-Durchgehend
 62
     7
370
    35
100
AcDbLine
 10
420.5882188451
 20
252.6606612385
 30
0.0
 11
420.4966661107
 21
252.6606612385
 31
0.0
  0
LINE
  5
208
330
1F
100
AcDbEntity
  8
0
  6
SLD-Durchgehend
 62
     7
370
    35
100
AcDbLine
 10
420.4966661107
 20
258.660662222
 30
0.0
 11
420.5882188451
 21
258.660662222
 31
0.0
  0
ARC
  5
209
330
1F
100
AcDbEntity
  8
0
  6
SLD-Durchgehend
 62
     7
370
    35
100
AcDbCircle
 10
434.588209964
 20
262.5888582271
 30
0.0
 40
0.9999945760027483
100
AcDbArc
 50
239.999753536
 51
0.0004085555
  0
LINE
  5
20A
330
1F
100
AcDbEntity
  8
0
  6
SLD-Durchgehend
 62
     7
370
    35
100
AcDbLine
 10
434.0882089507
 20
261.7228396715
 30
0.0
 11
426.8382128846
 21
265.9086298675
 31
0.0
  0
LINE
  5
20B
330
1F
100
AcDbEntity
  8
0
  6
SLD-Durchgehend
 62
     7
370
    35
100
AcDbLine
 10
435.58820454
 20
320.7324587287
 30
0.0
 11
435.58820454
 21
317.6606625796
 31
0.0
  0
LINE
  5
20C
330
1F
100
AcDbEntity
  8
0
  6
SLD-Durchgehend
 62
     7
370
    35
100
AcDbLine
 10
435.58820454
 20
265.6606615068
 30
0.0
 11
435.58820454
 21
262.5888653577
 31
0.0
  0
ARC
  5
20D
330
1F
100
AcDbEntity
  8
0
  6
SLD-Durchgehend
 62
     7
370
    35
100
AcDbCircle
 10
427.088184103
 20
266.341622236
 30
0.0
 40
0.4999680001594791
100
AcDbArc
 50
179.9976536272
 51
240.0016913533
  0
LINE
  5
20E
330
1F
100
AcDbEntity
  8
0
  6
SLD-Durchgehend
 62
     7
370
    35
100
AcDbLine
 10
426.5882161033
 20
266.3416427107
 30
0.0
 11
426.5882161033
 21
316.9796813757
 31
0.0
  0
ARC
  5
20F
330
1F
100
AcDbEntity
  8
0
  6
SLD-Durchgehend
 62
     7
370
    35
100
AcDbCircle
 10
427.088184103
 20
316.9797018504
 30
0.0
 40
0.4999680001593741
100
AcDbArc
 50
119.9983086467
 51
180.0023463728
  0
LINE
  5
210
330
1F
100
AcDbEntity
  8
0
  6
SLD-Durchgehend
 62
     7
370
    35
100
AcDbLine
 10
426.8382128846
 20
317.4126942189
 30
0.0
 11
434.0882089507
 21
321.5984844149
 31
0.0
  0
ARC
  5
211
330
1F
100
AcDbEntity
  8
0
  6
SLD-Durchgehend
 62
     7
370
    35
100
AcDbCircle
 10
434.588209964
 20
320.7324658593
 30
0.0
 40
0.9999945760027483
100
AcDbArc
 50
359.9995914445
 51
120.000246464
  0
LINE
  5
212
330
1F
100
AcDbEntity
  8
0
  6
SLD-Durchgehend
 62
     7
370
    35
100
AcDbLine
 10
435.58820454
 20
262.5888653577
 30
0.0
 11
435.58820454
 21
255.6606635929
 31
0.0
  0
ARC
  5
213
330
1F
100
AcDbEntity
  8
0
  6
SLD-Durchgehend
 62
     7
370
    35
100
AcDbCircle
 10
424.5882205905
 20
265.2000538285
 30
0.0
 40
1.999995512780694
100
AcDbArc
 50
287.4572445904
 51
359.9999927586
  0
LINE
  5
214
330
1F
100
AcDbEntity
  8
0
  6
SLD-Durchgehend
 62
     7
370
    35
100
AcDbLine
 10
426.5882161033
 20
265.2000535757
 30
0.0
 11
426.5882161033
 21
266.3416427107
 31
0.0
  0
LINE
  5
215
330
1F
100
AcDbEntity
  8
0
  6
SLD-Durchgehend
 62
     7
370
    35
100
AcDbLine
 10
426.5882161033
 20
316.9796813757
 30
0.0
 11
426.5882161033
 21
318.1212705107
 31
0.0
  0
ARC
  5
216
330
1F
100
AcDbEntity
  8
0
  6
SLD-Durchgehend
 62
     7
370
    35
100
AcDbCircle
 10
424.5882205905
 20
318.1212702579
 30
0.0
 40
1.999995512780694
100
AcDbArc
 50
0.0000072414
 51
72.5427554096
  0
LINE
  5
217
330
1F
100
AcDbEntity
  8
0
  6
SLD-Durchgehend
 62
     7
370
    35
100
AcDbLine
 10
435.58820454
 20
327.6606604935
 30
0.0
 11
435.58820454
 21
320.7324587287
 31
0.0
  0
LINE
  5
218
330
1F
100
AcDbEntity
  8
0
  6
SLD-Durchgehend
 62
     7
370
    35
100
AcDbLine
 10
456.7882057798
 20
265.6606615068
 30
0.0
 11
437.3882052075
 21
265.6606615068
 31
0.0
  0
LINE
  5
219
330
1F
100
AcDbEntity
  8
0
  6
SLD-Durchgehend
 62
     7
370
    35
100
AcDbLine
 10
457.0882108581
 20
317.3606612266
 30
0.0
 11
457.0882108581
 21
265.9606628598
 31
0.0
  0
ARC
  5
21A
330
1F
100
AcDbEntity
  8
0
  6
SLD-Durchgehend
 62
     7
370
    35
100
AcDbCircle
 10
437.3882229498
 20
265.9606694257
 30
0.0
 40
0.300007919476708
100
AcDbArc
 50
180.0012539665
 51
269.9966115692
  0
ARC
  5
21B
330
1F
100
AcDbEntity
  8
0
  6
SLD-Durchgehend
 62
     7
370
    35
100
AcDbCircle
 10
456.7882029395
 20
265.9606694254
 30
0.0
 40
0.3000079186039395
100
AcDbArc
 50
270.000542427
 51
359.9987461025
  0
CIRCLE
  5
21C
330
1F
100
AcDbEntity
  8
0
  6
SLD-Durchgehend
 62
     7
370
    35
100
AcDbCircle
 10
450.0882108587
 20
291.6606586814
 30
0.0
 40
3.499995483088717
  0
LINE
  5
21D
330
1F
100
AcDbEntity
  8
0
  6
SLD-Durchgehend
 62
     7
370
    35
100
AcDbLine
 10
437.0882150304
 20
265.9606628598
 30
0.0
 11
437.0882150304
 21
317.3606612266
 31
0.0
  0
ARC
  5
21E
330
1F
100
AcDbEntity
  8
0
  6
SLD-Durchgehend
 62
     7
370
    35
100
AcDbCircle
 10
437.3882229498
 20
317.3606546607
 30
0.0
 40
0.300007919476708
100
AcDbArc
 50
90.0033884308
 51
179.9987460335
  0
LINE
  5
21F
330
1F
100
AcDbEntity
  8
0
  6
SLD-Durchgehend
 62
     7
370
    35
100
AcDbLine
 10
437.3882052075
 20
317.6606625796
 30
0.0
 11
456.7882057798
 21
317.6606625796
 31
0.0
  0
ARC
  5
220
330
1F
100
AcDbEntity
  8
0
  6
SLD-Durchgehend
 62
     7
370
    35
100
AcDbCircle
 10
456.7882029395
 20
317.3606546611
 30
0.0
 40
0.3000079186039595
100
AcDbArc
 50
0.0012538975
 51
89.9994575729
  0
LINE
  5
221
330
1F
100
AcDbEntity
  8
0
  6
SLD-Durchgehend
 62
     7
370
    35
100
AcDbLine
 10
437.3882052075
 20
265.6606615068
 30
0.0
 11
434.0882089507
 21
265.6606615068
 31
0.0
  0
LINE
  5
222
330
1F
100
AcDbEntity
  8
0
  6
SLD-Durchgehend
 62
     7
370
    35
100
AcDbLine
 10
434.0882089507
 20
317.6606625796
 30
0.0
 11
437.3882052075
 21
317.6606625796
 31
0.0
  0
ARC
  5
223
330
1F
100
AcDbEntity
  8
0
  6
SLD-Durchgehend
 62
     7
370
    35
100
AcDbCircle
 10
433.388221798
 20
265.9606763808
 30
0.0
 40
0.3000148741551367
100
AcDbArc
 50
180.002582187
 51
269.9981292834
  0
LINE
  5
224
330
1F
100
AcDbEntity
  8
0
  6
SLD-Durchgehend
 62
     7
370
    35
100
AcDbLine
 10
434.0882089507
 20
265.6606615068
 30
0.0
 11
433.3882120025
 21
265.6606615068
 31
0.0
  0
LINE
  5
225
330
1F
100
AcDbEntity
  8
0
  6
SLD-Durchgehend
 62
     7
370
    35
100
AcDbLine
 10
433.0882069242
 20
265.9606628598
 30
0.0
 11
433.0882069242
 21
317.3606612266
 31
0.0
  0
ARC
  5
226
330
1F
100
AcDbEntity
  8
0
  6
SLD-Durchgehend
 62
     7
370
    35
100
AcDbCircle
 10
433.388221798
 20
317.3606477057
 30
0.0
 40
0.3000148741551228
100
AcDbArc
 50
90.0018707166
 51
179.997417813
  0
LINE
  5
227
330
1F
100
AcDbEntity
  8
0
  6
SLD-Durchgehend
 62
     7
370
    35
100
AcDbLine
 10
433.3882120025
 20
317.6606625796
 30
0.0
 11
434.0882089507
 21
317.6606625796
 31
0.0
  0
CIRCLE
  5
228
330
1F
100
AcDbEntity
  8
0
  6
SLD-Durchgehend
 62
     8
370
    18
100
AcDbCircle
 10
427.5882128683
 20
327.6606631881
 30
0.0
 40
4.699999805217033
  0
CIRCLE
  5
229
330
1F
100
AcDbEntity
  8
0
  6
SLD-Durchgehend
 62
     8
370
    18
100
AcDbCircle
 10
427.5882158344
 20
255.660659877
 30
0.0
 40
4.699999904487896
  0
LINE
  5
22A
330
1F
100
AcDbEntity
  8
0
  6
SLD-Durchgehend
 62
     8
370
    18
100
AcDbLine
 10
457.0882108581
 20
276.1606622965
 30
0.0
 11
457.7882078063
 21
276.1606622965
 31
0.0
  0
LINE
  5
22B
330
1F
100
AcDbEntity
  8
0
  6
SLD-Durchgehend
 62
     8
370
    18
100
AcDbLine
 10
457.7882078063
 20
307.1606617899
 30
0.0
 11
457.0882108581
 21
307.1606617899
 31
0.0
  0
LINE
  5
22C
330
1F
100
AcDbEntity
  8
0
  6
SLD-Durchgehend
 62
     8
370
    18
100
AcDbLine
 10
245.0698476803
 20
324.9606632174
 30
0.0
 11
420.5882188451
 21
324.9606632174
 31
0.0
  0
LINE
  5
22D
330
1F
100
AcDbEntity
  8
0
  6
SLD-Durchgehend
 62
     8
370
    18
100
AcDbLine
 10
420.5882188451
 20
330.3606614948
 30
0.0
 11
244.4528818649
 21
330.3606614948
 31
0.0
  0
LINE
  5
22E
330
1F
100
AcDbEntity
  8
0
  6
SLD-Durchgehend
 62
     8
370
    18
100
AcDbLine
 10
244.3820454698
 20
252.9606625916
 30
0.0
 11
420.5882188451
 21
252.9606625916
 31
0.0
  0
LINE
  5
22F
330
1F
100
AcDbEntity
  8
0
  6
SLD-Durchgehend
 62
     8
370
    18
100
AcDbLine
 10
420.5882188451
 20
258.360660869
 30
0.0
 11
243.7650777918
 21
258.360660869
 31
0.0
  0
ARC
  5
230
330
1F
100
AcDbEntity
  8
0
  6
SLD-Durchgehend
 62
     8
370
    18
100
AcDbCircle
 10
427.5882123494
 20
327.6606623561
 30
0.0
 40
7.700002013392298
100
AcDbArc
 50
202.9302565156
 51
157.0697434844
  0
ARC
  5
231
330
1F
100
AcDbEntity
  8
0
  6
SLD-Durchgehend
 62
     8
370
    18
100
AcDbCircle
 10
427.5882123494
 20
255.6606617303
 30
0.0
 40
7.700002013392298
100
AcDbArc
 50
202.9302565156
 51
157.0697434844
  0
ARC
  5
232
330
1F
100
AcDbEntity
  8
0
  6
SLD-Durchgehend
 62
     8
370
    18
100
AcDbCircle
 10
434.5882174146
 20
262.5888621446
 30
0.0
 40
0.6999969482495706
100
AcDbArc
 50
240.0000000003
 51
0.0002630015
  0
LINE
  5
233
330
1F
100
AcDbEntity
  8
0
  6
SLD-Durchgehend
 62
     8
370
    18
100
AcDbLine
 10
435.2882143628
 20
262.5888653577
 30
0.0
 11
435.58820454
 21
262.5888653577
 31
0.0
  0
LWPOLYLINE
  5
234
330
1F
100
AcDbEntity
  8
0
  6
SLD-Durchgehend
 62
     8
370
    18
100
AcDbPolyline
 90
        9
 70
   128
 43
0.0
 10
434.0882089507
 20
261.7228396715
 10
434.091099776
 20
261.7278315605
 10
434.0996232402
 20
261.7426172377
 10
434.1134962213
 20
261.766624871
 10
434.1321524751
 20
261.7989361764
 10
434.1548767459
 20
261.8383069069
 10
434.1808047664
 20
261.8832227321
 10
434.2089530599
 20
261.931960705
 10
434.2382189405
 20
261.9826470048
  0
LWPOLYLINE
  5
235
330
1F
100
AcDbEntity
  8
0
  6
SLD-Durchgehend
 62
     8
370
    18
100
AcDbPolyline
 90
        9
 70
   128
 43
0.0
 10
426.9882079732
 20
266.1684372009
 10
426.9589420926
 20
266.1177509011
 10
426.9308087003
 20
266.0690129281
 10
426.9048806798
 20
266.0240952403
 10
426.8821415078
 20
265.9847245098
 10
426.863485254
 20
265.9524150671
 10
426.8496271741
 20
265.9284055711
 10
426.8410888087
 20
265.9136217565
 10
426.8382128846
 20
265.9086298675
  0
LINE
  5
236
330
1F
100
AcDbEntity
  8
0
  6
SLD-Durchgehend
 62
     8
370
    18
100
AcDbLine
 10
426.9882079732
 20
266.1684372009
 30
0.0
 11
434.2382189405
 21
261.9826470048
 31
0.0
  0
LINE
  5
237
330
1F
100
AcDbEntity
  8
0
  6
SLD-Durchgehend
 62
     8
370
    18
100
AcDbLine
 10
426.8882062804
 20
316.9796813757
 30
0.0
 11
426.8882062804
 21
266.3416427107
 31
0.0
  0
ARC
  5
238
330
1F
100
AcDbEntity
  8
0
  6
SLD-Durchgehend
 62
     8
370
    18
100
AcDbCircle
 10
427.0882737671
 20
316.9796418635
 30
0.0
 40
0.2000674905406771
100
AcDbArc
 50
120.0105985801
 51
179.9886843842
  0
LINE
  5
239
330
1F
100
AcDbEntity
  8
0
  6
SLD-Durchgehend
 62
     8
370
    18
100
AcDbLine
 10
434.2382189405
 20
321.3386770816
 30
0.0
 11
426.9882079732
 21
317.1528868855
 31
0.0
  0
ARC
  5
23A
330
1F
100
AcDbEntity
  8
0
  6
SLD-Durchgehend
 62
     8
370
    18
100
AcDbCircle
 10
434.5882174146
 20
320.7324619418
 30
0.0
 40
0.6999969482495915
100
AcDbArc
 50
359.9997369985
 51
119.9999999997
  0
LINE
  5
23B
330
1F
100
AcDbEntity
  8
0
  6
SLD-Durchgehend
 62
     8
370
    18
100
AcDbLine
 10
435.2882143628
 20
262.5888653577
 30
0.0
 11
435.2882143628
 21
265.6606615068
 31
0.0
  0
LINE
  5
23C
330
1F
100
AcDbEntity
  8
0
  6
SLD-Durchgehend
 62
     8
370
    18
100
AcDbLine
 10
435.2882143628
 20
317.6606625796
 30
0.0
 11
435.2882143628
 21
320.7324587287
 31
0.0
  0
ARC
  5
23D
330
1F
100
AcDbEntity
  8
0
  6
SLD-Durchgehend
 62
     8
370
    18
100
AcDbCircle
 10
427.0882737671
 20
266.341682223
 30
0.0
 40
0.2000674905406771
100
AcDbArc
 50
180.0113156158
 51
239.9894014199
  0
LINE
  5
23E
330
1F
100
AcDbEntity
  8
0
  6
SLD-Durchgehend
 62
     8
370
    18
100
AcDbLine
 10
435.58820454
 20
320.7324587287
 30
0.0
 11
435.2882143628
 21
320.7324587287
 31
0.0
  0
LINE
  5
23F
330
1F
100
AcDbEntity
  8
0
  6
SLD-Durchgehend
 62
     8
370
    18
100
AcDbLine
 10
426.5882161033
 20
266.3416427107
 30
0.0
 11
426.8882062804
 21
266.3416427107
 31
0.0
  0
LINE
  5
240
330
1F
100
AcDbEntity
  8
0
  6
SLD-Durchgehend
 62
     8
370
    18
100
AcDbLine
 10
426.8882062804
 20
316.9796813757
 30
0.0
 11
426.5882161033
 21
316.9796813757
 31
0.0
  0
LWPOLYLINE
  5
241
330
1F
100
AcDbEntity
  8
0
  6
SLD-Durchgehend
 62
     8
370
    18
100
AcDbPolyline
 90
        9
 70
   128
 43
0.0
 10
426.8382128846
 20
317.4126942189
 10
426.8410888087
 20
317.4077023299
 10
426.8496271741
 20
317.3929185153
 10
426.863485254
 20
317.3689090193
 10
426.8821415078
 20
317.3365995766
 10
426.9048806798
 20
317.2972288461
 10
426.9308087003
 20
317.2523111583
 10
426.9589420926
 20
317.2035731853
 10
426.9882079732
 20
317.1528868855
  0
LWPOLYLINE
  5
242
330
1F
100
AcDbEntity
  8
0
  6
SLD-Durchgehend
 62
     8
370
    18
100
AcDbPolyline
 90
        9
 70
   128
 43
0.0
 10
434.2382189405
 20
321.3386770816
 10
434.2089530599
 20
321.3893633814
 10
434.1808047664
 20
321.4381013544
 10
434.1548767459
 20
321.4830171795
 10
434.1321524751
 20
321.52238791
 10
434.1134962213
 20
321.5546992154
 10
434.0996232402
 20
321.5787068487
 10
434.091099776
 20
321.5934925259
 10
434.0882089507
 20
321.5984844149
  0
ARC
  5
243
330
1F
100
AcDbEntity
  8
0
  6
SLD-Durchgehend
 62
     8
370
    18
100
AcDbCircle
 10
424.5882831753
 20
265.2000116143
 30
0.0
 40
2.299923105472093
100
AcDbArc
 50
313.6116588845
 51
0.0010453455
  0
LINE
  5
244
330
1F
100
AcDbEntity
  8
0
  6
SLD-Durchgehend
 62
     8
370
    18
100
AcDbLine
 10
426.8882062804
 20
265.879762593
 30
0.0
 11
426.8882062804
 21
265.2000535757
 31
0.0
  0
LINE
  5
245
330
1F
100
AcDbEntity
  8
0
  6
SLD-Durchgehend
 62
     8
370
    18
100
AcDbLine
 10
435.2882143628
 20
257.830917138
 30
0.0
 11
435.2882143628
 21
261.8747216196
 31
0.0
  0
LINE
  5
246
330
1F
100
AcDbEntity
  8
0
  6
SLD-Durchgehend
 62
     8
370
    18
100
AcDbLine
 10
426.5882161033
 20
265.2000535757
 30
0.0
 11
426.8882062804
 21
265.2000535757
 31
0.0
  0
LINE
  5
247
330
1F
100
AcDbEntity
  8
0
  6
SLD-Durchgehend
 62
     8
370
    18
100
AcDbLine
 10
426.5882161033
 20
318.1212705107
 30
0.0
 11
426.8882062804
 21
318.1212705107
 31
0.0
  0
LINE
  5
248
330
1F
100
AcDbEntity
  8
0
  6
SLD-Durchgehend
 62
     8
370
    18
100
AcDbLine
 10
426.8882062804
 20
318.1212705107
 30
0.0
 11
426.8882062804
 21
317.4415614934
 31
0.0
  0
ARC
  5
249
330
1F
100
AcDbEntity
  8
0
  6
SLD-Durchgehend
 62
     8
370
    18
100
AcDbCircle
 10
424.5882831753
 20
318.1213124721
 30
0.0
 40
2.299923105472109
100
AcDbArc
 50
359.9989546545
 51
46.3883411155
  0
LINE
  5
24A
330
1F
100
AcDbEntity
  8
0
  6
SLD-Durchgehend
 62
     8
370
    18
100
AcDbLine
 10
435.2882143628
 20
321.4466024668
 30
0.0
 11
435.2882143628
 21
325.4904069484
 31
0.0
  0
LINE
  5
24B
330
1F
100
AcDbEntity
  8
0
  6
SLD-Durchgehend
 62
     8
370
    18
100
AcDbLine
 10
437.3882052075
 20
265.6606615068
 30
0.0
 11
437.3882052075
 21
265.9606628598
 31
0.0
  0
LINE
  5
24C
330
1F
100
AcDbEntity
  8
0
  6
SLD-Durchgehend
 62
     8
370
    18
100
AcDbLine
 10
437.3882052075
 20
265.9606628598
 30
0.0
 11
456.7882057798
 21
265.9606628598
 31
0.0
  0
LINE
  5
24D
330
1F
100
AcDbEntity
  8
0
  6
SLD-Durchgehend
 62
     8
370
    18
100
AcDbLine
 10
456.7882057798
 20
265.6606615068
 30
0.0
 11
456.7882057798
 21
265.9606628598
 31
0.0
  0
LINE
  5
24E
330
1F
100
AcDbEntity
  8
0
  6
SLD-Durchgehend
 62
     8
370
    18
100
AcDbLine
 10
457.0882108581
 20
265.9606628598
 30
0.0
 11
456.7882057798
 21
265.9606628598
 31
0.0
  0
LINE
  5
24F
330
1F
100
AcDbEntity
  8
0
  6
SLD-Durchgehend
 62
     8
370
    18
100
AcDbLine
 10
456.7882057798
 20
265.9606628598
 30
0.0
 11
456.7882057798
 21
317.3606612266
 31
0.0
  0
LINE
  5
250
330
1F
100
AcDbEntity
  8
0
  6
SLD-Durchgehend
 62
     8
370
    18
100
AcDbLine
 10
457.0882108581
 20
317.3606612266
 30
0.0
 11
456.7882057798
 21
317.3606612266
 31
0.0
  0
LINE
  5
251
330
1F
100
AcDbEntity
  8
0
  6
SLD-Durchgehend
 62
     8
370
    18
100
AcDbLine
 10
437.3882052075
 20
265.9606628598
 30
0.0
 11
437.0882150304
 21
265.9606628598
 31
0.0
  0
LINE
  5
252
330
1F
100
AcDbEntity
  8
0
  6
SLD-Durchgehend
 62
     8
370
    18
100
AcDbLine
 10
456.7882057798
 20
317.3606612266
 30
0.0
 11
437.3882052075
 21
317.3606612266
 31
0.0
  0
LINE
  5
253
330
1F
100
AcDbEntity
  8
0
  6
SLD-Durchgehend
 62
     8
370
    18
100
AcDbLine
 10
437.3882052075
 20
317.3606612266
 30
0.0
 11
437.3882052075
 21
265.9606628598
 31
0.0
  0
LINE
  5
254
330
1F
100
AcDbEntity
  8
0
  6
SLD-Durchgehend
 62
     8
370
    18
100
AcDbLine
 10
437.3882052075
 20
317.3606612266
 30
0.0
 11
437.0882150304
 21
317.3606612266
 31
0.0
  0
LINE
  5
255
330
1F
100
AcDbEntity
  8
0
  6
SLD-Durchgehend
 62
     8
370
    18
100
AcDbLine
 10
437.3882052075
 20
317.3606612266
 30
0.0
 11
437.3882052075
 21
317.6606625796
 31
0.0
  0
LINE
  5
256
330
1F
100
AcDbEntity
  8
0
  6
SLD-Durchgehend
 62
     8
370
    18
100
AcDbLine
 10
456.7882057798
 20
317.3606612266
 30
0.0
 11
456.7882057798
 21
317.6606625796
 31
0.0
  0
LINE
  5
257
330
1F
100
AcDbEntity
  8
0
  6
SLD-Durchgehend
 62
     8
370
    18
100
AcDbLine
 10
434.0882089507
 20
265.6606615068
 30
0.0
 11
434.0882089507
 21
265.9606628598
 31
0.0
  0
LINE
  5
258
330
1F
100
AcDbEntity
  8
0
  6
SLD-Durchgehend
 62
     8
370
    18
100
AcDbLine
 10
434.0882089507
 20
265.9606628598
 30
0.0
 11
437.0882150304
 21
265.9606628598
 31
0.0
  0
LINE
  5
259
330
1F
100
AcDbEntity
  8
0
  6
SLD-Durchgehend
 62
     8
370
    18
100
AcDbLine
 10
437.0882150304
 20
317.3606612266
 30
0.0
 11
434.0882089507
 21
317.3606612266
 31
0.0
  0
LINE
  5
25A
330
1F
100
AcDbEntity
  8
0
  6
SLD-Durchgehend
 62
     8
370
    18
100
AcDbLine
 10
434.0882089507
 20
265.9606628598
 30
0.0
 11
434.0882089507
 21
317.3606612266
 31
0.0
  0
LINE
  5
25B
330
1F
100
AcDbEntity
  8
0
  6
SLD-Durchgehend
 62
     8
370
    18
100
AcDbLine
 10
434.0882089507
 20
317.6606625796
 30
0.0
 11
434.0882089507
 21
317.3606612266
 31
0.0
  0
LINE
  5
25C
330
1F
100
AcDbEntity
  8
0
  6
SLD-Durchgehend
 62
     8
370
    18
100
AcDbLine
 10
433.0882069242
 20
265.9606628598
 30
0.0
 11
434.0882089507
 21
265.9606628598
 31
0.0
  0
LINE
  5
25D
330
1F
100
AcDbEntity
  8
0
  6
SLD-Durchgehend
 62
     8
370
    18
100
AcDbLine
 10
434.0882089507
 20
317.3606612266
 30
0.0
 11
433.0882069242
 21
317.3606612266
 31
0.0
  0
LINE
  5
25E
330
1F
100
AcDbEntity
  8
0
  6
SLD-Durchgehend
 62
     7
370
    35
100
AcDbLine
 10
40.3486862647
 20
324.6606618644
 30
0.0
 11
35.6486812103
 21
324.6606618644
 31
0.0
  0
ARC
  5
25F
330
1F
100
AcDbEntity
  8
0
  6
SLD-Durchgehend
 62
     7
370
    35
100
AcDbCircle
 10
35.6486735141
 20
324.9606443458
 30
0.0
 40
0.2999824815436107
100
AcDbArc
 50
179.9963955831
 51
270.0014699526
  0
LINE
  5
260
330
1F
100
AcDbEntity
  8
0
  6
SLD-Durchgehend
 62
     7
370
    35
100
AcDbLine
 10
235.10412498
 20
324.6606618644
 30
0.0
 11
40.3486862647
 21
324.6606618644
 31
0.0
  0
LINE
  5
261
330
1F
100
AcDbEntity
  8
0
  6
SLD-Durchgehend
 62
     7
370
    35
100
AcDbLine
 10
35.3486910331
 20
324.9606632174
 30
0.0
 11
35.3486910331
 21
330.3606614948
 31
0.0
  0
LINE
  5
262
330
1F
100
AcDbEntity
  8
0
  6
SLD-Durchgehend
 62
     7
370
    35
100
AcDbLine
 10
40.3486862647
 20
330.6606628479
 30
0.0
 11
234.4186045098
 21
330.6606628479
 31
0.0
  0
LINE
  5
263
330
1F
100
AcDbEntity
  8
0
  6
SLD-Durchgehend
 62
     7
370
    35
100
AcDbLine
 10
35.6486812103
 20
330.6606628479
 30
0.0
 11
40.3486862647
 21
330.6606628479
 31
0.0
  0
ARC
  5
264
330
1F
100
AcDbEntity
  8
0
  6
SLD-Durchgehend
 62
     7
370
    35
100
AcDbCircle
 10
35.6486735141
 20
330.3606803664
 30
0.0
 40
0.2999824815435741
100
AcDbArc
 50
89.9985300474
 51
180.0036044169
  0
LINE
  5
265
330
1F
100
AcDbEntity
  8
0
  6
SLD-Durchgehend
 62
     7
370
    35
100
AcDbLine
 10
234.4163209069
 20
252.6606612385
 30
0.0
 11
40.3486862647
 21
252.6606612385
 31
0.0
  0
LINE
  5
266
330
1F
100
AcDbEntity
  8
0
  6
SLD-Durchgehend
 62
     7
370
    35
100
AcDbLine
 10
35.3486910331
 20
252.9606625916
 30
0.0
 11
35.3486910331
 21
258.360660869
 31
0.0
  0
LINE
  5
267
330
1F
100
AcDbEntity
  8
0
  6
SLD-Durchgehend
 62
     7
370
    35
100
AcDbLine
 10
40.3486862647
 20
252.6606612385
 30
0.0
 11
35.6486812103
 21
252.6606612385
 31
0.0
  0
ARC
  5
268
330
1F
100
AcDbEntity
  8
0
  6
SLD-Durchgehend
 62
     7
370
    35
100
AcDbCircle
 10
35.6486735141
 20
252.96064372
 30
0.0
 40
0.2999824815436025
100
AcDbArc
 50
179.9963955831
 51
270.0014699526
  0
LINE
  5
269
330
1F
100
AcDbEntity
  8
0
  6
SLD-Durchgehend
 62
     7
370
    35
100
AcDbLine
 10
35.6486812103
 20
258.660662222
 30
0.0
 11
40.3486862647
 21
258.660662222
 31
0.0
  0
ARC
  5
26A
330
1F
100
AcDbEntity
  8
0
  6
SLD-Durchgehend
 62
     7
370
    35
100
AcDbCircle
 10
35.6486735141
 20
258.3606797406
 30
0.0
 40
0.2999824815435172
100
AcDbArc
 50
89.9985300474
 51
180.0036044169
  0
LINE
  5
26B
330
1F
100
AcDbEntity
  8
0
  6
SLD-Durchgehend
 62
     7
370
    35
100
AcDbLine
 10
40.3486862647
 20
258.660662222
 30
0.0
 11
233.7308004367
 21
258.660662222
 31
0.0
  0
LINE
  5
26C
330
1F
100
AcDbEntity
  8
0
  6
SLD-Durchgehend
 62
     8
370
    18
100
AcDbLine
 10
35.3486910331
 20
324.9606632174
 30
0.0
 11
40.3486862647
 21
324.9606632174
 31
0.0
  0
LINE
  5
26D
330
1F
100
AcDbEntity
  8
0
  6
SLD-Durchgehend
 62
     8
370
    18
100
AcDbLine
 10
40.3486862647
 20
324.9606632174
 30
0.0
 11
40.3486862647
 21
324.6606618644
 31
0.0
  0
LINE
  5
26E
330
1F
100
AcDbEntity
  8
0
  6
SLD-Durchgehend
 62
     8
370
    18
100
AcDbLine
 10
40.3486862647
 20
324.9606632174
 30
0.0
 11
235.0698485839
 21
324.9606632174
 31
0.0
  0
LINE
  5
26F
330
1F
100
AcDbEntity
  8
0
  6
SLD-Durchgehend
 62
     8
370
    18
100
AcDbLine
 10
40.3486862647
 20
330.3606614948
 30
0.0
 11
40.3486862647
 21
324.9606632174
 31
0.0
  0
LINE
  5
270
330
1F
100
AcDbEntity
  8
0
  6
SLD-Durchgehend
 62
     8
370
    18
100
AcDbLine
 10
234.4528809059
 20
330.3606614948
 30
0.0
 11
40.3486862647
 21
330.3606614948
 31
0.0
  0
LINE
  5
271
330
1F
100
AcDbEntity
  8
0
  6
SLD-Durchgehend
 62
     8
370
    18
100
AcDbLine
 10
40.3486862647
 20
330.3606614948
 30
0.0
 11
35.3486910331
 21
330.3606614948
 31
0.0
  0
LINE
  5
272
330
1F
100
AcDbEntity
  8
0
  6
SLD-Durchgehend
 62
     8
370
    18
100
AcDbLine
 10
40.3486862647
 20
330.6606628479
 30
0.0
 11
40.3486862647
 21
330.3606614948
 31
0.0
  0
LINE
  5
273
330
1F
100
AcDbEntity
  8
0
  6
SLD-Durchgehend
 62
     8
370
    18
100
AcDbLine
 10
40.3486862647
 20
252.9606625916
 30
0.0
 11
234.3820445108
 21
252.9606625916
 31
0.0
  0
LINE
  5
274
330
1F
100
AcDbEntity
  8
0
  6
SLD-Durchgehend
 62
     8
370
    18
100
AcDbLine
 10
40.3486862647
 20
252.9606625916
 30
0.0
 11
40.3486862647
 21
252.6606612385
 31
0.0
  0
LINE
  5
275
330
1F
100
AcDbEntity
  8
0
  6
SLD-Durchgehend
 62
     8
370
    18
100
AcDbLine
 10
40.3486862647
 20
258.360660869
 30
0.0
 11
40.3486862647
 21
252.9606625916
 31
0.0
  0
LINE
  5
276
330
1F
100
AcDbEntity
  8
0
  6
SLD-Durchgehend
 62
     8
370
    18
100
AcDbLine
 10
233.7650768328
 20
258.360660869
 30
0.0
 11
40.3486862647
 21
258.360660869
 31
0.0
  0
LINE
  5
277
330
1F
100
AcDbEntity
  8
0
  6
SLD-Durchgehend
 62
     8
370
    18
100
AcDbLine
 10
35.3486910331
 20
252.9606625916
 30
0.0
 11
40.3486862647
 21
252.9606625916
 31
0.0
  0
LINE
  5
278
330
1F
100
AcDbEntity
  8
0
  6
SLD-Durchgehend
 62
     8
370
    18
100
AcDbLine
 10
40.3486862647
 20
258.360660869
 30
0.0
 11
35.3486910331
 21
258.360660869
 31
0.0
  0
LINE
  5
279
330
1F
100
AcDbEntity
  8
0
  6
SLD-Durchgehend
 62
     8
370
    18
100
AcDbLine
 10
40.3486862647
 20
258.660662222
 30
0.0
 11
40.3486862647
 21
258.360660869
 31
0.0
  0
DIMENSION
  5
27A
330
1F
100
AcDbEntity
  8
0
  6
SLD-Durchgehend
 62
     7
370
    18
100
AcDbDimension
280
     0
  2
_D_2
 10
467.1544111645
 20
255.6606620432
 30
0.0
 11
467.1544111645
 21
291.7324618772
 31
0.0
 70
   160
  1
(<>)
 71
     2
 42
-1.0
 73
     0
 74
     0
 75
     0
  3
SLDDIMSTYLE0
100
AcDbAlignedDimension
 13
437.7882118356
 23
327.6606620432
 33
0.0
 14
437.7882118356
 24
255.6606620432
 34
0.0
 50
90.0
100
AcDbRotatedDimension
  0
DIMENSION
  5
286
330
1F
100
AcDbEntity
  8
0
  6
SLD-Durchgehend
 62
     7
370
    18
100
AcDbDimension
280
     0
  2
_D_3
 10
483.4418978552
 20
247.6606620432
 30
0.0
 11
483.4418978552
 21
291.7324618772
 31
0.0
 70
   160
  1
(<>)
 71
     2
 42
-1.0
 73
     0
 74
     0
 75
     0
  3
SLDDIMSTYLE0
100
AcDbAlignedDimension
 13
427.5882118356
 23
335.6606620432
 33
0.0
 14
427.5882118356
 24
247.6606620432
 34
0.0
 50
90.0
100
AcDbRotatedDimension
  0
INSERT
  5
29D
330
1F
100
AcDbEntity
  8
0
  6
Continuous
 62
     7
370
     0
100
AcDbBlockReference
  2
SW_CENTERMARKSYMBOL_0
 10
427.5882181298
 20
255.6606635929
 30
0.0
  0
INSERT
  5
2A9
330
1F
100
AcDbEntity
  8
0
  6
Continuous
 62
     7
370
     0
100
AcDbBlockReference
  2
SW_CENTERMARKSYMBOL_1
 10
427.5882181298
 20
327.6606604935
 30
0.0
  0
INSERT
  5
2B5
330
1F
100
AcDbEntity
  8
0
  6
Continuous
 62
     7
370
     0
100
AcDbBlockReference
  2
SW_CENTERMARKSYMBOL_2
 10
450.0882115733
 20
291.6606620432
 30
0.0
  0
LINE
  5
2B6
330
1F
100
AcDbEntity
  8
0
  6
SLD-Gestrichelt
 62
     7
370
    18
100
AcDbLine
 10
234.4174630668
 20
330.6606620432
 30
0.0
 11
236.4174630668
 21
313.1606620432
 31
0.0
  0
LINE
  5
2B7
330
1F
100
AcDbEntity
  8
0
  6
SLD-Gestrichelt
 62
     7
370
    18
100
AcDbLine
 10
236.4174630668
 20
313.1606620432
 30
0.0
 11
232.4174630668
 21
309.1606620432
 31
0.0
  0
LINE
  5
2B8
330
1F
100
AcDbEntity
  8
0
  6
SLD-Gestrichelt
 62
     7
370
    18
100
AcDbLine
 10
232.4174630668
 20
309.1606620432
 30
0.0
 11
236.4174630668
 21
274.1606620432
 31
0.0
  0
LINE
  5
2B9
330
1F
100
AcDbEntity
  8
0
  6
SLD-Gestrichelt
 62
     7
370
    18
100
AcDbLine
 10
236.4174630668
 20
274.1606620432
 30
0.0
 11
232.4174630668
 21
270.1606620432
 31
0.0
  0
LINE
  5
2BA
330
1F
100
AcDbEntity
  8
0
  6
SLD-Gestrichelt
 62
     7
370
    18
100
AcDbLine
 10
232.4174630668
 20
270.1606620432
 30
0.0
 11
234.4174630668
 21
252.6606620432
 31
0.0
  0
LINE
  5
2BB
330
1F
100
AcDbEntity
  8
0
  6
SLD-Gestrichelt
 62
     7
370
    18
100
AcDbLine
 10
244.4174630668
 20
330.6606620432
 30
0.0
 11
246.4174630668
 21
313.1606620432
 31
0.0
  0
LINE
  5
2BC
330
1F
100
AcDbEntity
  8
0
  6
SLD-Gestrichelt
 62
     7
370
    18
100
AcDbLine
 10
246.4174630668
 20
313.1606620432
 30
0.0
 11
242.4174630668
 21
309.1606620432
 31
0.0
  0
LINE
  5
2BD
330
1F
100
AcDbEntity
  8
0
  6
SLD-Gestrichelt
 62
     7
370
    18
100
AcDbLine
 10
242.4174630668
 20
309.1606620432
 30
0.0
 11
246.4174630668
 21
274.1606620432
 31
0.0
  0
LINE
  5
2BE
330
1F
100
AcDbEntity
  8
0
  6
SLD-Gestrichelt
 62
     7
370
    18
100
AcDbLine
 10
246.4174630668
 20
274.1606620432
 30
0.0
 11
242.4174630668
 21
270.1606620432
 31
0.0
  0
LINE
  5
2BF
330
1F
100
AcDbEntity
  8
0
  6
SLD-Gestrichelt
 62
     7
370
    18
100
AcDbLine
 10
242.4174630668
 20
270.1606620432
 30
0.0
 11
244.4174630668
 21
252.6606620432
 31
0.0
  0
ENDSEC
  0
SECTION
  2
OBJECTS
  0
DICTIONARY
  5
C
330
0
100
AcDbDictionary
281
     1
  3
ACAD_DETAILVIEWSTYLE
350
2C7
  3
ACAD_GROUP
350
D
  3
ACAD_LAYOUT
350
1A
  3
ACAD_MATERIAL
350
43
  3
ACAD_MLEADERSTYLE
350
6B
  3
ACAD_MLINESTYLE
350
17
  3
ACAD_PLOTSETTINGS
350
19
  3
ACAD_PLOTSTYLENAME
350
E
  3
ACAD_SCALELIST
350
47
  3
ACAD_SECTIONVIEWSTYLE
350
2C8
  3
ACAD_TABLESTYLE
350
69
  3
ACAD_VISUALSTYLE
350
2A
  3
ACDB_RECOMPOSE_DATA
350
2C4
  3
AcDbVariableDictionary
350
2C0
  0
SUN
  5
6D
330
29
100
AcDbSun
 90
        1
290
     0
 63
     7
421
 16777215
 40
1.0
291
     1
 91
  2455826
 92
 54000000
292
     0
 70
     2
 71
   256
280
     1
  0
DICTIONARY
  5
2C7
102
{ACAD_REACTORS
330
C
102
}
330
C
100
AcDbDictionary
281
     1
  0
DICTIONARY
  5
D
102
{ACAD_REACTORS
330
C
102
}
330
C
100
AcDbDictionary
281
     1
  0
DICTIONARY
  5
1A
102
{ACAD_REACTORS
330
C
102
}
330
C
100
AcDbDictionary
281
     1
  3
Layout1
350
1E
  3
Layout2
350
26
  3
Model
350
22
  0
DICTIONARY
  5
43
102
{ACAD_REACTORS
330
C
102
}
330
C
100
AcDbDictionary
281
     1
  3
ByBlock
350
45
  3
ByLayer
350
44
  3
Global
350
46
  0
DICTIONARY
  5
6B
102
{ACAD_REACTORS
330
C
102
}
330
C
100
AcDbDictionary
281
     1
  3
Standard
350
6C
  0
DICTIONARY
  5
17
102
{ACAD_REACTORS
330
C
102
}
330
C
100
AcDbDictionary
281
     1
  3
Standard
350
18
  0
DICTIONARY
  5
19
102
{ACAD_REACTORS
330
C
102
}
330
C
100
AcDbDictionary
281
     1
  0
ACDBDICTIONARYWDFLT
  5
E
102
{ACAD_REACTORS
330
C
102
}
330
C
100
AcDbDictionary
281
     1
  3
Normal
350
F
100
AcDbDictionaryWithDefault
340
F
  0
DICTIONARY
  5
47
102
{ACAD_REACTORS
330
C
102
}
330
C
100
AcDbDictionary
281
     1
  3
A0
350
48
  3
A1
350
49
  3
A2
350
4A
  3
A3
350
4B
  3
A4
350
4C
  3
A5
350
4D
  3
A6
350
4E
  3
A7
350
4F
  3
A8
350
50
  3
A9
350
51
  3
B0
350
52
  3
B1
350
53
  3
B2
350
54
  3
B3
350
55
  3
B4
350
56
  3
B5
350
57
  3
B6
350
58
  3
B7
350
59
  3
B8
350
5A
  3
B9
350
5B
  3
C0
350
5C
  3
C1
350
5D
  3
C2
350
5E
  3
C3
350
5F
  3
C4
350
60
  3
C5
350
61
  3
C6
350
62
  3
C7
350
63
  3
C8
350
64
  3
C9
350
65
  3
D0
350
66
  3
D1
350
67
  3
D2
350
68
  0
DICTIONARY
  5
2C8
102
{ACAD_REACTORS
330
C
102
}
330
C
100
AcDbDictionary
281
     1
  0
DICTIONARY
  5
69
102
{ACAD_REACTORS
330
C
102
}
330
C
100
AcDbDictionary
281
     1
  3
Standard
350
6A
  0
DICTIONARY
  5
2A
102
{ACAD_REACTORS
330
C
102
}
330
C
100
AcDbDictionary
281
     1
  3
2dWireframe
350
2F
  3
Basic
350
32
  3
Brighten
350
36
  3
ColorChange
350
3A
  3
Conceptual
350
34
  3
Dim
350
35
  3
EdgeColorOff
350
3D
  3
Facepattern
350
39
  3
Flat
350
2B
  3
FlatWithEdges
350
2C
  3
Gouraud
350
2D
  3
GouraudWithEdges
350
2E
  3
Hidden
350
31
  3
JitterOff
350
3B
  3
Linepattern
350
38
  3
OverhangOff
350
3C
  3
Realistic
350
33
  3
Shaded
350
42
  3
Shaded with edges
350
41
  3
Shades of Gray
350
3E
  3
Sketchy
350
3F
  3
Thicken
350
37
  3
Wireframe
350
30
  3
X-Ray
350
40
  0
XRECORD
  5
2C4
102
{ACAD_REACTORS
330
C
102
}
330
C
100
AcDbXrecord
280
     1
 90
        1
330
6A
  0
DICTIONARY
  5
2C0
102
{ACAD_REACTORS
330
C
102
}
330
C
100
AcDbDictionary
281
     1
  3
CANNOSCALE
350
2C1
  3
CENTEREXE
350
2C9
  3
CENTERLTYPEFILE
350
2CA
  3
CMLEADERSTYLE
350
2C6
  3
CTABLESTYLE
350
2C5
  0
LAYOUT
  5
1E
102
{ACAD_REACTORS
330
1A
102
}
330
1A
100
AcDbPlotSettings
  1

  2
none_device
  4

  6

 40
0.0
 41
0.0
 42
0.0
 43
0.0
 44
0.0
 45
0.0
 46
0.0
 47
0.0
 48
0.0
 49
0.0
140
0.0
141
0.0
142
1.0
143
1.0
 70
   688
 72
     1
 73
     0
 74
     5
  7

 75
    16
 76
     0
 77
     2
 78
   300
147
1.0
148
0.0
149
0.0
100
AcDbLayout
  1
Layout1
 70
     1
 71
     1
 10
0.0
 20
0.0
 11
420.0
 21
297.0
 12
0.0
 22
0.0
 32
0.0
 14
1.0000000000E+20
 24
1.0000000000E+20
 34
1.0000000000E+20
 15
-1.0000000000E+20
 25
-1.0000000000E+20
 35
-1.0000000000E+20
146
0.0
 13
0.0
 23
0.0
 33
0.0
 16
1.0
 26
0.0
 36
0.0
 17
0.0
 27
1.0
 37
0.0
 76
     0
330
1B
  0
LAYOUT
  5
26
102
{ACAD_REACTORS
330
1A
102
}
330
1A
100
AcDbPlotSettings
  1

  2
none_device
  4

  6

 40
0.0
 41
0.0
 42
0.0
 43
0.0
 44
0.0
 45
0.0
 46
0.0
 47
0.0
 48
0.0
 49
0.0
140
0.0
141
0.0
142
1.0
143
1.0
 70
   688
 72
     1
 73
     0
 74
     5
  7

 75
    16
 76
     0
 77
     2
 78
   300
147
1.0
148
0.0
149
0.0
100
AcDbLayout
  1
Layout2
 70
     1
 71
     2
 10
0.0
 20
0.0
 11
0.0
 21
0.0
 12
0.0
 22
0.0
 32
0.0
 14
0.0
 24
0.0
 34
0.0
 15
0.0
 25
0.0
 35
0.0
146
0.0
 13
0.0
 23
0.0
 33
0.0
 16
1.0
 26
0.0
 36
0.0
 17
0.0
 27
1.0
 37
0.0
 76
     0
330
23
  0
LAYOUT
  5
22
102
{ACAD_REACTORS
330
1A
102
}
330
1A
100
AcDbPlotSettings
  1

  2
none_device
  4
Letter_(8.50_x_11.00_Inches)
  6

 40
6.35
 41
6.35
 42
6.35000508
 43
6.35000508
 44
215.9
 45
279.4
 46
0.0
 47
0.0
 48
0.0
 49
0.0
140
0.0
141
0.0
142
1.0
143
1.0
 70
  1712
 72
     1
 73
     0
 74
     0
  7

 75
     0
 76
     0
 77
     2
 78
   300
147
1.0
148
0.0
149
0.0
100
AcDbLayout
  1
Model
 70
     1
 71
     0
 10
0.0
 20
0.0
 11
594.0
 21
420.0
 12
0.0
 22
0.0
 32
0.0
 14
0.0
 24
0.0
 34
0.0
 15
594.0
 25
420.0
 35
0.0
146
0.0
 13
0.0
 23
0.0
 33
0.0
 16
1.0
 26
0.0
 36
0.0
 17
0.0
 27
1.0
 37
0.0
 76
     0
330
1F
331
29
  0
MATERIAL
  5
45
102
{ACAD_REACTORS
330
43
102
}
330
43
100
AcDbMaterial
  1
ByBlock
 72
     1
 94
      127
  0
MATERIAL
  5
44
102
{ACAD_REACTORS
330
43
102
}
330
43
100
AcDbMaterial
  1
ByLayer
 72
     1
 94
      127
  0
MATERIAL
  5
46
102
{ACAD_REACTORS
330
43
102
}
330
43
100
AcDbMaterial
  1
Global
 72
     1
 94
      127
  0
MLEADERSTYLE
  5
6C
102
{ACAD_REACTORS
330
6B
102
}
330
6B
100
AcDbMLeaderStyle
179
     2
170
     2
171
     1
172
     0
 90
        2
 40
0.0
 41
0.0
173
     1
 91
-1056964608
340
14
 92
       -2
290
     1
 42
2.0
291
     1
 43
8.0
  3
Standard
341
0
 44
4.0
300

342
11
174
     1
178
     6
175
     1
176
     0
 93
-1056964608
 45
4.0
292
     0
297
     0
 46
4.0
343
0
 94
-1056964608
 47
1.0
 49
1.0
140
1.0
293
     1
141
0.0
294
     1
177
     0
142
1.0
295
     0
296
     0
143
3.75
271
     0
272
     9
273
     9
298
     0
  0
MLINESTYLE
  5
18
102
{ACAD_REACTORS
330
17
102
}
330
17
100
AcDbMlineStyle
  2
Standard
 70
     0
  3

 62
   256
 51
90.0
 52
90.0
 71
     2
 49
0.5
 62
   256
  6
BYLAYER
 49
-0.5
 62
   256
  6
BYLAYER
  0
ACDBPLACEHOLDER
  5
F
102
{ACAD_REACTORS
330
E
102
}
330
E
  0
SCALE
  5
48
102
{ACAD_REACTORS
330
47
102
}
330
47
100
AcDbScale
 70
     0
300
1:1
140
1.0
141
1.0
290
     1
  0
SCALE
  5
49
102
{ACAD_REACTORS
330
47
102
}
330
47
100
AcDbScale
 70
     0
300
1:2
140
1.0
141
2.0
290
     0
  0
SCALE
  5
4A
102
{ACAD_REACTORS
330
47
102
}
330
47
100
AcDbScale
 70
     0
300
1:4
140
1.0
141
4.0
290
     0
  0
SCALE
  5
4B
102
{ACAD_REACTORS
330
47
102
}
330
47
100
AcDbScale
 70
     0
300
1:5
140
1.0
141
5.0
290
     0
  0
SCALE
  5
4C
102
{ACAD_REACTORS
330
47
102
}
330
47
100
AcDbScale
 70
     0
300
1:8
140
1.0
141
8.0
290
     0
  0
SCALE
  5
4D
102
{ACAD_REACTORS
330
47
102
}
330
47
100
AcDbScale
 70
     0
300
1:10
140
1.0
141
10.0
290
     0
  0
SCALE
  5
4E
102
{ACAD_REACTORS
330
47
102
}
330
47
100
AcDbScale
 70
     0
300
1:16
140
1.0
141
16.0
290
     0
  0
SCALE
  5
4F
102
{ACAD_REACTORS
330
47
102
}
330
47
100
AcDbScale
 70
     0
300
1:20
140
1.0
141
20.0
290
     0
  0
SCALE
  5
50
102
{ACAD_REACTORS
330
47
102
}
330
47
100
AcDbScale
 70
     0
300
1:30
140
1.0
141
30.0
290
     0
  0
SCALE
  5
51
102
{ACAD_REACTORS
330
47
102
}
330
47
100
AcDbScale
 70
     0
300
1:40
140
1.0
141
40.0
290
     0
  0
SCALE
  5
52
102
{ACAD_REACTORS
330
47
102
}
330
47
100
AcDbScale
 70
     0
300
1:50
140
1.0
141
50.0
290
     0
  0
SCALE
  5
53
102
{ACAD_REACTORS
330
47
102
}
330
47
100
AcDbScale
 70
     0
300
1:100
140
1.0
141
100.0
290
     0
  0
SCALE
  5
54
102
{ACAD_REACTORS
330
47
102
}
330
47
100
AcDbScale
 70
     0
300
2:1
140
2.0
141
1.0
290
     0
  0
SCALE
  5
55
102
{ACAD_REACTORS
330
47
102
}
330
47
100
AcDbScale
 70
     0
300
4:1
140
4.0
141
1.0
290
     0
  0
SCALE
  5
56
102
{ACAD_REACTORS
330
47
102
}
330
47
100
AcDbScale
 70
     0
300
8:1
140
8.0
141
1.0
290
     0
  0
SCALE
  5
57
102
{ACAD_REACTORS
330
47
102
}
330
47
100
AcDbScale
 70
     0
300
10:1
140
10.0
141
1.0
290
     0
  0
SCALE
  5
58
102
{ACAD_REACTORS
330
47
102
}
330
47
100
AcDbScale
 70
     0
300
100:1
140
100.0
141
1.0
290
     0
  0
SCALE
  5
59
102
{ACAD_REACTORS
330
47
102
}
330
47
100
AcDbScale
 70
     0
300
1/128" = 1'-0"
140
0.0078125
141
12.0
290
     0
  0
SCALE
  5
5A
102
{ACAD_REACTORS
330
47
102
}
330
47
100
AcDbScale
 70
     0
300
1/64" = 1'-0"
140
0.015625
141
12.0
290
     0
  0
SCALE
  5
5B
102
{ACAD_REACTORS
330
47
102
}
330
47
100
AcDbScale
 70
     0
300
1/32" = 1'-0"
140
0.03125
141
12.0
290
     0
  0
SCALE
  5
5C
102
{ACAD_REACTORS
330
47
102
}
330
47
100
AcDbScale
 70
     0
300
1/16" = 1'-0"
140
0.0625
141
12.0
290
     0
  0
SCALE
  5
5D
102
{ACAD_REACTORS
330
47
102
}
330
47
100
AcDbScale
 70
     0
300
3/32" = 1'-0"
140
0.09375
141
12.0
290
     0
  0
SCALE
  5
5E
102
{ACAD_REACTORS
330
47
102
}
330
47
100
AcDbScale
 70
     0
300
1/8" = 1'-0"
140
0.125
141
12.0
290
     0
  0
SCALE
  5
5F
102
{ACAD_REACTORS
330
47
102
}
330
47
100
AcDbScale
 70
     0
300
3/16" = 1'-0"
140
0.1875
141
12.0
290
     0
  0
SCALE
  5
60
102
{ACAD_REACTORS
330
47
102
}
330
47
100
AcDbScale
 70
     0
300
1/4" = 1'-0"
140
0.25
141
12.0
290
     0
  0
SCALE
  5
61
102
{ACAD_REACTORS
330
47
102
}
330
47
100
AcDbScale
 70
     0
300
3/8" = 1'-0"
140
0.375
141
12.0
290
     0
  0
SCALE
  5
62
102
{ACAD_REACTORS
330
47
102
}
330
47
100
AcDbScale
 70
     0
300
1/2" = 1'-0"
140
0.5
141
12.0
290
     0
  0
SCALE
  5
63
102
{ACAD_REACTORS
330
47
102
}
330
47
100
AcDbScale
 70
     0
300
3/4" = 1'-0"
140
0.75
141
12.0
290
     0
  0
SCALE
  5
64
102
{ACAD_REACTORS
330
47
102
}
330
47
100
AcDbScale
 70
     0
300
1" = 1'-0"
140
1.0
141
12.0
290
     0
  0
SCALE
  5
65
102
{ACAD_REACTORS
330
47
102
}
330
47
100
AcDbScale
 70
     0
300
1-1/2" = 1'-0"
140
1.5
141
12.0
290
     0
  0
SCALE
  5
66
102
{ACAD_REACTORS
330
47
102
}
330
47
100
AcDbScale
 70
     0
300
3" = 1'-0"
140
3.0
141
12.0
290
     0
  0
SCALE
  5
67
102
{ACAD_REACTORS
330
47
102
}
330
47
100
AcDbScale
 70
     0
300
6" = 1'-0"
140
6.0
141
12.0
290
     0
  0
SCALE
  5
68
102
{ACAD_REACTORS
330
47
102
}
330
47
100
AcDbScale
 70
     0
300
1'-0" = 1'-0"
140
12.0
141
12.0
290
     0
  0
TABLESTYLE
  5
6A
102
{ACAD_REACTORS
330
69
102
}
102
{ACAD_XDICTIONARY
360
2C2
102
}
330
69
100
AcDbTableStyle
  3
Standard
 70
     0
 71
     0
 40
0.06
 41
0.06
280
     0
281
     0
  7
Standard
140
4.5
170
     2
 62
     0
 63
   257
283
     0
 90
        4
 91
        0
  1

274
    -2
284
     1
 64
     0
275
    -2
285
     1
 65
     0
276
    -2
286
     1
 66
     0
277
    -2
287
     1
 67
     0
278
    -2
288
     1
 68
     0
279
    -2
289
     1
 69
     0
  7
Standard
140
6.0
170
     5
 62
     0
 63
   257
283
     0
 90
        4
 91
        0
  1

274
    -2
284
     1
 64
     0
275
    -2
285
     1
 65
     0
276
    -2
286
     1
 66
     0
277
    -2
287
     1
 67
     0
278
    -2
288
     1
 68
     0
279
    -2
289
     1
 69
     0
  7
Standard
140
4.5
170
     5
 62
     0
 63
   257
283
     0
 90
        4
 91
        0
  1

274
    -2
284
     1
 64
     0
275
    -2
285
     1
 65
     0
276
    -2
286
     1
 66
     0
277
    -2
287
     1
 67
     0
278
    -2
288
     1
 68
     0
279
    -2
289
     1
 69
     0
  0
VISUALSTYLE
  5
2F
102
{ACAD_REACTORS
330
2A
102
}
330
2A
100
AcDbVisualStyle
  2
2dWireframe
 70
     4
177
     3
291
     0
 70
    58
 90
        0
176
     1
 90
        2
176
     1
 90
        0
176
     1
 90
        0
176
     1
 40
0.6
176
     1
 40
30.0
176
     1
 62
     7
420
 16777215
176
     1
 90
        1
176
     1
 90
        4
176
     1
 62
     7
176
     1
 62
   257
176
     1
 90
        1
176
     1
 90
        1
176
     1
 40
1.0
176
     1
 90
        0
176
     1
 62
   257
176
     1
 40
1.0
176
     1
 90
        1
176
     1
 90
        6
176
     1
 90
        2
176
     1
 62
     7
176
     1
 90
        5
176
     1
 90
        0
176
     1
 90
        0
176
     1
290
     0
176
     1
 90
        1
176
     1
 40
0.0
176
     1
 90
        0
176
     1
290
     1
176
     1
290
     1
176
     1
290
     0
176
     1
290
     0
176
     1
290
     0
176
     1
290
     0
176
     1
290
     0
176
     1
290
     0
176
     1
290
     0
176
     1
 90
       50
176
     1
 40
0.0
176
     1
 40
1.0
176
     1
 90
        0
176
     1
 62
    18
420
        0
176
     1
 90
       50
176
     1
 90
        3
176
     1
 62
     5
420
      255
176
     1
290
     0
176
     1
 90
       50
176
     1
 90
       50
176
     1
 90
       50
176
     1
290
     0
176
     1
 90
       50
176
     1
 62
   256
176
     0
 40
1.0
176
     0
 90
        2
176
     1
  1
strokes_ogs.tif
176
     1
290
     0
176
     1
 40
1.0
176
     1
 40
1.0
176
     1
  0
VISUALSTYLE
  5
32
102
{ACAD_REACTORS
330
2A
102
}
330
2A
100
AcDbVisualStyle
  2
Basic
 70
     7
177
     3
291
     1
 70
    58
 90
        1
176
     1
 90
        0
176
     1
 90
        1
176
     1
 90
        0
176
     1
 40
0.6
176
     1
 40
30.0
176
     1
 62
     7
420
 16777215
176
     1
 90
        0
176
     1
 90
        4
176
     1
 62
     7
176
     1
 62
   257
176
     1
 90
        1
176
     1
 90
        1
176
     1
 40
1.0
176
     1
 90
        8
176
     1
 62
     7
176
     1
 40
1.0
176
     1
 90
        1
176
     1
 90
        6
176
     1
 90
        2
176
     1
 62
     7
176
     1
 90
        5
176
     1
 90
        0
176
     1
 90
        0
176
     1
290
     0
176
     1
 90
        1
176
     1
 40
0.0
176
     1
 90
        0
176
     1
290
     0
176
     1
290
     1
176
     1
290
     1
176
     1
290
     0
176
     1
290
     0
176
     1
290
     0
176
     1
290
     0
176
     1
290
     0
176
     1
290
     0
176
     1
 90
       50
176
     1
 40
0.0
176
     1
 40
1.0
176
     1
 90
        0
176
     1
 62
    18
420
        0
176
     1
 90
       50
176
     1
 90
        3
176
     1
 62
     5
420
      255
176
     1
290
     0
176
     1
 90
       50
176
     1
 90
       50
176
     1
 90
       50
176
     1
290
     0
176
     1
 90
       50
176
     1
 62
   256
176
     0
 40
1.0
176
     0
 90
        2
176
     1
  1
strokes_ogs.tif
176
     1
290
     0
176
     1
 40
1.0
176
     1
 40
1.0
176
     1
  0
VISUALSTYLE
  5
36
102
{ACAD_REACTORS
330
2A
102
}
330
2A
100
AcDbVisualStyle
  2
Brighten
 70
    12
177
     3
291
     1
 70
    58
 90
        2
176
     1
 90
        2
176
     1
 90
        0
176
     1
 90
        0
176
     1
 40
0.6
176
     1
 40
30.0
176
     1
 62
     7
420
 16777215
176
     1
 90
        1
176
     1
 90
        4
176
     1
 62
     7
176
     1
 62
   257
176
     1
 90
        1
176
     1
 90
        1
176
     1
 40
1.0
176
     1
 90
        8
176
     1
 62
     7
176
     1
 40
1.0
176
     1
 90
        1
176
     1
 90
        6
176
     1
 90
        2
176
     1
 62
     7
176
     1
 90
        5
176
     1
 90
        0
176
     1
 90
        0
176
     1
290
     0
176
     1
 90
        1
176
     1
 40
50.0
176
     1
 90
        0
176
     1
290
     0
176
     1
290
     1
176
     1
290
     1
176
     1
290
     0
176
     1
290
     0
176
     1
290
     0
176
     1
290
     0
176
     1
290
     0
176
     1
290
     0
176
     1
 90
       50
176
     1
 40
0.0
176
     1
 40
1.0
176
     1
 90
        0
176
     1
 62
    18
420
        0
176
     1
 90
       50
176
     1
 90
        3
176
     1
 62
     5
420
      255
176
     1
290
     0
176
     1
 90
       50
176
     1
 90
       50
176
     1
 90
       50
176
     1
290
     0
176
     1
 90
       50
176
     1
 62
   256
176
     0
 40
1.0
176
     0
 90
        2
176
     1
  1
strokes_ogs.tif
176
     1
290
     0
176
     1
 40
1.0
176
     1
 40
1.0
176
     1
  0
VISUALSTYLE
  5
3A
102
{ACAD_REACTORS
330
2A
102
}
330
2A
100
AcDbVisualStyle
  2
ColorChange
 70
    16
177
     3
291
     1
 70
    58
 90
        2
176
     1
 90
        2
176
     1
 90
        3
176
     1
 90
        0
176
     1
 40
0.6
176
     1
 40
30.0
176
     1
 62
     8
420
  8421504
176
     1
 90
        1
176
     1
 90
        4
176
     1
 62
     7
176
     1
 62
   257
176
     1
 90
        1
176
     1
 90
        1
176
     1
 40
1.0
176
     1
 90
        8
176
     1
 62
     8
420
  8421504
176
     1
 40
1.0
176
     1
 90
        1
176
     1
 90
        6
176
     1
 90
        2
176
     1
 62
     7
176
     1
 90
        5
176
     1
 90
        0
176
     1
 90
        0
176
     1
290
     0
176
     1
 90
        1
176
     1
 40
0.0
176
     1
 90
        0
176
     1
290
     0
176
     1
290
     1
176
     1
290
     1
176
     1
290
     0
176
     1
290
     0
176
     1
290
     0
176
     1
290
     0
176
     1
290
     0
176
     1
290
     0
176
     1
 90
       50
176
     1
 40
0.0
176
     1
 40
1.0
176
     1
 90
        0
176
     1
 62
    18
420
        0
176
     1
 90
       50
176
     1
 90
        3
176
     1
 62
     5
420
      255
176
     1
290
     0
176
     1
 90
       50
176
     1
 90
       50
176
     1
 90
       50
176
     1
290
     0
176
     1
 90
       50
176
     1
 62
   256
176
     0
 40
1.0
176
     0
 90
        2
176
     1
  1
strokes_ogs.tif
176
     1
290
     0
176
     1
 40
1.0
176
     1
 40
1.0
176
     1
  0
VISUALSTYLE
  5
34
102
{ACAD_REACTORS
330
2A
102
}
330
2A
100
AcDbVisualStyle
  2
Conceptual
 70
     9
177
     3
291
     0
 70
    58
 90
        3
176
     1
 90
        2
176
     1
 90
        0
176
     1
 90
        0
176
     1
 40
0.6
176
     1
 40
30.0
176
     1
 62
     7
420
 16777215
176
     1
 90
        2
176
     1
 90
        2
176
     1
 62
     7
176
     1
 62
   257
176
     1
 90
        1
176
     1
 90
        1
176
     1
 40
179.0
176
     1
 90
        8
176
     1
 62
     7
176
     1
 40
1.0
176
     1
 90
        1
176
     1
 90
        6
176
     1
 90
        2
176
     1
 62
     7
176
     1
 90
        3
176
     1
 90
        0
176
     1
 90
        0
176
     1
290
     0
176
     1
 90
        1
176
     1
 40
0.0
176
     1
 90
        0
176
     1
290
     0
176
     1
290
     1
176
     1
290
     1
176
     1
290
     0
176
     1
290
     0
176
     1
290
     0
176
     1
290
     0
176
     1
290
     0
176
     1
290
     0
176
     1
 90
       50
176
     1
 40
0.0
176
     1
 40
1.0
176
     1
 90
        0
176
     1
 62
    18
420
        0
176
     1
 90
       50
176
     1
 90
        3
176
     1
 62
     5
420
      255
176
     1
290
     0
176
     1
 90
       50
176
     1
 90
       50
176
     1
 90
       50
176
     1
290
     0
176
     1
 90
       50
176
     1
 62
   256
176
     0
 40
1.0
176
     0
 90
        2
176
     1
  1
strokes_ogs.tif
176
     1
290
     0
176
     1
 40
1.0
176
     1
 40
1.0
176
     1
  0
VISUALSTYLE
  5
35
102
{ACAD_REACTORS
330
2A
102
}
330
2A
100
AcDbVisualStyle
  2
Dim
 70
    11
177
     3
291
     1
 70
    58
 90
        2
176
     1
 90
        2
176
     1
 90
        0
176
     1
 90
        0
176
     1
 40
0.6
176
     1
 40
30.0
176
     1
 62
     7
420
 16777215
176
     1
 90
        1
176
     1
 90
        4
176
     1
 62
     7
176
     1
 62
   257
176
     1
 90
        1
176
     1
 90
        1
176
     1
 40
1.0
176
     1
 90
        8
176
     1
 62
     7
176
     1
 40
1.0
176
     1
 90
        1
176
     1
 90
        6
176
     1
 90
        2
176
     1
 62
     7
176
     1
 90
        5
176
     1
 90
        0
176
     1
 90
        0
176
     1
290
     0
176
     1
 90
        1
176
     1
 40
-50.0
176
     1
 90
        0
176
     1
290
     0
176
     1
290
     1
176
     1
290
     1
176
     1
290
     0
176
     1
290
     0
176
     1
290
     0
176
     1
290
     0
176
     1
290
     0
176
     1
290
     0
176
     1
 90
       50
176
     1
 40
0.0
176
     1
 40
1.0
176
     1
 90
        0
176
     1
 62
    18
420
        0
176
     1
 90
       50
176
     1
 90
        3
176
     1
 62
     5
420
      255
176
     1
290
     0
176
     1
 90
       50
176
     1
 90
       50
176
     1
 90
       50
176
     1
290
     0
176
     1
 90
       50
176
     1
 62
   256
176
     0
 40
1.0
176
     0
 90
        2
176
     1
  1
strokes_ogs.tif
176
     1
290
     0
176
     1
 40
1.0
176
     1
 40
1.0
176
     1
  0
VISUALSTYLE
  5
3D
102
{ACAD_REACTORS
330
2A
102
}
330
2A
100
AcDbVisualStyle
  2
EdgeColorOff
 70
    22
177
     3
291
     1
 70
    58
 90
        2
176
     0
 90
        2
176
     0
 90
        0
176
     0
 90
        0
176
     0
 40
0.6
176
     0
 40
30.0
176
     0
 62
     7
420
 16777215
176
     0
 90
        1
176
     0
 90
        4
176
     0
 62
     7
176
     0
 62
   257
176
     0
 90
        1
176
     0
 90
        1
176
     0
 40
1.0
176
     0
 90
        8
176
     2
 62
     7
176
     0
 40
1.0
176
     0
 90
        1
176
     0
 90
        6
176
     0
 90
        2
176
     0
 62
     7
176
     0
 90
        5
176
     0
 90
        0
176
     0
 90
        0
176
     0
290
     0
176
     0
 90
        1
176
     0
 40
0.0
176
     0
 90
        0
176
     0
290
     0
176
     0
290
     1
176
     0
290
     1
176
     0
290
     0
176
     0
290
     0
176
     0
290
     0
176
     0
290
     0
176
     0
290
     0
176
     0
290
     0
176
     0
 90
       50
176
     0
 40
0.0
176
     0
 40
1.0
176
     0
 90
        0
176
     0
 62
    18
420
        0
176
     0
 90
       50
176
     0
 90
        3
176
     0
 62
     5
420
      255
176
     0
290
     0
176
     0
 90
       50
176
     0
 90
       50
176
     0
 90
       50
176
     0
290
     0
176
     0
 90
       50
176
     0
 62
   256
176
     0
 40
1.0
176
     0
 90
        2
176
     0
  1
strokes_ogs.tif
176
     0
290
     0
176
     0
 40
1.0
176
     0
 40
1.0
176
     0
  0
VISUALSTYLE
  5
39
102
{ACAD_REACTORS
330
2A
102
}
330
2A
100
AcDbVisualStyle
  2
Facepattern
 70
    15
177
     3
291
     1
 70
    58
 90
        2
176
     1
 90
        2
176
     1
 90
        0
176
     1
 90
        0
176
     1
 40
0.6
176
     1
 40
30.0
176
     1
 62
     7
420
 16777215
176
     1
 90
        1
176
     1
 90
        4
176
     1
 62
     7
176
     1
 62
   257
176
     1
 90
        1
176
     1
 90
        1
176
     1
 40
1.0
176
     1
 90
        8
176
     1
 62
     7
176
     1
 40
1.0
176
     1
 90
        1
176
     1
 90
        6
176
     1
 90
        2
176
     1
 62
     7
176
     1
 90
        5
176
     1
 90
        0
176
     1
 90
        0
176
     1
290
     0
176
     1
 90
        1
176
     1
 40
0.0
176
     1
 90
        0
176
     1
290
     0
176
     1
290
     1
176
     1
290
     1
176
     1
290
     0
176
     1
290
     0
176
     1
290
     0
176
     1
290
     0
176
     1
290
     0
176
     1
290
     0
176
     1
 90
       50
176
     1
 40
0.0
176
     1
 40
1.0
176
     1
 90
        0
176
     1
 62
    18
420
        0
176
     1
 90
       50
176
     1
 90
        3
176
     1
 62
     5
420
      255
176
     1
290
     0
176
     1
 90
       50
176
     1
 90
       50
176
     1
 90
       50
176
     1
290
     0
176
     1
 90
       50
176
     1
 62
   256
176
     0
 40
1.0
176
     0
 90
        2
176
     1
  1
strokes_ogs.tif
176
     1
290
     0
176
     1
 40
1.0
176
     1
 40
1.0
176
     1
  0
VISUALSTYLE
  5
2B
102
{ACAD_REACTORS
330
2A
102
}
330
2A
100
AcDbVisualStyle
  2
Flat
 70
     0
177
     3
291
     1
 70
    58
 90
        2
176
     1
 90
        1
176
     1
 90
        1
176
     1
 90
        2
176
     1
 40
0.6
176
     1
 40
30.0
176
     1
 62
     7
420
 16777215
176
     1
 90
        0
176
     1
 90
        0
176
     1
 62
     7
176
     1
 62
   257
176
     1
 90
        1
176
     1
 90
        1
176
     1
 40
1.0
176
     1
 90
        8
176
     1
 62
     7
176
     1
 40
1.0
176
     1
 90
        1
176
     1
 90
        6
176
     1
 90
        2
176
     1
 62
     7
176
     1
 90
        5
176
     1
 90
        0
176
     1
 90
        0
176
     1
290
     0
176
     1
 90
       13
176
     1
 40
0.0
176
     1
 90
        0
176
     1
290
     0
176
     1
290
     1
176
     1
290
     1
176
     1
290
     0
176
     1
290
     0
176
     1
290
     0
176
     1
290
     0
176
     1
290
     0
176
     1
290
     0
176
     1
 90
       50
176
     1
 40
0.0
176
     1
 40
1.0
176
     1
 90
        0
176
     1
 62
    18
420
        0
176
     1
 90
       50
176
     1
 90
        3
176
     1
 62
     5
420
      255
176
     1
290
     0
176
     1
 90
       50
176
     1
 90
       50
176
     1
 90
       50
176
     1
290
     0
176
     1
 90
       50
176
     1
 62
   256
176
     0
 40
1.0
176
     0
 90
        2
176
     1
  1
strokes_ogs.tif
176
     1
290
     0
176
     1
 40
1.0
176
     1
 40
1.0
176
     1
  0
VISUALSTYLE
  5
2C
102
{ACAD_REACTORS
330
2A
102
}
330
2A
100
AcDbVisualStyle
  2
FlatWithEdges
 70
     1
177
     3
291
     1
 70
    58
 90
        2
176
     1
 90
        1
176
     1
 90
        1
176
     1
 90
        2
176
     1
 40
0.6
176
     1
 40
30.0
176
     1
 62
     7
420
 16777215
176
     1
 90
        1
176
     1
 90
        0
176
     1
 62
     7
176
     1
 62
   257
176
     1
 90
        1
176
     1
 90
        1
176
     1
 40
1.0
176
     1
 90
        0
176
     1
 62
   257
176
     1
 40
1.0
176
     1
 90
        1
176
     1
 90
        6
176
     1
 90
        2
176
     1
 62
     7
176
     1
 90
        5
176
     1
 90
        0
176
     1
 90
        0
176
     1
290
     0
176
     1
 90
       13
176
     1
 40
0.0
176
     1
 90
        0
176
     1
290
     0
176
     1
290
     1
176
     1
290
     1
176
     1
290
     0
176
     1
290
     0
176
     1
290
     0
176
     1
290
     0
176
     1
290
     0
176
     1
290
     0
176
     1
 90
       50
176
     1
 40
0.0
176
     1
 40
1.0
176
     1
 90
        0
176
     1
 62
    18
420
        0
176
     1
 90
       50
176
     1
 90
        3
176
     1
 62
     5
420
      255
176
     1
290
     0
176
     1
 90
       50
176
     1
 90
       50
176
     1
 90
       50
176
     1
290
     0
176
     1
 90
       50
176
     1
 62
   256
176
     0
 40
1.0
176
     0
 90
        2
176
     1
  1
strokes_ogs.tif
176
     1
290
     0
176
     1
 40
1.0
176
     1
 40
1.0
176
     1
  0
VISUALSTYLE
  5
2D
102
{ACAD_REACTORS
330
2A
102
}
330
2A
100
AcDbVisualStyle
  2
Gouraud
 70
     2
177
     3
291
     1
 70
    58
 90
        2
176
     1
 90
        2
176
     1
 90
        1
176
     1
 90
        2
176
     1
 40
0.6
176
     1
 40
30.0
176
     1
 62
     7
420
 16777215
176
     1
 90
        0
176
     1
 90
        0
176
     1
 62
     7
176
     1
 62
   257
176
     1
 90
        1
176
     1
 90
        1
176
     1
 40
1.0
176
     1
 90
        0
176
     1
 62
     7
176
     1
 40
1.0
176
     1
 90
        1
176
     1
 90
        6
176
     1
 90
        2
176
     1
 62
     7
176
     1
 90
        5
176
     1
 90
        0
176
     1
 90
        0
176
     1
290
     0
176
     1
 90
       13
176
     1
 40
0.0
176
     1
 90
        0
176
     1
290
     0
176
     1
290
     1
176
     1
290
     1
176
     1
290
     0
176
     1
290
     0
176
     1
290
     0
176
     1
290
     0
176
     1
290
     0
176
     1
290
     0
176
     1
 90
       50
176
     1
 40
0.0
176
     1
 40
1.0
176
     1
 90
        0
176
     1
 62
    18
420
        0
176
     1
 90
       50
176
     1
 90
        3
176
     1
 62
     5
420
      255
176
     1
290
     0
176
     1
 90
       50
176
     1
 90
       50
176
     1
 90
       50
176
     1
290
     0
176
     1
 90
       50
176
     1
 62
   256
176
     0
 40
1.0
176
     0
 90
        2
176
     1
  1
strokes_ogs.tif
176
     1
290
     0
176
     1
 40
1.0
176
     1
 40
1.0
176
     1
  0
VISUALSTYLE
  5
2E
102
{ACAD_REACTORS
330
2A
102
}
330
2A
100
AcDbVisualStyle
  2
GouraudWithEdges
 70
     3
177
     3
291
     1
 70
    58
 90
        2
176
     1
 90
        2
176
     1
 90
        1
176
     1
 90
        2
176
     1
 40
0.6
176
     1
 40
30.0
176
     1
 62
     7
420
 16777215
176
     1
 90
        1
176
     1
 90
        0
176
     1
 62
     7
176
     1
 62
   257
176
     1
 90
        1
176
     1
 90
        1
176
     1
 40
1.0
176
     1
 90
        0
176
     1
 62
   257
176
     1
 40
1.0
176
     1
 90
        1
176
     1
 90
        6
176
     1
 90
        2
176
     1
 62
     7
176
     1
 90
        5
176
     1
 90
        0
176
     1
 90
        0
176
     1
290
     0
176
     1
 90
       13
176
     1
 40
0.0
176
     1
 90
        0
176
     1
290
     0
176
     1
290
     1
176
     1
290
     1
176
     1
290
     0
176
     1
290
     0
176
     1
290
     0
176
     1
290
     0
176
     1
290
     0
176
     1
290
     0
176
     1
 90
       50
176
     1
 40
0.0
176
     1
 40
1.0
176
     1
 90
        0
176
     1
 62
    18
420
        0
176
     1
 90
       50
176
     1
 90
        3
176
     1
 62
     5
420
      255
176
     1
290
     0
176
     1
 90
       50
176
     1
 90
       50
176
     1
 90
       50
176
     1
290
     0
176
     1
 90
       50
176
     1
 62
   256
176
     0
 40
1.0
176
     0
 90
        2
176
     1
  1
strokes_ogs.tif
176
     1
290
     0
176
     1
 40
1.0
176
     1
 40
1.0
176
     1
  0
VISUALSTYLE
  5
31
102
{ACAD_REACTORS
330
2A
102
}
330
2A
100
AcDbVisualStyle
  2
Hidden
 70
     6
177
     3
291
     0
 70
    58
 90
        1
176
     1
 90
        2
176
     1
 90
        2
176
     1
 90
        0
176
     1
 40
0.6
176
     1
 40
30.0
176
     1
 62
     7
420
 16777215
176
     1
 90
        2
176
     1
 90
        2
176
     1
 62
     7
176
     1
 62
   257
176
     1
 90
        2
176
     1
 90
        1
176
     1
 40
40.0
176
     1
 90
        0
176
     1
 62
   257
176
     1
 40
1.0
176
     1
 90
        1
176
     1
 90
        6
176
     1
 90
        2
176
     1
 62
     7
176
     1
 90
        3
176
     1
 90
        0
176
     1
 90
        0
176
     1
290
     0
176
     1
 90
        1
176
     1
 40
0.0
176
     1
 90
        0
176
     1
290
     0
176
     1
290
     1
176
     1
290
     1
176
     1
290
     0
176
     1
290
     0
176
     1
290
     0
176
     1
290
     0
176
     1
290
     0
176
     1
290
     0
176
     1
 90
       50
176
     1
 40
0.0
176
     1
 40
1.0
176
     1
 90
        0
176
     1
 62
    18
420
        0
176
     1
 90
       50
176
     1
 90
        3
176
     1
 62
     5
420
      255
176
     1
290
     0
176
     1
 90
       50
176
     1
 90
       50
176
     1
 90
       50
176
     1
290
     0
176
     1
 90
       50
176
     1
 62
   256
176
     0
 40
1.0
176
     0
 90
        2
176
     1
  1
strokes_ogs.tif
176
     1
290
     0
176
     1
 40
1.0
176
     1
 40
1.0
176
     1
  0
VISUALSTYLE
  5
3B
102
{ACAD_REACTORS
330
2A
102
}
330
2A
100
AcDbVisualStyle
  2
JitterOff
 70
    20
177
     3
291
     1
 70
    58
 90
        2
176
     0
 90
        2
176
     0
 90
        0
176
     0
 90
        0
176
     0
 40
0.6
176
     0
 40
30.0
176
     0
 62
     7
420
 16777215
176
     0
 90
        1
176
     0
 90
        4
176
     0
 62
     7
176
     0
 62
   257
176
     0
 90
        1
176
     0
 90
        1
176
     0
 40
1.0
176
     0
 90
       10
176
     2
 62
     7
176
     0
 40
1.0
176
     0
 90
        1
176
     0
 90
        6
176
     0
 90
        2
176
     0
 62
     7
176
     0
 90
        5
176
     0
 90
        0
176
     0
 90
        0
176
     0
290
     0
176
     0
 90
        1
176
     0
 40
0.0
176
     0
 90
        0
176
     0
290
     0
176
     0
290
     1
176
     0
290
     1
176
     0
290
     0
176
     0
290
     0
176
     0
290
     0
176
     0
290
     0
176
     0
290
     0
176
     0
290
     0
176
     0
 90
       50
176
     0
 40
0.0
176
     0
 40
1.0
176
     0
 90
        0
176
     0
 62
    18
420
        0
176
     0
 90
       50
176
     0
 90
        3
176
     0
 62
     5
420
      255
176
     0
290
     0
176
     0
 90
       50
176
     0
 90
       50
176
     0
 90
       50
176
     0
290
     0
176
     0
 90
       50
176
     0
 62
   256
176
     0
 40
1.0
176
     0
 90
        2
176
     0
  1
strokes_ogs.tif
176
     0
290
     0
176
     0
 40
1.0
176
     0
 40
1.0
176
     0
  0
VISUALSTYLE
  5
38
102
{ACAD_REACTORS
330
2A
102
}
330
2A
100
AcDbVisualStyle
  2
Linepattern
 70
    14
177
     3
291
     1
 70
    58
 90
        2
176
     1
 90
        2
176
     1
 90
        0
176
     1
 90
        0
176
     1
 40
0.6
176
     1
 40
30.0
176
     1
 62
     7
420
 16777215
176
     1
 90
        1
176
     1
 90
        4
176
     1
 62
     7
176
     1
 62
   257
176
     1
 90
        7
176
     1
 90
        7
176
     1
 40
1.0
176
     1
 90
        8
176
     1
 62
     7
176
     1
 40
1.0
176
     1
 90
        1
176
     1
 90
        6
176
     1
 90
        2
176
     1
 62
     7
176
     1
 90
        5
176
     1
 90
        0
176
     1
 90
        0
176
     1
290
     0
176
     1
 90
        1
176
     1
 40
0.0
176
     1
 90
        0
176
     1
290
     0
176
     1
290
     1
176
     1
290
     1
176
     1
290
     0
176
     1
290
     0
176
     1
290
     0
176
     1
290
     0
176
     1
290
     0
176
     1
290
     0
176
     1
 90
       50
176
     1
 40
0.0
176
     1
 40
1.0
176
     1
 90
        0
176
     1
 62
    18
420
        0
176
     1
 90
       50
176
     1
 90
        3
176
     1
 62
     5
420
      255
176
     1
290
     0
176
     1
 90
       50
176
     1
 90
       50
176
     1
 90
       50
176
     1
290
     0
176
     1
 90
       50
176
     1
 62
   256
176
     0
 40
1.0
176
     0
 90
        2
176
     1
  1
strokes_ogs.tif
176
     1
290
     0
176
     1
 40
1.0
176
     1
 40
1.0
176
     1
  0
VISUALSTYLE
  5
3C
102
{ACAD_REACTORS
330
2A
102
}
330
2A
100
AcDbVisualStyle
  2
OverhangOff
 70
    21
177
     3
291
     1
 70
    58
 90
        2
176
     0
 90
        2
176
     0
 90
        0
176
     0
 90
        0
176
     0
 40
0.6
176
     0
 40
30.0
176
     0
 62
     7
420
 16777215
176
     0
 90
        1
176
     0
 90
        4
176
     0
 62
     7
176
     0
 62
   257
176
     0
 90
        1
176
     0
 90
        1
176
     0
 40
1.0
176
     0
 90
        9
176
     2
 62
     7
176
     0
 40
1.0
176
     0
 90
        1
176
     0
 90
        6
176
     0
 90
        2
176
     0
 62
     7
176
     0
 90
        5
176
     0
 90
        0
176
     0
 90
        0
176
     0
290
     0
176
     0
 90
        1
176
     0
 40
0.0
176
     0
 90
        0
176
     0
290
     0
176
     0
290
     1
176
     0
290
     1
176
     0
290
     0
176
     0
290
     0
176
     0
290
     0
176
     0
290
     0
176
     0
290
     0
176
     0
290
     0
176
     0
 90
       50
176
     0
 40
0.0
176
     0
 40
1.0
176
     0
 90
        0
176
     0
 62
    18
420
        0
176
     0
 90
       50
176
     0
 90
        3
176
     0
 62
     5
420
      255
176
     0
290
     0
176
     0
 90
       50
176
     0
 90
       50
176
     0
 90
       50
176
     0
290
     0
176
     0
 90
       50
176
     0
 62
   256
176
     0
 40
1.0
176
     0
 90
        2
176
     0
  1
strokes_ogs.tif
176
     0
290
     0
176
     0
 40
1.0
176
     0
 40
1.0
176
     0
  0
VISUALSTYLE
  5
33
102
{ACAD_REACTORS
330
2A
102
}
330
2A
100
AcDbVisualStyle
  2
Realistic
 70
     8
177
     3
291
     0
 70
    58
 90
        2
176
     1
 90
        3
176
     1
 90
        0
176
     1
 90
        2
176
     1
 40
0.6
176
     1
 40
30.0
176
     1
 62
     7
420
 16777215
176
     1
 90
        0
176
     1
 90
        0
176
     1
 62
     7
176
     1
 62
   257
176
     1
 90
        1
176
     1
 90
        1
176
     1
 40
1.0
176
     1
 90
        8
176
     1
 62
   257
176
     1
 40
1.0
176
     1
 90
        1
176
     1
 90
        6
176
     1
 90
        2
176
     1
 62
     7
176
     1
 90
        3
176
     1
 90
        0
176
     1
 90
        0
176
     1
290
     0
176
     1
 90
       13
176
     1
 40
0.0
176
     1
 90
        0
176
     1
290
     0
176
     1
290
     1
176
     1
290
     1
176
     1
290
     0
176
     1
290
     0
176
     1
290
     0
176
     1
290
     0
176
     1
290
     0
176
     1
290
     0
176
     1
 90
       50
176
     1
 40
0.0
176
     1
 40
1.0
176
     1
 90
        0
176
     1
 62
    18
420
        0
176
     1
 90
       50
176
     1
 90
        3
176
     1
 62
     5
420
      255
176
     1
290
     0
176
     1
 90
       50
176
     1
 90
       50
176
     1
 90
       50
176
     1
290
     0
176
     1
 90
       50
176
     1
 62
   256
176
     0
 40
1.0
176
     0
 90
        2
176
     1
  1
strokes_ogs.tif
176
     1
290
     0
176
     1
 40
1.0
176
     1
 40
1.0
176
     1
  0
VISUALSTYLE
  5
42
102
{ACAD_REACTORS
330
2A
102
}
330
2A
100
AcDbVisualStyle
  2
Shaded
 70
    27
177
     3
291
     0
 70
    58
 90
        2
176
     1
 90
        2
176
     1
 90
        1
176
     1
 90
        2
176
     1
 40
0.6
176
     1
 40
30.0
176
     1
 62
     7
420
 16777215
176
     1
 90
        0
176
     1
 90
        4
176
     1
 62
     7
176
     1
 62
   257
176
     1
 90
        1
176
     1
 90
        1
176
     1
 40
1.0
176
     1
 90
        8
176
     1
 62
   257
176
     1
 40
1.0
176
     1
 90
        1
176
     1
 90
        6
176
     1
 90
        2
176
     1
 62
     8
420
  7895160
176
     1
 90
        3
176
     1
 90
        0
176
     1
 90
        0
176
     1
290
     0
176
     1
 90
        5
176
     1
 40
0.0
176
     1
 90
        0
176
     1
290
     0
176
     1
290
     1
176
     1
290
     1
176
     1
290
     0
176
     1
290
     0
176
     1
290
     0
176
     1
290
     0
176
     1
290
     0
176
     1
290
     0
176
     1
 90
       50
176
     1
 40
0.0
176
     1
 40
1.0
176
     1
 90
        0
176
     1
 62
    18
420
        0
176
     1
 90
       50
176
     1
 90
        3
176
     1
 62
     5
420
      255
176
     1
290
     0
176
     1
 90
       50
176
     1
 90
       50
176
     1
 90
       50
176
     1
290
     0
176
     1
 90
       50
176
     1
 62
   256
176
     0
 40
1.0
176
     0
 90
        2
176
     1
  1
strokes_ogs.tif
176
     1
290
     0
176
     1
 40
1.0
176
     1
 40
1.0
176
     1
  0
VISUALSTYLE
  5
41
102
{ACAD_REACTORS
330
2A
102
}
330
2A
100
AcDbVisualStyle
  2
Shaded with edges
 70
    26
177
     3
291
     0
 70
    58
 90
        2
176
     1
 90
        2
176
     1
 90
        1
176
     1
 90
        2
176
     1
 40
0.6
176
     1
 40
30.0
176
     1
 62
     7
420
 16777215
176
     1
 90
        1
176
     1
 90
       10
176
     1
 62
     7
176
     1
 62
   257
176
     1
 90
        2
176
     1
 90
        1
176
     1
 40
1.0
176
     1
 90
        8
176
     1
 62
   257
176
     1
 40
1.0
176
     1
 90
        1
176
     1
 90
        6
176
     1
 90
        2
176
     1
 62
     7
176
     1
 90
        3
176
     1
 90
        0
176
     1
 90
        0
176
     1
290
     0
176
     1
 90
        5
176
     1
 40
0.0
176
     1
 90
        0
176
     1
290
     0
176
     1
290
     1
176
     1
290
     1
176
     1
290
     0
176
     1
290
     0
176
     1
290
     0
176
     1
290
     0
176
     1
290
     0
176
     1
290
     0
176
     1
 90
       50
176
     1
 40
0.0
176
     1
 40
1.0
176
     1
 90
        0
176
     1
 62
    18
420
        0
176
     1
 90
       50
176
     1
 90
        3
176
     1
 62
     5
420
      255
176
     1
290
     0
176
     1
 90
       50
176
     1
 90
       50
176
     1
 90
       50
176
     1
290
     0
176
     1
 90
       50
176
     1
 62
   256
176
     0
 40
1.0
176
     0
 90
        2
176
     1
  1
strokes_ogs.tif
176
     1
290
     0
176
     1
 40
1.0
176
     1
 40
1.0
176
     1
  0
VISUALSTYLE
  5
3E
102
{ACAD_REACTORS
330
2A
102
}
330
2A
100
AcDbVisualStyle
  2
Shades of Gray
 70
    23
177
     3
291
     0
 70
    58
 90
        2
176
     1
 90
        2
176
     1
 90
        3
176
     1
 90
        0
176
     1
 40
0.6
176
     1
 40
30.0
176
     1
 62
     7
420
 16777215
176
     1
 90
        2
176
     1
 90
        2
176
     1
 62
     7
176
     1
 62
     7
176
     1
 90
        1
176
     1
 90
        1
176
     1
 40
40.0
176
     1
 90
        8
176
     1
 62
     7
176
     1
 40
1.0
176
     1
 90
        1
176
     1
 90
        6
176
     1
 90
        2
176
     1
 62
     7
176
     1
 90
        3
176
     1
 90
        0
176
     1
 90
        0
176
     1
290
     0
176
     1
 90
        1
176
     1
 40
0.0
176
     1
 90
        0
176
     1
290
     0
176
     1
290
     1
176
     1
290
     1
176
     1
290
     0
176
     1
290
     0
176
     1
290
     0
176
     1
290
     0
176
     1
290
     0
176
     1
290
     0
176
     1
 90
       50
176
     1
 40
0.0
176
     1
 40
1.0
176
     1
 90
        0
176
     1
 62
    18
420
        0
176
     1
 90
       50
176
     1
 90
        3
176
     1
 62
     5
420
      255
176
     1
290
     0
176
     1
 90
       50
176
     1
 90
       50
176
     1
 90
       50
176
     1
290
     0
176
     1
 90
       50
176
     1
 62
   256
176
     0
 40
1.0
176
     0
 90
        2
176
     1
  1
strokes_ogs.tif
176
     1
290
     0
176
     1
 40
1.0
176
     1
 40
1.0
176
     1
  0
VISUALSTYLE
  5
3F
102
{ACAD_REACTORS
330
2A
102
}
330
2A
100
AcDbVisualStyle
  2
Sketchy
 70
    24
177
     3
291
     0
 70
    58
 90
        1
176
     1
 90
        2
176
     1
 90
        2
176
     1
 90
        0
176
     1
 40
0.6
176
     1
 40
30.0
176
     1
 62
     7
420
 16777215
176
     1
 90
        2
176
     1
 90
        2
176
     1
 62
     7
176
     1
 62
     7
176
     1
 90
        1
176
     1
 90
        1
176
     1
 40
40.0
176
     1
 90
       11
176
     1
 62
     7
176
     1
 40
1.0
176
     1
 90
        1
176
     1
 90
        6
176
     1
 90
        2
176
     1
 62
     7
176
     1
 90
        6
176
     1
 90
        0
176
     1
 90
        0
176
     1
290
     0
176
     1
 90
        1
176
     1
 40
0.0
176
     1
 90
        0
176
     1
290
     0
176
     1
290
     1
176
     1
290
     1
176
     1
290
     0
176
     1
290
     0
176
     1
290
     0
176
     1
290
     0
176
     1
290
     0
176
     1
290
     0
176
     1
 90
       50
176
     1
 40
0.0
176
     1
 40
1.0
176
     1
 90
        0
176
     1
 62
    18
420
        0
176
     1
 90
       50
176
     1
 90
        3
176
     1
 62
     5
420
      255
176
     1
290
     0
176
     1
 90
       50
176
     1
 90
       50
176
     1
 90
       50
176
     1
290
     0
176
     1
 90
       50
176
     1
 62
   256
176
     0
 40
1.0
176
     0
 90
        2
176
     1
  1
strokes_ogs.tif
176
     1
290
     0
176
     1
 40
1.0
176
     1
 40
1.0
176
     1
  0
VISUALSTYLE
  5
37
102
{ACAD_REACTORS
330
2A
102
}
330
2A
100
AcDbVisualStyle
  2
Thicken
 70
    13
177
     3
291
     1
 70
    58
 90
        2
176
     1
 90
        2
176
     1
 90
        0
176
     1
 90
        0
176
     1
 40
0.6
176
     1
 40
30.0
176
     1
 62
     7
420
 16777215
176
     1
 90
        1
176
     1
 90
        4
176
     1
 62
     7
176
     1
 62
   257
176
     1
 90
        1
176
     1
 90
        1
176
     1
 40
1.0
176
     1
 90
       12
176
     1
 62
     7
176
     1
 40
1.0
176
     1
 90
        1
176
     1
 90
        6
176
     1
 90
        2
176
     1
 62
     7
176
     1
 90
        5
176
     1
 90
        0
176
     1
 90
        0
176
     1
290
     0
176
     1
 90
        1
176
     1
 40
0.0
176
     1
 90
        0
176
     1
290
     0
176
     1
290
     1
176
     1
290
     1
176
     1
290
     0
176
     1
290
     0
176
     1
290
     0
176
     1
290
     0
176
     1
290
     0
176
     1
290
     0
176
     1
 90
       50
176
     1
 40
0.0
176
     1
 40
1.0
176
     1
 90
        0
176
     1
 62
    18
420
        0
176
     1
 90
       50
176
     1
 90
        3
176
     1
 62
     5
420
      255
176
     1
290
     0
176
     1
 90
       50
176
     1
 90
       50
176
     1
 90
       50
176
     1
290
     0
176
     1
 90
       50
176
     1
 62
   256
176
     0
 40
1.0
176
     0
 90
        2
176
     1
  1
strokes_ogs.tif
176
     1
290
     0
176
     1
 40
1.0
176
     1
 40
1.0
176
     1
  0
VISUALSTYLE
  5
30
102
{ACAD_REACTORS
330
2A
102
}
330
2A
100
AcDbVisualStyle
  2
Wireframe
 70
     5
177
     3
291
     0
 70
    58
 90
        0
176
     1
 90
        2
176
     1
 90
        0
176
     1
 90
        0
176
     1
 40
0.6
176
     1
 40
30.0
176
     1
 62
     7
420
 16777215
176
     1
 90
        1
176
     1
 90
        4
176
     1
 62
     7
176
     1
 62
   257
176
     1
 90
        1
176
     1
 90
        1
176
     1
 40
1.0
176
     1
 90
        0
176
     1
 62
   257
176
     1
 40
1.0
176
     1
 90
        1
176
     1
 90
        6
176
     1
 90
        2
176
     1
 62
     7
176
     1
 90
        3
176
     1
 90
        0
176
     1
 90
        0
176
     1
290
     0
176
     1
 90
        1
176
     1
 40
0.0
176
     1
 90
        0
176
     1
290
     0
176
     1
290
     1
176
     1
290
     1
176
     1
290
     0
176
     1
290
     0
176
     1
290
     0
176
     1
290
     0
176
     1
290
     0
176
     1
290
     0
176
     1
 90
       50
176
     1
 40
0.0
176
     1
 40
1.0
176
     1
 90
        0
176
     1
 62
    18
420
        0
176
     1
 90
       50
176
     1
 90
        3
176
     1
 62
     5
420
      255
176
     1
290
     0
176
     1
 90
       50
176
     1
 90
       50
176
     1
 90
       50
176
     1
290
     0
176
     1
 90
       50
176
     1
 62
   256
176
     0
 40
1.0
176
     0
 90
        2
176
     1
  1
strokes_ogs.tif
176
     1
290
     0
176
     1
 40
1.0
176
     1
 40
1.0
176
     1
  0
VISUALSTYLE
  5
40
102
{ACAD_REACTORS
330
2A
102
}
330
2A
100
AcDbVisualStyle
  2
X-Ray
 70
    25
177
     3
291
     0
 70
    58
 90
        2
176
     1
 90
        2
176
     1
 90
        1
176
     1
 90
        1
176
     1
 40
0.5
176
     1
 40
30.0
176
     1
 62
     7
420
 16777215
176
     1
 90
        1
176
     1
 90
        0
176
     1
 62
     7
176
     1
 62
   257
176
     1
 90
        1
176
     1
 90
        1
176
     1
 40
1.0
176
     1
 90
        8
176
     1
 62
     7
176
     1
 40
1.0
176
     1
 90
        1
176
     1
 90
        6
176
     1
 90
        2
176
     1
 62
     7
176
     1
 90
        3
176
     1
 90
        0
176
     1
 90
        0
176
     1
290
     0
176
     1
 90
       13
176
     1
 40
0.0
176
     1
 90
        0
176
     1
290
     0
176
     1
290
     1
176
     1
290
     1
176
     1
290
     0
176
     1
290
     0
176
     1
290
     0
176
     1
290
     0
176
     1
290
     0
176
     1
290
     0
176
     1
 90
       50
176
     1
 40
0.0
176
     1
 40
1.0
176
     1
 90
        0
176
     1
 62
    18
420
        0
176
     1
 90
       50
176
     1
 90
        3
176
     1
 62
     5
420
      255
176
     1
290
     0
176
     1
 90
       50
176
     1
 90
       50
176
     1
 90
       50
176
     1
290
     0
176
     1
 90
       50
176
     1
 62
   256
176
     0
 40
1.0
176
     0
 90
        2
176
     1
  1
strokes_ogs.tif
176
     1
290
     0
176
     1
 40
1.0
176
     1
 40
1.0
176
     1
  0
DICTIONARYVAR
  5
2C1
102
{ACAD_REACTORS
330
2C0
102
}
330
2C0
100
DictionaryVariables
280
     0
  1
1:1
  0
DICTIONARYVAR
  5
2C9
102
{ACAD_REACTORS
330
2C0
102
}
330
2C0
100
DictionaryVariables
280
     0
  1
3.500000
  0
DICTIONARYVAR
  5
2CA
102
{ACAD_REACTORS
330
2C0
102
}
330
2C0
100
DictionaryVariables
280
     0
  1
acadiso.lin
  0
DICTIONARYVAR
  5
2C6
102
{ACAD_REACTORS
330
2C0
102
}
330
2C0
100
DictionaryVariables
280
     0
  1
Standard
  0
DICTIONARYVAR
  5
2C5
102
{ACAD_REACTORS
330
2C0
102
}
330
2C0
100
DictionaryVariables
280
     0
  1
Standard
  0
DICTIONARY
  5
2C2
330
6A
100
AcDbDictionary
280
     1
281
     1
  3
ACAD_ROUNDTRIP_2008_TABLESTYLE_CELLSTYLEMAP
360
2C3
  0
CELLSTYLEMAP
  5
2C3
102
{ACAD_REACTORS
330
2C2
102
}
330
2C2
100
AcDbCellStyleMap
 90
        3
300
CELLSTYLE
  1
TABLEFORMAT_BEGIN
 90
        5
170
     1
 91
        0
 92
    32768
 62
   257
 93
        1
300
CONTENTFORMAT
  1
CONTENTFORMAT_BEGIN
 90
        0
 91
        0
 92
        4
 93
        0
300

 40
0.0
140
1.0
 94
        5
 62
     0
340
11
144
6.0
309
CONTENTFORMAT_END
171
     1
301
MARGIN
  1
CELLMARGIN_BEGIN
 40
1.5
 40
1.5
 40
1.5
 40
1.5
 40
1.5
 40
1.5
309
CELLMARGIN_END
 94
        6
 95
        1
302
GRIDFORMAT
  1
GRIDFORMAT_BEGIN
 90
        0
 91
        1
 62
     0
 92
       -2
340
14
 93
        0
 40
0.045
309
GRIDFORMAT_END
 95
        2
302
GRIDFORMAT
  1
GRIDFORMAT_BEGIN
 90
        0
 91
        1
 62
     0
 92
       -2
340
14
 93
        0
 40
0.045
309
GRIDFORMAT_END
 95
        4
302
GRIDFORMAT
  1
GRIDFORMAT_BEGIN
 90
        0
 91
        1
 62
     0
 92
       -2
340
14
 93
        0
 40
0.045
309
GRIDFORMAT_END
 95
        8
302
GRIDFORMAT
  1
GRIDFORMAT_BEGIN
 90
        0
 91
        1
 62
     0
 92
       -2
340
14
 93
        0
 40
0.045
309
GRIDFORMAT_END
 95
       16
302
GRIDFORMAT
  1
GRIDFORMAT_BEGIN
 90
        0
 91
        1
 62
     0
 92
       -2
340
14
 93
        0
 40
0.045
309
GRIDFORMAT_END
 95
       32
302
GRIDFORMAT
  1
GRIDFORMAT_BEGIN
 90
        0
 91
        1
 62
     0
 92
       -2
340
14
 93
        0
 40
0.045
309
GRIDFORMAT_END
309
TABLEFORMAT_END
  1
CELLSTYLE_BEGIN
 90
        1
 91
        1
300
_TITLE
309
CELLSTYLE_END
300
CELLSTYLE
  1
TABLEFORMAT_BEGIN
 90
        5
170
     1
 91
        0
 92
        0
 62
   257
 93
        1
300
CONTENTFORMAT
  1
CONTENTFORMAT_BEGIN
 90
        0
 91
        0
 92
        4
 93
        0
300

 40
0.0
140
1.0
 94
        5
 62
     0
340
11
144
4.5
309
CONTENTFORMAT_END
171
     1
301
MARGIN
  1
CELLMARGIN_BEGIN
 40
1.5
 40
1.5
 40
1.5
 40
1.5
 40
1.5
 40
1.5
309
CELLMARGIN_END
 94
        6
 95
        1
302
GRIDFORMAT
  1
GRIDFORMAT_BEGIN
 90
        0
 91
        1
 62
     0
 92
       -2
340
14
 93
        0
 40
0.045
309
GRIDFORMAT_END
 95
        2
302
GRIDFORMAT
  1
GRIDFORMAT_BEGIN
 90
        0
 91
        1
 62
     0
 92
       -2
340
14
 93
        0
 40
0.045
309
GRIDFORMAT_END
 95
        4
302
GRIDFORMAT
  1
GRIDFORMAT_BEGIN
 90
        0
 91
        1
 62
     0
 92
       -2
340
14
 93
        0
 40
0.045
309
GRIDFORMAT_END
 95
        8
302
GRIDFORMAT
  1
GRIDFORMAT_BEGIN
 90
        0
 91
        1
 62
     0
 92
       -2
340
14
 93
        0
 40
0.045
309
GRIDFORMAT_END
 95
       16
302
GRIDFORMAT
  1
GRIDFORMAT_BEGIN
 90
        0
 91
        1
 62
     0
 92
       -2
340
14
 93
        0
 40
0.045
309
GRIDFORMAT_END
 95
       32
302
GRIDFORMAT
  1
GRIDFORMAT_BEGIN
 90
        0
 91
        1
 62
     0
 92
       -2
340
14
 93
        0
 40
0.045
309
GRIDFORMAT_END
309
TABLEFORMAT_END
  1
CELLSTYLE_BEGIN
 90
        2
 91
        1
300
_HEADER
309
CELLSTYLE_END
300
CELLSTYLE
  1
TABLEFORMAT_BEGIN
 90
        5
170
     1
 91
        0
 92
        0
 62
   257
 93
        1
300
CONTENTFORMAT
  1
CONTENTFORMAT_BEGIN
 90
        0
 91
        0
 92
        4
 93
        0
300

 40
0.0
140
1.0
 94
        2
 62
     0
340
11
144
4.5
309
CONTENTFORMAT_END
171
     1
301
MARGIN
  1
CELLMARGIN_BEGIN
 40
1.5
 40
1.5
 40
1.5
 40
1.5
 40
1.5
 40
1.5
309
CELLMARGIN_END
 94
        6
 95
        1
302
GRIDFORMAT
  1
GRIDFORMAT_BEGIN
 90
        0
 91
        1
 62
     0
 92
       -2
340
14
 93
        0
 40
0.045
309
GRIDFORMAT_END
 95
        2
302
GRIDFORMAT
  1
GRIDFORMAT_BEGIN
 90
        0
 91
        1
 62
     0
 92
       -2
340
14
 93
        0
 40
0.045
309
GRIDFORMAT_END
 95
        4
302
GRIDFORMAT
  1
GRIDFORMAT_BEGIN
 90
        0
 91
        1
 62
     0
 92
       -2
340
14
 93
        0
 40
0.045
309
GRIDFORMAT_END
 95
        8
302
GRIDFORMAT
  1
GRIDFORMAT_BEGIN
 90
        0
 91
        1
 62
     0
 92
       -2
340
14
 93
        0
 40
0.045
309
GRIDFORMAT_END
 95
       16
302
GRIDFORMAT
  1
GRIDFORMAT_BEGIN
 90
        0
 91
        1
 62
     0
 92
       -2
340
14
 93
        0
 40
0.045
309
GRIDFORMAT_END
 95
       32
302
GRIDFORMAT
  1
GRIDFORMAT_BEGIN
 90
        0
 91
        1
 62
     0
 92
       -2
340
14
 93
        0
 40
0.045
309
GRIDFORMAT_END
309
TABLEFORMAT_END
  1
CELLSTYLE_BEGIN
 90
        3
 91
        2
300
_DATA
309
CELLSTYLE_END
  0
ENDSEC
  0
EOF
