  0
SECTION
  2
HEADER
  9
$ACADVER
  1
AC1015
  9
$ACADMAINTVER
 70
     6
  9
$DWGCODEPAGE
  3
ANSI_1252
  9
$INSBASE
 10
0.0
 20
0.0
 30
0.0
  9
$EXTMIN
 10
0.0
 20
0.0
 30
0.0
  9
$EXTMAX
 10
420.0
 20
297.0
 30
0.0
  9
$LIMMIN
 10
0.0
 20
0.0
  9
$LIMMAX
 10
420.0
 20
297.0
  9
$ORTHOMODE
 70
     0
  9
$REGENMODE
 70
     1
  9
$FILLMODE
 70
     1
  9
$QTEXTMODE
 70
     0
  9
$MIRRTEXT
 70
     1
  9
$LTSCALE
 40
1.0
  9
$ATTMODE
 70
     1
  9
$TEXTSIZE
 40
3.5
  9
$TRACEWID
 40
1.0
  9
$TEXTSTYLE
  7
Standard
  9
$CLAYER
  8
0
  9
$CELTYPE
  6
ByLayer
  9
$CECOLOR
 62
   256
  9
$CELTSCALE
 40
1.0
  9
$DISPSILH
 70
     0
  9
$DIMSCALE
 40
1.0
  9
$DIMASZ
 40
3.302
  9
$DIMEXO
 40
1.0
  9
$DIMDLI
 40
3.75
  9
$DIMRND
 40
0.0
  9
$DIMDLE
 40
0.0
  9
$DIMEXE
 40
1.0
  9
$DIMTP
 40
0.0
  9
$DIMTM
 40
0.0
  9
$DIMTXT
 40
3.5
  9
$DIMCEN
 40
2.5
  9
$DIMTSZ
 40
0.0
  9
$DIMTOL
 70
     0
  9
$DIMLIM
 70
     0
  9
$DIMTIH
 70
     1
  9
$DIMTOH
 70
     1
  9
$DIMSE1
 70
     0
  9
$DIMSE2
 70
     0
  9
$DIMTAD
 70
     1
  9
$DIMZIN
 70
     0
  9
$DIMBLK
  1

  9
$DIMASO
 70
     1
  9
$DIMSHO
 70
     1
  9
$DIMPOST
  1

  9
$DIMAPOST
  1

  9
$DIMALT
 70
     0
  9
$DIMALTD
 70
     3
  9
$DIMALTF
 40
0.0393700787
  9
$DIMLFAC
 40
1.0
  9
$DIMTOFL
 70
     1
  9
$DIMTVP
 40
0.0
  9
$DIMTIX
 70
     0
  9
$DIMSOXD
 70
     0
  9
$DIMSAH
 70
     0
  9
$DIMBLK1
  1

  9
$DIMBLK2
  1

  9
$DIMSTYLE
  2
ISO-25
  9
$DIMCLRD
 70
     0
  9
$DIMCLRE
 70
     0
  9
$DIMCLRT
 70
     0
  9
$DIMTFAC
 40
1.0
  9
$DIMGAP
 40
1.524
  9
$DIMJUST
 70
     0
  9
$DIMSD1
 70
     0
  9
$DIMSD2
 70
     0
  9
$DIMTOLJ
 70
     0
  9
$DIMTZIN
 70
     0
  9
$DIMALTZ
 70
     0
  9
$DIMALTTZ
 70
     0
  9
$DIMUPT
 70
     0
  9
$DIMDEC
 70
     2
  9
$DIMTDEC
 70
     2
  9
$DIMALTU
 70
     2
  9
$DIMALTTD
 70
     3
  9
$DIMTXSTY
  7
Standard
  9
$DIMAUNIT
 70
     0
  9
$DIMADEC
 70
     2
  9
$DIMALTRND
 40
0.0
  9
$DIMAZIN
 70
     0
  9
$DIMDSEP
 70
    44
  9
$DIMATFIT
 70
     3
  9
$DIMFRAC
 70
     0
  9
$DIMLDRBLK
  1

  9
$DIMLUNIT
 70
     2
  9
$DIMLWD
 70
    -2
  9
$DIMLWE
 70
    -2
  9
$DIMTMOVE
 70
     0
  9
$LUNITS
 70
     2
  9
$LUPREC
 70
     2
  9
$SKETCHINC
 40
1.0
  9
$FILLETRAD
 40
10.0
  9
$AUNITS
 70
     0
  9
$AUPREC
 70
     2
  9
$MENU
  1
.
  9
$ELEVATION
 40
0.0
  9
$PELEVATION
 40
0.0
  9
$THICKNESS
 40
0.0
  9
$LIMCHECK
 70
     0
  9
$CHAMFERA
 40
10.0
  9
$CHAMFERB
 40
10.0
  9
$CHAMFERC
 40
20.0
  9
$CHAMFERD
 40
0.0
  9
$SKPOLY
 70
     0
  9
$TDCREATE
 40
2456156.357155474
  9
$TDUCREATE
 40
2456156.273822141
  9
$TDUPDATE
 40
2456156.357155486
  9
$TDUUPDATE
 40
2456156.273822153
  9
$TDINDWG
 40
0.0000000116
  9
$TDUSRTIMER
 40
0.0000000116
  9
$USRTIMER
 70
     1
  9
$ANGBASE
 50
0.0
  9
$ANGDIR
 70
     0
  9
$PDMODE
 70
     0
  9
$PDSIZE
 40
-1.0
  9
$PLINEWID
 40
0.0
  9
$SPLFRAME
 70
     0
  9
$SPLINETYPE
 70
     6
  9
$SPLINESEGS
 70
     8
  9
$HANDSEED
  5
17C
  9
$SURFTAB1
 70
     6
  9
$SURFTAB2
 70
     6
  9
$SURFTYPE
 70
     6
  9
$SURFU
 70
     6
  9
$SURFV
 70
     6
  9
$UCSBASE
  2

  9
$UCSNAME
  2

  9
$UCSORG
 10
0.0
 20
0.0
 30
0.0
  9
$UCSXDIR
 10
1.0
 20
0.0
 30
0.0
  9
$UCSYDIR
 10
0.0
 20
1.0
 30
0.0
  9
$UCSORTHOREF
  2

  9
$UCSORTHOVIEW
 70
     0
  9
$UCSORGTOP
 10
0.0
 20
0.0
 30
0.0
  9
$UCSORGBOTTOM
 10
0.0
 20
0.0
 30
0.0
  9
$UCSORGLEFT
 10
0.0
 20
0.0
 30
0.0
  9
$UCSORGRIGHT
 10
0.0
 20
0.0
 30
0.0
  9
$UCSORGFRONT
 10
0.0
 20
0.0
 30
0.0
  9
$UCSORGBACK
 10
0.0
 20
0.0
 30
0.0
  9
$PUCSBASE
  2

  9
$PUCSNAME
  2

  9
$PUCSORG
 10
0.0
 20
0.0
 30
0.0
  9
$PUCSXDIR
 10
1.0
 20
0.0
 30
0.0
  9
$PUCSYDIR
 10
0.0
 20
1.0
 30
0.0
  9
$PUCSORTHOREF
  2

  9
$PUCSORTHOVIEW
 70
     0
  9
$PUCSORGTOP
 10
0.0
 20
0.0
 30
0.0
  9
$PUCSORGBOTTOM
 10
0.0
 20
0.0
 30
0.0
  9
$PUCSORGLEFT
 10
0.0
 20
0.0
 30
0.0
  9
$PUCSORGRIGHT
 10
0.0
 20
0.0
 30
0.0
  9
$PUCSORGFRONT
 10
0.0
 20
0.0
 30
0.0
  9
$PUCSORGBACK
 10
0.0
 20
0.0
 30
0.0
  9
$USERI1
 70
     0
  9
$USERI2
 70
     0
  9
$USERI3
 70
     0
  9
$USERI4
 70
     0
  9
$USERI5
 70
     0
  9
$USERR1
 40
0.0
  9
$USERR2
 40
0.0
  9
$USERR3
 40
0.0
  9
$USERR4
 40
0.0
  9
$USERR5
 40
0.0
  9
$WORLDVIEW
 70
     1
  9
$SHADEDGE
 70
     3
  9
$SHADEDIF
 70
    70
  9
$TILEMODE
 70
     1
  9
$MAXACTVP
 70
    64
  9
$PINSBASE
 10
0.0
 20
0.0
 30
0.0
  9
$PLIMCHECK
 70
     0
  9
$PEXTMIN
 10
1.0000000000E+20
 20
1.0000000000E+20
 30
1.0000000000E+20
  9
$PEXTMAX
 10
-1.0000000000E+20
 20
-1.0000000000E+20
 30
-1.0000000000E+20
  9
$PLIMMIN
 10
0.0
 20
0.0
  9
$PLIMMAX
 10
420.0
 20
297.0
  9
$UNITMODE
 70
     0
  9
$VISRETAIN
 70
     1
  9
$PLINEGEN
 70
     0
  9
$PSLTSCALE
 70
     1
  9
$TREEDEPTH
 70
  3020
  9
$CMLSTYLE
  2
Standard
  9
$CMLJUST
 70
     0
  9
$CMLSCALE
 40
20.0
  9
$PROXYGRAPHICS
 70
     1
  9
$MEASUREMENT
 70
     1
  9
$CELWEIGHT
370
    -1
  9
$ENDCAPS
280
     0
  9
$JOINSTYLE
280
     0
  9
$LWDISPLAY
290
     1
  9
$INSUNITS
 70
     4
  9
$HYPERLINKBASE
  1

  9
$STYLESHEET
  1

  9
$XEDIT
290
     1
  9
$CEPSNTYPE
380
     0
  9
$PSTYLEMODE
290
     1
  9
$FINGERPRINTGUID
  2
{1D58CCD0-CBC6-4A94-AC6E-32AD75E3D50D}
  9
$VERSIONGUID
  2
{FAEB1C32-E019-11D5-929B-00C0DF256EC4}
  9
$EXTNAMES
290
     1
  9
$PSVPSCALE
 40
0.0
  9
$OLESTARTUP
290
     0
  0
ENDSEC
  0
SECTION
  2
CLASSES
  0
CLASS
  1
ACDBDICTIONARYWDFLT
  2
AcDbDictionaryWithDefault
  3
ObjectDBX Classes
 90
        0
280
     0
281
     0
  0
CLASS
  1
VISUALSTYLE
  2
AcDbVisualStyle
  3
ObjectDBX Classes
 90
     4095
280
     0
281
     0
  0
CLASS
  1
MATERIAL
  2
AcDbMaterial
  3
ObjectDBX Classes
 90
     1153
280
     0
281
     0
  0
CLASS
  1
ACDBPLACEHOLDER
  2
AcDbPlaceHolder
  3
ObjectDBX Classes
 90
        0
280
     0
281
     0
  0
CLASS
  1
LAYOUT
  2
AcDbLayout
  3
ObjectDBX Classes
 90
        0
280
     0
281
     0
  0
ENDSEC
  0
SECTION
  2
TABLES
  0
TABLE
  2
VPORT
  5
8
330
0
100
AcDbSymbolTable
 70
     1
  0
VPORT
  5
29
330
8
100
AcDbSymbolTableRecord
100
AcDbViewportTableRecord
  2
*Active
 70
     0
 10
0.0
 20
0.0
 11
1.0
 21
1.0
 12
210.0
 22
148.5
 13
0.0
 23
0.0
 14
10.0
 24
10.0
 15
10.0
 25
10.0
 16
0.0
 26
0.0
 36
1.0
 17
0.0
 27
0.0
 37
0.0
 40
297.0
 41
1.4141414141
 42
50.0
 43
0.0
 44
0.0
 50
0.0
 51
0.0
 71
     0
 72
  2000
 73
     1
 74
     3
 75
     0
 76
     0
 77
     0
 78
     0
281
     0
 65
     1
110
0.0
120
0.0
130
0.0
111
1.0
121
0.0
131
0.0
112
0.0
122
1.0
132
0.0
 79
     0
146
0.0
  0
ENDTAB
  0
TABLE
  2
LTYPE
  5
5
330
0
100
AcDbSymbolTable
 70
     6
  0
LTYPE
  5
14
330
5
100
AcDbSymbolTableRecord
100
AcDbLinetypeTableRecord
  2
ByBlock
 70
     0
  3

 72
    65
 73
     0
 40
0.0
  0
LTYPE
  5
15
330
5
100
AcDbSymbolTableRecord
100
AcDbLinetypeTableRecord
  2
ByLayer
 70
     0
  3

 72
    65
 73
     0
 40
0.0
  0
LTYPE
  5
16
330
5
100
AcDbSymbolTableRecord
100
AcDbLinetypeTableRecord
  2
Continuous
 70
     0
  3
Solid line
 72
    65
 73
     0
 40
0.0
  0
LTYPE
  5
3F
330
5
100
AcDbSymbolTableRecord
100
AcDbLinetypeTableRecord
  2
HIDDEN
 70
     0
  3
Hidden __ __ __ __ __ __ __ __ __ __ __ __ __ __
 72
    65
 73
     2
 40
1.905
 49
1.27
 74
     0
 49
-0.635
 74
     0
  0
LTYPE
  5
40
330
5
100
AcDbSymbolTableRecord
100
AcDbLinetypeTableRecord
  2
PHANTOM
 70
     0
  3
Phantom ______  __  __  ______  __  __  ______
 72
    65
 73
     6
 40
12.7
 49
6.35
 74
     0
 49
-1.27
 74
     0
 49
1.27
 74
     0
 49
-1.27
 74
     0
 49
1.27
 74
     0
 49
-1.27
 74
     0
  0
LTYPE
  5
41
330
5
100
AcDbSymbolTableRecord
100
AcDbLinetypeTableRecord
  2
CENTER
 70
     0
  3
Center ____ _ ____ _ ____ _ ____ _ ____ _ ____
 72
    65
 73
     4
 40
10.16
 49
6.35
 74
     0
 49
-1.27
 74
     0
 49
1.27
 74
     0
 49
-1.27
 74
     0
  0
LTYPE
  5
42
330
5
100
AcDbSymbolTableRecord
100
AcDbLinetypeTableRecord
  2
CENTERX2
 70
     0
  3
Center (2x) ________  __  ________  __  _____
 72
    65
 73
     4
 40
20.32
 49
12.7
 74
     0
 49
-2.54
 74
     0
 49
2.54
 74
     0
 49
-2.54
 74
     0
  0
LTYPE
  5
43
330
5
100
AcDbSymbolTableRecord
100
AcDbLinetypeTableRecord
  2
DOT2
 70
     0
  3
Dot (.5x) ........................................
 72
    65
 73
     2
 40
0.635
 49
0.0
 74
     0
 49
-0.635
 74
     0
  0
ENDTAB
  0
TABLE
  2
LAYER
  5
2
330
0
100
AcDbSymbolTable
 70
     6
  0
LAYER
  5
10
330
2
100
AcDbSymbolTableRecord
100
AcDbLayerTableRecord
  2
0
 70
     0
 62
     7
  6
Continuous
370
    -3
390
F
  0
LAYER
  5
44
330
2
100
AcDbSymbolTableRecord
100
AcDbLayerTableRecord
  2
FORMAT
 70
     0
 62
     7
  6
Continuous
370
    -3
390
F
  0
LAYER
  5
45
330
2
100
AcDbSymbolTableRecord
100
AcDbLayerTableRecord
  2
VORLAGE
 70
     0
 62
    -1
  6
Continuous
370
    -3
390
F
  0
LAYER
  5
46
330
2
100
AcDbSymbolTableRecord
100
AcDbLayerTableRecord
  2
RAHMEN
 70
     0
 62
   179
  6
Continuous
370
    -3
390
F
  0
LAYER
  5
47
330
2
100
AcDbSymbolTableRecord
100
AcDbLayerTableRecord
  2
KOPF
 70
     0
 62
     7
  6
Continuous
370
    -3
390
F
  0
LAYER
  5
48
330
2
100
AcDbSymbolTableRecord
100
AcDbLayerTableRecord
  2
TEMP
 70
     0
 62
     7
  6
Continuous
370
    -3
390
F
  0
ENDTAB
  0
TABLE
  2
STYLE
  5
3
330
0
100
AcDbSymbolTable
 70
     2
  0
STYLE
  5
11
330
3
100
AcDbSymbolTableRecord
100
AcDbTextStyleTableRecord
  2
Standard
 70
     0
 40
0.0
 41
1.0
 50
0.0
 71
     0
 42
2.5
  3
txt
  4

  0
STYLE
  5
5F
330
3
100
AcDbSymbolTableRecord
100
AcDbTextStyleTableRecord
  2
SLDTEXTSTYLE0
 70
     0
 40
0.0
 41
0.75
 50
0.0
 71
     0
 42
0.2
  3
TXT
  4

  0
ENDTAB
  0
TABLE
  2
VIEW
  5
6
330
0
100
AcDbSymbolTable
 70
     0
  0
ENDTAB
  0
TABLE
  2
UCS
  5
7
330
0
100
AcDbSymbolTable
 70
     0
  0
ENDTAB
  0
TABLE
  2
APPID
  5
9
330
0
100
AcDbSymbolTable
 70
     1
  0
APPID
  5
12
330
9
100
AcDbSymbolTableRecord
100
AcDbRegAppTableRecord
  2
ACAD
 70
     0
  0
ENDTAB
  0
TABLE
  2
DIMSTYLE
  5
A
330
0
100
AcDbSymbolTable
 70
     2
100
AcDbDimStyleTable
  0
DIMSTYLE
105
27
330
A
100
AcDbSymbolTableRecord
100
AcDbDimStyleTableRecord
  2
ISO-25
 70
     0
 41
2.5
 42
0.625
 43
3.75
 44
1.25
 73
     0
 74
     0
 77
     1
 78
     8
140
2.5
141
2.5
143
0.0393700787
147
0.625
171
     3
172
     1
178
     0
271
     2
272
     2
274
     3
278
    44
283
     0
284
     8
340
11
  0
DIMSTYLE
105
60
102
{ACAD_REACTORS
330
5E
330
10A
330
116
330
120
330
164
330
16E
102
}
330
A
100
AcDbSymbolTableRecord
100
AcDbDimStyleTableRecord
  2
SLDDIMSTYLE0
 70
     0
 41
3.302
 44
0.0
 45
0.000000001
 73
     0
 74
     0
 77
     1
 78
    12
 79
     3
140
3.5
147
0.875
173
     1
178
     0
271
     2
272
     2
276
     2
284
    12
340
5F
341
61
343
61
344
61
  0
ENDTAB
  0
TABLE
  2
BLOCK_RECORD
  5
1
330
0
100
AcDbSymbolTable
 70
     9
  0
BLOCK_RECORD
  5
1F
330
1
100
AcDbSymbolTableRecord
100
AcDbBlockTableRecord
  2
*Model_Space
340
22
  0
BLOCK_RECORD
  5
1B
330
1
100
AcDbSymbolTableRecord
100
AcDbBlockTableRecord
  2
*Paper_Space
340
1E
  0
BLOCK_RECORD
  5
23
330
1
100
AcDbSymbolTableRecord
100
AcDbBlockTableRecord
  2
*Paper_Space0
340
26
  0
BLOCK_RECORD
  5
61
330
1
100
AcDbSymbolTableRecord
100
AcDbBlockTableRecord
  2
_CLOSED
340
0
102
{BLKREFS
331
6D
331
6E
331
82
331
84
331
10E
331
10F
331
11A
331
11B
331
124
331
125
331
168
331
169
331
172
331
173
102
}
  0
BLOCK_RECORD
  5
68
330
1
100
AcDbSymbolTableRecord
100
AcDbBlockTableRecord
  2
*D2
340
0
  0
BLOCK_RECORD
  5
74
330
1
100
AcDbSymbolTableRecord
100
AcDbBlockTableRecord
  2
SW_CENTERMARKSYMBOL_0
340
0
102
{BLKREFS
331
7F
102
}
  0
BLOCK_RECORD
  5
10B
330
1
100
AcDbSymbolTableRecord
100
AcDbBlockTableRecord
  2
*D4
340
0
  0
BLOCK_RECORD
  5
117
330
1
100
AcDbSymbolTableRecord
100
AcDbBlockTableRecord
  2
*D5
340
0
  0
BLOCK_RECORD
  5
121
330
1
100
AcDbSymbolTableRecord
100
AcDbBlockTableRecord
  2
*D6
340
0
  0
BLOCK_RECORD
  5
165
330
1
100
AcDbSymbolTableRecord
100
AcDbBlockTableRecord
  2
*D7
340
0
  0
BLOCK_RECORD
  5
16F
330
1
100
AcDbSymbolTableRecord
100
AcDbBlockTableRecord
  2
*D8
340
0
  0
ENDTAB
  0
ENDSEC
  0
SECTION
  2
BLOCKS
  0
BLOCK
  5
20
330
1F
100
AcDbEntity
  8
0
100
AcDbBlockBegin
  2
*Model_Space
 70
     0
 10
0.0
 20
0.0
 30
0.0
  3
*Model_Space
  1

  0
ENDBLK
  5
21
330
1F
100
AcDbEntity
  8
0
100
AcDbBlockEnd
  0
BLOCK
  5
1C
330
1B
100
AcDbEntity
 67
     1
  8
0
100
AcDbBlockBegin
  2
*Paper_Space
 70
     0
 10
0.0
 20
0.0
 30
0.0
  3
*Paper_Space
  1

  0
ENDBLK
  5
1D
330
1B
100
AcDbEntity
 67
     1
  8
0
100
AcDbBlockEnd
  0
BLOCK
  5
24
330
23
100
AcDbEntity
  8
0
100
AcDbBlockBegin
  2
*Paper_Space0
 70
     0
 10
0.0
 20
0.0
 30
0.0
  3
*Paper_Space0
  1

  0
ENDBLK
  5
25
330
23
100
AcDbEntity
  8
0
100
AcDbBlockEnd
  0
BLOCK
  5
62
330
61
100
AcDbEntity
  8
0
100
AcDbBlockBegin
  2
_CLOSED
 70
     0
 10
0.0
 20
0.0
 30
0.0
  3
_CLOSED
  1

  0
LINE
  5
64
330
61
100
AcDbEntity
  8
0
  6
ByBlock
 62
     0
370
    -2
100
AcDbLine
 10
-1.0
 20
0.166667
 30
0.0
 11
0.0
 21
0.0
 31
0.0
  0
LINE
  5
65
330
61
100
AcDbEntity
  8
0
  6
ByBlock
 62
     0
370
    -2
100
AcDbLine
 10
0.0
 20
0.0
 30
0.0
 11
-1.0
 21
-0.166667
 31
0.0
  0
LINE
  5
66
330
61
100
AcDbEntity
  8
0
  6
ByBlock
 62
     0
370
    -2
100
AcDbLine
 10
-1.0
 20
0.166667
 30
0.0
 11
-1.0
 21
-0.166667
 31
0.0
  0
LINE
  5
67
330
61
100
AcDbEntity
  8
0
  6
ByBlock
 62
     0
370
    -2
100
AcDbLine
 10
0.0
 20
0.0
 30
0.0
 11
-1.0
 21
0.0
 31
0.0
  0
ENDBLK
  5
63
330
61
100
AcDbEntity
  8
0
100
AcDbBlockEnd
  0
BLOCK
  5
69
330
68
100
AcDbEntity
  8
0
100
AcDbBlockBegin
  2
*D2
 70
     1
 10
0.0
 20
0.0
 30
0.0
  3
*D2
  1

  0
ARC
  5
6B
330
68
100
AcDbEntity
  8
0
  6
Continuous
 62
     7
370
     0
100
AcDbCircle
 10
160.2074088352
 20
141.1898280657
 30
0.0
 40
6.211653566724146
100
AcDbArc
 50
153.4349488229
 51
206.5650511771
  0
ARC
  5
6C
330
68
100
AcDbEntity
  8
0
  6
Continuous
 62
     7
370
     0
100
AcDbCircle
 10
162.7177493193
 20
141.1898280657
 30
0.0
 40
6.211653566724121
100
AcDbArc
 50
333.4349488229
 51
26.5650511771
  0
INSERT
  5
6D
330
68
100
AcDbEntity
  8
0
  6
Continuous
 62
     7
370
     0
100
AcDbBlockReference
  2
_CLOSED
 10
128.6043704073
 20
138.4118921401
 30
33.775438314
 41
3.302
 42
3.302
 50
180.0
  0
INSERT
  5
6E
330
68
100
AcDbEntity
  8
0
  6
Continuous
 62
     7
370
     0
100
AcDbBlockReference
  2
_CLOSED
 10
193.6043704073
 20
138.4118921401
 30
33.775438314
 41
3.302
 42
3.302
 50
0.0
  0
LINE
  5
6F
330
68
100
AcDbEntity
  8
0
  6
Continuous
 62
     7
370
     0
100
AcDbLine
 10
128.6043704073
 20
96.9118921401
 30
0.0
 11
128.6043704073
 21
139.4118921401
 31
0.0
  0
LINE
  5
70
330
68
100
AcDbEntity
  8
0
  6
Continuous
 62
     7
370
     0
100
AcDbLine
 10
193.6043704073
 20
96.9118921401
 30
0.0
 11
193.6043704073
 21
139.4118921401
 31
0.0
  0
LINE
  5
71
330
68
100
AcDbEntity
  8
0
  6
Continuous
 62
     7
370
     0
100
AcDbLine
 10
128.6043704073
 20
138.4118921401
 30
0.0
 11
193.6043704073
 21
138.4118921401
 31
0.0
  0
MTEXT
  5
72
330
68
100
AcDbEntity
  8
0
  6
Continuous
 62
     7
370
     0
100
AcDbMText
 10
156.239036984
 20
142.9236292293
 30
0.0
 40
3.5
 41
0.0
 71
     1
 72
     1
  1
%%c
  7
SLDTEXTSTYLE0
 73
     1
 44
1.0
  0
MTEXT
  5
73
330
68
100
AcDbEntity
  8
0
  6
Continuous
 62
     7
370
     0
100
AcDbMText
 10
161.5165471576
 20
142.9236290547
 30
0.0
 40
3.5
 41
0.0
 71
     1
 72
     1
  1
65
  7
SLDTEXTSTYLE0
 73
     1
 44
1.0
  0
ENDBLK
  5
6A
330
68
100
AcDbEntity
  8
0
100
AcDbBlockEnd
  0
BLOCK
  5
75
330
74
100
AcDbEntity
  8
0
100
AcDbBlockBegin
  2
SW_CENTERMARKSYMBOL_0
 70
     0
 10
0.0
 20
0.0
 30
0.0
  3
SW_CENTERMARKSYMBOL_0
  1

  0
LINE
  5
77
330
74
100
AcDbEntity
  8
0
  6
Continuous
 62
     0
370
     0
100
AcDbLine
 10
0.0
 20
0.0
 30
0.0
 11
0.0
 21
2.5
 31
0.0
  0
LINE
  5
78
330
74
100
AcDbEntity
  8
0
  6
Continuous
 62
     0
370
     0
100
AcDbLine
 10
0.0
 20
0.0
 30
0.0
 11
-2.5
 21
0.0
 31
0.0
  0
LINE
  5
79
330
74
100
AcDbEntity
  8
0
  6
Continuous
 62
     0
370
     0
100
AcDbLine
 10
0.0
 20
0.0
 30
0.0
 11
0.0
 21
-2.5
 31
0.0
  0
LINE
  5
7A
330
74
100
AcDbEntity
  8
0
  6
Continuous
 62
     0
370
     0
100
AcDbLine
 10
0.0
 20
0.0
 30
0.0
 11
2.5
 21
0.0
 31
0.0
  0
LINE
  5
7B
330
74
100
AcDbEntity
  8
0
  6
Continuous
 62
     0
370
     0
100
AcDbLine
 10
0.0
 20
5.0
 30
0.0
 11
0.0
 21
35.0
 31
0.0
  0
LINE
  5
7C
330
74
100
AcDbEntity
  8
0
  6
Continuous
 62
     0
370
     0
100
AcDbLine
 10
-5.0
 20
0.0
 30
0.0
 11
-35.0
 21
0.0
 31
0.0
  0
LINE
  5
7D
330
74
100
AcDbEntity
  8
0
  6
Continuous
 62
     0
370
     0
100
AcDbLine
 10
0.0
 20
-5.0
 30
0.0
 11
0.0
 21
-35.0
 31
0.0
  0
LINE
  5
7E
330
74
100
AcDbEntity
  8
0
  6
Continuous
 62
     0
370
     0
100
AcDbLine
 10
5.0
 20
0.0
 30
0.0
 11
35.0
 21
0.0
 31
0.0
  0
ENDBLK
  5
76
330
74
100
AcDbEntity
  8
0
100
AcDbBlockEnd
  0
BLOCK
  5
10C
330
10B
100
AcDbEntity
  8
0
100
AcDbBlockBegin
  2
*D4
 70
     1
 10
0.0
 20
0.0
 30
0.0
  3
*D4
  1

  0
INSERT
  5
10E
330
10B
100
AcDbEntity
  8
0
  6
Continuous
 62
     7
370
     0
100
AcDbBlockReference
  2
_CLOSED
 10
140.6043748864
 20
168.0154680457
 30
0.1
 41
3.302
 42
3.302
 50
180.0000029841
  0
INSERT
  5
10F
330
10B
100
AcDbEntity
  8
0
  6
Continuous
 62
     7
370
     0
100
AcDbBlockReference
  2
_CLOSED
 10
181.6043678031
 20
168.0154701811
 30
0.1
 41
3.302
 42
3.302
 50
0.0000029841
  0
LINE
  5
110
330
10B
100
AcDbEntity
  8
0
  6
Continuous
 62
     7
370
     0
100
AcDbLine
 10
140.604374001
 20
185.0154690816
 30
0.0
 11
140.6043749385
 21
167.0154680457
 31
0.0
  0
LINE
  5
111
330
10B
100
AcDbEntity
  8
0
  6
Continuous
 62
     7
370
     0
100
AcDbLine
 10
181.6043669177
 20
185.0154690816
 30
0.0
 11
181.6043678552
 21
167.0154701811
 31
0.0
  0
LINE
  5
112
330
10B
100
AcDbEntity
  8
0
  6
Continuous
 62
     7
370
     0
100
AcDbLine
 10
140.6043748864
 20
168.0154680457
 30
0.0
 11
181.6043678031
 21
168.0154701811
 31
0.0
  0
MTEXT
  5
113
330
10B
100
AcDbEntity
  8
0
  6
Continuous
 62
     7
370
     0
100
AcDbMText
 10
155.2699761473
 20
178.0830777499
 30
0.0
 40
3.5
 41
0.0
 71
     1
 72
     1
  1
%%c
  7
SLDTEXTSTYLE0
 11
0.9999999999999987
 21
5.208281921551465E-8
 31
0.0
 73
     1
 44
1.0
  0
MTEXT
  5
114
330
10B
100
AcDbEntity
  8
0
  6
Continuous
 62
     7
370
     0
100
AcDbMText
 10
160.5474863208
 20
178.0830778501
 30
0.0
 40
3.5
 41
0.0
 71
     1
 72
     1
  1
41
  7
SLDTEXTSTYLE0
 11
0.9999999999999987
 21
5.208281921551465E-8
 31
0.0
 73
     1
 44
1.0
  0
MTEXT
  5
115
330
10B
100
AcDbEntity
  8
0
  6
Continuous
 62
     7
370
     0
100
AcDbMText
 10
154.5278408987
 20
172.5272056855
 30
0.0
 40
3.5
 41
0.0
 71
     1
 72
     1
  1
G5/4"
  7
SLDTEXTSTYLE0
 11
0.9999999999999987
 21
5.208281921551465E-8
 31
0.0
 73
     1
 44
1.0
  0
ENDBLK
  5
10D
330
10B
100
AcDbEntity
  8
0
100
AcDbBlockEnd
  0
BLOCK
  5
118
330
117
100
AcDbEntity
  8
0
100
AcDbBlockBegin
  2
*D5
 70
     1
 10
0.0
 20
0.0
 30
0.0
  3
*D5
  1

  0
INSERT
  5
11A
330
117
100
AcDbEntity
  8
0
  6
Continuous
 62
     7
370
     0
100
AcDbBlockReference
  2
_CLOSED
 10
209.6043704073
 20
184.0154690816
 30
0.1
 41
3.302
 42
3.302
 50
270.0
  0
INSERT
  5
11B
330
117
100
AcDbEntity
  8
0
  6
Continuous
 62
     7
370
     0
100
AcDbBlockReference
  2
_CLOSED
 10
209.6043704073
 20
259.0154690816
 30
0.1
 41
3.302
 42
3.302
 50
90.0
  0
LINE
  5
11C
330
117
100
AcDbEntity
  8
0
  6
Continuous
 62
     7
370
     0
100
AcDbLine
 10
180.6043664828
 20
184.0154690816
 30
0.0
 11
210.6043704073
 21
184.0154690816
 31
0.0
  0
LINE
  5
11D
330
117
100
AcDbEntity
  8
0
  6
Continuous
 62
     7
370
     0
100
AcDbLine
 10
194.6043681733
 20
259.0154690816
 30
0.0
 11
210.6043704073
 21
259.0154690816
 31
0.0
  0
LINE
  5
11E
330
117
100
AcDbEntity
  8
0
  6
Continuous
 62
     7
370
     0
100
AcDbLine
 10
209.6043704073
 20
184.0154690816
 30
0.0
 11
209.6043704073
 21
259.0154690816
 31
0.0
  0
MTEXT
  5
11F
330
117
100
AcDbEntity
  8
0
  6
Continuous
 62
     7
370
     0
100
AcDbMText
 10
205.0926334927
 20
217.0975260164
 30
0.0
 40
3.5
 41
0.0
 71
     1
 72
     1
  1
75
  7
SLDTEXTSTYLE0
 11
6.123233995736766E-17
 21
1.0
 31
0.0
 73
     1
 44
1.0
  0
ENDBLK
  5
119
330
117
100
AcDbEntity
  8
0
100
AcDbBlockEnd
  0
BLOCK
  5
122
330
121
100
AcDbEntity
  8
0
100
AcDbBlockBegin
  2
*D6
 70
     1
 10
0.0
 20
0.0
 30
0.0
  3
*D6
  1

  0
INSERT
  5
124
330
121
100
AcDbEntity
  8
0
  6
Continuous
 62
     7
370
     0
100
AcDbBlockReference
  2
_CLOSED
 10
200.1489433003
 20
227.0154690816
 30
0.1
 41
3.302
 42
3.302
 50
90.0
  0
INSERT
  5
125
330
121
100
AcDbEntity
  8
0
  6
Continuous
 62
     7
370
     0
100
AcDbBlockReference
  2
_CLOSED
 10
200.1489433003
 20
184.0154690816
 30
0.1
 41
3.302
 42
3.302
 50
270.0
  0
LINE
  5
126
330
121
100
AcDbEntity
  8
0
  6
Continuous
 62
     7
370
     0
100
AcDbLine
 10
182.6043668656
 20
227.0154690816
 30
0.0
 11
201.1489433003
 21
227.0154690816
 31
0.0
  0
LINE
  5
127
330
121
100
AcDbEntity
  8
0
  6
Continuous
 62
     7
370
     0
100
AcDbLine
 10
180.6043664828
 20
184.0154690816
 30
0.0
 11
201.1489433003
 21
184.0154690816
 31
0.0
  0
LINE
  5
128
330
121
100
AcDbEntity
  8
0
  6
Continuous
 62
     7
370
     0
100
AcDbLine
 10
200.1489433003
 20
227.0154690816
 30
0.0
 11
200.1489433003
 21
184.0154690816
 31
0.0
  0
MTEXT
  5
129
330
121
100
AcDbEntity
  8
0
  6
Continuous
 62
     7
370
     0
100
AcDbMText
 10
195.6372063857
 20
203.00935925
 30
0.0
 40
3.5
 41
0.0
 71
     1
 72
     1
  1
43
  7
SLDTEXTSTYLE0
 11
-7.044195017643634E-15
 21
1.0
 31
0.0
 73
     1
 44
1.0
  0
ENDBLK
  5
123
330
121
100
AcDbEntity
  8
0
100
AcDbBlockEnd
  0
BLOCK
  5
166
330
165
100
AcDbEntity
  8
0
100
AcDbBlockBegin
  2
*D7
 70
     1
 10
0.0
 20
0.0
 30
0.0
  3
*D7
  1

  0
INSERT
  5
168
330
165
100
AcDbEntity
  8
0
  6
Continuous
 62
     7
370
     0
100
AcDbBlockReference
  2
_CLOSED
 10
30.6135945312
 20
254.0154690816
 30
20.4
 41
3.302
 42
3.302
 50
90.0
  0
INSERT
  5
169
330
165
100
AcDbEntity
  8
0
  6
Continuous
 62
     7
370
     0
100
AcDbBlockReference
  2
_CLOSED
 10
30.6135945312
 20
184.0154690816
 30
20.4
 41
3.302
 42
3.302
 50
270.0
  0
LINE
  5
16A
330
165
100
AcDbEntity
  8
0
  6
Continuous
 62
     7
370
     0
100
AcDbLine
 10
45.3764684325
 20
254.0154690816
 30
0.0
 11
29.6135945312
 21
254.0154690816
 31
0.0
  0
LINE
  5
16B
330
165
100
AcDbEntity
  8
0
  6
Continuous
 62
     7
370
     0
100
AcDbLine
 10
48.2977906931
 20
184.0154690816
 30
0.0
 11
29.6135945312
 21
184.0154690816
 31
0.0
  0
LINE
  5
16C
330
165
100
AcDbEntity
  8
0
  6
Continuous
 62
     7
370
     0
100
AcDbLine
 10
30.6135945312
 20
254.0154690816
 30
0.0
 11
30.6135945312
 21
184.0154690816
 31
0.0
  0
MTEXT
  5
16D
330
165
100
AcDbEntity
  8
0
  6
Continuous
 62
     7
370
     0
100
AcDbMText
 10
26.1018576166
 20
214.8077252637
 30
0.0
 40
3.5
 41
0.0
 71
     1
 72
     1
  1
70
  7
SLDTEXTSTYLE0
 11
-7.044195017643634E-15
 21
1.0
 31
0.0
 73
     1
 44
1.0
  0
ENDBLK
  5
167
330
165
100
AcDbEntity
  8
0
100
AcDbBlockEnd
  0
BLOCK
  5
170
330
16F
100
AcDbEntity
  8
0
100
AcDbBlockBegin
  2
*D8
 70
     1
 10
0.0
 20
0.0
 30
0.0
  3
*D8
  1

  0
INSERT
  5
172
330
16F
100
AcDbEntity
  8
0
  6
Continuous
 62
     7
370
     0
100
AcDbBlockReference
  2
_CLOSED
 10
109.0530702512
 20
234.0154690816
 30
0.1
 41
3.302
 42
3.302
 50
90.0
  0
INSERT
  5
173
330
16F
100
AcDbEntity
  8
0
  6
Continuous
 62
     7
370
     0
100
AcDbBlockReference
  2
_CLOSED
 10
109.0530702512
 20
184.0154690816
 30
0.1
 41
3.302
 42
3.302
 50
270.0
  0
LINE
  5
174
330
16F
100
AcDbEntity
  8
0
  6
Continuous
 62
     7
370
     0
100
AcDbLine
 10
89.7837516967
 20
234.0154690816
 30
0.0
 11
110.0530702512
 21
234.0154690816
 31
0.0
  0
LINE
  5
175
330
16F
100
AcDbEntity
  8
0
  6
Continuous
 62
     7
370
     0
100
AcDbLine
 10
88.5337516967
 20
184.0154690816
 30
0.0
 11
110.0530702512
 21
184.0154690816
 31
0.0
  0
LINE
  5
176
330
16F
100
AcDbEntity
  8
0
  6
Continuous
 62
     7
370
     0
100
AcDbLine
 10
109.0530702512
 20
234.0154690816
 30
0.0
 11
109.0530702512
 21
184.0154690816
 31
0.0
  0
MTEXT
  5
177
330
16F
100
AcDbEntity
  8
0
  6
Continuous
 62
     7
370
     0
100
AcDbMText
 10
104.5413333366
 20
206.3371118415
 30
0.0
 40
3.5
 41
0.0
 71
     1
 72
     1
  1
50
  7
SLDTEXTSTYLE0
 11
-7.044195017643634E-15
 21
1.0
 31
0.0
 73
     1
 44
1.0
  0
ENDBLK
  5
171
330
16F
100
AcDbEntity
  8
0
100
AcDbBlockEnd
  0
ENDSEC
  0
SECTION
  2
ENTITIES
  0
ARC
  5
49
330
1F
100
AcDbEntity
  8
0
  6
Continuous
 62
     7
370
    15
100
AcDbCircle
 10
161.1043704073
 20
95.9118921401
 30
0.0
 40
16.5
100
AcDbArc
 50
146.6936952297
 51
213.3063047703
  0
SPLINE
  5
4A
330
1F
100
AcDbEntity
  8
0
  6
Continuous
 62
     7
370
    15
100
AcDbSpline
210
0.0
220
0.0
230
1.0
 70
     8
 71
     3
 72
    14
 73
    10
 74
     0
 42
0.00000001
 43
0.00000001
 40
0.0
 40
0.0
 40
0.0
 40
0.0
 40
0.25
 40
0.25
 40
0.5
 40
0.5
 40
0.75
 40
0.75
 40
1.0
 40
1.0
 40
1.0
 40
1.0
 10
149.1043704072702
 20
87.38687649556135
 30
0.0
 10
149.1043704072702
 20
87.17657747566831
 30
0.0
 10
149.0360977991311
 20
86.97225767607104
 30
0.0
 10
148.7873286168449
 20
86.63777934611413
 30
0.0
 10
148.6096683546024
 20
86.51340440621249
 30
0.0
 10
148.2124873980641
 20
86.39353931842544
 30
0.0
 10
147.9935616349046
 20
86.39934716409509
 30
0.0
 10
147.6031598324322
 20
86.54026653887759
 30
0.0
 10
147.4302463096658
 20
86.67540329628598
 30
0.0
 10
147.3145458579003
 20
86.85149816979298
 30
0.0
  0
LINE
  5
4B
330
1F
100
AcDbEntity
  8
0
  6
Continuous
 62
     7
370
    15
100
AcDbLine
 10
149.104370303
 20
104.4369079264
 30
0.0
 11
149.104370303
 21
87.3868763538
 31
0.0
  0
SPLINE
  5
4C
330
1F
100
AcDbEntity
  8
0
  6
Continuous
 62
     7
370
    15
100
AcDbSpline
210
0.0
220
0.0
230
1.0
 70
     8
 71
     3
 72
    14
 73
    10
 74
     0
 42
0.00000001
 43
0.00000001
 40
0.0
 40
0.0
 40
0.0
 40
0.0
 40
0.25
 40
0.25
 40
0.5
 40
0.5
 40
0.75
 40
0.75
 40
1.0
 40
1.0
 40
1.0
 40
1.0
 10
147.3145458579003
 20
104.9722861104534
 30
0.0
 10
147.4302372479159
 20
105.1483671920721
 30
0.0
 10
147.600128723103
 20
105.2820553462286
 30
0.0
 10
147.993569140958
 20
105.4248052932946
 30
0.0
 10
148.2105341937232
 20
105.4304601692576
 30
0.0
 10
148.6084132684346
 20
105.3111298889447
 30
0.0
 10
148.7869365386496
 20
105.1859562951648
 30
0.0
 10
149.0345634673383
 20
104.8541608975836
 30
0.0
 10
149.1043704072702
 20
104.6471943654124
 30
0.0
 10
149.1043704072702
 20
104.436907784685
 30
0.0
  0
LINE
  5
4D
330
1F
100
AcDbEntity
  8
0
  6
Continuous
 62
     7
370
    15
100
AcDbLine
 10
166.1043702955
 20
83.4118919539
 30
0.0
 11
166.1043702955
 21
108.4118923264
 31
0.0
  0
SPLINE
  5
4E
330
1F
100
AcDbEntity
  8
0
  6
Continuous
 62
     7
370
    15
100
AcDbSpline
210
0.0
220
0.0
230
1.0
 70
     8
 71
     3
 72
    34
 73
    30
 74
     0
 42
0.00000001
 43
0.00000001
 40
0.0
 40
0.0
 40
0.0
 40
0.0
 40
0.0625
 40
0.0625
 40
0.125
 40
0.125
 40
0.1875
 40
0.1875
 40
0.25
 40
0.25
 40
0.375
 40
0.375
 40
0.5
 40
0.5
 40
0.5625
 40
0.5625
 40
0.625
 40
0.625
 40
0.6875
 40
0.6875
 40
0.75
 40
0.75
 40
0.8125
 40
0.8125
 40
0.875
 40
0.875
 40
0.9375
 40
0.9375
 40
1.0
 40
1.0
 40
1.0
 40
1.0
 10
170.1043704072702
 20
83.41189214012316
 30
0.0
 10
170.1043704072702
 20
83.27996741053443
 30
0.0
 10
170.0914449014847
 20
83.15017363014314
 30
0.0
 10
170.040722598215
 20
82.89468636226782
 30
0.0
 10
170.0023094008254
 20
82.76766479470487
 30
0.0
 10
169.9019247752619
 20
82.52532596100501
 30
0.0
 10
169.8404611670806
 20
82.41033445838893
 30
0.0
 10
169.695133466364
 20
82.19262932761615
 30
0.0
 10
169.6104820856177
 20
82.08949944224459
 30
0.0
 10
169.3330091263467
 20
81.81225898273512
 30
0.0
 10
169.1091585028773
 20
81.66300496319106
 30
0.0
 10
168.6263819925551
 20
81.46363410291669
 30
0.0
 10
168.3625636308263
 20
81.41148995627597
 30
0.0
 10
167.9706286019939
 20
81.41209682835269
 30
0.0
 10
167.8380271431752
 20
81.42539873340694
 30
0.0
 10
167.5816711332646
 20
81.47698122273968
 30
0.0
 10
167.4570848421279
 20
81.51500292997926
 30
0.0
 10
167.2151413474893
 20
81.61566304625929
 30
0.0
 10
167.0984376641455
 20
81.6783918144692
 30
0.0
 10
166.8823487551926
 20
81.8233119109291
 30
0.0
 10
166.7815688529532
 20
81.90604996817925
 30
0.0
 10
166.5954298128946
 20
82.09262610116295
 30
0.0
 10
166.5130402160122
 20
82.19346845088324
 30
0.0
 10
166.3687475299729
 20
82.40964402118628
 30
0.0
 10
166.306350553831
 20
82.52633134937979
 30
0.0
 10
166.2063654394631
 20
82.76794303526863
 30
0.0
 10
166.1686517593309
 20
82.89228556109232
 30
0.0
 10
166.1175763759915
 20
83.1479846596919
 30
0.0
 10
166.1043704072702
 20
83.27996565835996
 30
0.0
 10
166.1043704072702
 20
83.41189214012317
 30
0.0
  0
LINE
  5
4F
330
1F
100
AcDbEntity
  8
0
  6
Continuous
 62
     7
370
    15
100
AcDbLine
 10
170.1043700198
 20
108.4118923264
 30
0.0
 11
170.1043700198
 21
83.4118919539
 31
0.0
  0
SPLINE
  5
50
330
1F
100
AcDbEntity
  8
0
  6
Continuous
 62
     7
370
    15
100
AcDbSpline
210
0.0
220
0.0
230
1.0
 70
     8
 71
     3
 72
    36
 73
    32
 74
     0
 42
0.00000001
 43
0.00000001
 40
0.0
 40
0.0
 40
0.0
 40
0.0
 40
0.0625000000000001
 40
0.0625000000000001
 40
0.1250000000000001
 40
0.1250000000000001
 40
0.1875000000000002
 40
0.1875000000000002
 40
0.2500000000000003
 40
0.2500000000000003
 40
0.3125000000000003
 40
0.3125000000000003
 40
0.3750000000000004
 40
0.3750000000000004
 40
0.5000000000000002
 40
0.5000000000000002
 40
0.5625
 40
0.5625
 40
0.6249999999999997
 40
0.6249999999999997
 40
0.6874999999999998
 40
0.6874999999999998
 40
0.7499999999999998
 40
0.7499999999999998
 40
0.8124999999999999
 40
0.8124999999999999
 40
0.875
 40
0.875
 40
0.9375
 40
0.9375
 40
1.0
 40
1.0
 40
1.0
 40
1.0
 10
166.1043704072702
 20
108.4118921401231
 30
0.0
 10
166.1043704072702
 20
108.543824204034
 30
0.0
 10
166.1172967643265
 20
108.6735017300238
 30
0.0
 10
166.1678855098218
 20
108.9285423912252
 30
0.0
 10
166.2061453873324
 20
109.0552001555913
 30
0.0
 10
166.3060830199197
 20
109.2969152480585
 30
0.0
 10
166.3672269041816
 20
109.4115480329484
 30
0.0
 10
166.5116222365985
 20
109.6284991922172
 30
0.0
 10
166.5957114562756
 20
109.7313238747817
 30
0.0
 10
166.7795093354349
 20
109.9157854452401
 30
0.0
 10
166.8797913759396
 20
109.9985894520876
 30
0.0
 10
167.0974943303141
 20
110.1449249526871
 30
0.0
 10
167.2138195237281
 20
110.2074027936582
 30
0.0
 10
167.5741399579477
 20
110.3578143387611
 30
0.0
 10
167.8373572689238
 20
110.4111046789929
 30
0.0
 10
168.2289296342419
 20
110.4122725281699
 30
0.0
 10
168.3615561663335
 20
110.3996186373329
 30
0.0
 10
168.6189339669559
 20
110.3490099696365
 30
0.0
 10
168.7439519595625
 20
110.311405614128
 30
0.0
 10
168.9866366254148
 20
110.2115649771354
 30
0.0
 10
169.1043376595242
 20
110.1488863832845
 30
0.0
 10
169.3218989099506
 20
110.0039687248127
 30
0.0
 10
169.4231983435406
 20
109.9212487510137
 30
0.0
 10
169.6103314705877
 20
109.7345961055281
 30
0.0
 10
169.6937066961544
 20
109.632971832104
 30
0.0
 10
169.8388876251381
 20
109.4161209358924
 30
0.0
 10
169.9015370336872
 20
109.2992690503362
 30
0.0
 10
170.0021394027289
 20
109.0566545023636
 30
0.0
 10
170.0399789085066
 20
108.9319562017102
 30
0.0
 10
170.0911642350668
 20
108.6758943826179
 30
0.0
 10
170.1043704072702
 20
108.5438261554511
 30
0.0
 10
170.1043704072702
 20
108.4118921401232
 30
0.0
  0
LINE
  5
51
330
1F
100
AcDbEntity
  8
0
  6
Continuous
 62
     7
370
    15
100
AcDbLine
 10
159.1043703123
 20
81.4118925574
 30
0.0
 11
159.1043703123
 21
110.4118917229
 31
0.0
  0
SPLINE
  5
52
330
1F
100
AcDbEntity
  8
0
  6
Continuous
 62
     7
370
    15
100
AcDbSpline
210
0.0
220
0.0
230
1.0
 70
     8
 71
     3
 72
    36
 73
    32
 74
     0
 42
0.00000001
 43
0.00000001
 40
0.0
 40
0.0
 40
0.0
 40
0.0
 40
0.0625000000000006
 40
0.0625000000000006
 40
0.1250000000000011
 40
0.1250000000000011
 40
0.1875000000000017
 40
0.1875000000000017
 40
0.2500000000000015
 40
0.2500000000000015
 40
0.3125000000000014
 40
0.3125000000000014
 40
0.3750000000000013
 40
0.3750000000000013
 40
0.500000000000001
 40
0.500000000000001
 40
0.5625000000000009
 40
0.5625000000000009
 40
0.6250000000000008
 40
0.6250000000000008
 40
0.6875000000000007
 40
0.6875000000000007
 40
0.7500000000000006
 40
0.7500000000000006
 40
0.8125000000000004
 40
0.8125000000000004
 40
0.8750000000000003
 40
0.8750000000000003
 40
0.9375000000000002
 40
0.9375000000000002
 40
1.0
 40
1.0
 40
1.0
 40
1.0
 10
163.1043704072702
 20
81.41189214012316
 30
0.0
 10
163.1043704072702
 20
81.2801424083909
 30
0.0
 10
163.091479087268
 20
81.15057283796102
 30
0.0
 10
163.0409524604721
 20
80.89561834161957
 30
0.0
 10
163.00271932325
 20
80.76893400055616
 30
0.0
 10
162.9027576849403
 20
80.52706053153808
 30
0.0
 10
162.8415664110741
 20
80.41230264843168
 30
0.0
 10
162.6969485872964
 20
80.19504217071976
 30
0.0
 10
162.6126699850622
 20
80.09202158081443
 30
0.0
 10
162.4283931114216
 20
79.9072361034858
 30
0.0
 10
162.3278186767099
 20
79.82429345328976
 30
0.0
 10
162.1093957829019
 20
79.67775856603879
 30
0.0
 10
161.9927122315799
 20
79.61526340266936
 30
0.0
 10
161.6312606936514
 20
79.46497388442566
 30
0.0
 10
161.3673732082917
 20
79.4120910668734
 30
0.0
 10
160.9751446718632
 20
79.41179353985677
 30
0.0
 10
160.8423536399702
 20
79.42479803611896
 30
0.0
 10
160.5851393187784
 20
79.47602157594328
 30
0.0
 10
160.4602119174436
 20
79.51392453131828
 30
0.0
 10
160.2177329523547
 20
79.61436738990993
 30
0.0
 10
160.1004493741147
 20
79.67719775849835
 30
0.0
 10
159.883593563818
 20
79.8223242941526
 30
0.0
 10
159.782603365169
 20
79.90512163841463
 30
0.0
 10
159.5960303138718
 20
80.09191652631395
 30
0.0
 10
159.513270144458
 20
80.19314641695173
 30
0.0
 10
159.3687299997773
 20
80.40964787850446
 30
0.0
 10
159.3063103457042
 20
80.52639047182599
 30
0.0
 10
159.2062355603785
 20
80.7682949892816
 30
0.0
 10
159.1685463441426
 20
80.89269278747078
 30
0.0
 10
159.1175397296844
 20
81.14828897287727
 30
0.0
 10
159.1043704072702
 20
81.28014034854726
 30
0.0
 10
159.1043704072702
 20
81.41189214012316
 30
0.0
  0
LINE
  5
53
330
1F
100
AcDbEntity
  8
0
  6
Continuous
 62
     7
370
    15
100
AcDbLine
 10
163.1043705023
 20
110.4118917229
 30
0.0
 11
163.1043705023
 21
81.4118925574
 31
0.0
  0
SPLINE
  5
54
330
1F
100
AcDbEntity
  8
0
  6
Continuous
 62
     7
370
    15
100
AcDbSpline
210
0.0
220
0.0
230
1.0
 70
     8
 71
     3
 72
    36
 73
    32
 74
     0
 42
0.00000001
 43
0.00000001
 40
0.0
 40
0.0
 40
0.0
 40
0.0
 40
0.0624999999999996
 40
0.0624999999999996
 40
0.1249999999999991
 40
0.1249999999999991
 40
0.1874999999999987
 40
0.1874999999999987
 40
0.249999999999999
 40
0.249999999999999
 40
0.3124999999999993
 40
0.3124999999999993
 40
0.3749999999999996
 40
0.3749999999999996
 40
0.5000000000000001
 40
0.5000000000000001
 40
0.5625000000000003
 40
0.5625000000000003
 40
0.6250000000000006
 40
0.6250000000000006
 40
0.6875000000000008
 40
0.6875000000000008
 40
0.750000000000001
 40
0.750000000000001
 40
0.8125000000000013
 40
0.8125000000000013
 40
0.8750000000000009
 40
0.8750000000000009
 40
0.9375000000000004
 40
0.9375000000000004
 40
1.0
 40
1.0
 40
1.0
 40
1.0
 10
159.1043704072702
 20
110.4118921401232
 30
0.0
 10
159.1043704072702
 20
110.5436418718554
 30
0.0
 10
159.1172617272724
 20
110.6732114422853
 30
0.0
 10
159.1677883540683
 20
110.9281659386268
 30
0.0
 10
159.2060214912904
 20
111.0548502796902
 30
0.0
 10
159.3059831296
 20
111.2967237487082
 30
0.0
 10
159.3671744034662
 20
111.4114816318147
 30
0.0
 10
159.511792227244
 20
111.6287421095266
 30
0.0
 10
159.5960708294781
 20
111.7317626994319
 30
0.0
 10
159.7803477031188
 20
111.9165481767605
 30
0.0
 10
159.8809221378304
 20
111.9994908269566
 30
0.0
 10
160.0993450316385
 20
112.1460257142075
 30
0.0
 10
160.2160285829604
 20
112.208520877577
 30
0.0
 10
160.577480120889
 20
112.3588103958207
 30
0.0
 10
160.8413676062487
 20
112.4116932133729
 30
0.0
 10
161.2335961426771
 20
112.4119907403895
 30
0.0
 10
161.3663871745701
 20
112.3989862441274
 30
0.0
 10
161.623601495762
 20
112.3477627043031
 30
0.0
 10
161.7485288970967
 20
112.309859748928
 30
0.0
 10
161.9910078621857
 20
112.2094168903364
 30
0.0
 10
162.1082914404257
 20
112.146586521748
 30
0.0
 10
162.3251472507224
 20
112.0014599860937
 30
0.0
 10
162.4261374493714
 20
111.9186626418317
 30
0.0
 10
162.6127105006685
 20
111.7318677539324
 30
0.0
 10
162.6954706700824
 20
111.6306378632946
 30
0.0
 10
162.8400108147631
 20
111.4141364017419
 30
0.0
 10
162.9024304688362
 20
111.2973938084203
 30
0.0
 10
163.0025052541619
 20
111.0554892909647
 30
0.0
 10
163.0401944703977
 20
110.9310914927756
 30
0.0
 10
163.091201084856
 20
110.675495307369
 30
0.0
 10
163.1043704072702
 20
110.5436439316991
 30
0.0
 10
163.1043704072702
 20
110.4118921401232
 30
0.0
  0
LINE
  5
55
330
1F
100
AcDbEntity
  8
0
  6
Continuous
 62
     7
370
    15
100
AcDbLine
 10
152.1043707947
 20
83.4118919539
 30
0.0
 11
152.1043707947
 21
108.4118923264
 31
0.0
  0
SPLINE
  5
56
330
1F
100
AcDbEntity
  8
0
  6
Continuous
 62
     7
370
    15
100
AcDbSpline
210
0.0
220
0.0
230
1.0
 70
     8
 71
     3
 72
    36
 73
    32
 74
     0
 42
0.00000001
 43
0.00000001
 40
0.0
 40
0.0
 40
0.0
 40
0.0
 40
0.0625000000000002
 40
0.0625000000000002
 40
0.1250000000000004
 40
0.1250000000000004
 40
0.1875000000000006
 40
0.1875000000000006
 40
0.2500000000000008
 40
0.2500000000000008
 40
0.312500000000001
 40
0.312500000000001
 40
0.3750000000000012
 40
0.3750000000000012
 40
0.5000000000000012
 40
0.5000000000000012
 40
0.5625000000000011
 40
0.5625000000000011
 40
0.6250000000000009
 40
0.6250000000000009
 40
0.6875000000000008
 40
0.6875000000000008
 40
0.7500000000000007
 40
0.7500000000000007
 40
0.8125000000000006
 40
0.8125000000000006
 40
0.8750000000000003
 40
0.8750000000000003
 40
0.9375000000000002
 40
0.9375000000000002
 40
1.0
 40
1.0
 40
1.0
 40
1.0
 10
156.1043704072702
 20
83.41189214012316
 30
0.0
 10
156.1043704072702
 20
83.27996007621232
 30
0.0
 10
156.0914440502138
 20
83.15028255022253
 30
0.0
 10
156.0408553047185
 20
82.89524188902111
 30
0.0
 10
156.002595427208
 20
82.76858412465504
 30
0.0
 10
155.9026577946207
 20
82.52686903218782
 30
0.0
 10
155.8415139103587
 20
82.41223624729794
 30
0.0
 10
155.6971185779419
 20
82.19528508802914
 30
0.0
 10
155.6130293582647
 20
82.09246040546464
 30
0.0
 10
155.4292314791054
 20
81.90799883500623
 30
0.0
 10
155.3289494386008
 20
81.82519482815876
 30
0.0
 10
155.1112464842263
 20
81.67885932755925
 30
0.0
 10
154.9949212908122
 20
81.61638148658817
 30
0.0
 10
154.6346008565927
 20
81.46596994148523
 30
0.0
 10
154.3713835456166
 20
81.41267960125349
 30
0.0
 10
153.9798111802984
 20
81.41151175207644
 30
0.0
 10
153.8471846482069
 20
81.42416564291341
 30
0.0
 10
153.5898068475844
 20
81.47477431060987
 30
0.0
 10
153.4647888549779
 20
81.51237866611831
 30
0.0
 10
153.2221041891256
 20
81.61221930311098
 30
0.0
 10
153.1044031550163
 20
81.67489789696184
 30
0.0
 10
152.8868419045897
 20
81.81981555543365
 30
0.0
 10
152.7855424709997
 20
81.90253552923265
 30
0.0
 10
152.5984093439527
 20
82.0891881747183
 30
0.0
 10
152.515034118386
 20
82.19081244814232
 30
0.0
 10
152.3698531894023
 20
82.40766334435399
 30
0.0
 10
152.3072037808532
 20
82.52451522991016
 30
0.0
 10
152.2066014118115
 20
82.7671297778827
 30
0.0
 10
152.1687619060338
 20
82.89182807853616
 30
0.0
 10
152.1175765794736
 20
83.14788989762845
 30
0.0
 10
152.1043704072702
 20
83.27995812479521
 30
0.0
 10
152.1043704072702
 20
83.41189214012317
 30
0.0
  0
LINE
  5
57
330
1F
100
AcDbEntity
  8
0
  6
Continuous
 62
     7
370
    15
100
AcDbLine
 10
156.104370519
 20
108.4118923264
 30
0.0
 11
156.104370519
 21
83.4118919539
 31
0.0
  0
SPLINE
  5
58
330
1F
100
AcDbEntity
  8
0
  6
Continuous
 62
     7
370
    15
100
AcDbSpline
210
0.0
220
0.0
230
1.0
 70
     8
 71
     3
 72
    34
 73
    30
 74
     0
 42
0.00000001
 43
0.00000001
 40
0.0
 40
0.0
 40
0.0
 40
0.0
 40
0.0625000000000003
 40
0.0625000000000003
 40
0.1250000000000006
 40
0.1250000000000006
 40
0.1875000000000009
 40
0.1875000000000009
 40
0.2500000000000012
 40
0.2500000000000012
 40
0.3750000000000012
 40
0.3750000000000012
 40
0.5000000000000012
 40
0.5000000000000012
 40
0.5625000000000011
 40
0.5625000000000011
 40
0.6250000000000009
 40
0.6250000000000009
 40
0.6875000000000008
 40
0.6875000000000008
 40
0.7500000000000006
 40
0.7500000000000006
 40
0.8125000000000004
 40
0.8125000000000004
 40
0.8750000000000003
 40
0.8750000000000003
 40
0.9375000000000001
 40
0.9375000000000001
 40
1.0
 40
1.0
 40
1.0
 40
1.0
 10
152.1043704072702
 20
108.4118921401231
 30
0.0
 10
152.1043704072702
 20
108.5438168697119
 30
0.0
 10
152.1172959130557
 20
108.6736106501032
 30
0.0
 10
152.1680182163253
 20
108.9290979179785
 30
0.0
 10
152.206431413715
 20
109.0561194855414
 30
0.0
 10
152.3068160392785
 20
109.2984583192413
 30
0.0
 10
152.3682796474598
 20
109.4134498218574
 30
0.0
 10
152.5136073481764
 20
109.6311549526302
 30
0.0
 10
152.5982587289227
 20
109.7342848380017
 30
0.0
 10
152.8757316881937
 20
110.0115252975112
 30
0.0
 10
153.0995823116631
 20
110.1607793170553
 30
0.0
 10
153.5823588219852
 20
110.3601501773296
 30
0.0
 10
153.8461771837141
 20
110.4122943239703
 30
0.0
 10
154.2381122125465
 20
110.4116874518936
 30
0.0
 10
154.3707136713651
 20
110.3983855468394
 30
0.0
 10
154.6270696812758
 20
110.3468030575066
 30
0.0
 10
154.7516559724124
 20
110.308781350267
 30
0.0
 10
154.9935994670511
 20
110.208121233987
 30
0.0
 10
155.1103031503948
 20
110.1453924657771
 30
0.0
 10
155.3263920593478
 20
110.0004723693172
 30
0.0
 10
155.4271719615872
 20
109.9177343120671
 30
0.0
 10
155.6133110016457
 20
109.7311581790834
 30
0.0
 10
155.6957005985282
 20
109.6303158293631
 30
0.0
 10
155.8399932845674
 20
109.41414025906
 30
0.0
 10
155.9023902607093
 20
109.2974529308665
 30
0.0
 10
156.0023753750773
 20
109.0558412449777
 30
0.0
 10
156.0400890552095
 20
108.931498719154
 30
0.0
 10
156.0911644385488
 20
108.6757996205544
 30
0.0
 10
156.1043704072702
 20
108.5438186218864
 30
0.0
 10
156.1043704072702
 20
108.4118921401231
 30
0.0
  0
LINE
  5
59
330
1F
100
AcDbEntity
  8
0
  6
Continuous
 62
     7
370
    15
100
AcDbLine
 10
173.1043705116
 20
87.3868763538
 30
0.0
 11
173.1043705116
 21
104.4369079264
 31
0.0
  0
SPLINE
  5
5A
330
1F
100
AcDbEntity
  8
0
  6
Continuous
 62
     7
370
    15
100
AcDbSpline
210
0.0
220
0.0
230
1.0
 70
     8
 71
     3
 72
    14
 73
    10
 74
     0
 42
0.00000001
 43
0.00000001
 40
0.0
 40
0.0
 40
0.0
 40
0.0
 40
0.25
 40
0.25
 40
0.5
 40
0.5
 40
0.75
 40
0.75
 40
1.0
 40
1.0
 40
1.0
 40
1.0
 10
174.8941949566401
 20
86.85149816979298
 30
0.0
 10
174.7785035666245
 20
86.67541708817423
 30
0.0
 10
174.6086120914374
 20
86.54172893401773
 30
0.0
 10
174.2151716735823
 20
86.39897898695169
 30
0.0
 10
173.9982066208172
 20
86.39332411098869
 30
0.0
 10
173.6003275461057
 20
86.51265439130161
 30
0.0
 10
173.4218042758907
 20
86.63782798508151
 30
0.0
 10
173.1741773472021
 20
86.96962338266275
 30
0.0
 10
173.1043704072702
 20
87.17658991483387
 30
0.0
 10
173.1043704072702
 20
87.38687649556135
 30
0.0
  0
ARC
  5
5B
330
1F
100
AcDbEntity
  8
0
  6
Continuous
 62
     7
370
    15
100
AcDbCircle
 10
161.1043704073
 20
95.9118921401
 30
0.0
 40
16.49999999999999
100
AcDbArc
 50
326.6936952297
 51
33.3063047703
  0
SPLINE
  5
5C
330
1F
100
AcDbEntity
  8
0
  6
Continuous
 62
     7
370
    15
100
AcDbSpline
210
0.0
220
0.0
230
1.0
 70
     8
 71
     3
 72
    14
 73
    10
 74
     0
 42
0.00000001
 43
0.00000001
 40
0.0
 40
0.0
 40
0.0
 40
0.0
 40
0.25
 40
0.25
 40
0.5
 40
0.5
 40
0.75
 40
0.75
 40
1.0
 40
1.0
 40
1.0
 40
1.0
 10
173.1043704072702
 20
104.436907784685
 30
0.0
 10
173.1043704072702
 20
104.647206804578
 30
0.0
 10
173.1726430154093
 20
104.8515266041753
 30
0.0
 10
173.4214121976954
 20
105.1860049341322
 30
0.0
 10
173.599072459938
 20
105.3103798740338
 30
0.0
 10
173.9962534164762
 20
105.4302449618209
 30
0.0
 10
174.2151791796358
 20
105.4244371161512
 30
0.0
 10
174.6055809821082
 20
105.2835177413687
 30
0.0
 10
174.7784945048746
 20
105.1483809839603
 30
0.0
 10
174.8941949566401
 20
104.9722861104534
 30
0.0
  0
CIRCLE
  5
5D
330
1F
100
AcDbEntity
  8
0
  6
Continuous
 62
     7
370
    15
100
AcDbCircle
 10
161.1043704073
 20
95.9118921401
 30
0.0
 40
32.5
  0
DIMENSION
  5
5E
330
1F
100
AcDbEntity
  8
0
  6
Continuous
 62
     7
370
     0
100
AcDbDimension
  2
*D2
 10
193.6043704073
 20
138.4118921401
 30
0.0
 11
161.4625790772
 21
138.4118921401
 31
0.0
 70
   160
  1
(%%c<>)
 71
     2
 42
-1.0
  3
SLDDIMSTYLE0
100
AcDbAlignedDimension
 13
128.6043704073
 23
95.9118921401
 33
0.0
 14
193.6043704073
 24
95.9118921401
 34
0.0
100
AcDbRotatedDimension
  0
INSERT
  5
7F
330
1F
100
AcDbEntity
  8
0
  6
Continuous
 62
     7
370
     0
100
AcDbBlockReference
  2
SW_CENTERMARKSYMBOL_0
 10
161.1043704073
 20
95.9118921401
 30
0.0
  0
LINE
  5
80
330
1F
100
AcDbEntity
  8
0
  6
CENTER
 62
     7
370
     0
100
AcDbLine
 10
115.380896734
 20
95.9239423222
 30
0.0
 11
205.5297037739
 21
95.9239423222
 31
0.0
  0
LINE
  5
81
330
1F
100
AcDbEntity
  8
0
  6
Continuous
 62
     7
370
     0
100
AcDbLine
 10
117.380896734
 20
83.2239423222
 30
0.0
 11
117.380896734
 21
95.9239423222
 31
0.0
  0
INSERT
  5
82
330
1F
100
AcDbEntity
  8
0
  6
Continuous
 62
     7
370
     0
100
AcDbBlockReference
  2
_CLOSED
 10
117.380896734
 20
95.9239423222
 30
0.0
 41
6.35
 42
6.35
 50
90.0
  0
LINE
  5
83
330
1F
100
AcDbEntity
  8
0
  6
Continuous
 62
     7
370
     0
100
AcDbLine
 10
203.5297037739
 20
83.2239423222
 30
0.0
 11
203.5297037739
 21
95.9239423222
 31
0.0
  0
INSERT
  5
84
330
1F
100
AcDbEntity
  8
0
  6
Continuous
 62
     7
370
     0
100
AcDbBlockReference
  2
_CLOSED
 10
203.5297037739
 20
95.9239423222
 30
0.0
 41
6.35
 42
6.35
 50
90.0
  0
MTEXT
  5
85
330
1F
100
AcDbEntity
  8
0
  6
Continuous
 62
     7
100
AcDbMText
 10
118.761343421
 20
88.7854950239
 30
0.0
 40
3.5
 41
0.0
 71
     1
 72
     1
  1
A
  7
SLDTEXTSTYLE0
 73
     1
 44
1.0
  0
MTEXT
  5
86
330
1F
100
AcDbEntity
  8
0
  6
Continuous
 62
     7
100
AcDbMText
 10
204.9101504608
 20
88.7854950239
 30
0.0
 40
3.5
 41
0.0
 71
     1
 72
     1
  1
A
  7
SLDTEXTSTYLE0
 73
     1
 44
1.0
  0
LINE
  5
87
330
1F
100
AcDbEntity
  8
0
  6
Continuous
 62
     7
370
    15
100
AcDbLine
 10
141.3543732236
 20
211.8154674537
 30
0.0
 11
141.3543732236
 21
217.8154684372
 31
0.0
  0
LINE
  5
88
330
1F
100
AcDbEntity
  8
0
  6
Continuous
 62
     7
370
    15
100
AcDbLine
 10
180.854367591
 20
217.8154684372
 30
0.0
 11
180.854367591
 21
211.8154674537
 31
0.0
  0
SPLINE
  5
89
330
1F
100
AcDbEntity
  8
0
  6
Continuous
 62
     7
370
    15
100
AcDbSpline
210
0.0
220
0.0
230
1.0
 70
     8
 71
     3
 72
    16
 73
    12
 74
     0
 42
0.00000001
 43
0.00000001
 40
0.0
 40
0.0
 40
0.0
 40
0.0
 40
0.1036938513114223
 40
0.2102599673249717
 40
0.4245394682915458
 40
0.4847876379133575
 40
0.5455773953423663
 40
0.6515846214346328
 40
0.7606646920043215
 40
0.974986034883616
 40
1.0
 40
1.0
 40
1.0
 40
1.0
 10
134.7010308275688
 20
212.3154684669658
 30
0.0
 10
134.7023181255591
 20
212.2883542630414
 30
0.0
 10
134.7049283790116
 20
212.23337480612
 30
0.0
 10
134.7329398873161
 20
212.1254649432225
 30
0.0
 10
134.7812584352524
 20
212.0359891710103
 30
0.0
 10
134.8387338750086
 20
211.9698157830582
 30
0.0
 10
134.8816991193663
 20
211.9288379667011
 30
0.0
 10
134.9401986960231
 20
211.8861272389419
 30
0.0
 10
135.0408923059323
 20
211.8359879654069
 30
0.0
 10
135.1320900948074
 20
211.8163295425695
 30
0.0
 10
135.1945740195829
 20
211.8155490285706
 30
0.0
 10
135.2011044840085
 20
211.8154674536868
 30
0.0
  0
SPLINE
  5
8A
330
1F
100
AcDbEntity
  8
0
  6
Continuous
 62
     7
370
    15
100
AcDbSpline
210
0.0
220
0.0
230
1.0
 70
     8
 71
     3
 72
    13
 73
     9
 74
     0
 42
0.00000001
 43
0.00000001
 40
0.0
 40
0.0
 40
0.0
 40
0.0
 40
0.1363536911677113
 40
0.3509799900884284
 40
0.4547657990270398
 40
0.6692693448431892
 40
0.8837768112829306
 40
1.0
 40
1.0
 40
1.0
 40
1.0
 10
187.0076363305318
 20
211.8154674536868
 30
0.0
 10
187.0432496766856
 20
211.8177190087326
 30
0.0
 10
187.1349198894464
 20
211.8235146037098
 30
0.0
 10
187.2474079820489
 20
211.8707706340704
 30
0.0
 10
187.3599138300801
 20
211.9528779399499
 30
0.0
 10
187.4496178922617
 20
212.0624888163487
 30
0.0
 10
187.5013168972995
 20
212.1987655206412
 30
0.0
 10
187.5060475663937
 20
212.2851217348806
 30
0.0
 10
187.5077099869716
 20
212.3154684669658
 30
0.0
  0
LINE
  5
8B
330
1F
100
AcDbEntity
  8
0
  6
Continuous
 62
     7
370
    15
100
AcDbLine
 10
141.3543732236
 20
217.8154684372
 30
0.0
 11
139.854373909
 21
219.3154677517
 31
0.0
  0
LINE
  5
8C
330
1F
100
AcDbEntity
  8
0
  6
Continuous
 62
     7
370
    15
100
AcDbLine
 10
182.3543669055
 20
219.3154677517
 30
0.0
 11
180.854367591
 21
217.8154684372
 31
0.0
  0
LINE
  5
8D
330
1F
100
AcDbEntity
  8
0
  6
Continuous
 62
     7
370
    15
100
AcDbLine
 10
191.1043678741
 20
219.3154677517
 30
0.0
 11
191.1043678741
 21
217.3154674239
 31
0.0
  0
SPLINE
  5
8E
330
1F
100
AcDbEntity
  8
0
  6
Continuous
 62
     7
370
    15
100
AcDbSpline
210
0.0
220
0.0
230
1.0
 70
     8
 71
     3
 72
    12
 73
     8
 74
     0
 42
0.00000001
 43
0.00000001
 40
0.0
 40
0.0
 40
0.0
 40
0.0
 40
0.1910731556494173
 40
0.4057387311799495
 40
0.6204067503370754
 40
0.8350733721505453
 40
1.0
 40
1.0
 40
1.0
 40
1.0
 10
190.604368723439
 20
216.8154701358959
 30
0.0
 10
190.6543437772898
 20
216.8198596879898
 30
0.0
 10
190.7604644663586
 20
216.8291807843574
 30
0.0
 10
190.9077767312145
 20
216.906595192767
 30
0.0
 10
191.0254686227429
 20
217.029196301488
 30
0.0
 10
191.0935170820484
 20
217.1732094717664
 30
0.0
 10
191.1010813374155
 20
217.2723796959676
 30
0.0
 10
191.1043678740728
 20
217.3154674238845
 30
0.0
  0
LINE
  5
8F
330
1F
100
AcDbEntity
  8
0
  6
Continuous
 62
     7
370
    15
100
AcDbLine
 10
187.507709987
 20
212.315468467
 30
0.0
 11
187.507709987
 21
216.8154701359
 31
0.0
  0
LINE
  5
90
330
1F
100
AcDbEntity
  8
0
  6
Continuous
 62
     7
370
    15
100
AcDbLine
 10
191.1043678741
 20
219.3154677517
 30
0.0
 11
182.3543669055
 21
219.3154677517
 31
0.0
  0
LINE
  5
91
330
1F
100
AcDbEntity
  8
0
  6
Continuous
 62
     7
370
    15
100
AcDbLine
 10
190.6043687234
 20
216.8154701359
 30
0.0
 11
187.507709987
 21
216.8154701359
 31
0.0
  0
LINE
  5
92
330
1F
100
AcDbEntity
  8
0
  6
Continuous
 62
     7
370
    15
100
AcDbLine
 10
187.0076363305
 20
211.8154674537
 30
0.0
 11
180.854367591
 21
211.8154674537
 31
0.0
  0
SPLINE
  5
93
330
1F
100
AcDbEntity
  8
0
  6
Continuous
 62
     7
370
    15
100
AcDbSpline
210
0.0
220
0.0
230
1.0
 70
     8
 71
     3
 72
    13
 73
     9
 74
     0
 42
0.00000001
 43
0.00000001
 40
0.0
 40
0.0
 40
0.0
 40
0.0
 40
0.0442245242722109
 40
0.258816381866111
 40
0.4734086400154501
 40
0.6077183546918721
 40
0.8223114965224008
 40
1.0
 40
1.0
 40
1.0
 40
1.0
 10
131.1043729404676
 20
217.3154674238845
 30
0.0
 10
131.1046245598918
 20
217.3039365698718
 30
0.0
 10
131.1060971190671
 20
217.2364542404514
 30
0.0
 10
131.1365322095983
 20
217.1139235462958
 30
0.0
 10
131.2179392388969
 20
216.9880809134007
 30
0.0
 10
131.3289592214996
 20
216.8909136568539
 30
0.0
 10
131.4553238353869
 20
216.8276224514082
 30
0.0
 10
131.5579062164231
 20
216.8192586268577
 30
0.0
 10
131.6043720911014
 20
216.8154701358959
 30
0.0
  0
LINE
  5
94
330
1F
100
AcDbEntity
  8
0
  6
Continuous
 62
     7
370
    15
100
AcDbLine
 10
131.1043729405
 20
217.3154674239
 30
0.0
 11
131.1043729405
 21
219.3154677517
 31
0.0
  0
LINE
  5
95
330
1F
100
AcDbEntity
  8
0
  6
Continuous
 62
     7
370
    15
100
AcDbLine
 10
134.7010308276
 20
216.8154701359
 30
0.0
 11
134.7010308276
 21
212.315468467
 31
0.0
  0
LINE
  5
96
330
1F
100
AcDbEntity
  8
0
  6
Continuous
 62
     7
370
    15
100
AcDbLine
 10
139.854373909
 20
219.3154677517
 30
0.0
 11
131.1043729405
 21
219.3154677517
 31
0.0
  0
LINE
  5
97
330
1F
100
AcDbEntity
  8
0
  6
Continuous
 62
     7
370
    15
100
AcDbLine
 10
134.7010308276
 20
216.8154701359
 30
0.0
 11
131.6043720911
 21
216.8154701359
 31
0.0
  0
LINE
  5
98
330
1F
100
AcDbEntity
  8
0
  6
Continuous
 62
     7
370
    15
100
AcDbLine
 10
141.3543732236
 20
211.8154674537
 30
0.0
 11
135.201104484
 21
211.8154674537
 31
0.0
  0
LINE
  5
99
330
1F
100
AcDbEntity
  8
0
  6
Continuous
 62
     7
370
    15
100
AcDbLine
 10
140.1043744157
 20
219.3154677517
 30
0.0
 11
140.1043744157
 21
220.0154684252
 31
0.0
  0
LINE
  5
9A
330
1F
100
AcDbEntity
  8
0
  6
Continuous
 62
     7
370
    15
100
AcDbLine
 10
182.1043663989
 20
220.0154684252
 30
0.0
 11
182.1043663989
 21
219.3154677517
 31
0.0
  0
LINE
  5
9B
330
1F
100
AcDbEntity
  8
0
  6
Continuous
 62
     7
370
    15
100
AcDbLine
 10
182.1043663989
 20
219.3154677517
 30
0.0
 11
181.6043672482
 21
219.3154677517
 31
0.0
  0
LINE
  5
9C
330
1F
100
AcDbEntity
  8
0
  6
Continuous
 62
     7
370
    15
100
AcDbLine
 10
140.6043735663
 20
219.3154677517
 30
0.0
 11
140.1043744157
 21
219.3154677517
 31
0.0
  0
LINE
  5
9D
330
1F
100
AcDbEntity
  8
0
  6
Continuous
 62
     7
370
    15
100
AcDbLine
 10
182.1043663989
 20
220.0154684252
 30
0.0
 11
181.6043672482
 21
220.0154684252
 31
0.0
  0
LINE
  5
9E
330
1F
100
AcDbEntity
  8
0
  6
Continuous
 62
     7
370
    15
100
AcDbLine
 10
140.6043735663
 20
220.0154684252
 30
0.0
 11
140.1043744157
 21
220.0154684252
 31
0.0
  0
LINE
  5
9F
330
1F
100
AcDbEntity
  8
0
  6
Continuous
 62
     7
370
    15
100
AcDbLine
 10
193.1043682019
 20
220.0154684252
 30
0.0
 11
193.1043682019
 21
219.3154677517
 31
0.0
  0
LINE
  5
A0
330
1F
100
AcDbEntity
  8
0
  6
Continuous
 62
     7
370
    15
100
AcDbLine
 10
193.1043682019
 20
219.3154677517
 30
0.0
 11
182.1043663989
 21
219.3154677517
 31
0.0
  0
LINE
  5
A1
330
1F
100
AcDbEntity
  8
0
  6
Continuous
 62
     7
370
    15
100
AcDbLine
 10
193.1043682019
 20
220.0154684252
 30
0.0
 11
182.1043663989
 21
220.0154684252
 31
0.0
  0
LINE
  5
A2
330
1F
100
AcDbEntity
  8
0
  6
Continuous
 62
     7
370
    15
100
AcDbLine
 10
129.1043726126
 20
219.3154677517
 30
0.0
 11
129.1043726126
 21
220.0154684252
 31
0.0
  0
LINE
  5
A3
330
1F
100
AcDbEntity
  8
0
  6
Continuous
 62
     7
370
    15
100
AcDbLine
 10
140.1043744157
 20
219.3154677517
 30
0.0
 11
129.1043726126
 21
219.3154677517
 31
0.0
  0
LINE
  5
A4
330
1F
100
AcDbEntity
  8
0
  6
Continuous
 62
     7
370
    15
100
AcDbLine
 10
140.1043744157
 20
220.0154684252
 30
0.0
 11
129.1043726126
 21
220.0154684252
 31
0.0
  0
LINE
  5
A5
330
1F
100
AcDbEntity
  8
0
  6
Continuous
 62
     7
370
    15
100
AcDbLine
 10
140.1043744157
 20
220.0154684252
 30
0.0
 11
140.1043744157
 21
222.0154687531
 31
0.0
  0
LINE
  5
A6
330
1F
100
AcDbEntity
  8
0
  6
Continuous
 62
     7
370
    15
100
AcDbLine
 10
182.1043663989
 20
222.0154687531
 30
0.0
 11
182.1043663989
 21
220.0154684252
 31
0.0
  0
LINE
  5
A7
330
1F
100
AcDbEntity
  8
0
  6
Continuous
 62
     7
370
    15
100
AcDbLine
 10
182.1043663989
 20
222.0154687531
 30
0.0
 11
181.6043672482
 21
222.0154687531
 31
0.0
  0
LINE
  5
A8
330
1F
100
AcDbEntity
  8
0
  6
Continuous
 62
     7
370
    15
100
AcDbLine
 10
140.6043735663
 20
222.0154687531
 30
0.0
 11
140.1043744157
 21
222.0154687531
 31
0.0
  0
LINE
  5
A9
330
1F
100
AcDbEntity
  8
0
  6
Continuous
 62
     7
370
    15
100
AcDbLine
 10
129.1043726126
 20
220.0154684252
 30
0.0
 11
129.1043726126
 21
222.0154687531
 31
0.0
  0
LINE
  5
AA
330
1F
100
AcDbEntity
  8
0
  6
Continuous
 62
     7
370
    15
100
AcDbLine
 10
140.1043744157
 20
222.0154687531
 30
0.0
 11
129.1043726126
 21
222.0154687531
 31
0.0
  0
LINE
  5
AB
330
1F
100
AcDbEntity
  8
0
  6
Continuous
 62
     7
370
    15
100
AcDbLine
 10
193.1043682019
 20
222.0154687531
 30
0.0
 11
193.1043682019
 21
220.0154684252
 31
0.0
  0
LINE
  5
AC
330
1F
100
AcDbEntity
  8
0
  6
Continuous
 62
     7
370
    15
100
AcDbLine
 10
193.1043682019
 20
222.0154687531
 30
0.0
 11
182.1043663989
 21
222.0154687531
 31
0.0
  0
LINE
  5
AD
330
1F
100
AcDbEntity
  8
0
  6
Continuous
 62
     7
370
    15
100
AcDbLine
 10
180.2043659012
 20
245.0154687978
 30
0.0
 11
180.2043659012
 21
254.0154691088
 31
0.0
  0
LINE
  5
AE
330
1F
100
AcDbEntity
  8
0
  6
Continuous
 62
     7
370
    15
100
AcDbLine
 10
142.0043749134
 20
254.0154691088
 30
0.0
 11
142.0043749134
 21
245.0154687978
 31
0.0
  0
LINE
  5
AF
330
1F
100
AcDbEntity
  8
0
  6
Continuous
 62
     7
370
    15
100
AcDbLine
 10
179.1043659071
 20
239.0154696769
 30
0.0
 11
179.1043659071
 21
245.0154687978
 31
0.0
  0
LINE
  5
B0
330
1F
100
AcDbEntity
  8
0
  6
Continuous
 62
     7
370
    15
100
AcDbLine
 10
174.5207780371
 20
239.0154696769
 30
0.0
 11
179.1043659071
 21
239.0154696769
 31
0.0
  0
LINE
  5
B1
330
1F
100
AcDbEntity
  8
0
  6
Continuous
 62
     7
370
    15
100
AcDbLine
 10
174.5207780371
 20
227.0154695726
 30
0.0
 11
174.5207780371
 21
239.0154696769
 31
0.0
  0
LINE
  5
B2
330
1F
100
AcDbEntity
  8
0
  6
Continuous
 62
     7
370
    15
100
AcDbLine
 10
174.5207780371
 20
227.0154695726
 30
0.0
 11
179.1043659071
 21
227.0154695726
 31
0.0
  0
LINE
  5
B3
330
1F
100
AcDbEntity
  8
0
  6
Continuous
 62
     7
370
    15
100
AcDbLine
 10
179.1043659071
 20
184.0154662497
 30
0.0
 11
179.1043659071
 21
227.0154695726
 31
0.0
  0
LINE
  5
B4
330
1F
100
AcDbEntity
  8
0
  6
Continuous
 62
     7
370
    15
100
AcDbLine
 10
179.1043659071
 20
184.0154662497
 30
0.0
 11
143.1043749074
 21
184.0154662497
 31
0.0
  0
LINE
  5
B5
330
1F
100
AcDbEntity
  8
0
  6
Continuous
 62
     7
370
    15
100
AcDbLine
 10
143.1043749074
 20
245.0154687978
 30
0.0
 11
143.1043749074
 21
184.0154662497
 31
0.0
  0
LINE
  5
B6
330
1F
100
AcDbEntity
  8
0
  6
Continuous
 62
     7
370
    15
100
AcDbLine
 10
143.1043749074
 20
245.0154687978
 30
0.0
 11
179.1043659071
 21
245.0154687978
 31
0.0
  0
LINE
  5
B7
330
1F
100
AcDbEntity
  8
0
  6
Continuous
 62
     7
370
    15
100
AcDbLine
 10
181.6043672482
 20
239.0154696769
 30
0.0
 11
179.1043659071
 21
239.0154696769
 31
0.0
  0
LINE
  5
B8
330
1F
100
AcDbEntity
  8
0
  6
Continuous
 62
     7
370
    15
100
AcDbLine
 10
181.6043672482
 20
239.0154696769
 30
0.0
 11
181.6043709735
 21
254.0154691088
 31
0.0
  0
LINE
  5
B9
330
1F
100
AcDbEntity
  8
0
  6
Continuous
 62
     7
370
    15
100
AcDbLine
 10
181.6043709735
 20
254.0154691088
 30
0.0
 11
180.2043659012
 21
254.0154691088
 31
0.0
  0
LINE
  5
BA
330
1F
100
AcDbEntity
  8
0
  6
Continuous
 62
     7
370
    15
100
AcDbLine
 10
180.2043659012
 20
245.0154687978
 30
0.0
 11
179.1043659071
 21
245.0154687978
 31
0.0
  0
LINE
  5
BB
330
1F
100
AcDbEntity
  8
0
  6
Continuous
 62
     7
370
    15
100
AcDbLine
 10
140.6043735663
 20
186.0154703028
 30
0.0
 11
142.6043738941
 21
184.0154662497
 31
0.0
  0
LINE
  5
BC
330
1F
100
AcDbEntity
  8
0
  6
Continuous
 62
     7
370
    15
100
AcDbLine
 10
143.1043749074
 20
184.0154662497
 30
0.0
 11
142.6043738941
 21
184.0154662497
 31
0.0
  0
LINE
  5
BD
330
1F
100
AcDbEntity
  8
0
  6
Continuous
 62
     7
370
    15
100
AcDbLine
 10
140.604369841
 20
254.0154691088
 30
0.0
 11
140.6043735663
 21
186.0154703028
 31
0.0
  0
LINE
  5
BE
330
1F
100
AcDbEntity
  8
0
  6
Continuous
 62
     7
370
    15
100
AcDbLine
 10
142.0043749134
 20
254.0154691088
 30
0.0
 11
140.604369841
 21
254.0154691088
 31
0.0
  0
LINE
  5
BF
330
1F
100
AcDbEntity
  8
0
  6
Continuous
 62
     7
370
    15
100
AcDbLine
 10
143.1043749074
 20
245.0154687978
 30
0.0
 11
142.0043749134
 21
245.0154687978
 31
0.0
  0
LWPOLYLINE
  5
C0
330
1F
100
AcDbEntity
  8
0
  6
Continuous
 62
     7
370
    15
100
AcDbPolyline
 90
        3
 70
   128
 43
0.0
 10
179.6043669204
 20
184.0154662497
 10
181.120344005
 20
185.5314507849
 10
181.6043672482
 20
186.0154703028
  0
LINE
  5
C1
330
1F
100
AcDbEntity
  8
0
  6
Continuous
 62
     7
370
    15
100
AcDbLine
 10
181.6043672482
 20
227.0154695726
 30
0.0
 11
179.1043659071
 21
227.0154695726
 31
0.0
  0
LINE
  5
C2
330
1F
100
AcDbEntity
  8
0
  6
Continuous
 62
     7
370
    15
100
AcDbLine
 10
179.6043669204
 20
184.0154662497
 30
0.0
 11
179.1043659071
 21
184.0154662497
 31
0.0
  0
LINE
  5
C3
330
1F
100
AcDbEntity
  8
0
  6
Continuous
 62
     7
370
    15
100
AcDbLine
 10
181.6043672482
 20
186.0154703028
 30
0.0
 11
181.6043672482
 21
227.0154695726
 31
0.0
  0
ARC
  5
C4
330
1F
100
AcDbEntity
  8
0
  6
Continuous
 62
     7
370
    15
100
AcDbCircle
 10
161.1043704073
 20
395.1909073956
 30
0.0
 40
139.999999481404
100
AcDbArc
 50
276.7684464981
 51
283.4232627142
  0
LINE
  5
C5
330
1F
100
AcDbEntity
  8
0
  6
Continuous
 62
     7
370
    15
100
AcDbLine
 10
174.8941946174
 20
256.1666289113
 30
0.0
 11
177.6043665926
 21
256.1666289113
 31
0.0
  0
SPLINE
  5
C6
330
1F
100
AcDbEntity
  8
0
  6
Continuous
 62
     7
370
    15
100
AcDbSpline
210
0.0
220
0.0
230
1.0
 70
     8
 71
     3
 72
    14
 73
    10
 74
     0
 42
0.00000001
 43
0.00000001
 40
0.0
 40
0.0
 40
0.0
 40
0.0
 40
0.25
 40
0.25
 40
0.5
 40
0.5
 40
0.75
 40
0.75
 40
1.0
 40
1.0
 40
1.0
 40
1.0
 10
173.1043704072702
 20
255.9669004561775
 30
0.0
 10
173.1043704072702
 20
255.9797775631797
 30
0.0
 10
173.1726430154093
 20
255.9986531233091
 30
0.0
 10
173.4214121976954
 20
256.0423348879589
 30
0.0
 10
173.599072459938
 20
256.0665228624485
 30
0.0
 10
173.9962534164762
 20
256.1109166175005
 30
0.0
 10
174.2151791796358
 20
256.1309870646322
 30
0.0
 10
174.6055809821082
 20
256.1587772686198
 30
0.0
 10
174.7784945048746
 20
256.1666289403303
 30
0.0
 10
174.8941949566401
 20
256.1666289403303
 30
0.0
  0
LINE
  5
C7
330
1F
100
AcDbEntity
  8
0
  6
Continuous
 62
     7
370
    15
100
AcDbLine
 10
173.1043705116
 20
255.706141703
 30
0.0
 11
173.1043705116
 21
255.9669004405
 31
0.0
  0
ARC
  5
C8
330
1F
100
AcDbEntity
  8
0
  6
Continuous
 62
     7
370
    15
100
AcDbCircle
 10
161.1043704073
 20
395.1909073956
 30
0.0
 40
139.999999481404
100
AcDbArc
 50
273.6858418218
 51
274.9171003538
  0
LINE
  5
C9
330
1F
100
AcDbEntity
  8
0
  6
Continuous
 62
     7
370
    15
100
AcDbLine
 10
170.1043700198
 20
256.0408085702
 30
0.0
 11
170.1043700198
 21
255.480493128
 31
0.0
  0
SPLINE
  5
CA
330
1F
100
AcDbEntity
  8
0
  6
Continuous
 62
     7
370
    15
100
AcDbSpline
210
0.0
220
0.0
230
1.0
 70
     8
 71
     3
 72
    36
 73
    32
 74
     0
 42
0.00000001
 43
0.00000001
 40
0.0
 40
0.0
 40
0.0
 40
0.0
 40
0.0625000000000001
 40
0.0625000000000001
 40
0.1250000000000001
 40
0.1250000000000001
 40
0.1875000000000002
 40
0.1875000000000002
 40
0.2500000000000003
 40
0.2500000000000003
 40
0.3125000000000003
 40
0.3125000000000003
 40
0.3750000000000004
 40
0.3750000000000004
 40
0.5000000000000002
 40
0.5000000000000002
 40
0.5625
 40
0.5625
 40
0.6249999999999997
 40
0.6249999999999997
 40
0.6874999999999998
 40
0.6874999999999998
 40
0.7499999999999998
 40
0.7499999999999998
 40
0.8124999999999999
 40
0.8124999999999999
 40
0.875
 40
0.875
 40
0.9375
 40
0.9375
 40
1.0
 40
1.0
 40
1.0
 40
1.0
 10
166.1043704072702
 20
255.8397323018521
 30
0.0
 10
166.1043704072702
 20
255.8515667969525
 30
0.0
 10
166.1172967643265
 20
255.8638498910528
 30
0.0
 10
166.1678855098218
 20
255.8892753380091
 30
0.0
 10
166.2061453873324
 20
255.9025639193795
 30
0.0
 10
166.3060830199197
 20
255.9292808641621
 30
0.0
 10
166.3672269041816
 20
255.9426442450624
 30
0.0
 10
166.5116222365985
 20
255.9693807669719
 30
0.0
 10
166.5957114562756
 20
255.9828415428283
 30
0.0
 10
166.7795093354349
 20
256.0086495862803
 30
0.0
 10
166.8797913759396
 20
256.0211304366655
 30
0.0
 10
167.0974943303141
 20
256.0452262196348
 30
0.0
 10
167.2138195237281
 20
256.0566914122634
 30
0.0
 10
167.5741399579477
 20
256.0883351103772
 30
0.0
 10
167.8373572689238
 20
256.1063717887766
 30
0.0
 10
168.2289296342419
 20
256.1261861153535
 30
0.0
 10
168.3615561663335
 20
256.1317248342867
 30
0.0
 10
168.6189339669559
 20
256.140131841832
 30
0.0
 10
168.7439519595625
 20
256.1430450457827
 30
0.0
 10
168.9866366254148
 20
256.1462870226541
 30
0.0
 10
169.1043376595242
 20
256.1465777612192
 30
0.0
 10
169.3218989099506
 20
256.1445025969496
 30
0.0
 10
169.4231983435406
 20
256.1421659156231
 30
0.0
 10
169.6103314705877
 20
256.1348073513232
 30
0.0
 10
169.6937066961544
 20
256.1298692261118
 30
0.0
 10
169.8388876251381
 20
256.1176854002231
 30
0.0
 10
169.9015370336872
 20
256.1103360905212
 30
0.0
 10
170.0021394027289
 20
256.0935952537766
 30
0.0
 10
170.0399789085066
 20
256.0842936641854
 30
0.0
 10
170.0911642350668
 20
256.063861373892
 30
0.0
 10
170.1043704072702
 20
256.0526603529926
 30
0.0
 10
170.1043704072702
 20
256.0408085813758
 30
0.0
  0
LINE
  5
CB
330
1F
100
AcDbEntity
  8
0
  6
Continuous
 62
     7
370
    15
100
AcDbLine
 10
166.1043702955
 20
255.2802221181
 30
0.0
 11
166.1043702955
 21
255.8397323011
 31
0.0
  0
ARC
  5
CC
330
1F
100
AcDbEntity
  8
0
  6
Continuous
 62
     7
370
    15
100
AcDbCircle
 10
161.1043704073
 20
395.1909073956
 30
0.0
 40
139.999999481404
100
AcDbArc
 50
270.818538982
 51
272.0467131053
  0
LINE
  5
CD
330
1F
100
AcDbEntity
  8
0
  6
Continuous
 62
     7
370
    15
100
AcDbLine
 10
163.1043705023
 20
255.9581885581
 30
0.0
 11
163.1043705023
 21
255.2051943577
 31
0.0
  0
SPLINE
  5
CE
330
1F
100
AcDbEntity
  8
0
  6
Continuous
 62
     7
370
    15
100
AcDbSpline
210
0.0
220
0.0
230
1.0
 70
     8
 71
     3
 72
    36
 73
    32
 74
     0
 42
0.00000001
 43
0.00000001
 40
0.0
 40
0.0
 40
0.0
 40
0.0
 40
0.0624999999999996
 40
0.0624999999999996
 40
0.1249999999999991
 40
0.1249999999999991
 40
0.1874999999999987
 40
0.1874999999999987
 40
0.249999999999999
 40
0.249999999999999
 40
0.3124999999999993
 40
0.3124999999999993
 40
0.3749999999999996
 40
0.3749999999999996
 40
0.5000000000000001
 40
0.5000000000000001
 40
0.5625000000000003
 40
0.5625000000000003
 40
0.6250000000000006
 40
0.6250000000000006
 40
0.6875000000000008
 40
0.6875000000000008
 40
0.750000000000001
 40
0.750000000000001
 40
0.8125000000000013
 40
0.8125000000000013
 40
0.8750000000000009
 40
0.8750000000000009
 40
0.9375000000000004
 40
0.9375000000000004
 40
1.0
 40
1.0
 40
1.0
 40
1.0
 10
159.1043704072702
 20
255.9581885396918
 30
0.0
 10
159.1043704072702
 20
255.971909245039
 30
0.0
 10
159.1172617272724
 20
255.9854049303812
 30
0.0
 10
159.1677883540683
 20
256.0119641742918
 30
0.0
 10
159.2060214912904
 20
256.0251631452035
 30
0.0
 10
159.3059831296
 20
256.0503667822862
 30
0.0
 10
159.3671744034662
 20
256.0623264607482
 30
0.0
 10
159.511792227244
 20
256.0849712207122
 30
0.0
 10
159.5960708294781
 20
256.0957103305433
 30
0.0
 10
159.7803477031188
 20
256.1149746547968
 30
0.0
 10
159.8809221378304
 20
256.1236226142552
 30
0.0
 10
160.0993450316385
 20
256.1389020712417
 30
0.0
 10
160.2160285829604
 20
256.1454191771168
 30
0.0
 10
160.577480120889
 20
256.1610923206681
 30
0.0
 10
160.8413676062487
 20
256.1666081926026
 30
0.0
 10
161.2335961426771
 20
256.1666392241734
 30
0.0
 10
161.3663871745701
 20
256.1652828577922
 30
0.0
 10
161.623601495762
 20
256.1599404825328
 30
0.0
 10
161.7485288970967
 20
256.1559874409946
 30
0.0
 10
161.9910078621857
 20
256.1455126150368
 30
0.0
 10
162.1082914404257
 20
256.1389605548949
 30
0.0
 10
162.3251472507224
 20
256.1238279349158
 30
0.0
 10
162.4261374493714
 20
256.1151951009427
 30
0.0
 10
162.6127105006685
 20
256.0957212746728
 30
0.0
 10
162.6954706700824
 20
256.0851688319485
 30
0.0
 10
162.8400108147631
 20
256.0626031447252
 30
0.0
 10
162.9024304688362
 20
256.0504366098703
 30
0.0
 10
163.0025052541619
 20
256.0252297251316
 30
0.0
 10
163.0401944703977
 20
256.0122689627597
 30
0.0
 10
163.091201084856
 20
255.9856428205988
 30
0.0
 10
163.1043704072702
 20
255.9719094595557
 30
0.0
 10
163.1043704072702
 20
255.9581885396918
 30
0.0
  0
LINE
  5
CF
330
1F
100
AcDbEntity
  8
0
  6
Continuous
 62
     7
370
    15
100
AcDbLine
 10
159.1043703123
 20
255.2051943577
 30
0.0
 11
159.1043703123
 21
255.9581885581
 31
0.0
  0
ARC
  5
D0
330
1F
100
AcDbEntity
  8
0
  6
Continuous
 62
     7
370
    15
100
AcDbCircle
 10
161.1043704073
 20
395.1909073956
 30
0.0
 40
139.999999481404
100
AcDbArc
 50
267.9532868947
 51
269.181461018
  0
LINE
  5
D1
330
1F
100
AcDbEntity
  8
0
  6
Continuous
 62
     7
370
    15
100
AcDbLine
 10
156.104370519
 20
255.8397323011
 30
0.0
 11
156.104370519
 21
255.2802221181
 31
0.0
  0
SPLINE
  5
D2
330
1F
100
AcDbEntity
  8
0
  6
Continuous
 62
     7
370
    15
100
AcDbSpline
210
0.0
220
0.0
230
1.0
 70
     8
 71
     3
 72
    34
 73
    30
 74
     0
 42
0.00000001
 43
0.00000001
 40
0.0
 40
0.0
 40
0.0
 40
0.0
 40
0.0625000000000003
 40
0.0625000000000003
 40
0.1250000000000006
 40
0.1250000000000006
 40
0.1875000000000009
 40
0.1875000000000009
 40
0.2500000000000012
 40
0.2500000000000012
 40
0.3750000000000012
 40
0.3750000000000012
 40
0.5000000000000012
 40
0.5000000000000012
 40
0.5625000000000011
 40
0.5625000000000011
 40
0.6250000000000009
 40
0.6250000000000009
 40
0.6875000000000008
 40
0.6875000000000008
 40
0.7500000000000006
 40
0.7500000000000006
 40
0.8125000000000004
 40
0.8125000000000004
 40
0.8750000000000003
 40
0.8750000000000003
 40
0.9375000000000001
 40
0.9375000000000001
 40
1.0
 40
1.0
 40
1.0
 40
1.0
 10
152.1043704072702
 20
256.0408085813758
 30
0.0
 10
152.1043704072702
 20
256.0526595188448
 30
0.0
 10
152.1172959130557
 20
256.0636703123459
 30
0.0
 10
152.1680182163253
 20
256.0840742457907
 30
0.0
 10
152.206431413715
 20
256.0935557299002
 30
0.0
 10
152.3068160392785
 20
256.1102827409532
 30
0.0
 10
152.3682796474598
 20
256.117524518563
 30
0.0
 10
152.5136073481764
 20
256.1297777280913
 30
0.0
 10
152.5982587289227
 20
256.1347869535389
 30
0.0
 10
152.8757316881937
 20
256.1457410562535
 30
0.0
 10
153.0995823116631
 20
256.1478896010091
 30
0.0
 10
153.5823588219852
 20
256.1415082704526
 30
0.0
 10
153.8461771837141
 20
256.1329144063119
 30
0.0
 10
154.2381122125465
 20
256.1131322265616
 30
0.0
 10
154.3707136713651
 20
256.1052627466185
 30
0.0
 10
154.6270696812758
 20
256.0877259302042
 30
0.0
 10
154.7516559724124
 20
256.0780399813575
 30
0.0
 10
154.9935994670511
 20
256.0568224557674
 30
0.0
 10
155.1103031503948
 20
256.0453156834522
 30
0.0
 10
155.3263920593478
 20
256.0214281982538
 30
0.0
 10
155.4271719615872
 20
256.0089281814159
 30
0.0
 10
155.6133110016457
 20
255.9828124877859
 30
0.0
 10
155.6957005985282
 20
255.9696151728668
 30
0.0
 10
155.8399932845674
 20
255.9429533889799
 30
0.0
 10
155.9023902607093
 20
255.9293425740571
 30
0.0
 10
156.0023753750773
 20
255.9026325111246
 30
0.0
 10
156.0400890552095
 20
255.8895791202338
 30
0.0
 10
156.0911644385488
 20
255.8640700952683
 30
0.0
 10
156.1043704072702
 20
255.8515662962259
 30
0.0
 10
156.1043704072702
 20
255.8397323018521
 30
0.0
  0
LINE
  5
D3
330
1F
100
AcDbEntity
  8
0
  6
Continuous
 62
     7
370
    15
100
AcDbLine
 10
152.1043707947
 20
255.480493128
 30
0.0
 11
152.1043707947
 21
256.0408085702
 31
0.0
  0
ARC
  5
D4
330
1F
100
AcDbEntity
  8
0
  6
Continuous
 62
     7
370
    15
100
AcDbCircle
 10
161.1043704073
 20
395.1909073956
 30
0.0
 40
139.999999481404
100
AcDbArc
 50
265.0828996462
 51
266.3141581782
  0
LINE
  5
D5
330
1F
100
AcDbEntity
  8
0
  6
Continuous
 62
     7
370
    15
100
AcDbLine
 10
149.104370303
 20
255.9669004405
 30
0.0
 11
149.104370303
 21
255.706141703
 31
0.0
  0
SPLINE
  5
D6
330
1F
100
AcDbEntity
  8
0
  6
Continuous
 62
     7
370
    15
100
AcDbSpline
210
0.0
220
0.0
230
1.0
 70
     8
 71
     3
 72
    14
 73
    10
 74
     0
 42
0.00000001
 43
0.00000001
 40
0.0
 40
0.0
 40
0.0
 40
0.0
 40
0.25
 40
0.25
 40
0.5
 40
0.5
 40
0.75
 40
0.75
 40
1.0
 40
1.0
 40
1.0
 40
1.0
 10
147.3145458579003
 20
256.1666289403304
 30
0.0
 10
147.4302372479159
 20
256.1666289403304
 30
0.0
 10
147.600128723103
 20
256.1589704648205
 30
0.0
 10
147.993569140958
 20
256.1310089266553
 30
0.0
 10
148.2105341937232
 20
256.1111120237682
 30
0.0
 10
148.6084132684346
 20
256.0666858695726
 30
0.0
 10
148.7869365386496
 20
256.0423684887995
 30
0.0
 10
149.0345634673383
 20
255.9989575103456
 30
0.0
 10
149.1043704072702
 20
255.9797768015001
 30
0.0
 10
149.1043704072702
 20
255.9669004561775
 30
0.0
  0
LINE
  5
D7
330
1F
100
AcDbEntity
  8
0
  6
Continuous
 62
     7
370
    15
100
AcDbLine
 10
144.604374222
 20
256.1666289113
 30
0.0
 11
147.3145461972
 21
256.1666289113
 31
0.0
  0
ARC
  5
D8
330
1F
100
AcDbEntity
  8
0
  6
Continuous
 62
     7
370
    15
100
AcDbCircle
 10
161.1043704073
 20
395.1909073956
 30
0.0
 40
139.999999481404
100
AcDbArc
 50
256.5767372858
 51
263.2315535019
  0
LINE
  5
D9
330
1F
100
AcDbEntity
  8
0
  6
Continuous
 62
     7
370
    15
100
AcDbLine
 10
193.6043692152
 20
259.0154689971
 30
0.0
 11
128.6043715994
 21
259.0154689971
 31
0.0
  0
LINE
  5
DA
330
1F
100
AcDbEntity
  8
0
  6
Continuous
 62
     7
370
    15
100
AcDbLine
 10
147.3145461972
 20
255.1596608829
 30
0.0
 11
147.3145461972
 21
256.1666289113
 31
0.0
  0
LINE
  5
DB
330
1F
100
AcDbEntity
  8
0
  6
Continuous
 62
     7
370
    15
100
AcDbLine
 10
174.8941946174
 20
255.1596608829
 30
0.0
 11
174.8941946174
 21
256.1666289113
 31
0.0
  0
LINE
  5
DC
330
1F
100
AcDbEntity
  8
0
  6
Continuous
 62
     7
370
    15
100
AcDbLine
 10
177.6043665926
 20
246.0154689617
 30
0.0
 11
177.6043665926
 21
256.1666289113
 31
0.0
  0
LINE
  5
DD
330
1F
100
AcDbEntity
  8
0
  6
Continuous
 62
     7
370
    15
100
AcDbLine
 10
177.6043665926
 20
246.0154689617
 30
0.0
 11
144.604374222
 21
246.0154689617
 31
0.0
  0
LINE
  5
DE
330
1F
100
AcDbEntity
  8
0
  6
Continuous
 62
     7
370
    15
100
AcDbLine
 10
144.604374222
 20
256.1666289113
 30
0.0
 11
144.604374222
 21
246.0154689617
 31
0.0
  0
LINE
  5
DF
330
1F
100
AcDbEntity
  8
0
  6
Continuous
 62
     7
370
    15
100
AcDbLine
 10
142.1043710182
 20
246.0154689617
 30
0.0
 11
142.1043747435
 21
254.0154691088
 31
0.0
  0
LINE
  5
E0
330
1F
100
AcDbEntity
  8
0
  6
Continuous
 62
     7
370
    15
100
AcDbLine
 10
142.1043747435
 20
254.0154691088
 30
0.0
 11
140.1043706904
 21
254.0154691088
 31
0.0
  0
SPLINE
  5
E1
330
1F
100
AcDbEntity
  8
0
  6
Continuous
 62
     7
370
    15
100
AcDbSpline
210
0.0
220
0.0
230
1.0
 70
     8
 71
     3
 72
    18
 73
    14
 74
     0
 42
0.00000001
 43
0.00000001
 40
0.0
 40
0.0
 40
0.0
 40
0.0
 40
0.2499999999999996
 40
0.2499999999999996
 40
0.3749999999999993
 40
0.3749999999999993
 40
0.4999999999999991
 40
0.4999999999999991
 40
0.7499999999999996
 40
0.7499999999999996
 40
0.8749999999999998
 40
0.8749999999999998
 40
1.0
 40
1.0
 40
1.0
 40
1.0
 10
140.1043714506956
 20
254.0154707769203
 30
0.0
 10
139.2556272227884
 20
254.6115593878085
 30
0.0
 10
138.3717269512688
 20
255.150527942094
 30
0.0
 10
136.9930564371791
 20
255.8731608921949
 30
0.0
 10
136.5233716893422
 20
256.1002025283927
 30
0.0
 10
135.5761457993577
 20
256.5207627987521
 30
0.0
 10
135.0978904402797
 20
256.7147615771278
 30
0.0
 10
133.6494860017865
 20
257.2489269730553
 30
0.0
 10
132.6657534532338
 20
257.5414551629314
 30
0.0
 10
131.1630791971476
 20
257.885291508587
 30
0.0
 10
130.6576614159295
 20
257.9840292700976
 30
0.0
 10
129.6376228304442
 20
258.1492289773109
 30
0.0
 10
129.1213674154288
 20
258.2158335259404
 30
0.0
 10
128.6043726412224
 20
258.2654690816067
 30
0.0
  0
LINE
  5
E2
330
1F
100
AcDbEntity
  8
0
  6
Continuous
 62
     7
370
    15
100
AcDbLine
 10
128.6043715994
 20
258.265469107
 30
0.0
 11
128.6043715994
 21
259.0154689971
 31
0.0
  0
LINE
  5
E3
330
1F
100
AcDbEntity
  8
0
  6
Continuous
 62
     7
370
    15
100
AcDbLine
 10
144.604374222
 20
246.0154689617
 30
0.0
 11
142.1043710182
 21
246.0154689617
 31
0.0
  0
SPLINE
  5
E4
330
1F
100
AcDbEntity
  8
0
  6
Continuous
 62
     7
370
    15
100
AcDbSpline
210
0.0
220
0.0
230
1.0
 70
     8
 71
     3
 72
    17
 73
    13
 74
     0
 42
0.00000001
 43
0.00000001
 40
0.0
 40
0.0
 40
0.0
 40
0.0
 40
0.2500000000000002
 40
0.2500000000000002
 40
0.3750000000000003
 40
0.3750000000000003
 40
0.5000000000000004
 40
0.6250000000000006
 40
0.6250000000000006
 40
0.7500000000000007
 40
0.7500000000000007
 40
1.0
 40
1.0
 40
1.0
 40
1.0
 10
193.604368173318
 20
258.2654690816067
 30
0.0
 10
192.5831400104766
 20
258.1674231634394
 30
0.0
 10
191.5663132984569
 20
258.0040006915791
 30
0.0
 10
190.0479178674651
 20
257.6572007835019
 30
0.0
 10
189.5447241345341
 20
257.5249215074041
 30
0.0
 10
188.551909266078
 20
257.2292714490736
 30
0.0
 10
187.5703181711982
 20
256.9020108160024
 30
0.0
 10
186.6110898976261
 20
256.5117676548571
 30
0.0
 10
185.6631419028344
 20
256.0897547780218
 30
0.0
 10
185.1942014643223
 20
255.8624329358471
 30
0.0
 10
183.8205736798114
 20
255.140810785147
 30
0.0
 10
182.9435861869551
 20
254.6048681235698
 30
0.0
 10
182.1043692606099
 20
254.0154707044165
 30
0.0
  0
LINE
  5
E5
330
1F
100
AcDbEntity
  8
0
  6
Continuous
 62
     7
370
    15
100
AcDbLine
 10
156.104370519
 20
255.2802221181
 30
0.0
 11
156.104370519
 21
254.2795877672
 31
0.0
  0
LINE
  5
E6
330
1F
100
AcDbEntity
  8
0
  6
Continuous
 62
     7
370
    15
100
AcDbLine
 10
159.1043703123
 20
254.2050930207
 30
0.0
 11
159.1043703123
 21
255.2051943577
 31
0.0
  0
ARC
  5
E7
330
1F
100
AcDbEntity
  8
0
  6
Continuous
 62
     7
370
    15
100
AcDbCircle
 10
161.1043704073
 20
395.1909073956
 30
0.0
 40
141.0000000000026
100
AcDbArc
 50
267.9678087099
 51
269.1872666498
  0
LINE
  5
E8
330
1F
100
AcDbEntity
  8
0
  6
Continuous
 62
     7
370
    15
100
AcDbLine
 10
180.104366071
 20
254.0154691088
 30
0.0
 11
180.1043697963
 21
246.0154689617
 31
0.0
  0
LINE
  5
E9
330
1F
100
AcDbEntity
  8
0
  6
Continuous
 62
     7
370
    15
100
AcDbLine
 10
182.1043701241
 20
254.0154691088
 30
0.0
 11
180.104366071
 21
254.0154691088
 31
0.0
  0
LINE
  5
EA
330
1F
100
AcDbEntity
  8
0
  6
Continuous
 62
     7
370
    15
100
AcDbLine
 10
193.6043692152
 20
259.0154689971
 30
0.0
 11
193.6043692152
 21
258.265469107
 31
0.0
  0
LINE
  5
EB
330
1F
100
AcDbEntity
  8
0
  6
Continuous
 62
     7
370
    15
100
AcDbLine
 10
180.1043697963
 20
246.0154689617
 30
0.0
 11
177.6043665926
 21
246.0154689617
 31
0.0
  0
LINE
  5
EC
330
1F
100
AcDbEntity
  8
0
  6
Continuous
 62
     7
370
    15
100
AcDbLine
 10
173.1043705116
 20
254.7024742236
 30
0.0
 11
173.1043705116
 21
255.706141703
 31
0.0
  0
LINE
  5
ED
330
1F
100
AcDbEntity
  8
0
  6
Continuous
 62
     7
370
    15
100
AcDbLine
 10
170.1043700198
 20
255.480493128
 30
0.0
 11
170.1043700198
 21
254.4784350904
 31
0.0
  0
ARC
  5
EE
330
1F
100
AcDbEntity
  8
0
  6
Continuous
 62
     7
370
    15
100
AcDbCircle
 10
161.1043704073
 20
395.1909073956
 30
0.0
 40
140.9999994850845
100
AcDbArc
 50
273.659665364
 51
274.8821423503
  0
LINE
  5
EF
330
1F
100
AcDbEntity
  8
0
  6
Continuous
 62
     7
370
    15
100
AcDbLine
 10
149.104370303
 20
255.706141703
 30
0.0
 11
149.104370303
 21
254.7024736997
 31
0.0
  0
LINE
  5
F0
330
1F
100
AcDbEntity
  8
0
  6
Continuous
 62
     7
370
    15
100
AcDbLine
 10
152.1043707947
 20
254.4784350904
 30
0.0
 11
152.1043707947
 21
255.480493128
 31
0.0
  0
ARC
  5
F1
330
1F
100
AcDbEntity
  8
0
  6
Continuous
 62
     7
370
    15
100
AcDbCircle
 10
161.1043704073
 20
395.1909073956
 30
0.0
 40
141.0000000000025
100
AcDbArc
 50
265.1178576675
 51
266.340334636
  0
LINE
  5
F2
330
1F
100
AcDbEntity
  8
0
  6
Continuous
 62
     7
370
    15
100
AcDbLine
 10
166.1043702955
 20
254.2795882911
 30
0.0
 11
166.1043702955
 21
255.2802221181
 31
0.0
  0
LINE
  5
F3
330
1F
100
AcDbEntity
  8
0
  6
Continuous
 62
     7
370
    15
100
AcDbLine
 10
163.1043705023
 20
255.2051943577
 30
0.0
 11
163.1043705023
 21
254.2050930207
 31
0.0
  0
ARC
  5
F4
330
1F
100
AcDbEntity
  8
0
  6
Continuous
 62
     7
370
    15
100
AcDbCircle
 10
161.1043704073
 20
395.1909073956
 30
0.0
 40
140.9999994850845
100
AcDbArc
 50
270.8127333502
 51
272.0321912976
  0
SPLINE
  5
F5
330
1F
100
AcDbEntity
  8
0
  6
Continuous
 62
     7
370
    15
100
AcDbSpline
210
0.0
220
0.0
230
1.0
 70
     8
 71
     3
 72
    14
 73
    10
 74
     0
 42
0.00000001
 43
0.00000001
 40
0.0
 40
0.0
 40
0.0
 40
0.0
 40
0.25
 40
0.25
 40
0.5
 40
0.5
 40
0.75
 40
0.75
 40
1.0
 40
1.0
 40
1.0
 40
1.0
 10
149.1043704072702
 20
254.9613666123955
 30
0.0
 10
149.1043704072702
 20
254.974151043134
 30
0.0
 10
149.0361007659165
 20
254.9928910586061
 30
0.0
 10
148.7873251075617
 20
255.0362604680764
 30
0.0
 10
148.6096564964997
 20
255.0602757812661
 30
0.0
 10
148.2124591651458
 20
255.1043519049319
 30
0.0
 10
147.9935336461229
 20
255.12427757987
 30
0.0
 10
147.6031401922683
 20
255.1518667184895
 30
0.0
 10
147.4302400595254
 20
255.1596608825149
 30
0.0
 10
147.3145458579003
 20
255.1596608825149
 30
0.0
  0
SPLINE
  5
F6
330
1F
100
AcDbEntity
  8
0
  6
Continuous
 62
     7
370
    15
100
AcDbSpline
210
0.0
220
0.0
230
1.0
 70
     8
 71
     3
 72
    14
 73
    10
 74
     0
 42
0.00000001
 43
0.00000001
 40
0.0
 40
0.0
 40
0.0
 40
0.0
 40
0.25
 40
0.25
 40
0.5
 40
0.5
 40
0.75
 40
0.75
 40
1.0
 40
1.0
 40
1.0
 40
1.0
 10
174.8941949566401
 20
255.1596608825149
 30
0.0
 10
174.7785097250957
 20
255.1596608825149
 30
0.0
 10
174.6086288978336
 20
255.1520583030782
 30
0.0
 10
174.2152048098356
 20
255.1242996653364
 30
0.0
 10
173.9982333765239
 20
255.1045457136386
 30
0.0
 10
173.6003446390121
 20
255.0604382234227
 30
0.0
 10
173.4218084486207
 20
255.0362939177592
 30
0.0
 10
173.1741750619016
 20
254.9931934052975
 30
0.0
 10
173.1043704072702
 20
254.9741503001367
 30
0.0
 10
173.1043704072702
 20
254.9613666123955
 30
0.0
  0
SPLINE
  5
F7
330
1F
100
AcDbEntity
  8
0
  6
Continuous
 62
     7
370
    15
100
AcDbSpline
210
0.0
220
0.0
230
1.0
 70
     8
 71
     3
 72
    34
 73
    30
 74
     0
 42
0.00000001
 43
0.00000001
 40
0.0
 40
0.0
 40
0.0
 40
0.0
 40
0.0624999999999999
 40
0.0624999999999999
 40
0.1249999999999998
 40
0.1249999999999998
 40
0.1874999999999997
 40
0.1874999999999997
 40
0.2499999999999996
 40
0.2499999999999996
 40
0.3749999999999993
 40
0.3749999999999993
 40
0.4999999999999991
 40
0.4999999999999991
 40
0.5624999999999992
 40
0.5624999999999992
 40
0.6249999999999993
 40
0.6249999999999993
 40
0.6874999999999994
 40
0.6874999999999994
 40
0.7499999999999996
 40
0.7499999999999996
 40
0.8124999999999997
 40
0.8124999999999997
 40
0.8749999999999998
 40
0.8749999999999998
 40
0.9374999999999999
 40
0.9374999999999999
 40
1.0
 40
1.0
 40
1.0
 40
1.0
 10
170.1043704072702
 20
255.0347444914721
 30
0.0
 10
170.1043704072702
 20
255.0465106029414
 30
0.0
 10
170.0914443789432
 20
255.0574424588973
 30
0.0
 10
170.0407211044655
 20
255.077699939719
 30
0.0
 10
170.0023074583214
 20
255.087113268268
 30
0.0
 10
169.9019230558899
 20
255.1037199225059
 30
0.0
 10
169.8404600611345
 20
255.1109095348858
 30
0.0
 10
169.6951354273687
 20
255.1230744446232
 30
0.0
 10
169.610486730222
 20
255.1280475450305
 30
0.0
 10
169.3330240145891
 20
255.1389227884853
 30
0.0
 10
169.109184183414
 20
255.1410561189192
 30
0.0
 10
168.6264294472562
 20
255.1347219457579
 30
0.0
 10
168.3626205292323
 20
255.1261908545022
 30
0.0
 10
167.9706951310045
 20
255.1065524233827
 30
0.0
 10
167.838095403035
 20
255.0987400136658
 30
0.0
 10
167.5817374584607
 20
255.0813298639588
 30
0.0
 10
167.4571500299811
 20
255.0717138116468
 30
0.0
 10
167.2152038367816
 20
255.0506492861103
 30
0.0
 10
167.0984936821908
 20
255.0392249649807
 30
0.0
 10
166.8823951167203
 20
255.0155087302278
 30
0.0
 10
166.7816142203579
 20
255.0030987624284
 30
0.0
 10
166.5954606254915
 20
254.9771692805939
 30
0.0
 10
166.5130654318403
 20
254.9640661084226
 30
0.0
 10
166.3687637468134
 20
254.9375946044098
 30
0.0
 10
166.306363336317
 20
254.9240810114235
 30
0.0
 10
166.2063707347651
 20
254.897561071889
 30
0.0
 10
166.1686548975695
 20
254.8846006994567
 30
0.0
 10
166.1175769316806
 20
254.8592736346249
 30
0.0
 10
166.1043704072702
 20
254.8468590398965
 30
0.0
 10
166.1043704072702
 20
254.8351095103383
 30
0.0
  0
SPLINE
  5
F8
330
1F
100
AcDbEntity
  8
0
  6
Continuous
 62
     7
370
    15
100
AcDbSpline
210
0.0
220
0.0
230
1.0
 70
     8
 71
     3
 72
    36
 73
    32
 74
     0
 42
0.00000001
 43
0.00000001
 40
0.0
 40
0.0
 40
0.0
 40
0.0
 40
0.0625000000000001
 40
0.0625000000000001
 40
0.1250000000000003
 40
0.1250000000000003
 40
0.1875000000000004
 40
0.1875000000000004
 40
0.2500000000000006
 40
0.2500000000000006
 40
0.3125000000000007
 40
0.3125000000000007
 40
0.3750000000000008
 40
0.3750000000000008
 40
0.5000000000000007
 40
0.5000000000000007
 40
0.5625000000000007
 40
0.5625000000000007
 40
0.6250000000000006
 40
0.6250000000000006
 40
0.6875000000000006
 40
0.6875000000000006
 40
0.7500000000000004
 40
0.7500000000000004
 40
0.8125000000000003
 40
0.8125000000000003
 40
0.8750000000000002
 40
0.8750000000000002
 40
0.9375000000000002
 40
0.9375000000000002
 40
1.0
 40
1.0
 40
1.0
 40
1.0
 10
156.1043704072702
 20
254.8351095103383
 30
0.0
 10
156.1043704072702
 20
254.8468595282873
 30
0.0
 10
156.0914435440998
 20
254.8590549991722
 30
0.0
 10
156.0408519581467
 20
254.8842991917464
 30
0.0
 10
156.0025894736122
 20
254.8974931460705
 30
0.0
 10
155.9026457649984
 20
254.9240195476841
 30
0.0
 10
155.8414979844283
 20
254.9372876367696
 30
0.0
 10
155.6970925542434
 20
254.9638335341683
 30
0.0
 10
155.6129979986837
 20
254.977198181622
 30
0.0
 10
155.42919015441
 20
255.0028216326531
 30
0.0
 10
155.3289025981426
 20
255.0152131847922
 30
0.0
 10
155.1111871338981
 20
255.0391364970179
 30
0.0
 10
154.9948607227332
 20
255.0505190186257
 30
0.0
 10
154.6345315933105
 20
255.0819349491817
 30
0.0
 10
154.3713149029953
 20
255.0998410763411
 30
0.0
 10
153.9797471806577
 20
255.1195116349884
 30
0.0
 10
153.8471224857753
 20
255.1250100660675
 30
0.0
 10
153.5897574711688
 20
255.1333555525016
 30
0.0
 10
153.4647445609631
 20
255.136247415323
 30
0.0
 10
153.2220678799
 20
255.1394654286279
 30
0.0
 10
153.1043744951011
 20
255.1397537935571
 30
0.0
 10
152.8868245858751
 20
255.137693267606
 30
0.0
 10
152.7855289694867
 20
255.1353733447835
 30
0.0
 10
152.5984007750069
 20
255.1280676078628
 30
0.0
 10
152.5150311788329
 20
255.1231652179061
 30
0.0
 10
152.3698538140169
 20
255.111069206221
 30
0.0
 10
152.3072045813871
 20
255.1037727539705
 30
0.0
 10
152.2066034030074
 20
255.0871524984395
 30
0.0
 10
152.1687635045982
 20
255.0779178103817
 30
0.0
 10
152.1175771338482
 20
255.0576321682722
 30
0.0
 10
152.1043704072702
 20
255.0465114210697
 30
0.0
 10
152.1043704072702
 20
255.0347444914721
 30
0.0
  0
SPLINE
  5
F9
330
1F
100
AcDbEntity
  8
0
  6
Continuous
 62
     7
370
    15
100
AcDbSpline
210
0.0
220
0.0
230
1.0
 70
     8
 71
     3
 72
    20
 73
    16
 74
     0
 42
0.00000001
 43
0.00000001
 40
0.0
 40
0.0
 40
0.0
 40
0.0
 40
0.1249999999999998
 40
0.1249999999999998
 40
0.2499999999999997
 40
0.2499999999999997
 40
0.3749999999999995
 40
0.3749999999999995
 40
0.4999999999999993
 40
0.4999999999999993
 40
0.6249999999999991
 40
0.6249999999999991
 40
0.749999999999999
 40
0.749999999999999
 40
1.0
 40
1.0
 40
1.0
 40
1.0
 10
163.1043704072702
 20
254.9527171619534
 30
0.0
 10
163.1043704072702
 20
254.966346604698
 30
0.0
 10
163.0914657529389
 20
254.9797523608732
 30
0.0
 10
163.0408868652408
 20
255.0061343100297
 30
0.0
 10
163.0026127838573
 20
255.0192452239334
 30
0.0
 10
162.9025533925404
 20
255.0442780040285
 30
0.0
 10
162.8413028678062
 20
255.0561562015056
 30
0.0
 10
162.6965431598115
 20
255.0786456879415
 30
0.0
 10
162.6121870917102
 20
255.0893097010475
 30
0.0
 10
162.4277522278756
 20
255.1084367984161
 30
0.0
 10
162.3270915137909
 20
255.1170223214276
 30
0.0
 10
162.1084765630237
 20
255.1321890459162
 30
0.0
 10
161.9917219862997
 20
255.1386547198383
 30
0.0
 10
161.6300191813458
 20
255.1542004696276
 30
0.0
 10
161.3659826685693
 20
255.1596608825149
 30
0.0
 10
161.1043704072702
 20
255.1596608825149
 30
0.0
  0
SPLINE
  5
FA
330
1F
100
AcDbEntity
  8
0
  6
Continuous
 62
     7
370
    15
100
AcDbSpline
210
0.0
220
0.0
230
1.0
 70
     8
 71
     3
 72
    20
 73
    16
 74
     0
 42
0.00000001
 43
0.00000001
 40
0.0
 40
0.0
 40
0.0
 40
0.0
 40
0.1250000000000007
 40
0.1250000000000007
 40
0.2500000000000014
 40
0.2500000000000014
 40
0.3750000000000021
 40
0.3750000000000021
 40
0.5000000000000014
 40
0.5000000000000014
 40
0.6250000000000008
 40
0.6250000000000008
 40
0.75
 40
0.75
 40
1.0
 40
1.0
 40
1.0
 40
1.0
 10
159.1043704072702
 20
254.9527171619534
 30
0.0
 10
159.1043704072702
 20
254.966346604698
 30
0.0
 10
159.1172750616015
 20
254.9797523608732
 30
0.0
 10
159.1678539492996
 20
255.0061343100297
 30
0.0
 10
159.2061280306831
 20
255.0192452239334
 30
0.0
 10
159.306187422
 20
255.0442780040284
 30
0.0
 10
159.3674379467341
 20
255.0561562015056
 30
0.0
 10
159.5121976547288
 20
255.0786456879415
 30
0.0
 10
159.5965537228302
 20
255.0893097010475
 30
0.0
 10
159.7809885866648
 20
255.1084367984161
 30
0.0
 10
159.8816493007495
 20
255.1170223214276
 30
0.0
 10
160.1002642515167
 20
255.1321890459162
 30
0.0
 10
160.2170188282407
 20
255.1386547198383
 30
0.0
 10
160.5787216331945
 20
255.1542004696276
 30
0.0
 10
160.8427581459711
 20
255.1596608825149
 30
0.0
 10
161.1043704072702
 20
255.1596608825149
 30
0.0
  0
HATCH
  5
FB
330
1F
100
AcDbEntity
  8
0
  6
Continuous
 62
     7
370
     0
100
AcDbHatch
 10
0.0
 20
0.0
 30
0.0
210
0.0
220
0.0
230
1.0
  2
ANSI33
 70
     0
 71
     0
 91
        1
 92
        0
 93
        4
 72
     2
 10
161.1043704072702
 20
395.1909073955725
 40
140.9999994850845
 50
265.1178576675278
 51
266.340334635971
 73
     1
 72
     1
 10
152.1043704072702
 20
254.4784351168373
 11
152.1043704072702
 21
255.480493128082
 72
     2
 10
161.1043704072702
 20
395.1909073955699
 40
139.999999481404
 50
93.68584182176141
 51
94.91710035378786
 73
     0
 72
     1
 10
149.1043704072702
 20
255.70614172278
 11
149.1043704072702
 21
254.7024737079528
 97
        0
 75
     0
 76
     1
 52
0.0
 41
1.0
 77
     0
 78
     2
 53
45.0
 43
0.0
 44
0.0
 45
-4.490128060534576
 46
4.490128060534577
 79
     0
 53
45.0
 43
4.49013
 44
0.0
 45
-4.490128060534576
 46
4.490128060534577
 79
     2
 49
3.175
 49
-1.5875
 98
        1
 10
0.0
 20
0.0
  0
HATCH
  5
FC
330
1F
100
AcDbEntity
  8
0
  6
Continuous
 62
     7
370
     0
100
AcDbHatch
 10
0.0
 20
0.0
 30
0.0
210
0.0
220
0.0
230
1.0
  2
ANSI33
 70
     0
 71
     0
 91
        1
 92
        0
 93
        4
 72
     2
 10
161.1043704072702
 20
395.1909073955699
 40
139.999999481404
 50
85.08289964621213
 51
86.31415817823857
 73
     0
 72
     1
 10
170.1043704072702
 20
255.480493128082
 11
170.1043704072702
 21
254.4784351168373
 72
     2
 10
161.1043704072702
 20
395.1909073955725
 40
140.9999994850845
 50
273.6596653640306
 51
274.8821423503462
 73
     1
 72
     1
 10
173.1043704072702
 20
254.7024742247458
 11
173.1043704072702
 21
255.70614172278
 97
        0
 75
     0
 76
     1
 52
0.0
 41
1.0
 77
     0
 78
     2
 53
45.0
 43
0.0
 44
0.0
 45
-4.490128060534576
 46
4.490128060534577
 79
     0
 53
45.0
 43
4.49013
 44
0.0
 45
-4.490128060534576
 46
4.490128060534577
 79
     2
 49
3.175
 49
-1.5875
 98
        1
 10
0.0
 20
0.0
  0
HATCH
  5
FD
330
1F
100
AcDbEntity
  8
0
  6
Continuous
 62
     7
370
     0
100
AcDbHatch
 10
0.0
 20
0.0
 30
0.0
210
0.0
220
0.0
230
1.0
  2
ANSI33
 70
     0
 71
     0
 91
        1
 92
        0
 93
        4
 72
     2
 10
161.1043704072702
 20
395.1909073955699
 40
139.999999481404
 50
87.95328689474265
 51
89.18146101799461
 73
     0
 72
     1
 10
163.1043704072702
 20
255.2051943574419
 11
163.1043704072702
 21
254.2050930212396
 72
     2
 10
161.1043704072702
 20
395.1909073955725
 40
140.9999994850845
 50
270.8127333501754
 51
272.0321912975629
 73
     1
 72
     1
 10
166.1043704072702
 20
254.2795882803437
 11
166.1043704072702
 21
255.2802221181648
 97
        0
 75
     0
 76
     1
 52
0.0
 41
1.0
 77
     0
 78
     2
 53
45.0
 43
0.0
 44
0.0
 45
-4.490128060534576
 46
4.490128060534577
 79
     0
 53
45.0
 43
4.49013
 44
0.0
 45
-4.490128060534576
 46
4.490128060534577
 79
     2
 49
3.175
 49
-1.5875
 98
        1
 10
0.0
 20
0.0
  0
HATCH
  5
FE
330
1F
100
AcDbEntity
  8
0
  6
Continuous
 62
     7
370
     0
100
AcDbHatch
 10
0.0
 20
0.0
 30
0.0
210
0.0
220
0.0
230
1.0
  2
ANSI33
 70
     0
 71
     0
 91
        1
 92
        0
 93
        4
 72
     2
 10
161.1043704072702
 20
395.1909073955725
 40
140.9999994850845
 50
267.9678087098632
 51
269.1872666498261
 73
     1
 72
     1
 10
159.1043704072702
 20
254.2050930212396
 11
159.1043704072702
 21
255.2051943574419
 72
     2
 10
161.1043704072702
 20
395.1909073955699
 40
139.999999481404
 50
90.81853898200536
 51
92.04671310525734
 73
     0
 72
     1
 10
156.1043704072702
 20
255.2802221181648
 11
156.1043704072702
 21
254.2795877651016
 97
        0
 75
     0
 76
     1
 52
0.0
 41
1.0
 77
     0
 78
     2
 53
45.0
 43
0.0
 44
0.0
 45
-4.490128060534576
 46
4.490128060534577
 79
     0
 53
45.0
 43
4.49013
 44
0.0
 45
-4.490128060534576
 46
4.490128060534577
 79
     2
 49
3.175
 49
-1.5875
 98
        1
 10
0.0
 20
0.0
  0
HATCH
  5
FF
330
1F
100
AcDbEntity
  8
0
  6
Continuous
 62
     7
370
     0
100
AcDbHatch
 10
0.0
 20
0.0
 30
0.0
210
0.0
220
0.0
230
1.0
  2
ANSI33
 70
     0
 71
     0
 91
        1
 92
        0
 93
        7
 72
     2
 10
161.1043704072702
 20
395.1909073955699
 40
139.999999481404
 50
76.57673728580808
 51
83.23155350186431
 73
     0
 72
     1
 10
177.6043660070609
 20
256.1666289403303
 11
177.6043660070609
 21
246.0154690816067
 72
     1
 10
177.6043660070609
 20
246.0154690816067
 11
180.1043704072702
 21
246.0154690816067
 72
     1
 10
180.1043704072702
 20
246.0154690816067
 11
180.1043665860359
 21
254.0154690816067
 72
     1
 10
180.1043665860359
 20
254.0154690816067
 11
182.1043704072702
 21
254.0154690816067
 72
     4
 94
        3
 73
     1
 74
     0
 95
       14
 96
       10
 40
0.1473752984576516
 40
0.1473752984576516
 40
0.1473752984576516
 40
0.1473752984576516
 40
0.1513708317588157
 40
0.1513708317588157
 40
0.1513708317588157
 40
0.1564145258397852
 40
0.1564145258397852
 40
0.1564145258397852
 40
0.1597894649334161
 40
0.1597894649334161
 40
0.1597894649334161
 40
0.1597894649334161
 10
182.1043692606099
 20
254.0154707044165
 42
1.0
 10
183.1887680726572
 20
254.7770638528495
 42
1.0
 10
184.3403752628359
 20
255.4508284511213
 42
1.0
 10
185.5356148881199
 20
256.0229710430166
 42
1.0
 10
187.0520611405503
 20
256.7488702442997
 42
1.0
 10
188.6539291151106
 20
257.3176357202436
 42
1.0
 10
190.2885947317838
 20
257.7105825469269
 42
1.0
 10
191.3781836939079
 20
257.9725018781276
 42
1.0
 10
192.4888700042059
 20
258.1583725030123
 42
1.0
 10
193.604368173318
 20
258.2654690816067
 42
1.0
 72
     1
 10
193.604368173318
 20
258.2654690816067
 11
193.604368173318
 21
259.0154690816067
 97
        0
 75
     0
 76
     1
 52
0.0
 41
1.0
 77
     0
 78
     2
 53
45.0
 43
0.0
 44
0.0
 45
-4.490128060534576
 46
4.490128060534577
 79
     0
 53
45.0
 43
4.49013
 44
0.0
 45
-4.490128060534576
 46
4.490128060534577
 79
     2
 49
3.175
 49
-1.5875
 98
        1
 10
0.0
 20
0.0
  0
HATCH
  5
100
330
1F
100
AcDbEntity
  8
0
  6
Continuous
 62
     7
370
     0
100
AcDbHatch
 10
0.0
 20
0.0
 30
0.0
210
0.0
220
0.0
230
1.0
  2
ANSI33
 70
     0
 71
     0
 91
        1
 92
        0
 93
        7
 72
     2
 10
161.1043704072702
 20
395.1909073955699
 40
139.999999481404
 50
96.76844649813566
 51
103.4232627141919
 73
     0
 72
     1
 10
128.6043726412224
 20
259.0154690816067
 11
128.6043726412224
 21
258.2654690816067
 72
     4
 94
        3
 73
     1
 74
     0
 95
       14
 96
       10
 40
0.1429221662541067
 40
0.1429221662541067
 40
0.1429221662541067
 40
0.1429221662541067
 40
0.1432415441256391
 40
0.1432415441256391
 40
0.1432415441256391
 40
0.1513708308322654
 40
0.1513708308322654
 40
0.1513708308322654
 40
0.1553451994376105
 40
0.1553451994376105
 40
0.1553451994376105
 40
0.1553451994376105
 10
128.6043726412224
 20
258.2654690816067
 42
1.0
 10
128.7108157959293
 20
258.2552497033956
 42
1.0
 10
128.8171930256852
 20
258.2443186750858
 42
1.0
 10
128.9234900765304
 20
258.2326774613771
 42
1.0
 10
131.5936964911209
 20
257.9402474901656
 42
1.0
 10
134.2502382303636
 20
257.1827696448777
 42
1.0
 10
136.6731259264205
 20
256.0229710430166
 42
1.0
 10
137.8683655139058
 20
255.4508284692149
 42
1.0
 10
139.0199726689385
 20
254.7770638955684
 42
1.0
 10
140.1043714506956
 20
254.0154707769203
 42
1.0
 72
     1
 10
140.1043704072702
 20
254.0154690816067
 11
142.1043742285044
 21
254.0154690816067
 72
     1
 10
142.1043742285044
 20
254.0154690816067
 11
142.1043704072702
 21
246.0154690816067
 72
     1
 10
142.1043704072702
 20
246.0154690816067
 11
144.6043748074795
 21
246.0154690816067
 72
     1
 10
144.6043748074795
 20
246.0154690816067
 11
144.6043748074795
 21
256.1666289403303
 97
        0
 75
     0
 76
     1
 52
0.0
 41
1.0
 77
     0
 78
     2
 53
45.0
 43
0.0
 44
0.0
 45
-4.490128060534576
 46
4.490128060534577
 79
     0
 53
45.0
 43
4.49013
 44
0.0
 45
-4.490128060534576
 46
4.490128060534577
 79
     2
 49
3.175
 49
-1.5875
 98
        1
 10
0.0
 20
0.0
  0
HATCH
  5
101
330
1F
100
AcDbEntity
  8
0
  6
Continuous
 62
     7
370
     0
100
AcDbHatch
 10
0.0
 20
0.0
 30
0.0
210
0.0
220
0.0
230
1.0
  2
ANSI33
 70
     0
 71
     0
 91
        1
 92
        0
 93
        5
 72
     1
 10
181.6043668656385
 20
186.0154690816067
 11
181.6043668656385
 21
227.0154690816067
 72
     1
 10
181.6043668656385
 20
227.0154690816067
 11
179.1043663737451
 21
227.0154690816067
 72
     1
 10
179.1043663737451
 20
227.0154690816067
 11
179.1043663737451
 21
184.0154690816067
 72
     1
 10
179.1043663737451
 20
184.0154690816067
 11
179.6043664827593
 21
184.0154690816067
 72
     4
 94
        3
 73
     1
 74
     0
 95
       11
 96
        7
 40
0.0901278274483917
 40
0.0901278274483917
 40
0.0901278274483917
 40
0.0901278274483917
 40
0.0922845881717035
 40
0.0922845881717035
 40
0.0922845881717035
 40
0.09297319950348
 40
0.09297319950348
 40
0.09297319950348
 40
0.09297319950348
 10
179.6043664827593
 20
184.0154690816067
 42
1.0
 10
180.1096925858167
 20
184.5207950774664
 42
1.0
 10
180.6150186845072
 20
185.0261210776931
 42
1.0
 10
181.1203447797532
 20
185.5314470813644
 42
1.0
 10
181.2816854753934
 20
185.6927877477667
 42
1.0
 10
181.4430261706804
 20
185.8541284145223
 42
1.0
 10
181.6043668656385
 20
186.0154690816067
 42
1.0
 97
        0
 75
     0
 76
     1
 52
90.0
 41
1.0
 77
     0
 78
     2
 53
135.0000000000002
 43
0.0
 44
0.0
 45
-4.490128060534562
 46
-4.490128060534592
 79
     0
 53
135.0000000000002
 43
-0.0000000000000157
 44
4.49013
 45
-4.490128060534562
 46
-4.490128060534592
 79
     2
 49
3.175
 49
-1.5875
 98
        1
 10
0.0
 20
0.0
  0
HATCH
  5
102
330
1F
100
AcDbEntity
  8
0
  6
Continuous
 62
     7
370
     0
100
AcDbHatch
 10
0.0
 20
0.0
 30
0.0
210
0.0
220
0.0
230
1.0
  2
ANSI33
 70
     0
 71
     0
 91
        1
 92
        0
 93
        6
 72
     1
 10
179.1043663737451
 20
239.0154690816067
 11
181.6043668656385
 21
239.0154690816067
 72
     1
 10
181.6043668656385
 20
239.0154690816067
 11
181.6043704072702
 21
254.0154690816067
 72
     1
 10
181.6043704072702
 20
254.0154690816067
 11
180.2043666060424
 21
254.0154690816067
 72
     1
 10
180.2043666060424
 20
254.0154690816067
 11
180.2043666060424
 21
245.0154690816067
 72
     1
 10
180.2043666060424
 20
245.0154690816067
 11
179.1043663737451
 21
245.0154690816067
 72
     1
 10
179.1043663737451
 20
245.0154690816067
 11
179.1043663737451
 21
239.0154690816067
 97
        0
 75
     0
 76
     1
 52
90.0
 41
1.0
 77
     0
 78
     2
 53
135.0000000000002
 43
0.0
 44
0.0
 45
-4.490128060534562
 46
-4.490128060534592
 79
     0
 53
135.0000000000002
 43
-0.0000000000000157
 44
4.49013
 45
-4.490128060534562
 46
-4.490128060534592
 79
     2
 49
3.175
 49
-1.5875
 98
        1
 10
0.0
 20
0.0
  0
HATCH
  5
103
330
1F
100
AcDbEntity
  8
0
  6
Continuous
 62
     7
370
     0
100
AcDbHatch
 10
0.0
 20
0.0
 30
0.0
210
0.0
220
0.0
230
1.0
  2
ANSI33
 70
     0
 71
     0
 91
        1
 92
        0
 93
        7
 72
     1
 10
142.6043743317811
 20
184.0154690816067
 11
143.1043744407953
 21
184.0154690816067
 72
     1
 10
143.1043744407953
 20
184.0154690816067
 11
143.1043744407953
 21
245.0154690816067
 72
     1
 10
143.1043744407953
 20
245.0154690816067
 11
142.004374208498
 21
245.0154690816067
 72
     1
 10
142.004374208498
 20
245.0154690816067
 11
142.004374208498
 21
254.0154690816067
 72
     1
 10
142.004374208498
 20
254.0154690816067
 11
140.6043704072702
 21
254.0154690816067
 72
     1
 10
140.6043704072702
 20
254.0154690816067
 11
140.6043739489019
 21
186.0154690816067
 72
     4
 94
        3
 73
     1
 74
     0
 95
        8
 96
        4
 40
0.0348313071414846
 40
0.0348313071414846
 40
0.0348313071414846
 40
0.0348313071414846
 40
0.0376597345369672
 40
0.0376597345369672
 40
0.0376597345369672
 40
0.0376597345369672
 10
140.6043739489019
 20
186.0154690816067
 42
1.0
 10
141.2710407369693
 20
185.3488024087144
 42
1.0
 10
141.9377075305893
 20
184.6821357413747
 42
1.0
 10
142.6043743317811
 20
184.0154690816067
 42
1.0
 97
        0
 75
     0
 76
     1
 52
90.0
 41
1.0
 77
     0
 78
     2
 53
135.0000000000002
 43
0.0
 44
0.0
 45
-4.490128060534562
 46
-4.490128060534592
 79
     0
 53
135.0000000000002
 43
-0.0000000000000157
 44
4.49013
 45
-4.490128060534562
 46
-4.490128060534592
 79
     2
 49
3.175
 49
-1.5875
 98
        1
 10
0.0
 20
0.0
  0
HATCH
  5
104
330
1F
100
AcDbEntity
  8
0
  6
Continuous
 62
     7
370
     0
100
AcDbHatch
 10
0.0
 20
0.0
 30
0.0
210
0.0
220
0.0
230
1.0
  2
ANSI31
 70
     0
 71
     0
 91
        1
 92
        0
 93
        4
 72
     1
 10
129.1043726761279
 20
222.0154690816067
 11
129.1043726761279
 21
220.0154690816067
 72
     1
 10
129.1043726761279
 20
220.0154690816067
 11
140.1043738645773
 21
220.0154690816067
 72
     1
 10
140.1043738645773
 20
220.0154690816067
 11
140.1043738645773
 21
222.0154690816067
 72
     1
 10
140.1043738645773
 20
222.0154690816067
 11
129.1043726761279
 21
222.0154690816067
 97
        0
 75
     0
 76
     1
 52
0.0
 41
1.0
 77
     0
 78
     1
 53
45.0
 43
0.0
 44
0.0
 45
-2.245064030267288
 46
2.245064030267288
 79
     0
 98
        1
 10
0.0
 20
0.0
  0
HATCH
  5
105
330
1F
100
AcDbEntity
  8
0
  6
Continuous
 62
     7
370
     0
100
AcDbHatch
 10
0.0
 20
0.0
 30
0.0
210
0.0
220
0.0
230
1.0
  2
ANSI31
 70
     0
 71
     0
 91
        1
 92
        0
 93
        4
 72
     1
 10
193.1043681384125
 20
220.0154690816067
 11
193.1043681384125
 21
222.0154690816067
 72
     1
 10
193.1043681384125
 20
222.0154690816067
 11
182.1043669499631
 21
222.0154690816067
 72
     1
 10
182.1043669499631
 20
222.0154690816067
 11
182.1043669499631
 21
220.0154690816067
 72
     1
 10
182.1043669499631
 20
220.0154690816067
 11
193.1043681384125
 21
220.0154690816067
 97
        0
 75
     0
 76
     1
 52
0.0
 41
1.0
 77
     0
 78
     1
 53
45.0
 43
0.0
 44
0.0
 45
-2.245064030267288
 46
2.245064030267288
 79
     0
 98
        1
 10
0.0
 20
0.0
  0
HATCH
  5
106
330
1F
100
AcDbEntity
  8
0
  6
Continuous
 62
     7
370
     0
100
AcDbHatch
 10
0.0
 20
0.0
 30
0.0
210
0.0
220
0.0
230
1.0
  2
ANSI31
 70
     0
 71
     0
 91
        1
 92
        0
 93
        4
 72
     1
 10
129.1043726761279
 20
220.0154690816067
 11
129.1043726761279
 21
219.3154690816067
 72
     1
 10
129.1043726761279
 20
219.3154690816067
 11
140.1043738645773
 21
219.3154690816067
 72
     1
 10
140.1043738645773
 20
219.3154690816067
 11
140.1043738645773
 21
220.0154690816067
 72
     1
 10
140.1043738645773
 20
220.0154690816067
 11
129.1043726761279
 21
220.0154690816067
 97
        0
 75
     0
 76
     1
 52
90.0
 41
1.0
 77
     0
 78
     1
 53
135.0000000000002
 43
0.0
 44
0.0
 45
-2.245064030267281
 46
-2.245064030267296
 79
     0
 98
        1
 10
0.0
 20
0.0
  0
HATCH
  5
107
330
1F
100
AcDbEntity
  8
0
  6
Continuous
 62
     7
370
     0
100
AcDbHatch
 10
0.0
 20
0.0
 30
0.0
210
0.0
220
0.0
230
1.0
  2
ANSI31
 70
     0
 71
     0
 91
        1
 92
        0
 93
        4
 72
     1
 10
193.1043681384125
 20
219.3154690816067
 11
193.1043681384125
 21
220.0154690816067
 72
     1
 10
193.1043681384125
 20
220.0154690816067
 11
182.1043669499631
 21
220.0154690816067
 72
     1
 10
182.1043669499631
 20
220.0154690816067
 11
182.1043669499631
 21
219.3154690816067
 72
     1
 10
182.1043669499631
 20
219.3154690816067
 11
193.1043681384125
 21
219.3154690816067
 97
        0
 75
     0
 76
     1
 52
90.0
 41
1.0
 77
     0
 78
     1
 53
135.0000000000002
 43
0.0
 44
0.0
 45
-2.245064030267281
 46
-2.245064030267296
 79
     0
 98
        1
 10
0.0
 20
0.0
  0
HATCH
  5
108
330
1F
100
AcDbEntity
  8
0
  6
Continuous
 62
     7
370
     0
100
AcDbHatch
 10
0.0
 20
0.0
 30
0.0
210
0.0
220
0.0
230
1.0
  2
ANSI33
 70
     0
 71
     0
 91
        1
 92
        0
 93
        9
 72
     1
 10
187.5077096455342
 20
216.8154690816067
 11
190.6043679461364
 21
216.8154690816067
 72
     4
 94
        3
 73
     1
 74
     0
 95
       20
 96
       16
 40
0.0006900198882106
 40
0.0006900198882106
 40
0.0006900198882106
 40
0.0006900198882106
 40
0.0008394284634727
 40
0.0008394284634727
 40
0.0008394284634727
 40
0.0010073141768054
 40
0.0010073141768054
 40
0.0010073141768054
 40
0.0011751998823641
 40
0.0011751998823641
 40
0.0011751998823641
 40
0.0013430855748948
 40
0.0013430855748948
 40
0.0013430855748948
 40
0.0014719734949501
 40
0.0014719734949501
 40
0.0014719734949501
 40
0.0014719734949501
 10
190.6043679461364
 20
216.8154690816067
 42
1.0
 10
190.6541795024088
 20
216.8154690816067
 42
1.0
 10
190.7045378023561
 20
216.8230798124924
 42
1.0
 10
190.7521247034767
 20
216.8377997982265
 42
1.0
 10
190.8055872693188
 20
216.8543372946378
 42
1.0
 10
190.8569318940007
 20
216.880333243967
 42
1.0
 10
190.9019067061455
 20
216.9136349106898
 42
1.0
 10
190.9468815162002
 20
216.9469365758651
 42
1.0
 10
190.9867269751977
 20
216.9884624589488
 42
1.0
 10
191.0181434623107
 20
217.034773783486
 42
1.0
 10
191.0495599470105
 20
217.081085104466
 42
1.0
 10
191.073413966611
 20
217.1334591897306
 42
1.0
 10
191.087730158588
 20
217.1875589180948
 42
1.0
 10
191.098729384788
 20
217.2291241018108
 42
1.0
 10
191.1043679871553
 20
217.2724731809377
 42
1.0
 10
191.1043679871553
 20
217.3154690816067
 42
1.0
 72
     1
 10
191.1043679871553
 20
217.3154690816067
 11
191.1043679871553
 21
219.3154690816067
 72
     1
 10
191.1043679871553
 20
219.3154690816067
 11
182.3543669906373
 21
219.3154690816067
 72
     4
 94
        3
 73
     1
 74
     0
 95
        8
 96
        4
 40
0.0360851862454182
 40
0.0360851862454182
 40
0.0360851862454182
 40
0.0360851862454182
 40
0.0382065067724658
 40
0.0382065067724658
 40
0.0382065067724658
 40
0.0382065067724658
 10
182.3543669906373
 20
219.3154690816067
 42
1.0
 10
181.8543669071931
 20
218.8154690785539
 42
1.0
 10
181.3543668209279
 20
218.315469078322
 42
1.0
 10
180.8543667311461
 20
217.8154690816067
 42
1.0
 72
     1
 10
180.8543667311461
 20
217.8154690816067
 11
180.8543667311461
 21
211.8154690816067
 72
     1
 10
180.8543667311461
 20
211.8154690816067
 11
187.0076370236351
 21
211.8154690816067
 72
     4
 94
        3
 73
     1
 74
     0
 95
       23
 96
       19
 40
0.0054917129104195
 40
0.0054917129104195
 40
0.0054917129104195
 40
0.0054917129104195
 40
0.0055993531075632
 40
0.0055993531075632
 40
0.0055993531075632
 40
0.005769108351352
 40
0.005769108351352
 40
0.005769108351352
 40
0.0058502969390426
 40
0.0058502969390426
 40
0.0058502969390426
 40
0.0060181787886531
 40
0.0060181787886531
 40
0.0060181787886531
 40
0.0061860610617861
 40
0.0061860610617861
 40
0.0061860610617861
 40
0.006276749643066
 40
0.006276749643066
 40
0.006276749643066
 40
0.006276749643066
 10
187.0076370236351
 20
211.8154690816067
 42
1.0
 10
187.0432086731212
 20
211.8154690816067
 42
1.0
 10
187.0789810149212
 20
211.8193062591174
 42
1.0
 10
187.1137431718801
 20
211.8268517671004
 42
1.0
 10
187.1684611722314
 20
211.8387289100796
 42
1.0
 10
187.2218832913864
 20
211.8602197769315
 42
1.0
 10
187.269581750634
 20
211.8895452449276
 42
1.0
 10
187.2926466865606
 20
211.903725787675
 42
1.0
 10
187.3146279805194
 20
211.9198385784078
 42
1.0
 10
187.3350926685115
 20
211.9375663985585
 42
1.0
 10
187.3773899261494
 20
211.9742069853374
 42
1.0
 10
187.4139447523065
 20
212.0186552440063
 42
1.0
 10
187.4417296212046
 20
212.0672308722936
 42
1.0
 10
187.4695145342028
 20
212.1158065776801
 42
1.0
 10
187.4892957828102
 20
212.169849463019
 42
1.0
 10
187.4994349186863
 20
212.2248839837111
 42
1.0
 10
187.5049285271881
 20
212.2547029065917
 42
1.0
 10
187.5077096455342
 20
212.28514833135
 42
1.0
 10
187.5077096455342
 20
212.3154690816067
 42
1.0
 72
     1
 10
187.5077096455342
 20
212.3154690816067
 11
187.5077096455342
 21
216.8154690816067
 97
        0
 75
     0
 76
     1
 52
0.0
 41
1.0
 77
     0
 78
     2
 53
45.0
 43
0.0
 44
0.0
 45
-4.490128060534576
 46
4.490128060534577
 79
     0
 53
45.0
 43
4.49013
 44
0.0
 45
-4.490128060534576
 46
4.490128060534577
 79
     2
 49
3.175
 49
-1.5875
 98
        1
 10
0.0
 20
0.0
  0
HATCH
  5
109
330
1F
100
AcDbEntity
  8
0
  6
Continuous
 62
     7
370
     0
100
AcDbHatch
 10
0.0
 20
0.0
 30
0.0
210
0.0
220
0.0
230
1.0
  2
ANSI33
 70
     0
 71
     0
 91
        1
 92
        0
 93
        9
 72
     1
 10
131.604372868404
 20
216.8154690816067
 11
134.7010311690062
 21
216.8154690816067
 72
     1
 10
134.7010311690062
 20
216.8154690816067
 11
134.7010311690062
 21
212.3154690816067
 72
     4
 94
        3
 73
     1
 74
     0
 95
       23
 96
       19
 40
0.005366977830951
 40
0.005366977830951
 40
0.005366977830951
 40
0.005366977830951
 40
0.0055289918266557
 40
0.0055289918266557
 40
0.0055289918266557
 40
0.0056946641814354
 40
0.0056946641814354
 40
0.0056946641814354
 40
0.0057872314849856
 40
0.0057872314849856
 40
0.0057872314849856
 40
0.0059551397598764
 40
0.0059551397598764
 40
0.0059551397598764
 40
0.006123046291876
 40
0.006123046291876
 40
0.006123046291876
 40
0.0061424251310487
 40
0.0061424251310487
 40
0.0061424251310487
 40
0.0061424251310487
 10
134.7010311690062
 20
212.3154690816067
 42
1.0
 10
134.7010311690062
 20
212.2607463681715
 42
1.0
 10
134.7102593916205
 20
212.2053012560514
 42
1.0
 10
134.7279842500501
 20
212.1535286304722
 42
1.0
 10
134.7461092268441
 20
212.1005872972079
 42
1.0
 10
134.7736244573761
 20
212.0500452196829
 42
1.0
 10
134.8082511742228
 20
212.0060873986268
 42
1.0
 10
134.8277887086508
 20
211.981284947789
 42
1.0
 10
134.849783748841
 20
211.9582392640093
 42
1.0
 10
134.8736481460288
 20
211.9375663985585
 42
1.0
 10
134.9159520614257
 20
211.9009200444036
 42
1.0
 10
134.9651671109692
 20
211.8710730233479
 42
1.0
 10
135.0172167494586
 20
211.8504960540891
 42
1.0
 10
135.0692660813594
 20
211.8299192060351
 42
1.0
 10
135.1255851667751
 20
211.8180448226661
 42
1.0
 10
135.1815113235418
 20
211.8158528791303
 42
1.0
 10
135.1880383876183
 20
211.8155970604448
 42
1.0
 10
135.1945717155338
 20
211.8154690816067
 42
1.0
 10
135.2011037909052
 20
211.8154690816067
 42
1.0
 72
     1
 10
135.2011037909052
 20
211.8154690816067
 11
141.3543740833943
 21
211.8154690816067
 72
     1
 10
141.3543740833943
 20
211.8154690816067
 11
141.3543740833943
 21
217.8154690816067
 72
     4
 94
        3
 73
     1
 74
     0
 95
        8
 96
        4
 40
0.0942549129150448
 40
0.0942549129150448
 40
0.0942549129150448
 40
0.0942549129150448
 40
0.0963915392106024
 40
0.0963915392106024
 40
0.0963915392106024
 40
0.0963915392106024
 10
141.3543740833943
 20
217.8154690816067
 42
1.0
 10
140.8543739936125
 20
218.315469078322
 42
1.0
 10
140.3543739073473
 20
218.8154690785539
 42
1.0
 10
139.8543738239031
 20
219.3154690816067
 42
1.0
 72
     1
 10
139.8543738239031
 20
219.3154690816067
 11
131.1043728273851
 21
219.3154690816067
 72
     1
 10
131.1043728273851
 20
219.3154690816067
 11
131.1043728273851
 21
217.3154690816067
 72
     4
 94
        3
 73
     1
 74
     0
 95
       23
 96
       19
 40
0.0026518813382251
 40
0.0026518813382251
 40
0.0026518813382251
 40
0.0026518813382251
 40
0.0026861711491999
 40
0.0026861711491999
 40
0.0026861711491999
 40
0.0028540568219941
 40
0.0028540568219941
 40
0.0028540568219941
 40
0.0030219424961981
 40
0.0030219424961981
 40
0.0030219424961981
 40
0.0031261046591738
 40
0.0031261046591738
 40
0.0031261046591738
 40
0.0032939903669858
 40
0.0032939903669858
 40
0.0032939903669858
 40
0.0034329454618907
 40
0.0034329454618907
 40
0.0034329454618907
 40
0.0034329454618907
 10
131.1043728273851
 20
217.3154690816067
 42
1.0
 10
131.1043728273851
 20
217.3039356330524
 42
1.0
 10
131.104772366617
 20
217.2923952868701
 42
1.0
 10
131.1055700114014
 20
217.2808894536385
 42
1.0
 10
131.1094402944591
 20
217.2250615559462
 42
1.0
 10
131.1230027196029
 20
217.1691319671766
 42
1.0
 10
131.1451341762123
 20
217.1177322407178
 42
1.0
 10
131.1672656330263
 20
217.0663325137838
 42
1.0
 10
131.1985765342635
 20
217.0180449814053
 42
1.0
 10
131.2364740103149
 20
216.976868354315
 42
1.0
 10
131.2601934311434
 20
216.9510965655834
 42
1.0
 10
131.2867807100028
 20
216.9277036454722
 42
1.0
 10
131.3153624094682
 20
216.9074580910333
 42
1.0
 10
131.361028553348
 20
216.8751109451592
 42
1.0
 10
131.4129092439677
 20
216.8502020392937
 42
1.0
 10
131.4667082184025
 20
216.8347940902794
 42
1.0
 10
131.5112553920544
 20
216.8220358437223
 42
1.0
 10
131.5580347249843
 20
216.8154690816067
 42
1.0
 10
131.604372868404
 20
216.8154690816067
 42
1.0
 97
        0
 75
     0
 76
     1
 52
0.0
 41
1.0
 77
     0
 78
     2
 53
45.0
 43
0.0
 44
0.0
 45
-4.490128060534576
 46
4.490128060534577
 79
     0
 53
45.0
 43
4.49013
 44
0.0
 45
-4.490128060534576
 46
4.490128060534577
 79
     2
 49
3.175
 49
-1.5875
 98
        1
 10
0.0
 20
0.0
  0
DIMENSION
  5
10A
330
1F
100
AcDbEntity
  8
0
  6
Continuous
 62
     7
370
     0
100
AcDbDimension
  2
*D4
 10
181.6043678031
 20
168.0154701811
 30
0.0
 11
160.4935187648
 21
168.0154690816
 31
0.0
 70
   160
  1
%%c<>\PG5/4"
 71
     2
 42
-1.0
  3
SLDDIMSTYLE0
100
AcDbAlignedDimension
 13
140.6043739489
 23
186.0154690816
 33
0.0
 14
181.6043668656
 24
186.0154690816
 34
0.0
 50
0.0000029841
100
AcDbRotatedDimension
  0
DIMENSION
  5
116
330
1F
100
AcDbEntity
  8
0
  6
Continuous
 62
     7
370
     0
100
AcDbDimension
  2
*D5
 10
209.6043704073
 20
259.0154690816
 30
0.0
 11
209.6043704073
 21
219.6823130229
 31
0.0
 70
   160
 71
     2
 42
-1.0
  3
SLDDIMSTYLE0
100
AcDbAlignedDimension
 13
179.6043664828
 23
184.0154690816
 33
0.0
 14
193.6043681733
 24
259.0154690816
 34
0.0
 50
90.0
100
AcDbRotatedDimension
  0
DIMENSION
  5
120
330
1F
100
AcDbEntity
  8
0
  6
Continuous
 62
     7
370
     0
100
AcDbDimension
  2
*D6
 10
200.1489433003
 20
184.0154690816
 30
0.0
 11
200.1489433003
 21
205.5941462564
 31
0.0
 70
   160
 71
     2
 42
-1.0
  3
SLDDIMSTYLE0
100
AcDbAlignedDimension
 13
181.6043668656
 23
227.0154690816
 33
0.0
 14
179.6043664828
 24
184.0154690816
 34
0.0
 50
90.0
100
AcDbRotatedDimension
  0
MTEXT
  5
12A
330
1F
100
AcDbEntity
  8
0
  6
Continuous
 62
     7
370
     0
100
AcDbMText
 10
160.790828533
 20
277.5323269639
 30
0.0
 40
3.5
 41
0.0
 71
     2
 72
     1
  1
SCHNITT A-A
  7
SLDTEXTSTYLE0
 73
     1
 44
1.0
  0
LINE
  5
12B
330
1F
100
AcDbEntity
  8
0
  6
CENTERX2
 62
     7
370
     0
100
AcDbLine
 10
161.1043704073
 20
182.0154690816
 30
0.0
 11
161.1043704073
 21
256.0154690816
 31
0.0
  0
LINE
  5
12C
330
1F
100
AcDbEntity
  8
0
  6
Continuous
 62
     7
370
    15
100
AcDbLine
 10
48.5337511304
 20
254.0154691088
 30
0.0
 11
48.5337511304
 21
222.0154687531
 31
0.0
  0
LINE
  5
12D
330
1F
100
AcDbEntity
  8
0
  6
Continuous
 62
     7
370
    15
100
AcDbLine
 10
48.5337511304
 20
211.8154674537
 30
0.0
 11
48.5337511304
 21
186.0154703028
 31
0.0
  0
LINE
  5
12E
330
1F
100
AcDbEntity
  8
0
  6
Continuous
 62
     7
370
    15
100
AcDbLine
 10
89.5337522629
 20
186.0154703028
 30
0.0
 11
89.5337522629
 21
211.8154674537
 31
0.0
  0
LINE
  5
12F
330
1F
100
AcDbEntity
  8
0
  6
Continuous
 62
     7
370
    15
100
AcDbLine
 10
89.5337522629
 20
222.0154687531
 30
0.0
 11
89.5337522629
 21
254.0154691088
 31
0.0
  0
LINE
  5
130
330
1F
100
AcDbEntity
  8
0
  6
Continuous
 62
     7
370
    15
100
AcDbLine
 10
48.5337511304
 20
186.0154703028
 30
0.0
 11
50.5337514582
 21
184.0154662497
 31
0.0
  0
LINE
  5
131
330
1F
100
AcDbEntity
  8
0
  6
Continuous
 62
     7
370
    15
100
AcDbLine
 10
87.5337519351
 20
184.0154662497
 30
0.0
 11
89.5337522629
 21
186.0154703028
 31
0.0
  0
ARC
  5
132
330
1F
100
AcDbEntity
  8
0
  6
Continuous
 62
     7
370
    15
100
AcDbCircle
 10
39.5337516967
 20
217.3154690816
 30
0.0
 40
0.5
100
AcDbArc
 50
180.0
 51
270.0
  0
ARC
  5
133
330
1F
100
AcDbEntity
  8
0
  6
Continuous
 62
     7
370
    15
100
AcDbCircle
 10
98.5337516967
 20
217.3154690816
 30
0.0
 40
0.5
100
AcDbArc
 50
270.0
 51
0.0
  0
LINE
  5
134
330
1F
100
AcDbEntity
  8
0
  6
Continuous
 62
     7
370
    15
100
AcDbLine
 10
99.0337510261
 20
217.3154674239
 30
0.0
 11
99.0337510261
 21
219.3154677517
 31
0.0
  0
LINE
  5
135
330
1F
100
AcDbEntity
  8
0
  6
Continuous
 62
     7
370
    15
100
AcDbLine
 10
39.0337523672
 20
219.3154677517
 30
0.0
 11
39.0337523672
 21
217.3154674239
 31
0.0
  0
LINE
  5
136
330
1F
100
AcDbEntity
  8
0
  6
Continuous
 62
     7
370
    15
100
AcDbLine
 10
101.0337532166
 20
219.3154677517
 30
0.0
 11
101.0337532166
 21
220.0154684252
 31
0.0
  0
LINE
  5
137
330
1F
100
AcDbEntity
  8
0
  6
Continuous
 62
     7
370
    15
100
AcDbLine
 10
37.0337501767
 20
220.0154684252
 30
0.0
 11
37.0337501767
 21
219.3154677517
 31
0.0
  0
LINE
  5
138
330
1F
100
AcDbEntity
  8
0
  6
Continuous
 62
     7
370
    15
100
AcDbLine
 10
101.0337532166
 20
220.0154684252
 30
0.0
 11
101.0337532166
 21
222.0154687531
 31
0.0
  0
LINE
  5
139
330
1F
100
AcDbEntity
  8
0
  6
Continuous
 62
     7
370
    15
100
AcDbLine
 10
37.0337501767
 20
222.0154687531
 30
0.0
 11
37.0337501767
 21
220.0154684252
 31
0.0
  0
LINE
  5
13A
330
1F
100
AcDbEntity
  8
0
  6
Continuous
 62
     7
370
    15
100
AcDbLine
 10
36.5337528888
 20
259.0154689971
 30
0.0
 11
36.5337528888
 21
258.265469107
 31
0.0
  0
LINE
  5
13B
330
1F
100
AcDbEntity
  8
0
  6
Continuous
 62
     7
370
    15
100
AcDbLine
 10
101.5337505046
 20
258.265469107
 30
0.0
 11
101.5337505046
 21
259.0154689971
 31
0.0
  0
ARC
  5
13C
330
1F
100
AcDbEntity
  8
0
  6
Continuous
 62
     7
370
    15
100
AcDbCircle
 10
34.2401097718
 20
234.3753203437
 30
0.0
 40
24.0
100
AcDbArc
 50
54.9189181885
 51
84.5159636337
  0
ARC
  5
13D
330
1F
100
AcDbEntity
  8
0
  6
Continuous
 62
     7
370
    15
100
AcDbCircle
 10
103.8273936215
 20
234.3753203437
 30
0.0
 40
24.0
100
AcDbArc
 50
95.4840363663
 51
125.0810818115
  0
LINE
  5
13E
330
1F
100
AcDbEntity
  8
0
  6
Continuous
 62
     7
370
    15
100
AcDbLine
 10
84.5337514433
 20
239.0154696769
 30
0.0
 11
53.53375195
 21
239.0154696769
 31
0.0
  0
LINE
  5
13F
330
1F
100
AcDbEntity
  8
0
  6
Continuous
 62
     7
370
    15
100
AcDbLine
 10
53.53375195
 20
227.0154695726
 30
0.0
 11
53.53375195
 21
239.0154696769
 31
0.0
  0
LINE
  5
140
330
1F
100
AcDbEntity
  8
0
  6
Continuous
 62
     7
370
    15
100
AcDbLine
 10
84.5337514433
 20
227.0154695726
 30
0.0
 11
53.53375195
 21
227.0154695726
 31
0.0
  0
LINE
  5
141
330
1F
100
AcDbEntity
  8
0
  6
Continuous
 62
     7
370
    15
100
AcDbLine
 10
84.5337514433
 20
227.0154695726
 30
0.0
 11
84.5337514433
 21
239.0154696769
 31
0.0
  0
LINE
  5
142
330
1F
100
AcDbEntity
  8
0
  6
Continuous
 62
     7
370
    15
100
AcDbLine
 10
48.5337511304
 20
186.0154703028
 30
0.0
 11
89.5337522629
 21
186.0154703028
 31
0.0
  0
LINE
  5
143
330
1F
100
AcDbEntity
  8
0
  6
Continuous
 62
     7
370
    15
100
AcDbLine
 10
87.5337519351
 20
184.0154662497
 30
0.0
 11
50.5337514582
 21
184.0154662497
 31
0.0
  0
LINE
  5
144
330
1F
100
AcDbEntity
  8
0
  6
Continuous
 62
     7
370
    15
100
AcDbLine
 10
57.0337515924
 20
239.0154696769
 30
0.0
 11
57.0337515924
 21
227.0154695726
 31
0.0
  0
LINE
  5
145
330
1F
100
AcDbEntity
  8
0
  6
Continuous
 62
     7
370
    15
100
AcDbLine
 10
81.033751801
 20
227.0154695726
 30
0.0
 11
81.033751801
 21
239.0154696769
 31
0.0
  0
LINE
  5
146
330
1F
100
AcDbEntity
  8
0
  6
Continuous
 62
     7
370
    15
100
AcDbLine
 10
98.5337518755
 20
216.8154701359
 30
0.0
 11
39.5337515178
 21
216.8154701359
 31
0.0
  0
LINE
  5
147
330
1F
100
AcDbEntity
  8
0
  6
Continuous
 62
     7
370
    15
100
AcDbLine
 10
69.5337517204
 20
216.8154701359
 30
0.0
 11
69.5337517204
 21
212.315468467
 31
0.0
  0
LINE
  5
148
330
1F
100
AcDbEntity
  8
0
  6
Continuous
 62
     7
370
    15
100
AcDbLine
 10
68.5337516729
 20
212.315468467
 30
0.0
 11
69.5337517204
 21
212.315468467
 31
0.0
  0
LINE
  5
149
330
1F
100
AcDbEntity
  8
0
  6
Continuous
 62
     7
370
    15
100
AcDbLine
 10
68.5337516729
 20
212.315468467
 30
0.0
 11
68.5337516729
 21
216.8154701359
 31
0.0
  0
LWPOLYLINE
  5
14A
330
1F
100
AcDbEntity
  8
0
  6
Continuous
 62
     7
370
    15
100
AcDbPolyline
 90
        9
 70
   128
 43
0.0
 10
69.5337517204
 20
212.315468467
 10
69.5289480168
 20
212.2179254658
 10
69.5147215697
 20
212.1241263814
 10
69.4916190946
 20
212.0376847453
 10
69.4605284038
 20
211.9619160659
 10
69.4226442679
 20
211.8997335202
 10
69.3794225476
 20
211.8535287447
 10
69.332524286
 20
211.8250749774
 10
69.2837517085
 20
211.8154674537
  0
LINE
  5
14B
330
1F
100
AcDbEntity
  8
0
  6
Continuous
 62
     7
370
    15
100
AcDbLine
 10
69.2837517085
 20
211.8154674537
 30
0.0
 11
68.7837516848
 21
211.8154674537
 31
0.0
  0
LWPOLYLINE
  5
14C
330
1F
100
AcDbEntity
  8
0
  6
Continuous
 62
     7
370
    15
100
AcDbPolyline
 90
        9
 70
   128
 43
0.0
 10
68.5337516729
 20
212.315468467
 10
68.5385553765
 20
212.2179254658
 10
68.5527818236
 20
212.1241263814
 10
68.5758842987
 20
212.0376847453
 10
68.6069749895
 20
211.9619160659
 10
68.6448591254
 20
211.8997335202
 10
68.6880808457
 20
211.8535287447
 10
68.7349791074
 20
211.8250749774
 10
68.7837516848
 20
211.8154674537
  0
LINE
  5
14D
330
1F
100
AcDbEntity
  8
0
  6
Continuous
 62
     7
370
    15
100
AcDbLine
 10
91.5337525907
 20
212.315468467
 30
0.0
 11
91.5337525907
 21
216.8154701359
 31
0.0
  0
LINE
  5
14E
330
1F
100
AcDbEntity
  8
0
  6
Continuous
 62
     7
370
    15
100
AcDbLine
 10
69.5337517204
 20
212.315468467
 30
0.0
 11
91.5337525907
 21
212.315468467
 31
0.0
  0
LWPOLYLINE
  5
14F
330
1F
100
AcDbEntity
  8
0
  6
Continuous
 62
     7
370
    15
100
AcDbPolyline
 90
        9
 70
   128
 43
0.0
 10
91.5337525907
 20
212.315468467
 10
91.5289488289
 20
212.2179254658
 10
91.5147219452
 20
212.1241263814
 10
91.4916195575
 20
212.0376847453
 10
91.4605282846
 20
211.9619160659
 10
91.4226439449
 20
211.8997335202
 10
91.3794231269
 20
211.8535287447
 10
91.3325235847
 20
211.8250749774
 10
91.2837520841
 20
211.8154674537
  0
LINE
  5
150
330
1F
100
AcDbEntity
  8
0
  6
Continuous
 62
     7
370
    15
100
AcDbLine
 10
91.2837520841
 20
211.8154674537
 30
0.0
 11
69.2837517085
 21
211.8154674537
 31
0.0
  0
LINE
  5
151
330
1F
100
AcDbEntity
  8
0
  6
Continuous
 62
     7
370
    15
100
AcDbLine
 10
46.5337508026
 20
212.315468467
 30
0.0
 11
68.5337516729
 21
212.315468467
 31
0.0
  0
LINE
  5
152
330
1F
100
AcDbEntity
  8
0
  6
Continuous
 62
     7
370
    15
100
AcDbLine
 10
68.7837516848
 20
211.8154674537
 30
0.0
 11
46.7837513092
 21
211.8154674537
 31
0.0
  0
LWPOLYLINE
  5
153
330
1F
100
AcDbEntity
  8
0
  6
Continuous
 62
     7
370
    15
100
AcDbPolyline
 90
        9
 70
   128
 43
0.0
 10
46.5337508026
 20
212.315468467
 10
46.5385545644
 20
212.2179254658
 10
46.5527814481
 20
212.1241263814
 10
46.5758838359
 20
212.0376847453
 10
46.6069751087
 20
211.9619160659
 10
46.6448594484
 20
211.8997335202
 10
46.6880802664
 20
211.8535287447
 10
46.7349798086
 20
211.8250749774
 10
46.7837513092
 20
211.8154674537
  0
LINE
  5
154
330
1F
100
AcDbEntity
  8
0
  6
Continuous
 62
     7
370
    15
100
AcDbLine
 10
46.5337508026
 20
216.8154701359
 30
0.0
 11
46.5337508026
 21
212.315468467
 31
0.0
  0
LINE
  5
155
330
1F
100
AcDbEntity
  8
0
  6
Continuous
 62
     7
370
    15
100
AcDbLine
 10
92.0337517414
 20
216.8154701359
 30
0.0
 11
92.0337517414
 21
212.315468467
 31
0.0
  0
LINE
  5
156
330
1F
100
AcDbEntity
  8
0
  6
Continuous
 62
     7
370
    15
100
AcDbLine
 10
91.5337525907
 20
212.315468467
 30
0.0
 11
92.0337517414
 21
212.315468467
 31
0.0
  0
ARC
  5
157
330
1F
100
AcDbEntity
  8
0
  6
Continuous
 62
     7
370
    15
100
AcDbCircle
 10
91.5337516967
 20
212.3154690816
 30
0.0
 40
0.5
100
AcDbArc
 50
270.0
 51
0.0
  0
LINE
  5
158
330
1F
100
AcDbEntity
  8
0
  6
Continuous
 62
     7
370
    15
100
AcDbLine
 10
91.5337525907
 20
211.8154674537
 30
0.0
 11
91.2837520841
 21
211.8154674537
 31
0.0
  0
LINE
  5
159
330
1F
100
AcDbEntity
  8
0
  6
Continuous
 62
     7
370
    15
100
AcDbLine
 10
46.033751652
 20
212.315468467
 30
0.0
 11
46.5337508026
 21
212.315468467
 31
0.0
  0
LINE
  5
15A
330
1F
100
AcDbEntity
  8
0
  6
Continuous
 62
     7
370
    15
100
AcDbLine
 10
46.033751652
 20
212.315468467
 30
0.0
 11
46.033751652
 21
216.8154701359
 31
0.0
  0
ARC
  5
15B
330
1F
100
AcDbEntity
  8
0
  6
Continuous
 62
     7
370
    15
100
AcDbCircle
 10
46.5337516967
 20
212.3154690816
 30
0.0
 40
0.5
100
AcDbArc
 50
180.0
 51
270.0
  0
LINE
  5
15C
330
1F
100
AcDbEntity
  8
0
  6
Continuous
 62
     7
370
    15
100
AcDbLine
 10
46.7837513092
 20
211.8154674537
 30
0.0
 11
46.5337508026
 21
211.8154674537
 31
0.0
  0
LINE
  5
15D
330
1F
100
AcDbEntity
  8
0
  6
Continuous
 62
     7
370
    15
100
AcDbLine
 10
37.0337501767
 20
219.3154677517
 30
0.0
 11
101.0337532166
 21
219.3154677517
 31
0.0
  0
LINE
  5
15E
330
1F
100
AcDbEntity
  8
0
  6
Continuous
 62
     7
370
    15
100
AcDbLine
 10
37.0337501767
 20
220.0154684252
 30
0.0
 11
101.0337532166
 21
220.0154684252
 31
0.0
  0
LINE
  5
15F
330
1F
100
AcDbEntity
  8
0
  6
Continuous
 62
     7
370
    15
100
AcDbLine
 10
37.0337501767
 20
222.0154687531
 30
0.0
 11
101.0337532166
 21
222.0154687531
 31
0.0
  0
LINE
  5
160
330
1F
100
AcDbEntity
  8
0
  6
Continuous
 62
     7
370
    15
100
AcDbLine
 10
36.5337528888
 20
258.265469107
 30
0.0
 11
101.5337505046
 21
258.265469107
 31
0.0
  0
LINE
  5
161
330
1F
100
AcDbEntity
  8
0
  6
Continuous
 62
     7
370
    15
100
AcDbLine
 10
36.5337528888
 20
259.0154689971
 30
0.0
 11
101.5337505046
 21
259.0154689971
 31
0.0
  0
LINE
  5
162
330
1F
100
AcDbEntity
  8
0
  6
Continuous
 62
     7
370
    15
100
AcDbLine
 10
48.0337519798
 20
254.0154691088
 30
0.0
 11
90.0337514135
 21
254.0154691088
 31
0.0
  0
LINE
  5
163
330
1F
100
AcDbEntity
  8
0
  6
Continuous
 62
     8
370
    15
100
AcDbLine
 10
39.0337523672
 20
217.3154674239
 30
0.0
 11
99.0337510261
 21
217.3154674239
 31
0.0
  0
DIMENSION
  5
164
330
1F
100
AcDbEntity
  8
0
  6
Continuous
 62
     7
370
     0
100
AcDbDimension
  2
*D7
 10
30.6135945312
 20
184.0154690816
 30
0.0
 11
30.6135945312
 21
217.3925122701
 31
0.0
 70
   160
 71
     2
 42
-1.0
  3
SLDDIMSTYLE0
100
AcDbAlignedDimension
 13
69.0337516967
 23
254.0154690816
 33
0.0
 14
69.0337516967
 24
184.0154690816
 34
0.0
 50
90.0
100
AcDbRotatedDimension
  0
DIMENSION
  5
16E
330
1F
100
AcDbEntity
  8
0
  6
Continuous
 62
     7
370
     0
100
AcDbDimension
  2
*D8
 10
109.0530702512
 20
184.0154690816
 30
0.0
 11
109.0530702512
 21
208.9218988479
 31
0.0
 70
   160
 71
     2
 42
-1.0
  3
SLDDIMSTYLE0
100
AcDbAlignedDimension
 13
88.7837516967
 23
234.0154690816
 33
0.0
 14
87.5337516967
 24
184.0154690816
 34
0.0
 50
90.0
100
AcDbRotatedDimension
  0
LINE
  5
178
330
1F
100
AcDbEntity
  8
0
  6
Continuous
 62
     7
370
     0
100
AcDbLine
 10
49.2837516967
 20
185.2654690816
 30
0.0
 11
49.2837516967
 21
234.0154690816
 31
0.0
  0
LINE
  5
179
330
1F
100
AcDbEntity
  8
0
  6
Continuous
 62
     7
370
     0
100
AcDbLine
 10
88.7837516967
 20
185.2654690816
 30
0.0
 11
88.7837516967
 21
234.0154690816
 31
0.0
  0
LINE
  5
17A
330
1F
100
AcDbEntity
  8
0
  6
Continuous
 62
     7
370
     0
100
AcDbLine
 10
89.5337516967
 20
234.0154690816
 30
0.0
 11
48.5337516967
 21
234.0154690816
 31
0.0
  0
LINE
  5
17B
330
1F
100
AcDbEntity
  8
0
  6
CENTERX2
 62
     7
370
     0
100
AcDbLine
 10
69.0337516967
 20
184.0154690816
 30
0.0
 11
69.0337516967
 21
256.0154690816
 31
0.0
  0
ENDSEC
  0
SECTION
  2
OBJECTS
  0
DICTIONARY
  5
C
330
0
100
AcDbDictionary
281
     1
  3
ACAD_GROUP
350
D
  3
ACAD_LAYOUT
350
1A
  3
ACAD_MLINESTYLE
350
17
  3
ACAD_PLOTSETTINGS
350
19
  3
ACAD_PLOTSTYLENAME
350
E
  0
DICTIONARY
  5
D
102
{ACAD_REACTORS
330
C
102
}
330
C
100
AcDbDictionary
281
     1
  0
DICTIONARY
  5
1A
102
{ACAD_REACTORS
330
C
102
}
330
C
100
AcDbDictionary
281
     1
  3
Layout1
350
1E
  3
Layout2
350
26
  3
Model
350
22
  0
DICTIONARY
  5
17
102
{ACAD_REACTORS
330
C
102
}
330
C
100
AcDbDictionary
281
     1
  3
Standard
350
18
  0
DICTIONARY
  5
19
102
{ACAD_REACTORS
330
C
102
}
330
C
100
AcDbDictionary
281
     1
  0
ACDBDICTIONARYWDFLT
  5
E
102
{ACAD_REACTORS
330
C
102
}
330
C
100
AcDbDictionary
281
     1
  3
Normal
350
F
100
AcDbDictionaryWithDefault
340
F
  0
LAYOUT
  5
1E
102
{ACAD_REACTORS
330
1A
102
}
330
1A
100
AcDbPlotSettings
  1

  2
none_device
  4

  6

 40
0.0
 41
0.0
 42
0.0
 43
0.0
 44
0.0
 45
0.0
 46
0.0
 47
0.0
 48
0.0
 49
0.0
140
0.0
141
0.0
142
1.0
143
1.0
 70
   688
 72
     0
 73
     0
 74
     5
  7

 75
    16
147
1.0
148
0.0
149
0.0
100
AcDbLayout
  1
Layout1
 70
     1
 71
     1
 10
0.0
 20
0.0
 11
420.0
 21
297.0
 12
0.0
 22
0.0
 32
0.0
 14
1.0000000000E+20
 24
1.0000000000E+20
 34
1.0000000000E+20
 15
-1.0000000000E+20
 25
-1.0000000000E+20
 35
-1.0000000000E+20
146
0.0
 13
0.0
 23
0.0
 33
0.0
 16
1.0
 26
0.0
 36
0.0
 17
0.0
 27
1.0
 37
0.0
 76
     0
330
1B
  0
LAYOUT
  5
26
102
{ACAD_REACTORS
330
1A
102
}
330
1A
100
AcDbPlotSettings
  1

  2
none_device
  4

  6

 40
0.0
 41
0.0
 42
0.0
 43
0.0
 44
0.0
 45
0.0
 46
0.0
 47
0.0
 48
0.0
 49
0.0
140
0.0
141
0.0
142
1.0
143
1.0
 70
   688
 72
     0
 73
     0
 74
     5
  7

 75
    16
147
1.0
148
0.0
149
0.0
100
AcDbLayout
  1
Layout2
 70
     1
 71
     2
 10
0.0
 20
0.0
 11
0.0
 21
0.0
 12
0.0
 22
0.0
 32
0.0
 14
0.0
 24
0.0
 34
0.0
 15
0.0
 25
0.0
 35
0.0
146
0.0
 13
0.0
 23
0.0
 33
0.0
 16
1.0
 26
0.0
 36
0.0
 17
0.0
 27
1.0
 37
0.0
 76
     0
330
23
  0
LAYOUT
  5
22
102
{ACAD_REACTORS
330
1A
102
}
330
1A
100
AcDbPlotSettings
  1

  2
none_device
  4

  6

 40
0.0
 41
0.0
 42
0.0
 43
0.0
 44
0.0
 45
0.0
 46
0.0
 47
0.0
 48
0.0
 49
0.0
140
0.0
141
0.0
142
1.0
143
1.0
 70
  1712
 72
     0
 73
     0
 74
     0
  7

 75
     0
147
1.0
148
0.0
149
0.0
100
AcDbLayout
  1
Model
 70
     1
 71
     0
 10
0.0
 20
0.0
 11
420.0
 21
297.0
 12
0.0
 22
0.0
 32
0.0
 14
0.0
 24
0.0
 34
0.0
 15
420.0
 25
297.0
 35
0.0
146
0.0
 13
0.0
 23
0.0
 33
0.0
 16
1.0
 26
0.0
 36
0.0
 17
0.0
 27
1.0
 37
0.0
 76
     0
330
1F
331
29
  0
MLINESTYLE
  5
18
102
{ACAD_REACTORS
330
17
102
}
330
17
100
AcDbMlineStyle
  2
Standard
 70
     0
  3

 62
   256
 51
90.0
 52
90.0
 71
     2
 49
0.5
 62
   256
  6
BYLAYER
 49
-0.5
 62
   256
  6
BYLAYER
  0
ACDBPLACEHOLDER
  5
F
102
{ACAD_REACTORS
330
E
102
}
330
E
  0
ENDSEC
  0
EOF
