  0
SECTION
  2
HEADER
  9
$ACADVER
  1
AC1015
  9
$ACADMAINTVER
 70
     6
  9
$DWGCODEPAGE
  3
ANSI_1252
  9
$INSBASE
 10
0.0
 20
0.0
 30
0.0
  9
$EXTMIN
 10
0.0
 20
0.0
 30
0.0
  9
$EXTMAX
 10
420.0
 20
297.0
 30
0.0
  9
$LIMMIN
 10
0.0
 20
0.0
  9
$LIMMAX
 10
420.0
 20
297.0
  9
$ORTHOMODE
 70
     0
  9
$REGENMODE
 70
     1
  9
$FILLMODE
 70
     1
  9
$QTEXTMODE
 70
     0
  9
$MIRRTEXT
 70
     1
  9
$LTSCALE
 40
1.0
  9
$ATTMODE
 70
     1
  9
$TEXTSIZE
 40
3.5
  9
$TRACEWID
 40
1.0
  9
$TEXTSTYLE
  7
Standard
  9
$CLAYER
  8
0
  9
$CELTYPE
  6
ByLayer
  9
$CECOLOR
 62
   256
  9
$CELTSCALE
 40
1.0
  9
$DISPSILH
 70
     0
  9
$DIMSCALE
 40
1.0
  9
$DIMASZ
 40
3.5
  9
$DIMEXO
 40
1.0
  9
$DIMDLI
 40
3.75
  9
$DIMRND
 40
0.0
  9
$DIMDLE
 40
0.0
  9
$DIMEXE
 40
1.0
  9
$DIMTP
 40
0.0
  9
$DIMTM
 40
0.0
  9
$DIMTXT
 40
3.5
  9
$DIMCEN
 40
2.5
  9
$DIMTSZ
 40
0.0
  9
$DIMTOL
 70
     0
  9
$DIMLIM
 70
     0
  9
$DIMTIH
 70
     1
  9
$DIMTOH
 70
     1
  9
$DIMSE1
 70
     0
  9
$DIMSE2
 70
     0
  9
$DIMTAD
 70
     1
  9
$DIMZIN
 70
     0
  9
$DIMBLK
  1

  9
$DIMASO
 70
     1
  9
$DIMSHO
 70
     1
  9
$DIMPOST
  1

  9
$DIMAPOST
  1

  9
$DIMALT
 70
     0
  9
$DIMALTD
 70
     3
  9
$DIMALTF
 40
0.0393700787
  9
$DIMLFAC
 40
1.0
  9
$DIMTOFL
 70
     1
  9
$DIMTVP
 40
0.0
  9
$DIMTIX
 70
     0
  9
$DIMSOXD
 70
     0
  9
$DIMSAH
 70
     0
  9
$DIMBLK1
  1

  9
$DIMBLK2
  1

  9
$DIMSTYLE
  2
ISO-25
  9
$DIMCLRD
 70
     0
  9
$DIMCLRE
 70
     0
  9
$DIMCLRT
 70
     0
  9
$DIMTFAC
 40
1.0
  9
$DIMGAP
 40
4.0
  9
$DIMJUST
 70
     0
  9
$DIMSD1
 70
     0
  9
$DIMSD2
 70
     0
  9
$DIMTOLJ
 70
     0
  9
$DIMTZIN
 70
     0
  9
$DIMALTZ
 70
     0
  9
$DIMALTTZ
 70
     0
  9
$DIMUPT
 70
     0
  9
$DIMDEC
 70
     1
  9
$DIMTDEC
 70
     2
  9
$DIMALTU
 70
     2
  9
$DIMALTTD
 70
     3
  9
$DIMTXSTY
  7
Standard
  9
$DIMAUNIT
 70
     0
  9
$DIMADEC
 70
     1
  9
$DIMALTRND
 40
0.0
  9
$DIMAZIN
 70
     0
  9
$DIMDSEP
 70
    44
  9
$DIMATFIT
 70
     3
  9
$DIMFRAC
 70
     0
  9
$DIMLDRBLK
  1

  9
$DIMLUNIT
 70
     2
  9
$DIMLWD
 70
    -2
  9
$DIMLWE
 70
    -2
  9
$DIMTMOVE
 70
     0
  9
$LUNITS
 70
     2
  9
$LUPREC
 70
     1
  9
$SKETCHINC
 40
1.0
  9
$FILLETRAD
 40
10.0
  9
$AUNITS
 70
     0
  9
$AUPREC
 70
     1
  9
$MENU
  1
.
  9
$ELEVATION
 40
0.0
  9
$PELEVATION
 40
0.0
  9
$THICKNESS
 40
0.0
  9
$LIMCHECK
 70
     0
  9
$CHAMFERA
 40
10.0
  9
$CHAMFERB
 40
10.0
  9
$CHAMFERC
 40
20.0
  9
$CHAMFERD
 40
0.0
  9
$SKPOLY
 70
     0
  9
$TDCREATE
 40
2456156.451988195
  9
$TDUCREATE
 40
2456156.368654861
  9
$TDUPDATE
 40
2456156.451988206
  9
$TDUUPDATE
 40
2456156.368654873
  9
$TDINDWG
 40
0.0000000116
  9
$TDUSRTIMER
 40
0.0000000116
  9
$USRTIMER
 70
     1
  9
$ANGBASE
 50
0.0
  9
$ANGDIR
 70
     0
  9
$PDMODE
 70
     0
  9
$PDSIZE
 40
-1.0
  9
$PLINEWID
 40
0.0
  9
$SPLFRAME
 70
     0
  9
$SPLINETYPE
 70
     6
  9
$SPLINESEGS
 70
     8
  9
$HANDSEED
  5
268
  9
$SURFTAB1
 70
     6
  9
$SURFTAB2
 70
     6
  9
$SURFTYPE
 70
     6
  9
$SURFU
 70
     6
  9
$SURFV
 70
     6
  9
$UCSBASE
  2

  9
$UCSNAME
  2

  9
$UCSORG
 10
0.0
 20
0.0
 30
0.0
  9
$UCSXDIR
 10
1.0
 20
0.0
 30
0.0
  9
$UCSYDIR
 10
0.0
 20
1.0
 30
0.0
  9
$UCSORTHOREF
  2

  9
$UCSORTHOVIEW
 70
     0
  9
$UCSORGTOP
 10
0.0
 20
0.0
 30
0.0
  9
$UCSORGBOTTOM
 10
0.0
 20
0.0
 30
0.0
  9
$UCSORGLEFT
 10
0.0
 20
0.0
 30
0.0
  9
$UCSORGRIGHT
 10
0.0
 20
0.0
 30
0.0
  9
$UCSORGFRONT
 10
0.0
 20
0.0
 30
0.0
  9
$UCSORGBACK
 10
0.0
 20
0.0
 30
0.0
  9
$PUCSBASE
  2

  9
$PUCSNAME
  2

  9
$PUCSORG
 10
0.0
 20
0.0
 30
0.0
  9
$PUCSXDIR
 10
1.0
 20
0.0
 30
0.0
  9
$PUCSYDIR
 10
0.0
 20
1.0
 30
0.0
  9
$PUCSORTHOREF
  2

  9
$PUCSORTHOVIEW
 70
     0
  9
$PUCSORGTOP
 10
0.0
 20
0.0
 30
0.0
  9
$PUCSORGBOTTOM
 10
0.0
 20
0.0
 30
0.0
  9
$PUCSORGLEFT
 10
0.0
 20
0.0
 30
0.0
  9
$PUCSORGRIGHT
 10
0.0
 20
0.0
 30
0.0
  9
$PUCSORGFRONT
 10
0.0
 20
0.0
 30
0.0
  9
$PUCSORGBACK
 10
0.0
 20
0.0
 30
0.0
  9
$USERI1
 70
     0
  9
$USERI2
 70
     0
  9
$USERI3
 70
     0
  9
$USERI4
 70
     0
  9
$USERI5
 70
     0
  9
$USERR1
 40
0.0
  9
$USERR2
 40
0.0
  9
$USERR3
 40
0.0
  9
$USERR4
 40
0.0
  9
$USERR5
 40
0.0
  9
$WORLDVIEW
 70
     1
  9
$SHADEDGE
 70
     3
  9
$SHADEDIF
 70
    70
  9
$TILEMODE
 70
     1
  9
$MAXACTVP
 70
    64
  9
$PINSBASE
 10
0.0
 20
0.0
 30
0.0
  9
$PLIMCHECK
 70
     0
  9
$PEXTMIN
 10
1.0000000000E+20
 20
1.0000000000E+20
 30
1.0000000000E+20
  9
$PEXTMAX
 10
-1.0000000000E+20
 20
-1.0000000000E+20
 30
-1.0000000000E+20
  9
$PLIMMIN
 10
0.0
 20
0.0
  9
$PLIMMAX
 10
420.0
 20
297.0
  9
$UNITMODE
 70
     0
  9
$VISRETAIN
 70
     1
  9
$PLINEGEN
 70
     0
  9
$PSLTSCALE
 70
     1
  9
$TREEDEPTH
 70
  3020
  9
$CMLSTYLE
  2
Standard
  9
$CMLJUST
 70
     0
  9
$CMLSCALE
 40
20.0
  9
$PROXYGRAPHICS
 70
     1
  9
$MEASUREMENT
 70
     1
  9
$CELWEIGHT
370
    -1
  9
$ENDCAPS
280
     0
  9
$JOINSTYLE
280
     0
  9
$LWDISPLAY
290
     1
  9
$INSUNITS
 70
     4
  9
$HYPERLINKBASE
  1

  9
$STYLESHEET
  1

  9
$XEDIT
290
     1
  9
$CEPSNTYPE
380
     0
  9
$PSTYLEMODE
290
     1
  9
$FINGERPRINTGUID
  2
{F5B7393A-6470-423F-817B-4652F2401313}
  9
$VERSIONGUID
  2
{FAEB1C32-E019-11D5-929B-00C0DF256EC4}
  9
$EXTNAMES
290
     1
  9
$PSVPSCALE
 40
0.0
  9
$OLESTARTUP
290
     0
  0
ENDSEC
  0
SECTION
  2
CLASSES
  0
CLASS
  1
ACDBDICTIONARYWDFLT
  2
AcDbDictionaryWithDefault
  3
ObjectDBX Classes
 90
        0
280
     0
281
     0
  0
CLASS
  1
VISUALSTYLE
  2
AcDbVisualStyle
  3
ObjectDBX Classes
 90
     4095
280
     0
281
     0
  0
CLASS
  1
MATERIAL
  2
AcDbMaterial
  3
ObjectDBX Classes
 90
     1153
280
     0
281
     0
  0
CLASS
  1
ACDBPLACEHOLDER
  2
AcDbPlaceHolder
  3
ObjectDBX Classes
 90
        0
280
     0
281
     0
  0
CLASS
  1
LAYOUT
  2
AcDbLayout
  3
ObjectDBX Classes
 90
        0
280
     0
281
     0
  0
ENDSEC
  0
SECTION
  2
TABLES
  0
TABLE
  2
VPORT
  5
8
330
0
100
AcDbSymbolTable
 70
     1
  0
VPORT
  5
29
330
8
100
AcDbSymbolTableRecord
100
AcDbViewportTableRecord
  2
*Active
 70
     0
 10
0.0
 20
0.0
 11
1.0
 21
1.0
 12
210.0
 22
148.5
 13
0.0
 23
0.0
 14
10.0
 24
10.0
 15
10.0
 25
10.0
 16
0.0
 26
0.0
 36
1.0
 17
0.0
 27
0.0
 37
0.0
 40
297.0
 41
1.4141414141
 42
50.0
 43
0.0
 44
0.0
 50
0.0
 51
0.0
 71
     0
 72
  2000
 73
     1
 74
     3
 75
     0
 76
     0
 77
     0
 78
     0
281
     0
 65
     1
110
0.0
120
0.0
130
0.0
111
1.0
121
0.0
131
0.0
112
0.0
122
1.0
132
0.0
 79
     0
146
0.0
  0
ENDTAB
  0
TABLE
  2
LTYPE
  5
5
330
0
100
AcDbSymbolTable
 70
     6
  0
LTYPE
  5
14
330
5
100
AcDbSymbolTableRecord
100
AcDbLinetypeTableRecord
  2
ByBlock
 70
     0
  3

 72
    65
 73
     0
 40
0.0
  0
LTYPE
  5
15
330
5
100
AcDbSymbolTableRecord
100
AcDbLinetypeTableRecord
  2
ByLayer
 70
     0
  3

 72
    65
 73
     0
 40
0.0
  0
LTYPE
  5
16
330
5
100
AcDbSymbolTableRecord
100
AcDbLinetypeTableRecord
  2
Continuous
 70
     0
  3
Solid line
 72
    65
 73
     0
 40
0.0
  0
LTYPE
  5
3F
330
5
100
AcDbSymbolTableRecord
100
AcDbLinetypeTableRecord
  2
HIDDEN
 70
     0
  3
Hidden __ __ __ __ __ __ __ __ __ __ __ __ __ __
 72
    65
 73
     2
 40
1.905
 49
1.27
 74
     0
 49
-0.635
 74
     0
  0
LTYPE
  5
40
330
5
100
AcDbSymbolTableRecord
100
AcDbLinetypeTableRecord
  2
PHANTOM
 70
     0
  3
Phantom ______  __  __  ______  __  __  ______
 72
    65
 73
     6
 40
12.7
 49
6.35
 74
     0
 49
-1.27
 74
     0
 49
1.27
 74
     0
 49
-1.27
 74
     0
 49
1.27
 74
     0
 49
-1.27
 74
     0
  0
LTYPE
  5
41
330
5
100
AcDbSymbolTableRecord
100
AcDbLinetypeTableRecord
  2
CENTER
 70
     0
  3
Center ____ _ ____ _ ____ _ ____ _ ____ _ ____
 72
    65
 73
     4
 40
10.16
 49
6.35
 74
     0
 49
-1.27
 74
     0
 49
1.27
 74
     0
 49
-1.27
 74
     0
  0
LTYPE
  5
42
330
5
100
AcDbSymbolTableRecord
100
AcDbLinetypeTableRecord
  2
CENTERX2
 70
     0
  3
Center (2x) ________  __  ________  __  _____
 72
    65
 73
     4
 40
20.32
 49
12.7
 74
     0
 49
-2.54
 74
     0
 49
2.54
 74
     0
 49
-2.54
 74
     0
  0
LTYPE
  5
43
330
5
100
AcDbSymbolTableRecord
100
AcDbLinetypeTableRecord
  2
DOT2
 70
     0
  3
Dot (.5x) ........................................
 72
    65
 73
     2
 40
0.635
 49
0.0
 74
     0
 49
-0.635
 74
     0
  0
ENDTAB
  0
TABLE
  2
LAYER
  5
2
330
0
100
AcDbSymbolTable
 70
     5
  0
LAYER
  5
10
330
2
100
AcDbSymbolTableRecord
100
AcDbLayerTableRecord
  2
0
 70
     0
 62
     7
  6
Continuous
370
    -3
390
F
  0
LAYER
  5
44
330
2
100
AcDbSymbolTableRecord
100
AcDbLayerTableRecord
  2
VORLAGE
 70
     0
 62
    -1
  6
Continuous
370
    -3
390
F
  0
LAYER
  5
45
330
2
100
AcDbSymbolTableRecord
100
AcDbLayerTableRecord
  2
RAHMEN
 70
     0
 62
   179
  6
Continuous
370
    -3
390
F
  0
LAYER
  5
46
330
2
100
AcDbSymbolTableRecord
100
AcDbLayerTableRecord
  2
KOPF
 70
     0
 62
     7
  6
Continuous
370
    -3
390
F
  0
LAYER
  5
47
330
2
100
AcDbSymbolTableRecord
100
AcDbLayerTableRecord
  2
TEMP
 70
     0
 62
     7
  6
Continuous
370
    -3
390
F
  0
ENDTAB
  0
TABLE
  2
STYLE
  5
3
330
0
100
AcDbSymbolTable
 70
     2
  0
STYLE
  5
11
330
3
100
AcDbSymbolTableRecord
100
AcDbTextStyleTableRecord
  2
Standard
 70
     0
 40
0.0
 41
1.0
 50
0.0
 71
     0
 42
2.5
  3
txt
  4

  0
STYLE
  5
96
330
3
100
AcDbSymbolTableRecord
100
AcDbTextStyleTableRecord
  2
SLDTEXTSTYLE0
 70
     0
 40
0.0
 41
0.605
 50
0.0
 71
     0
 42
0.2
  3
TXT
  4

  0
ENDTAB
  0
TABLE
  2
VIEW
  5
6
330
0
100
AcDbSymbolTable
 70
     0
  0
ENDTAB
  0
TABLE
  2
UCS
  5
7
330
0
100
AcDbSymbolTable
 70
     0
  0
ENDTAB
  0
TABLE
  2
APPID
  5
9
330
0
100
AcDbSymbolTable
 70
     1
  0
APPID
  5
12
330
9
100
AcDbSymbolTableRecord
100
AcDbRegAppTableRecord
  2
ACAD
 70
     0
  0
ENDTAB
  0
TABLE
  2
DIMSTYLE
  5
A
330
0
100
AcDbSymbolTable
 70
     2
100
AcDbDimStyleTable
  0
DIMSTYLE
105
27
330
A
100
AcDbSymbolTableRecord
100
AcDbDimStyleTableRecord
  2
ISO-25
 70
     0
 41
2.5
 42
0.625
 43
3.75
 44
1.25
 73
     0
 74
     0
 77
     1
 78
     8
140
2.5
141
2.5
143
0.0393700787
147
0.625
171
     3
172
     1
178
     0
271
     2
272
     2
274
     3
278
    44
283
     0
284
     8
340
11
  0
DIMSTYLE
105
97
102
{ACAD_REACTORS
330
95
330
177
330
183
102
}
330
A
100
AcDbSymbolTableRecord
100
AcDbDimStyleTableRecord
  2
SLDDIMSTYLE0
 70
     0
 41
3.5
 44
0.0
 45
0.000000001
 73
     0
 74
     0
 77
     1
 78
    12
 79
     3
140
3.5
147
0.875
173
     1
178
     0
271
     1
272
     2
276
     2
284
    12
340
96
  0
ENDTAB
  0
TABLE
  2
BLOCK_RECORD
  5
1
330
0
100
AcDbSymbolTable
 70
     4
  0
BLOCK_RECORD
  5
1F
330
1
100
AcDbSymbolTableRecord
100
AcDbBlockTableRecord
  2
*Model_Space
340
22
  0
BLOCK_RECORD
  5
1B
330
1
100
AcDbSymbolTableRecord
100
AcDbBlockTableRecord
  2
*Paper_Space
340
1E
  0
BLOCK_RECORD
  5
23
330
1
100
AcDbSymbolTableRecord
100
AcDbBlockTableRecord
  2
*Paper_Space0
340
26
  0
BLOCK_RECORD
  5
98
330
1
100
AcDbSymbolTableRecord
100
AcDbBlockTableRecord
  2
*D1
340
0
  0
BLOCK_RECORD
  5
178
330
1
100
AcDbSymbolTableRecord
100
AcDbBlockTableRecord
  2
*D2
340
0
  0
BLOCK_RECORD
  5
184
330
1
100
AcDbSymbolTableRecord
100
AcDbBlockTableRecord
  2
*D3
340
0
  0
ENDTAB
  0
ENDSEC
  0
SECTION
  2
BLOCKS
  0
BLOCK
  5
20
330
1F
100
AcDbEntity
  8
0
100
AcDbBlockBegin
  2
*Model_Space
 70
     0
 10
0.0
 20
0.0
 30
0.0
  3
*Model_Space
  1

  0
ENDBLK
  5
21
330
1F
100
AcDbEntity
  8
0
100
AcDbBlockEnd
  0
BLOCK
  5
1C
330
1B
100
AcDbEntity
 67
     1
  8
0
100
AcDbBlockBegin
  2
*Paper_Space
 70
     0
 10
0.0
 20
0.0
 30
0.0
  3
*Paper_Space
  1

  0
ENDBLK
  5
1D
330
1B
100
AcDbEntity
 67
     1
  8
0
100
AcDbBlockEnd
  0
BLOCK
  5
24
330
23
100
AcDbEntity
  8
0
100
AcDbBlockBegin
  2
*Paper_Space0
 70
     0
 10
0.0
 20
0.0
 30
0.0
  3
*Paper_Space0
  1

  0
ENDBLK
  5
25
330
23
100
AcDbEntity
  8
0
100
AcDbBlockEnd
  0
BLOCK
  5
99
330
98
100
AcDbEntity
  8
0
100
AcDbBlockBegin
  2
*D1
 70
     1
 10
0.0
 20
0.0
 30
0.0
  3
*D1
  1

  0
ARC
  5
9B
330
98
100
AcDbEntity
  8
0
  6
Continuous
 62
     7
370
     0
100
AcDbCircle
 10
31.1877056302
 20
214.0461087857
 30
0.0
 40
6.00311538726061
100
AcDbArc
 50
243.4349488229
 51
296.5650511771
  0
ARC
  5
9C
330
98
100
AcDbEntity
  8
0
  6
Continuous
 62
     7
370
     0
100
AcDbCircle
 10
31.1877056302
 20
211.8292798181
 30
0.0
 40
6.00311538726061
100
AcDbArc
 50
63.4349488229
 51
116.5650511771
  0
SOLID
  5
9D
330
98
100
AcDbEntity
  8
0
  6
Continuous
 62
     7
370
     0
100
AcDbTrace
 10
33.8723804467
 20
261.1730509844
 30
0.0
 11
32.9723804467
 21
257.6730509844
 31
0.0
 12
34.7723804467
 22
257.6730509844
 32
0.0
 13
34.7723804467
 23
257.6730509844
 33
0.0
  0
SOLID
  5
9E
330
98
100
AcDbEntity
  8
0
  6
Continuous
 62
     7
370
     0
100
AcDbTrace
 10
33.8723804467
 20
168.1730509844
 30
0.0
 11
34.7723804467
 21
171.6730509844
 31
0.0
 12
32.9723804467
 22
171.6730509844
 32
0.0
 13
32.9723804467
 23
171.6730509844
 33
0.0
  0
LINE
  5
9F
330
98
100
AcDbEntity
  8
0
  6
Continuous
 62
     7
370
     0
100
AcDbLine
 10
45.8414195151
 20
261.1730509844
 30
0.0
 11
32.8723804467
 21
261.1730509844
 31
0.0
  0
LINE
  5
A0
330
98
100
AcDbEntity
  8
0
  6
Continuous
 62
     7
370
     0
100
AcDbLine
 10
49.8010955364
 20
168.1730509844
 30
0.0
 11
32.8723804467
 21
168.1730509844
 31
0.0
  0
LINE
  5
A1
330
98
100
AcDbEntity
  8
0
  6
Continuous
 62
     7
370
     0
100
AcDbLine
 10
33.8723804467
 20
261.1730509844
 30
0.0
 11
33.8723804467
 21
168.1730509844
 31
0.0
  0
MTEXT
  5
A2
330
98
100
AcDbEntity
  8
0
  6
Continuous
 62
     7
370
     0
100
AcDbMText
 10
29.3606431247
 20
210.2642591527
 30
0.0
 40
3.5
 41
0.0
 71
     1
 72
     1
  1
93
  7
SLDTEXTSTYLE0
 11
-7.044195017643634E-15
 21
1.0
 31
0.0
 73
     1
 44
1.0
  0
ENDBLK
  5
9A
330
98
100
AcDbEntity
  8
0
100
AcDbBlockEnd
  0
BLOCK
  5
179
330
178
100
AcDbEntity
  8
0
100
AcDbBlockBegin
  2
*D2
 70
     1
 10
0.0
 20
0.0
 30
0.0
  3
*D2
  1

  0
ARC
  5
17B
330
178
100
AcDbEntity
  8
0
  6
Continuous
 62
     7
370
     0
100
AcDbCircle
 10
30.7682327806
 20
82.9149610071
 30
0.0
 40
6.003115387260611
100
AcDbArc
 50
243.4349488229
 51
296.5650511771
  0
ARC
  5
17C
330
178
100
AcDbEntity
  8
0
  6
Continuous
 62
     7
370
     0
100
AcDbCircle
 10
30.7682327806
 20
80.6981320395
 30
0.0
 40
6.003115387260618
100
AcDbArc
 50
63.4349488229
 51
116.5650511771
  0
SOLID
  5
17D
330
178
100
AcDbEntity
  8
0
  6
Continuous
 62
     7
370
     0
100
AcDbTrace
 10
33.4529075972
 20
127.8836563555
 30
0.0
 11
32.5529075972
 21
124.3836563555
 31
0.0
 12
34.3529075972
 22
124.3836563555
 32
0.0
 13
34.3529075972
 23
124.3836563555
 33
0.0
  0
SOLID
  5
17E
330
178
100
AcDbEntity
  8
0
  6
Continuous
 62
     7
370
     0
100
AcDbTrace
 10
33.4529075972
 20
38.8836563555
 30
0.0
 11
34.3529075972
 21
42.3836563555
 31
0.0
 12
32.5529075972
 22
42.3836563555
 32
0.0
 13
32.5529075972
 23
42.3836563555
 33
0.0
  0
LINE
  5
17F
330
178
100
AcDbEntity
  8
0
  6
Continuous
 62
     7
370
     0
100
AcDbLine
 10
49.8010955364
 20
127.8836563555
 30
0.0
 11
32.4529075972
 21
127.8836563555
 31
0.0
  0
LINE
  5
180
330
178
100
AcDbEntity
  8
0
  6
Continuous
 62
     7
370
     0
100
AcDbLine
 10
49.0010955364
 20
38.8836563555
 30
0.0
 11
32.4529075972
 21
38.8836563555
 31
0.0
  0
LINE
  5
181
330
178
100
AcDbEntity
  8
0
  6
Continuous
 62
     7
370
     0
100
AcDbLine
 10
33.4529075972
 20
127.8836563555
 30
0.0
 11
33.4529075972
 21
38.8836563555
 31
0.0
  0
MTEXT
  5
182
330
178
100
AcDbEntity
  8
0
  6
Continuous
 62
     7
370
     0
100
AcDbMText
 10
28.9411702752
 20
79.1331113741
 30
0.0
 40
3.5
 41
0.0
 71
     1
 72
     1
  1
89
  7
SLDTEXTSTYLE0
 11
-7.044195017643634E-15
 21
1.0
 31
0.0
 73
     1
 44
1.0
  0
ENDBLK
  5
17A
330
178
100
AcDbEntity
  8
0
100
AcDbBlockEnd
  0
BLOCK
  5
185
330
184
100
AcDbEntity
  8
0
100
AcDbBlockBegin
  2
*D3
 70
     1
 10
0.0
 20
0.0
 30
0.0
  3
*D3
  1

  0
ARC
  5
187
330
184
100
AcDbEntity
  8
0
  6
Continuous
 62
     7
370
     0
100
AcDbCircle
 10
77.8468528267
 20
30.8617218497
 30
0.0
 40
6.003115387260602
100
AcDbArc
 50
153.4349488229
 51
206.5650511771
  0
ARC
  5
188
330
184
100
AcDbEntity
  8
0
  6
Continuous
 62
     7
370
     0
100
AcDbCircle
 10
75.6300238591
 20
30.8617218497
 30
0.0
 40
6.003115387260602
100
AcDbArc
 50
333.4349488229
 51
26.5650511771
  0
SOLID
  5
189
330
184
100
AcDbEntity
  8
0
  6
Continuous
 62
     7
370
     0
100
AcDbTrace
 10
44.0010955364
 20
28.1770470332
 30
0.0
 11
47.5010955364
 21
27.2770470332
 31
0.0
 12
47.5010955364
 22
29.0770470332
 32
0.0
 13
47.5010955364
 23
29.0770470332
 33
0.0
  0
SOLID
  5
18A
330
184
100
AcDbEntity
  8
0
  6
Continuous
 62
     7
370
     0
100
AcDbTrace
 10
109.0010955364
 20
28.1770470332
 30
0.0
 11
105.5010955364
 21
29.0770470332
 31
0.0
 12
105.5010955364
 22
27.2770470332
 32
0.0
 13
105.5010955364
 23
27.2770470332
 33
0.0
  0
LINE
  5
18B
330
184
100
AcDbEntity
  8
0
  6
Continuous
 62
     7
370
     0
100
AcDbLine
 10
44.0010955364
 20
43.8836563555
 30
0.0
 11
44.0010955364
 21
27.1770470332
 31
0.0
  0
LINE
  5
18C
330
184
100
AcDbEntity
  8
0
  6
Continuous
 62
     7
370
     0
100
AcDbLine
 10
109.0010955364
 20
43.8836563555
 30
0.0
 11
109.0010955364
 21
27.1770470332
 31
0.0
  0
LINE
  5
18D
330
184
100
AcDbEntity
  8
0
  6
Continuous
 62
     7
370
     0
100
AcDbLine
 10
44.0010955364
 20
28.1770470332
 30
0.0
 11
109.0010955364
 21
28.1770470332
 31
0.0
  0
MTEXT
  5
18E
330
184
100
AcDbEntity
  8
0
  6
Continuous
 62
     7
370
     0
100
AcDbMText
 10
74.0650031937
 20
32.6887843552
 30
0.0
 40
3.5
 41
0.0
 71
     1
 72
     1
  1
65
  7
SLDTEXTSTYLE0
 73
     1
 44
1.0
  0
ENDBLK
  5
186
330
184
100
AcDbEntity
  8
0
100
AcDbBlockEnd
  0
ENDSEC
  0
SECTION
  2
ENTITIES
  0
SPLINE
  5
48
330
1F
100
AcDbEntity
  8
0
  6
Continuous
 62
     7
370
    30
100
AcDbSpline
210
0.0
220
0.0
230
1.0
 70
     8
 71
     3
 72
    17
 73
    13
 74
     0
 42
0.00000001
 43
0.00000001
 40
0.0
 40
0.0
 40
0.0
 40
0.0
 40
0.0500153618682294
 40
0.1725435243856124
 40
0.2833839150300548
 40
0.3747931487909269
 40
0.4562459717403455
 40
0.5499152327103669
 40
0.6594932762268034
 40
0.7869234733388394
 40
0.9334444091514177
 40
1.0
 40
1.0
 40
1.0
 40
1.0
 10
53.81684737210361
 20
174.6730495390358
 30
0.0
 10
53.82980317278741
 20
174.6730472026782
 30
0.0
 10
53.87449823101988
 20
174.673039142687
 30
0.0
 10
53.94747618942948
 20
174.6730354791518
 30
0.0
 10
54.03554563434626
 20
174.6730324978779
 30
0.0
 10
54.11027086824441
 20
174.6730320220426
 30
0.0
 10
54.20374195120534
 20
174.6730306848442
 30
0.0
 10
54.37966936156788
 20
174.6730375060098
 30
0.0
 10
54.62327434261712
 20
174.6730620484295
 30
0.0
 10
54.94251067947557
 20
174.6731045494533
 30
0.0
 10
55.24303783866537
 20
174.6731540773823
 30
0.0
 10
55.44216317455216
 20
174.6731737723636
 30
0.0
 10
55.50436103646842
 20
174.6731799241962
 30
0.0
  0
SPLINE
  5
49
330
1F
100
AcDbEntity
  8
0
  6
Continuous
 62
     7
370
    30
100
AcDbSpline
210
0.0
220
0.0
230
1.0
 70
     8
 71
     3
 72
    15
 73
    11
 74
     0
 42
0.00000001
 43
0.00000001
 40
0.0
 40
0.0
 40
0.0
 40
0.0
 40
0.1127139729651397
 40
0.2722808872871139
 40
0.4224632336359006
 40
0.5689986441709269
 40
0.7304995596402936
 40
0.9110870472965056
 40
0.9946898407445708
 40
1.0
 40
1.0
 40
1.0
 40
1.0
 10
98.41974439029781
 20
174.6730514016809
 30
0.0
 10
98.47639534401719
 20
174.6730465097187
 30
0.0
 10
98.61324591842775
 20
174.6730346923034
 30
0.0
 10
98.78171831773516
 20
174.6730311818382
 30
0.0
 10
98.92189224677082
 20
174.6730314982483
 30
0.0
 10
98.99422389212636
 20
174.6730338844099
 30
0.0
 10
99.06410819805257
 20
174.6730357284713
 30
0.0
 10
99.12573394745485
 20
174.6730420476971
 30
0.0
 10
99.1548748861422
 20
174.6730429941044
 30
0.0
 10
99.1836265608749
 20
174.6730482913454
 30
0.0
 10
99.18534370069591
 20
174.6730486077132
 30
0.0
  0
SPLINE
  5
4A
330
1F
100
AcDbEntity
  8
0
  6
Continuous
 62
     7
370
    30
100
AcDbSpline
210
0.0
220
0.0
230
1.0
 70
     8
 71
     3
 72
    18
 73
    14
 74
     0
 42
0.00000001
 43
0.00000001
 40
0.0
 40
0.0
 40
0.0
 40
0.0
 40
0.0043698586924623
 40
0.1483448706708923
 40
0.2723878749278431
 40
0.3768101164286677
 40
0.4661576589585146
 40
0.5483810894946605
 40
0.6265817452670628
 40
0.7039229277902495
 40
0.7797816967787301
 40
0.9074202435862633
 40
0.9999999999999999
 40
0.9999999999999999
 40
0.9999999999999999
 40
0.9999999999999999
 10
53.94857177441207
 20
174.6730653715196
 30
0.0
 10
53.95643038858037
 20
174.6730606271231
 30
0.0
 10
54.2232090614142
 20
174.672899567708
 30
0.0
 10
54.69657143190165
 20
174.6731610967402
 30
0.0
 10
55.33195323039368
 20
174.6731987736251
 30
0.0
 10
55.83402499367921
 20
174.6731721617793
 30
0.0
 10
56.26429112955815
 20
174.6730882562814
 30
0.0
 10
56.73698913400388
 20
174.6730510842218
 30
0.0
 10
57.23848502748796
 20
174.6730366311539
 30
0.0
 10
57.76027839247229
 20
174.6730385477908
 30
0.0
 10
58.39178210238589
 20
174.67303945763
 30
0.0
 10
59.06263395235572
 20
174.6730404651013
 30
0.0
 10
59.56330021791418
 20
174.673042919339
 30
0.0
 10
59.77378027443973
 20
174.6730439511003
 30
0.0
  0
SPLINE
  5
4B
330
1F
100
AcDbEntity
  8
0
  6
Continuous
 62
     7
370
    30
100
AcDbSpline
210
0.0
220
0.0
230
1.0
 70
    24
 71
     3
 72
    15
 73
    11
 74
     0
 42
0.00000001
 43
0.00000001
 40
0.0
 40
0.0
 40
0.0
 40
0.0
 40
0.1250759991823432
 40
0.2500905710110397
 40
0.3750583581323111
 40
0.4999997766526594
 40
0.624941802165577
 40
0.7499090468989776
 40
0.8749237049481597
 40
1.0
 40
1.0
 40
1.0
 40
1.0
 10
57.81136440043537
 20
174.6730514016809
 30
0.0
 10
57.5497340899104
 20
174.6730514016809
 30
0.0
 10
57.02660196079908
 20
174.6730514016809
 30
0.0
 10
56.27215390193888
 20
174.6730514016809
 30
0.0
 10
55.57700963422234
 20
174.6730514016809
 30
0.0
 10
54.96805905482463
 20
174.6730514016809
 30
0.0
 10
54.46766185487826
 20
174.6730514016809
 30
0.0
 10
54.09870487642546
 20
174.6730514016809
 30
0.0
 10
53.86137937916067
 20
174.6730514016809
 30
0.0
 10
53.83169381320779
 20
174.6730514016809
 30
0.0
 10
53.81684737210361
 20
174.6730514016809
 30
0.0
  0
LINE
  5
4C
330
1F
100
AcDbEntity
  8
0
  6
Continuous
 62
     7
370
    30
100
AcDbLine
 10
95.1908266724
 20
174.6730514017
 30
0.0
 11
57.8113644004
 21
174.6730514017
 31
0.0
  0
SPLINE
  5
4D
330
1F
100
AcDbEntity
  8
0
  6
Continuous
 62
     7
370
    30
100
AcDbSpline
210
0.0
220
0.0
230
1.0
 70
    24
 71
     3
 72
    15
 73
    11
 74
     0
 42
0.00000001
 43
0.00000001
 40
0.0
 40
0.0
 40
0.0
 40
0.0
 40
0.1250762950518403
 40
0.2500909531010224
 40
0.375058197834423
 40
0.5000002233473406
 40
0.6249416418676889
 40
0.7499094289889603
 40
0.874924000817657
 40
1.0
 40
1.0
 40
1.0
 40
1.0
 10
99.18534370069591
 20
174.6730514016809
 30
0.0
 10
99.17049725959173
 20
174.6730514016809
 30
0.0
 10
99.14081169363887
 20
174.6730514016809
 30
0.0
 10
98.90348619637408
 20
174.6730514016809
 30
0.0
 10
98.53452921792127
 20
174.6730514016809
 30
0.0
 10
98.0341320179749
 20
174.6730514016809
 30
0.0
 10
97.42518143857717
 20
174.6730514016809
 30
0.0
 10
96.73003717086065
 20
174.6730514016809
 30
0.0
 10
95.97558911200045
 20
174.6730514016809
 30
0.0
 10
95.45245698288912
 20
174.6730514016809
 30
0.0
 10
95.19082667236415
 20
174.6730514016809
 30
0.0
  0
LINE
  5
4E
330
1F
100
AcDbEntity
  8
0
  6
Continuous
 62
     7
370
    30
100
AcDbLine
 10
46.8414201022
 20
261.173047885
 30
0.0
 11
51.8336238891
 21
261.173047885
 31
0.0
  0
ARC
  5
4F
330
1F
100
AcDbEntity
  8
0
  6
Continuous
 62
     7
370
    30
100
AcDbCircle
 10
46.8414195151
 20
259.6730509844
 30
0.0
 40
1.500000000000012
100
AcDbArc
 50
90.0
 51
183.2
  0
LINE
  5
50
330
1F
100
AcDbEntity
  8
0
  6
Continuous
 62
     7
370
    30
100
AcDbLine
 10
101.1685671837
 20
261.173047885
 30
0.0
 11
106.1607709706
 21
261.173047885
 31
0.0
  0
ARC
  5
51
330
1F
100
AcDbEntity
  8
0
  6
Continuous
 62
     7
370
    30
100
AcDbCircle
 10
106.1607715577
 20
259.6730509844
 30
0.0
 40
1.5
100
AcDbArc
 50
356.8
 51
90.0
  0
LINE
  5
52
330
1F
100
AcDbEntity
  8
0
  6
Continuous
 62
     7
370
    30
100
AcDbLine
 10
51.8336238891
 20
261.173047885
 30
0.0
 11
101.1685671837
 21
261.173047885
 31
0.0
  0
LINE
  5
53
330
1F
100
AcDbEntity
  8
0
  6
Continuous
 62
     7
370
    30
100
AcDbLine
 10
47.9947401762
 20
212.1730510292
 30
0.0
 11
45.3437584073
 21
259.5893152204
 31
0.0
  0
LINE
  5
54
330
1F
100
AcDbEntity
  8
0
  6
Continuous
 62
     7
370
    30
100
AcDbLine
 10
107.6584326655
 20
259.5893152204
 30
0.0
 11
105.0074508966
 21
212.1730510292
 31
0.0
  0
LINE
  5
55
330
1F
100
AcDbEntity
  8
0
  6
Continuous
 62
     7
370
    30
100
AcDbLine
 10
51.3202732981
 20
177.0422112343
 30
0.0
 11
50.6321153224
 21
190.1730510319
 31
0.0
  0
LINE
  5
56
330
1F
100
AcDbEntity
  8
0
  6
Continuous
 62
     7
370
    30
100
AcDbLine
 10
102.3700757504
 20
190.1730510319
 30
0.0
 11
101.6819177747
 21
177.0422112343
 31
0.0
  0
ARC
  5
57
330
1F
100
AcDbEntity
  8
0
  6
Continuous
 62
     7
370
    30
100
AcDbCircle
 10
99.1853440925
 20
177.1730509844
 30
0.0
 40
2.500000000000028
100
AcDbArc
 50
270.0
 51
357.0
  0
ARC
  5
58
330
1F
100
AcDbEntity
  8
0
  6
Continuous
 62
     7
370
    30
100
AcDbCircle
 10
53.8168469803
 20
177.1730509844
 30
0.0
 40
2.500000000000028
100
AcDbArc
 50
183.0
 51
270.0
  0
LINE
  5
59
330
1F
100
AcDbEntity
  8
0
  6
Continuous
 62
     7
370
    30
100
AcDbLine
 10
103.0010952235
 20
212.1730510292
 30
0.0
 11
109.0010943443
 21
212.1730510292
 31
0.0
  0
LINE
  5
5A
330
1F
100
AcDbEntity
  8
0
  6
Continuous
 62
     7
370
    30
100
AcDbLine
 10
109.0010943443
 20
212.1730510292
 30
0.0
 11
109.0010943443
 21
190.1730510319
 31
0.0
  0
LINE
  5
5B
330
1F
100
AcDbEntity
  8
0
  6
Continuous
 62
     7
370
    30
100
AcDbLine
 10
103.0010952235
 20
190.1730510319
 30
0.0
 11
109.0010943443
 21
190.1730510319
 31
0.0
  0
LINE
  5
5C
330
1F
100
AcDbEntity
  8
0
  6
Continuous
 62
     7
370
    30
100
AcDbLine
 10
44.0010967285
 20
212.1730510292
 30
0.0
 11
44.0010967285
 21
190.1730510319
 31
0.0
  0
LINE
  5
5D
330
1F
100
AcDbEntity
  8
0
  6
Continuous
 62
     7
370
    30
100
AcDbLine
 10
44.0010967285
 20
212.1730510292
 30
0.0
 11
50.0010958493
 21
212.1730510292
 31
0.0
  0
LINE
  5
5E
330
1F
100
AcDbEntity
  8
0
  6
Continuous
 62
     7
370
    30
100
AcDbLine
 10
44.0010967285
 20
190.1730510319
 30
0.0
 11
50.0010958493
 21
190.1730510319
 31
0.0
  0
LINE
  5
5F
330
1F
100
AcDbEntity
  8
0
  6
Continuous
 62
     7
370
    30
100
AcDbLine
 10
50.0010958493
 20
212.1730510292
 30
0.0
 11
103.0010952235
 21
212.1730510292
 31
0.0
  0
LINE
  5
60
330
1F
100
AcDbEntity
  8
0
  6
Continuous
 62
     7
370
    30
100
AcDbLine
 10
50.0010958493
 20
190.1730510319
 30
0.0
 11
103.0010952235
 21
190.1730510319
 31
0.0
  0
ELLIPSE
  5
61
330
1F
100
AcDbEntity
  8
0
  6
Continuous
 62
     7
370
    30
100
AcDbEllipse
 10
50.8010955364
 20
189.4224956345
 30
0.0
 11
0.3000000000000043
 21
0.0
 31
0.0
210
0.0
220
0.0
230
1.0
 40
0.5773502692
 41
2.047703340546757
 42
3.141592653589793
  0
LINE
  5
62
330
1F
100
AcDbEntity
  8
0
  6
Continuous
 62
     7
370
    30
100
AcDbLine
 10
50.501095
 20
189.422495637
 30
0.0
 11
50.501095
 21
189.8730509595
 31
0.0
  0
ARC
  5
63
330
1F
100
AcDbEntity
  8
0
  6
Continuous
 62
     7
370
    30
100
AcDbCircle
 10
50.8010955364
 20
189.8730509844
 30
0.0
 40
0.2999999999999972
100
AcDbArc
 50
123.6745284732
 51
180.0
  0
LINE
  5
64
330
1F
100
AcDbEntity
  8
0
  6
Continuous
 62
     7
370
    30
100
AcDbLine
 10
102.5010960728
 20
189.422495637
 30
0.0
 11
102.5010960728
 21
186.9730509964
 31
0.0
  0
ARC
  5
65
330
1F
100
AcDbEntity
  8
0
  6
Continuous
 62
     7
370
    30
100
AcDbCircle
 10
102.2010955364
 20
186.9730509844
 30
0.0
 40
0.2999999999999972
100
AcDbArc
 50
270.0
 51
0.0
  0
ELLIPSE
  5
66
330
1F
100
AcDbEntity
  8
0
  6
Continuous
 62
     7
370
    30
100
AcDbEllipse
 10
102.2010955364
 20
189.4224956345
 30
0.0
 11
0.2999999999999972
 21
0.0
 31
0.0
210
0.0
220
0.0
230
1.0
 40
0.5773502692
 41
0.0
 42
1.093889313042984
  0
ARC
  5
67
330
1F
100
AcDbEntity
  8
0
  6
Continuous
 62
     7
370
    30
100
AcDbCircle
 10
102.2010955364
 20
189.8730509844
 30
0.0
 40
0.2999999999999972
100
AcDbArc
 50
0.0
 51
56.3254715268
  0
LINE
  5
68
330
1F
100
AcDbEntity
  8
0
  6
Continuous
 62
     7
370
    30
100
AcDbLine
 10
102.5010960728
 20
189.8730509595
 30
0.0
 11
102.5010960728
 21
189.422495637
 31
0.0
  0
ARC
  5
69
330
1F
100
AcDbEntity
  8
0
  6
Continuous
 62
     7
370
    30
100
AcDbCircle
 10
50.8010955364
 20
186.9730509844
 30
0.0
 40
0.2999999999999972
100
AcDbArc
 50
180.0
 51
270.0
  0
LINE
  5
6A
330
1F
100
AcDbEntity
  8
0
  6
Continuous
 62
     7
370
    30
100
AcDbLine
 10
50.501095
 20
186.9730509964
 30
0.0
 11
50.501095
 21
189.422495637
 31
0.0
  0
LINE
  5
6B
330
1F
100
AcDbEntity
  8
0
  6
Continuous
 62
     7
370
    30
100
AcDbLine
 10
50.801096353
 20
186.6730510403
 30
0.0
 11
50.8155430288
 21
186.6730510403
 31
0.0
  0
LINE
  5
6C
330
1F
100
AcDbEntity
  8
0
  6
Continuous
 62
     7
370
    30
100
AcDbLine
 10
102.186648044
 20
186.6730510403
 30
0.0
 11
102.2010947198
 21
186.6730510403
 31
0.0
  0
LINE
  5
6D
330
1F
100
AcDbEntity
  8
0
  6
Continuous
 62
     7
370
    30
100
AcDbLine
 10
50.501095
 20
183.6730510143
 30
0.0
 11
50.501095
 21
186.9730509964
 31
0.0
  0
LINE
  5
6E
330
1F
100
AcDbEntity
  8
0
  6
Continuous
 62
     7
370
    30
100
AcDbLine
 10
102.5010960728
 20
186.9730509964
 30
0.0
 11
102.5010960728
 21
183.6730510143
 31
0.0
  0
LINE
  5
6F
330
1F
100
AcDbEntity
  8
0
  6
Continuous
 62
     7
370
    30
100
AcDbLine
 10
50.501095
 20
189.8730509595
 30
0.0
 11
50.501095
 21
190.1730510319
 31
0.0
  0
LINE
  5
70
330
1F
100
AcDbEntity
  8
0
  6
Continuous
 62
     7
370
    30
100
AcDbLine
 10
102.5010960728
 20
190.1730510319
 30
0.0
 11
102.5010960728
 21
189.8730509595
 31
0.0
  0
LINE
  5
71
330
1F
100
AcDbEntity
  8
0
  6
Continuous
 62
     7
370
    30
100
AcDbLine
 10
102.5010960728
 20
183.6730510143
 30
0.0
 11
102.5010960728
 21
168.473050758
 31
0.0
  0
LINE
  5
72
330
1F
100
AcDbEntity
  8
0
  6
Continuous
 62
     7
370
    30
100
AcDbLine
 10
50.501095
 20
168.473050758
 30
0.0
 11
50.501095
 21
183.6730510143
 31
0.0
  0
ARC
  5
73
330
1F
100
AcDbEntity
  8
0
  6
Continuous
 62
     7
370
    30
100
AcDbCircle
 10
102.2010955364
 20
168.4730509844
 30
0.0
 40
0.3000000000000398
100
AcDbArc
 50
270.0
 51
0.0
  0
ARC
  5
74
330
1F
100
AcDbEntity
  8
0
  6
Continuous
 62
     7
370
    30
100
AcDbCircle
 10
50.8010955364
 20
168.4730509844
 30
0.0
 40
0.3000000000000398
100
AcDbArc
 50
180.0
 51
270.0
  0
LINE
  5
75
330
1F
100
AcDbEntity
  8
0
  6
Continuous
 62
     7
370
    30
100
AcDbLine
 10
102.2010947198
 20
168.1730512676
 30
0.0
 11
50.801096353
 21
168.1730512676
 31
0.0
  0
LINE
  5
76
330
1F
100
AcDbEntity
  8
0
  6
Continuous
 62
     8
370
     0
100
AcDbLine
 10
51.8336238891
 20
259.5893152204
 30
0.0
 11
51.8336238891
 21
261.173047885
 31
0.0
  0
ELLIPSE
  5
77
330
1F
100
AcDbEntity
  8
0
  6
Continuous
 62
     8
370
     0
100
AcDbEllipse
 10
51.8492278693
 20
259.6730509844
 30
0.0
 11
6.505471085610083
 21
0.08368615031315585
 31
0.0
210
0.0
220
0.0
230
1.0
 40
0.0128381133
 41
3.142144869309495
 42
4.709825150640338
  0
ELLIPSE
  5
78
330
1F
100
AcDbEntity
  8
0
  6
Continuous
 62
     8
370
     0
100
AcDbEllipse
 10
101.1529632035
 20
259.6730509844
 30
0.0
 11
6.505471085610083
 21
-0.08368615031315585
 31
0.0
210
0.0
220
0.0
230
1.0
 40
0.0128381133
 41
4.714952810129043
 42
6.28263309146207
  0
LINE
  5
79
330
1F
100
AcDbEntity
  8
0
  6
Continuous
 62
     8
370
     0
100
AcDbLine
 10
101.1685671837
 20
259.5893152204
 30
0.0
 11
101.1685671837
 21
261.173047885
 31
0.0
  0
LINE
  5
7A
330
1F
100
AcDbEntity
  8
0
  6
Continuous
 62
     8
370
     0
100
AcDbLine
 10
101.1685671837
 20
259.5893152204
 30
0.0
 11
51.8336238891
 21
259.5893152204
 31
0.0
  0
LINE
  5
7B
330
1F
100
AcDbEntity
  8
0
  6
Continuous
 62
     8
370
     0
100
AcDbLine
 10
51.8336238891
 20
259.5893152204
 30
0.0
 11
54.4846037955
 21
212.1730510292
 31
0.0
  0
LINE
  5
7C
330
1F
100
AcDbEntity
  8
0
  6
Continuous
 62
     8
370
     0
100
AcDbLine
 10
98.5175872773
 20
212.1730510292
 30
0.0
 11
101.1685671837
 21
259.5893152204
 31
0.0
  0
ELLIPSE
  5
7D
330
1F
100
AcDbEntity
  8
0
  6
Continuous
 62
     8
370
     0
100
AcDbEllipse
 10
57.8223363643
 20
177.1730509844
 30
0.0
 11
6.502066286658682
 21
0.1307553256390008
 31
0.0
210
0.0
220
0.0
230
1.0
 40
0.020080808
 41
3.142240539981193
 42
4.710297811034361
  0
LINE
  5
7E
330
1F
100
AcDbEntity
  8
0
  6
Continuous
 62
     8
370
     0
100
AcDbLine
 10
57.1232064248
 20
190.1730510319
 30
0.0
 11
57.8113644004
 21
177.0422112343
 31
0.0
  0
ELLIPSE
  5
7F
330
1F
100
AcDbEntity
  8
0
  6
Continuous
 62
     8
370
     0
100
AcDbEllipse
 10
95.1798547085
 20
177.1730509844
 30
0.0
 11
6.502066286658675
 21
-0.1307553256390008
 31
0.0
210
0.0
220
0.0
230
1.0
 40
0.020080808
 41
4.71448014973502
 42
6.282537420789561
  0
LINE
  5
80
330
1F
100
AcDbEntity
  8
0
  6
Continuous
 62
     8
370
     0
100
AcDbLine
 10
95.1908266724
 20
177.0422112343
 30
0.0
 11
95.878984648
 21
190.1730510319
 31
0.0
  0
LINE
  5
81
330
1F
100
AcDbEntity
  8
0
  6
Continuous
 62
     8
370
     0
100
AcDbLine
 10
57.8113644004
 20
177.0422112343
 30
0.0
 11
95.1908266724
 21
177.0422112343
 31
0.0
  0
LINE
  5
82
330
1F
100
AcDbEntity
  8
0
  6
Continuous
 62
     8
370
     0
100
AcDbLine
 10
95.1908266724
 20
177.0422112343
 30
0.0
 11
95.1908266724
 21
174.6730514017
 31
0.0
  0
LINE
  5
83
330
1F
100
AcDbEntity
  8
0
  6
Continuous
 62
     8
370
     0
100
AcDbLine
 10
57.8113644004
 20
177.0422112343
 30
0.0
 11
57.8113644004
 21
174.6730514017
 31
0.0
  0
LINE
  5
84
330
1F
100
AcDbEntity
  8
0
  6
Continuous
 62
     8
370
     0
100
AcDbLine
 10
103.0010952235
 20
212.1730510292
 30
0.0
 11
103.0010952235
 21
190.1730510319
 31
0.0
  0
LINE
  5
85
330
1F
100
AcDbEntity
  8
0
  6
Continuous
 62
     8
370
     0
100
AcDbLine
 10
50.0010958493
 20
212.1730510292
 30
0.0
 11
50.0010958493
 21
190.1730510319
 31
0.0
  0
LINE
  5
86
330
1F
100
AcDbEntity
  8
0
  6
Continuous
 62
     8
370
     0
100
AcDbLine
 10
102.2010947198
 20
186.6730510403
 30
0.0
 11
102.2010947198
 21
186.9487099496
 31
0.0
  0
LINE
  5
87
330
1F
100
AcDbEntity
  8
0
  6
Continuous
 62
     8
370
     0
100
AcDbLine
 10
50.801096353
 20
186.9487099496
 30
0.0
 11
50.801096353
 21
186.6730510403
 31
0.0
  0
LINE
  5
88
330
1F
100
AcDbEntity
  8
0
  6
Continuous
 62
     8
370
     0
100
AcDbLine
 10
102.2010947198
 20
183.6730510143
 30
0.0
 11
102.2010947198
 21
186.6730510403
 31
0.0
  0
LINE
  5
89
330
1F
100
AcDbEntity
  8
0
  6
Continuous
 62
     8
370
     0
100
AcDbLine
 10
102.2010947198
 20
183.6730510143
 30
0.0
 11
102.0294258923
 21
183.6730510143
 31
0.0
  0
LINE
  5
8A
330
1F
100
AcDbEntity
  8
0
  6
Continuous
 62
     8
370
     0
100
AcDbLine
 10
50.9727651805
 20
183.6730510143
 30
0.0
 11
50.801096353
 21
183.6730510143
 31
0.0
  0
LINE
  5
8B
330
1F
100
AcDbEntity
  8
0
  6
Continuous
 62
     8
370
     0
100
AcDbLine
 10
50.801096353
 20
186.6730510403
 30
0.0
 11
50.801096353
 21
183.6730510143
 31
0.0
  0
LINE
  5
8C
330
1F
100
AcDbEntity
  8
0
  6
Continuous
 62
     8
370
     0
100
AcDbLine
 10
50.501095
 20
183.6730510143
 30
0.0
 11
50.801096353
 21
183.6730510143
 31
0.0
  0
LINE
  5
8D
330
1F
100
AcDbEntity
  8
0
  6
Continuous
 62
     8
370
     0
100
AcDbLine
 10
102.5010960728
 20
183.6730510143
 30
0.0
 11
102.2010947198
 21
183.6730510143
 31
0.0
  0
LINE
  5
8E
330
1F
100
AcDbEntity
  8
0
  6
Continuous
 62
     8
370
     0
100
AcDbLine
 10
102.5010960728
 20
168.473050758
 30
0.0
 11
102.2010947198
 21
168.473050758
 31
0.0
  0
LINE
  5
8F
330
1F
100
AcDbEntity
  8
0
  6
Continuous
 62
     8
370
     0
100
AcDbLine
 10
102.2010947198
 20
168.473050758
 30
0.0
 11
102.2010947198
 21
183.6730510143
 31
0.0
  0
LINE
  5
90
330
1F
100
AcDbEntity
  8
0
  6
Continuous
 62
     8
370
     0
100
AcDbLine
 10
50.801096353
 20
183.6730510143
 30
0.0
 11
50.801096353
 21
168.473050758
 31
0.0
  0
LINE
  5
91
330
1F
100
AcDbEntity
  8
0
  6
Continuous
 62
     8
370
     0
100
AcDbLine
 10
50.501095
 20
168.473050758
 30
0.0
 11
50.801096353
 21
168.473050758
 31
0.0
  0
LINE
  5
92
330
1F
100
AcDbEntity
  8
0
  6
Continuous
 62
     8
370
     0
100
AcDbLine
 10
102.2010947198
 20
168.1730512676
 30
0.0
 11
102.2010947198
 21
168.473050758
 31
0.0
  0
LINE
  5
93
330
1F
100
AcDbEntity
  8
0
  6
Continuous
 62
     8
370
     0
100
AcDbLine
 10
50.801096353
 20
168.1730512676
 30
0.0
 11
50.801096353
 21
168.473050758
 31
0.0
  0
LINE
  5
94
330
1F
100
AcDbEntity
  8
0
  6
Continuous
 62
     8
370
     0
100
AcDbLine
 10
50.801096353
 20
168.473050758
 30
0.0
 11
102.2010947198
 21
168.473050758
 31
0.0
  0
DIMENSION
  5
95
330
1F
100
AcDbEntity
  8
0
  6
Continuous
 62
     7
370
     0
100
AcDbDimension
  2
*D1
 10
33.8723804467
 20
168.1730509844
 30
0.0
 11
33.8723804467
 21
212.9376943019
 31
0.0
 70
   160
  1
(<>)
 71
     2
 42
-1.0
  3
SLDDIMSTYLE0
100
AcDbAlignedDimension
 13
46.8414195151
 23
261.1730509844
 33
0.0
 14
50.8010955364
 24
168.1730509844
 34
0.0
 50
90.0
100
AcDbRotatedDimension
  0
LINE
  5
A3
330
1F
100
AcDbEntity
  8
0
  6
CENTER
 62
     7
370
     0
100
AcDbLine
 10
76.5010955364
 20
278.5552422205
 30
0.0
 11
76.5010955364
 21
150.672075476
 31
0.0
  0
LINE
  5
A4
330
1F
100
AcDbEntity
  8
0
  6
Continuous
 62
     7
370
     0
100
AcDbLine
 10
64.5010955364
 20
276.5552422205
 30
0.0
 11
76.5010955364
 21
276.5552422205
 31
0.0
  0
SOLID
  5
A5
330
1F
100
AcDbEntity
  8
0
  6
Continuous
 62
     7
370
     0
100
AcDbTrace
 10
76.5010955364
 20
276.5552422205
 30
0.0
 11
70.5010955364
 21
278.0552422205
 31
0.0
 12
70.5010955364
 22
275.0552422205
 32
0.0
 13
70.5010955364
 23
275.0552422205
 33
0.0
  0
LINE
  5
A6
330
1F
100
AcDbEntity
  8
0
  6
Continuous
 62
     7
370
     0
100
AcDbLine
 10
64.5010955364
 20
152.672075476
 30
0.0
 11
76.5010955364
 21
152.672075476
 31
0.0
  0
SOLID
  5
A7
330
1F
100
AcDbEntity
  8
0
  6
Continuous
 62
     7
370
     0
100
AcDbTrace
 10
76.5010955364
 20
152.672075476
 30
0.0
 11
70.5010955364
 21
154.172075476
 31
0.0
 12
70.5010955364
 22
151.172075476
 32
0.0
 13
70.5010955364
 23
151.172075476
 33
0.0
  0
MTEXT
  5
A8
330
1F
100
AcDbEntity
  8
0
  6
Continuous
 62
     7
100
AcDbMText
 10
59.1918942795
 20
279.461497357
 30
0.0
 40
5.0
 41
0.0
 71
     1
 72
     1
  1
A
  7
SLDTEXTSTYLE0
 73
     1
 44
1.0
  0
MTEXT
  5
A9
330
1F
100
AcDbEntity
  8
0
  6
Continuous
 62
     7
100
AcDbMText
 10
58.8738741154
 20
154.7463296907
 30
0.0
 40
5.0
 41
0.0
 71
     1
 72
     1
  1
A
  7
SLDTEXTSTYLE0
 73
     1
 44
1.0
  0
LINE
  5
AA
330
1F
100
AcDbEntity
  8
0
  6
Continuous
 62
     7
370
    30
100
AcDbLine
 10
101.1685671837
 20
102.5433320878
 30
0.0
 11
51.8336238891
 21
102.5433320878
 31
0.0
  0
SPLINE
  5
AB
330
1F
100
AcDbEntity
  8
0
  6
Continuous
 62
     7
370
    30
100
AcDbSpline
210
0.0
220
0.0
230
1.0
 70
     8
 71
     3
 72
    28
 73
    24
 74
     0
 42
0.00000001
 43
0.00000001
 40
0.0
 40
0.0
 40
0.0
 40
0.0
 40
0.0301409041431493
 40
0.0804217582758628
 40
0.1306980362282275
 40
0.1809610421843805
 40
0.2312113949876533
 40
0.2814501121280053
 40
0.3316791005508564
 40
0.3818999124534475
 40
0.4321143313497498
 40
0.4823244899436541
 40
0.5325327027548598
 40
0.5827408405495603
 40
0.6329507945419303
 40
0.683164476389014
 40
0.7333841738838905
 40
0.7836118330578301
 40
0.833848972040863
 40
0.8840972137062449
 40
0.9343580133416668
 40
0.9846322258217036
 40
1.0
 40
1.0
 40
1.0
 40
1.0
 10
51.83362388913719
 20
102.5433320877594
 30
0.0
 10
51.73117418946592
 20
102.5418846565763
 30
0.0
 10
51.45781858794625
 20
102.5380226304017
 30
0.0
 10
51.01477497290353
 20
102.4980248865277
 30
0.0
 10
50.50865516515981
 20
102.4139441511014
 30
0.0
 10
50.01086080648058
 20
102.2896696614138
 30
0.0
 10
49.52452867879126
 20
102.1267337104972
 30
0.0
 10
49.05266476082858
 20
101.9259643820747
 30
0.0
 10
48.59819337430399
 20
101.6886629071342
 30
0.0
 10
48.16392694671699
 20
101.4162925458856
 30
0.0
 10
47.75254794499575
 20
101.1105569101062
 30
0.0
 10
47.36660560727371
 20
100.773345123124
 30
0.0
 10
47.00848204252259
 20
100.4067545741144
 30
0.0
 10
46.68039330359795
 20
100.0130562334786
 30
0.0
 10
46.3843749179336
 20
99.59468749502138
 30
0.0
 10
46.12224940788061
 20
99.15424451826499
 30
0.0
 10
45.89565269553162
 20
98.69444635386375
 30
0.0
 10
45.70597261194749
 20
98.21814119534517
 30
0.0
 10
45.55442584557672
 20
97.72827595174456
 30
0.0
 10
45.44182692767
 20
97.2278746364745
 30
0.0
 10
45.36935740250026
 20
96.72006203910192
 30
0.0
 10
45.3434843382926
 20
96.32646513137935
 30
0.0
 10
45.34181073955643
 20
96.10336100937108
 30
0.0
 10
45.34141892497627
 20
96.05112898624363
 30
0.0
  0
SPLINE
  5
AC
330
1F
100
AcDbEntity
  8
0
  6
Continuous
 62
     7
370
    30
100
AcDbSpline
210
0.0
220
0.0
230
1.0
 70
     8
 71
     3
 72
    28
 73
    24
 74
     0
 42
0.00000001
 43
0.00000001
 40
0.0
 40
0.0
 40
0.0
 40
0.0
 40
0.0301407260677985
 40
0.0804215805928182
 40
0.1306980391160451
 40
0.1809608682185365
 40
0.2312111633714683
 40
0.2814501205161181
 40
0.3316791093308707
 40
0.3818998245634495
 40
0.4321140972345147
 40
0.4823243937839147
 40
0.5325326069868599
 40
0.5827408855074709
 40
0.6329506907698794
 40
0.6831644365638472
 40
0.7333841344505527
 40
0.7836116243028438
 40
0.8338487636778418
 40
0.8840972240374942
 40
0.934358024065066
 40
0.9846320430395787
 40
1.0
 40
1.0
 40
1.0
 40
1.0
 10
107.6607721478233
 20
96.05112898624363
 30
0.0
 10
107.6593239650924
 20
96.15357806349655
 30
0.0
 10
107.6554599193509
 20
96.42693301534554
 30
0.0
 10
107.615463090077
 20
96.86997660765822
 30
0.0
 10
107.5313829733925
 20
97.37609664015162
 30
0.0
 10
107.4071068834252
 20
97.87389031443865
 30
0.0
 10
107.244174362114
 20
98.36022361196099
 30
0.0
 10
107.0434025900907
 20
98.83208728836989
 30
0.0
 10
106.8061008028566
 20
99.28655887499174
 30
0.0
 10
106.5337335549328
 20
99.72082638957735
 30
0.0
 10
106.2279956027547
 20
100.1322032354909
 30
0.0
 10
105.8907858672809
 20
100.5181471876986
 30
0.0
 10
105.5241945369958
 20
100.876271532691
 30
0.0
 10
105.130494610338
 20
101.2043581329189
 30
0.0
 10
104.7121277135555
 20
101.5003795391873
 30
0.0
 10
104.2716823735016
 20
101.7625006577783
 30
0.0
 10
103.8118851239409
 20
101.9890980537826
 30
0.0
 10
103.3355807924125
 20
102.178778878907
 30
0.0
 10
102.8457151724315
 20
102.3303248690114
 30
0.0
 10
102.345313670475
 20
102.442926146629
 30
0.0
 10
101.8375009049498
 20
102.5153959708189
 30
0.0
 10
101.4439039044499
 20
102.5412665843225
 30
0.0
 10
101.2207998262958
 20
102.542940252255
 30
0.0
 10
101.1685671836623
 20
102.5433320877594
 30
0.0
  0
LINE
  5
AD
330
1F
100
AcDbEntity
  8
0
  6
Continuous
 62
     7
370
    30
100
AcDbLine
 10
45.341418925
 20
96.0511289862
 30
0.0
 11
45.341418925
 21
46.7161819664
 31
0.0
  0
LINE
  5
AE
330
1F
100
AcDbEntity
  8
0
  6
Continuous
 62
     7
370
    30
100
AcDbLine
 10
107.6607721478
 20
46.7161819664
 30
0.0
 11
107.6607721478
 21
96.0511289862
 31
0.0
  0
SPLINE
  5
AF
330
1F
100
AcDbEntity
  8
0
  6
Continuous
 62
     7
370
    30
100
AcDbSpline
210
0.0
220
0.0
230
1.0
 70
     8
 71
     3
 72
    28
 73
    24
 74
     0
 42
0.00000001
 43
0.00000001
 40
0.0
 40
0.0
 40
0.0
 40
0.0
 40
0.0301403636171563
 40
0.080421586790432
 40
0.130697869802945
 40
0.1809610580637942
 40
0.2312111846729742
 40
0.2814501464820366
 40
0.3316791399602764
 40
0.3818998598555741
 40
0.4321142838057987
 40
0.4823245850169504
 40
0.5325322922713971
 40
0.5827405754535724
 40
0.6329505964053475
 40
0.6831645337089773
 40
0.7333842362583074
 40
0.783611663189795
 40
0.8338487532326219
 40
0.8840972182575693
 40
0.9343580229515815
 40
0.9846320350040247
 40
1.0
 40
1.0
 40
1.0
 40
1.0
 10
45.34141892497627
 20
46.71618196642819
 30
0.0
 10
45.34286716300804
 20
46.61373413532203
 30
0.0
 10
45.34673140306982
 20
46.34037920021083
 30
0.0
 10
45.386727389834
 20
45.89733612013678
 30
0.0
 10
45.47080897654333
 20
45.39121451444787
 30
0.0
 10
45.59508312141977
 20
44.89342034193571
 30
0.0
 10
45.75801721503375
 20
44.40708687986774
 30
0.0
 10
45.95878842535514
 20
43.93522365254495
 30
0.0
 10
46.19609022583874
 20
43.48075204330841
 30
0.0
 10
46.46845801661986
 20
43.04648428969831
 30
0.0
 10
46.77419519085912
 20
42.63510636517105
 30
0.0
 10
47.11140278806375
 20
42.24916189478626
 30
0.0
 10
47.47799904885974
 20
41.8910450662134
 30
0.0
 10
47.87169715711695
 20
41.56295824526246
 30
0.0
 10
48.29006331674518
 20
41.26693346768415
 30
0.0
 10
48.73050773150037
 20
41.00480805170404
 30
0.0
 10
49.19030567746158
 20
40.77821090629894
 30
0.0
 10
49.66661033713052
 20
40.58853202942745
 30
0.0
 10
50.15647621195902
 20
40.43698817779428
 30
0.0
 10
50.65687738515363
 20
40.32438730563879
 30
0.0
 10
51.16469006507919
 20
40.25191402928214
 30
0.0
 10
51.55828730647779
 20
40.22605376551935
 30
0.0
 10
51.78139125129501
 20
40.22437097397195
 30
0.0
 10
51.83362388913719
 20
40.22397700226727
 30
0.0
  0
SPLINE
  5
B0
330
1F
100
AcDbEntity
  8
0
  6
Continuous
 62
     7
370
    30
100
AcDbSpline
210
0.0
220
0.0
230
1.0
 70
     8
 71
     3
 72
    28
 73
    24
 74
     0
 42
0.00000001
 43
0.00000001
 40
0.0
 40
0.0
 40
0.0
 40
0.0
 40
0.0301409267353356
 40
0.0804217423293595
 40
0.1306981194743305
 40
0.1809610901117009
 40
0.2312112776749123
 40
0.281450075217775
 40
0.3316793261834221
 40
0.381899952842938
 40
0.4321142716517996
 40
0.4823244391240011
 40
0.5325325301419931
 40
0.582740817148829
 40
0.6329506308977203
 40
0.6831649495394455
 40
0.733384655914306
 40
0.7836119845425915
 40
0.8338493069214453
 40
0.8840977356969287
 40
0.9343580017346717
 40
0.984632223104332
 40
1.0
 40
1.0
 40
1.0
 40
1.0
 10
101.1685671836623
 20
40.22397700226727
 30
0.0
 10
101.2710168339034
 20
40.22542778715788
 30
0.0
 10
101.5443720444373
 20
40.22929875800335
 30
0.0
 10
101.9874171120902
 20
40.26928080416215
 30
0.0
 10
102.4935350730369
 20
40.35337531270989
 30
0.0
 10
102.9913294922696
 20
40.47764535256641
 30
0.0
 10
103.4776637040178
 20
40.6405741302335
 30
0.0
 10
103.9495274617169
 20
40.84134595961946
 30
0.0
 10
104.403995127914
 20
41.07865507382056
 30
0.0
 10
104.8382648096244
 20
41.35101957110735
 30
0.0
 10
105.2496436432858
 20
41.65675408948434
 30
0.0
 10
105.6355846364161
 20
41.99396598564881
 30
0.0
 10
105.993710495536
 20
42.36055447386299
 30
0.0
 10
106.321796117241
 20
42.75425471912573
 30
0.0
 10
106.6178192172808
 20
43.17262276727569
 30
0.0
 10
106.8799394821867
 20
43.61307088561517
 30
0.0
 10
107.1065377571056
 20
44.07286911574102
 30
0.0
 10
107.2962195452677
 20
44.54917309310025
 30
0.0
 10
107.4477651594467
 20
45.03903878835807
 30
0.0
 10
107.560363332461
 20
45.5394395460351
 30
0.0
 10
107.6328341560011
 20
46.04725070500131
 30
0.0
 10
107.65870671158
 20
46.44084582448721
 30
0.0
 10
107.6603803288938
 20
46.66394994390677
 30
0.0
 10
107.6607721478233
 20
46.71618196642819
 30
0.0
  0
LINE
  5
B1
330
1F
100
AcDbEntity
  8
0
  6
Continuous
 62
     7
370
    30
100
AcDbLine
 10
51.8336238891
 20
40.2239770023
 30
0.0
 11
101.1685671837
 21
40.2239770023
 31
0.0
  0
LINE
  5
B2
330
1F
100
AcDbEntity
  8
0
  6
Continuous
 62
     7
370
    30
100
AcDbLine
 10
54.0010946423
 20
127.8836563555
 30
0.0
 11
54.0010946423
 21
128.5836563305
 31
0.0
  0
LINE
  5
B3
330
1F
100
AcDbEntity
  8
0
  6
Continuous
 62
     7
370
    30
100
AcDbLine
 10
54.0010946423
 20
128.5836563305
 30
0.0
 11
61.0010957897
 21
128.5836563305
 31
0.0
  0
LINE
  5
B4
330
1F
100
AcDbEntity
  8
0
  6
Continuous
 62
     7
370
    30
100
AcDbLine
 10
99.0010964305
 20
128.5836563305
 30
0.0
 11
99.0010964305
 21
127.8836563555
 31
0.0
  0
LINE
  5
B5
330
1F
100
AcDbEntity
  8
0
  6
Continuous
 62
     7
370
    30
100
AcDbLine
 10
92.0010952831
 20
128.5836563305
 30
0.0
 11
99.0010964305
 21
128.5836563305
 31
0.0
  0
LINE
  5
B6
330
1F
100
AcDbEntity
  8
0
  6
Continuous
 62
     7
370
    30
100
AcDbLine
 10
92.0010952831
 20
128.5836563305
 30
0.0
 11
61.0010957897
 21
128.5836563305
 31
0.0
  0
LINE
  5
B7
330
1F
100
AcDbEntity
  8
0
  6
Continuous
 62
     7
370
    30
100
AcDbLine
 10
73.5959672455
 20
103.1528864381
 30
0.0
 11
73.1339944613
 21
102.5433320878
 31
0.0
  0
LINE
  5
B8
330
1F
100
AcDbEntity
  8
0
  6
Continuous
 62
     7
370
    30
100
AcDbLine
 10
73.5959672455
 20
103.3836569963
 30
0.0
 11
73.5959672455
 21
103.1528864381
 31
0.0
  0
LINE
  5
B9
330
1F
100
AcDbEntity
  8
0
  6
Continuous
 62
     7
370
    30
100
AcDbLine
 10
72.2113520459
 20
103.3836569963
 30
0.0
 11
73.5959672455
 21
103.3836569963
 31
0.0
  0
LINE
  5
BA
330
1F
100
AcDbEntity
  8
0
  6
Continuous
 62
     7
370
    30
100
AcDbLine
 10
72.2113520459
 20
103.1528864381
 30
0.0
 11
72.2113520459
 21
103.3836569963
 31
0.0
  0
LINE
  5
BB
330
1F
100
AcDbEntity
  8
0
  6
Continuous
 62
     7
370
    30
100
AcDbLine
 10
73.2422013388
 20
103.1528864381
 30
0.0
 11
72.2113520459
 21
103.1528864381
 31
0.0
  0
SPLINE
  5
BC
330
1F
100
AcDbEntity
  8
0
  6
Continuous
 62
     7
370
    30
100
AcDbSpline
210
0.0
220
0.0
230
1.0
 70
     8
 71
     3
 72
     9
 73
     5
 74
     0
 42
0.00000001
 43
0.00000001
 40
0.0
 40
0.0
 40
0.0
 40
0.0
 40
0.5600019187128634
 40
1.0
 40
1.0
 40
1.0
 40
1.0
 10
73.06792247970787
 20
102.9233191487831
 30
0.0
 10
73.10043740397045
 20
102.9661849458341
 30
0.0
 10
73.1584995697882
 20
103.0427307497297
 30
0.0
 10
73.21662587568852
 20
103.1192278574948
 30
0.0
 10
73.24220133875696
 20
103.1528864381355
 30
0.0
  0
LINE
  5
BD
330
1F
100
AcDbEntity
  8
0
  6
Continuous
 62
     7
370
    30
100
AcDbLine
 10
72.7799146988
 20
102.5433320878
 30
0.0
 11
73.0679224797
 21
102.9233191488
 31
0.0
  0
LINE
  5
BE
330
1F
100
AcDbEntity
  8
0
  6
Continuous
 62
     7
370
    30
100
AcDbLine
 10
69.5627139502
 20
103.3836569963
 30
0.0
 11
69.8963523463
 21
102.5433320878
 31
0.0
  0
LINE
  5
BF
330
1F
100
AcDbEntity
  8
0
  6
Continuous
 62
     7
370
    30
100
AcDbLine
 10
69.244605358
 20
103.3836569963
 30
0.0
 11
69.5627139502
 21
103.3836569963
 31
0.0
  0
LINE
  5
C0
330
1F
100
AcDbEntity
  8
0
  6
Continuous
 62
     7
370
    30
100
AcDbLine
 10
68.9109669619
 20
102.5433320878
 30
0.0
 11
69.244605358
 21
103.3836569963
 31
0.0
  0
SPLINE
  5
C1
330
1F
100
AcDbEntity
  8
0
  6
Continuous
 62
     7
370
    30
100
AcDbSpline
210
0.0
220
0.0
230
1.0
 70
     8
 71
     3
 72
    12
 73
     8
 74
     0
 42
0.00000001
 43
0.00000001
 40
0.0
 40
0.0
 40
0.0
 40
0.0
 40
0.2141366021508467
 40
0.4276813141165708
 40
0.6414442876307703
 40
0.8939711890942765
 40
1.0
 40
1.0
 40
1.0
 40
1.0
 10
65.52946088765947
 20
103.1785276112598
 30
0.0
 10
65.45881976208085
 20
103.1736625468886
 30
0.0
 10
65.31773276847639
 20
103.1639458655615
 30
0.0
 10
65.12809757572592
 20
103.0567213312398
 30
0.0
 10
64.98847838146463
 20
102.8778847916075
 30
0.0
 10
64.929793730175
 20
102.6950642717011
 30
0.0
 10
64.92077506920363
 20
102.5779608414812
 30
0.0
 10
64.91810815339176
 20
102.5433320877594
 30
0.0
  0
SPLINE
  5
C2
330
1F
100
AcDbEntity
  8
0
  6
Continuous
 62
     7
370
    30
100
AcDbSpline
210
0.0
220
0.0
230
1.0
 70
     8
 71
     3
 72
    11
 73
     7
 74
     0
 42
0.00000001
 43
0.00000001
 40
0.0
 40
0.0
 40
0.0
 40
0.0
 40
0.2805717611182546
 40
0.5596957255492381
 40
0.7796345422669373
 40
1.0
 40
1.0
 40
1.0
 40
1.0
 10
66.03186471318094
 20
102.7674697665018
 30
0.0
 10
66.00976008359869
 20
102.8296887324203
 30
0.0
 10
65.96566488797842
 20
102.9538056041035
 30
0.0
 10
65.84195192287656
 20
103.0964885202301
 30
0.0
 10
65.68487105148708
 20
103.169192808787
 30
0.0
 10
65.58129772870113
 20
103.1754140010556
 30
0.0
 10
65.52946088765947
 20
103.1785276112598
 30
0.0
  0
LINE
  5
C3
330
1F
100
AcDbEntity
  8
0
  6
Continuous
 62
     7
370
    30
100
AcDbLine
 10
66.3139157549
 20
102.8279666183
 30
0.0
 11
66.0318647132
 21
102.7674697665
 31
0.0
  0
SPLINE
  5
C4
330
1F
100
AcDbEntity
  8
0
  6
Continuous
 62
     7
370
    30
100
AcDbSpline
210
0.0
220
0.0
230
1.0
 70
     8
 71
     3
 72
    11
 73
     7
 74
     0
 42
0.00000001
 43
0.00000001
 40
0.0
 40
0.0
 40
0.0
 40
0.0
 40
0.280058760725824
 40
0.5593789346205003
 40
0.7795538218609449
 40
1.0
 40
1.0
 40
1.0
 40
1.0
 10
65.5430824116358
 20
103.4092981693787
 30
0.0
 10
65.64106173724804
 20
103.4020582618842
 30
0.0
 10
65.83676199184382
 20
103.3875975403896
 30
0.0
 10
66.07748900044263
 20
103.243451657752
 30
0.0
 10
66.23764742421363
 20
103.0458329206748
 30
0.0
 10
66.28848254492587
 20
102.900618521985
 30
0.0
 10
66.31391575490323
 20
102.8279666183037
 30
0.0
  0
SPLINE
  5
C5
330
1F
100
AcDbEntity
  8
0
  6
Continuous
 62
     7
370
    30
100
AcDbSpline
210
0.0
220
0.0
230
1.0
 70
     8
 71
     3
 72
    12
 73
     8
 74
     0
 42
0.00000001
 43
0.00000001
 40
0.0
 40
0.0
 40
0.0
 40
0.0
 40
0.1019644775096677
 40
0.308416824131702
 40
0.5145287038493209
 40
0.7570849666945287
 40
0.9999999999999999
 40
0.9999999999999999
 40
0.9999999999999999
 40
0.9999999999999999
 10
64.63596863602487
 20
102.5433320877594
 30
0.0
 10
64.63909656973807
 20
102.5905519186639
 30
0.0
 10
64.64855778020548
 20
102.7333799960423
 30
0.0
 10
64.73443962537226
 20
102.9611718540704
 30
0.0
 10
64.91745948281554
 20
103.2081662157024
 30
0.0
 10
65.2043060140093
 20
103.3780092577727
 30
0.0
 10
65.43010132373703
 20
103.3988633950048
 30
0.0
 10
65.5430824116358
 20
103.4092981693787
 30
0.0
  0
LINE
  5
C6
330
1F
100
AcDbEntity
  8
0
  6
Continuous
 62
     7
370
    30
100
AcDbLine
 10
61.1600697592
 20
102.8760433523
 30
0.0
 11
61.1600697592
 21
102.5433320878
 31
0.0
  0
LINE
  5
C7
330
1F
100
AcDbEntity
  8
0
  6
Continuous
 62
     7
370
    30
100
AcDbLine
 10
61.3737198145
 20
102.5433320878
 30
0.0
 11
61.1600697592
 21
102.8760433523
 31
0.0
  0
LINE
  5
C8
330
1F
100
AcDbEntity
  8
0
  6
Continuous
 62
     7
370
    30
100
AcDbLine
 10
62.4164797917
 20
103.3836569963
 30
0.0
 11
62.4164797917
 21
102.5433320878
 31
0.0
  0
LINE
  5
C9
330
1F
100
AcDbEntity
  8
0
  6
Continuous
 62
     7
370
    30
100
AcDbLine
 10
62.13442875
 20
103.3836569963
 30
0.0
 11
62.4164797917
 21
103.3836569963
 31
0.0
  0
LINE
  5
CA
330
1F
100
AcDbEntity
  8
0
  6
Continuous
 62
     7
370
    30
100
AcDbLine
 10
62.13442875
 20
102.5433320878
 30
0.0
 11
62.13442875
 21
103.3836569963
 31
0.0
  0
LINE
  5
CB
330
1F
100
AcDbEntity
  8
0
  6
Continuous
 62
     7
370
    30
100
AcDbLine
 10
61.1760959581
 20
103.3836569963
 30
0.0
 11
61.7157079831
 21
102.5433320878
 31
0.0
  0
LINE
  5
CC
330
1F
100
AcDbEntity
  8
0
  6
Continuous
 62
     7
370
    30
100
AcDbLine
 10
60.8780187175
 20
103.3836569963
 30
0.0
 11
61.1760959581
 21
103.3836569963
 31
0.0
  0
LINE
  5
CD
330
1F
100
AcDbEntity
  8
0
  6
Continuous
 62
     7
370
    30
100
AcDbLine
 10
60.8780187175
 20
102.5433320878
 30
0.0
 11
60.8780187175
 21
103.3836569963
 31
0.0
  0
SPLINE
  5
CE
330
1F
100
AcDbEntity
  8
0
  6
Continuous
 62
     7
370
    30
100
AcDbSpline
210
0.0
220
0.0
230
1.0
 70
     8
 71
     3
 72
    10
 73
     6
 74
     0
 42
0.00000001
 43
0.00000001
 40
0.0
 40
0.0
 40
0.0
 40
0.0
 40
0.3357143923082337
 40
0.6718785314927602
 40
1.0
 40
1.0
 40
1.0
 40
1.0
 10
58.359989765335
 20
103.2117814151091
 30
0.0
 10
58.41850289268211
 20
103.1508282339605
 30
0.0
 10
58.53560753572319
 20
103.0288402144469
 30
0.0
 10
58.63512743696163
 20
102.791757076254
 30
0.0
 10
58.64755123644516
 20
102.6254693215556
 30
0.0
 10
58.65368792717544
 20
102.5433320877594
 30
0.0
  0
SPLINE
  5
CF
330
1F
100
AcDbEntity
  8
0
  6
Continuous
 62
     7
370
    30
100
AcDbSpline
210
0.0
220
0.0
230
1.0
 70
     8
 71
     3
 72
     9
 73
     5
 74
     0
 42
0.00000001
 43
0.00000001
 40
0.0
 40
0.0
 40
0.0
 40
0.0
 40
0.559864560460447
 40
1.0
 40
1.0
 40
1.0
 40
1.0
 10
58.06912468676654
 20
103.3548102108282
 30
0.0
 10
58.12832801456946
 20
103.3377615688219
 30
0.0
 10
58.23407381807991
 20
103.3073102003834
 30
0.0
 10
58.3215072245485
 20
103.2409770051494
 30
0.0
 10
58.359989765335
 20
103.2117814151091
 30
0.0
  0
SPLINE
  5
D0
330
1F
100
AcDbEntity
  8
0
  6
Continuous
 62
     7
370
    30
100
AcDbSpline
210
0.0
220
0.0
230
1.0
 70
     8
 71
     3
 72
     9
 73
     5
 74
     0
 42
0.00000001
 43
0.00000001
 40
0.0
 40
0.0
 40
0.0
 40
0.0
 40
0.5601592088221826
 40
1.0
 40
1.0
 40
1.0
 40
1.0
 10
57.71575855021564
 20
103.3836569962543
 30
0.0
 10
57.7821892553907
 20
103.3833785613533
 30
0.0
 10
57.90078179859774
 20
103.3828814974889
 30
0.0
 10
58.01769950866699
 20
103.3633853928969
 30
0.0
 10
58.06912468676654
 20
103.3548102108282
 30
0.0
  0
LINE
  5
D1
330
1F
100
AcDbEntity
  8
0
  6
Continuous
 62
     7
370
    30
100
AcDbLine
 10
57.0318641693
 20
103.3836569963
 30
0.0
 11
57.7157585502
 21
103.3836569963
 31
0.0
  0
LINE
  5
D2
330
1F
100
AcDbEntity
  8
0
  6
Continuous
 62
     7
370
    30
100
AcDbLine
 10
57.0318641693
 20
102.5433320878
 30
0.0
 11
57.0318641693
 21
103.3836569963
 31
0.0
  0
SPLINE
  5
D3
330
1F
100
AcDbEntity
  8
0
  6
Continuous
 62
     7
370
    30
100
AcDbSpline
210
0.0
220
0.0
230
1.0
 70
     8
 71
     3
 72
    10
 73
     6
 74
     0
 42
0.00000001
 43
0.00000001
 40
0.0
 40
0.0
 40
0.0
 40
0.0
 40
0.4187839345698156
 40
0.8378263541400442
 40
1.0
 40
1.0
 40
1.0
 40
1.0
 10
54.4421205848941
 20
102.8652269718689
 30
0.0
 10
54.43590301104724
 20
102.8142040474749
 30
0.0
 10
54.42346402569536
 20
102.7121267059302
 30
0.0
 10
54.36568420518504
 20
102.5942965268861
 30
0.0
 10
54.30563722306567
 20
102.554450198189
 30
0.0
 10
54.28888263111202
 20
102.5433320877594
 30
0.0
  0
SPLINE
  5
D4
330
1F
100
AcDbEntity
  8
0
  6
Continuous
 62
     7
370
    30
100
AcDbSpline
210
0.0
220
0.0
230
1.0
 70
     8
 71
     3
 72
    11
 73
     7
 74
     0
 42
0.00000001
 43
0.00000001
 40
0.0
 40
0.0
 40
0.0
 40
0.0
 40
0.2811887380733324
 40
0.5600174067979411
 40
0.7800678094592546
 40
1.0
 40
1.0
 40
1.0
 40
1.0
 10
53.78066362743465
 20
103.3836569962543
 30
0.0
 10
53.86945271533622
 20
103.3807622972859
 30
0.0
 10
54.04628566781963
 20
103.3749971950956
 30
0.0
 10
54.27756863723415
 20
103.2652093546098
 30
0.0
 10
54.41443196625553
 20
103.0730800317711
 30
0.0
 10
54.4328926986575
 20
102.934498914097
 30
0.0
 10
54.4421205848941
 20
102.8652269718689
 30
0.0
  0
LINE
  5
D5
330
1F
100
AcDbEntity
  8
0
  6
Continuous
 62
     7
370
    30
100
AcDbLine
 10
53.0318653763
 20
103.3836569963
 30
0.0
 11
53.7806636274
 21
103.3836569963
 31
0.0
  0
LINE
  5
D6
330
1F
100
AcDbEntity
  8
0
  6
Continuous
 62
     7
370
    30
100
AcDbLine
 10
53.0318653763
 20
102.5433320878
 30
0.0
 11
53.0318653763
 21
103.3836569963
 31
0.0
  0
LINE
  5
D7
330
1F
100
AcDbEntity
  8
0
  6
Continuous
 62
     7
370
    30
100
AcDbLine
 10
50.0010958493
 20
104.8836563108
 30
0.0
 11
103.0010952235
 21
104.8836563108
 31
0.0
  0
ARC
  5
D8
330
1F
100
AcDbEntity
  8
0
  6
Continuous
 62
     7
370
    30
100
AcDbCircle
 10
103.0010955364
 20
100.3836563555
 30
0.0
 40
4.500000000000014
100
AcDbArc
 50
0.0
 51
90.0
  0
LINE
  5
D9
330
1F
100
AcDbEntity
  8
0
  6
Continuous
 62
     7
370
    30
100
AcDbLine
 10
107.5010950298
 20
100.3836565045
 30
0.0
 11
107.5010950298
 21
97.4692967114
 31
0.0
  0
LINE
  5
DA
330
1F
100
AcDbEntity
  8
0
  6
Continuous
 62
     7
370
    30
100
AcDbLine
 10
107.5010950298
 20
45.3068301407
 30
0.0
 11
107.5010950298
 21
44.8836595146
 31
0.0
  0
ARC
  5
DB
330
1F
100
AcDbEntity
  8
0
  6
Continuous
 62
     7
370
    30
100
AcDbCircle
 10
103.0010955364
 20
44.8836563555
 30
0.0
 40
4.5
100
AcDbArc
 50
270.0
 51
0.0
  0
LINE
  5
DC
330
1F
100
AcDbEntity
  8
0
  6
Continuous
 62
     7
370
    30
100
AcDbLine
 10
103.0010952235
 20
40.3836578456
 30
0.0
 11
102.5867349089
 21
40.3836578456
 31
0.0
  0
LINE
  5
DD
330
1F
100
AcDbEntity
  8
0
  6
Continuous
 62
     7
370
    30
100
AcDbLine
 10
50.4242720634
 20
40.3836578456
 30
0.0
 11
50.0010958493
 21
40.3836578456
 31
0.0
  0
ARC
  5
DE
330
1F
100
AcDbEntity
  8
0
  6
Continuous
 62
     7
370
    30
100
AcDbCircle
 10
50.0010955364
 20
44.8836563555
 30
0.0
 40
4.500000000000007
100
AcDbArc
 50
180.0
 51
270.0
  0
LINE
  5
DF
330
1F
100
AcDbEntity
  8
0
  6
Continuous
 62
     7
370
    30
100
AcDbLine
 10
45.501096043
 20
44.8836595146
 30
0.0
 11
45.501096043
 21
45.2980161039
 31
0.0
  0
LINE
  5
E0
330
1F
100
AcDbEntity
  8
0
  6
Continuous
 62
     7
370
    30
100
AcDbLine
 10
45.501096043
 20
97.4604789493
 30
0.0
 11
45.501096043
 21
100.3836565045
 31
0.0
  0
ARC
  5
E1
330
1F
100
AcDbEntity
  8
0
  6
Continuous
 62
     7
370
    30
100
AcDbCircle
 10
50.0010955364
 20
100.3836563555
 30
0.0
 40
4.500000000000014
100
AcDbArc
 50
90.0
 51
180.0
  0
SPLINE
  5
E2
330
1F
100
AcDbEntity
  8
0
  6
Continuous
 62
     7
370
    30
100
AcDbSpline
210
0.0
220
0.0
230
1.0
 70
     8
 71
     3
 72
    12
 73
     8
 74
     0
 42
0.00000001
 43
0.00000001
 40
0.0
 40
0.0
 40
0.0
 40
0.0
 40
0.2086636657725246
 40
0.4171631318961436
 40
0.6254952606476982
 40
0.8711019934647652
 40
1.0
 40
1.0
 40
1.0
 40
1.0
 10
55.72537505929557
 20
103.4092981693787
 30
0.0
 10
55.8232402736114
 20
103.4018352976405
 30
0.0
 10
56.01889369106922
 20
103.386915426777
 30
0.0
 10
56.28811250716578
 20
103.2541215637048
 30
0.0
 10
56.50839694351638
 20
103.0318483671631
 30
0.0
 10
56.6321765127297
 20
102.7784585316041
 30
0.0
 10
56.64695741669976
 20
102.603537023356
 30
0.0
 10
56.65204474632827
 20
102.5433320877594
 30
0.0
  0
SPLINE
  5
E3
330
1F
100
AcDbEntity
  8
0
  6
Continuous
 62
     7
370
    30
100
AcDbSpline
210
0.0
220
0.0
230
1.0
 70
     8
 71
     3
 72
    12
 73
     8
 74
     0
 42
0.00000001
 43
0.00000001
 40
0.0
 40
0.0
 40
0.0
 40
0.0
 40
0.0790290562697639
 40
0.2907550186866128
 40
0.5021751453615642
 40
0.7508311823473767
 40
1.0
 40
1.0
 40
1.0
 40
1.0
 10
54.79279892449466
 20
102.5433320877594
 30
0.0
 10
54.79525589068122
 20
102.5803189129287
 30
0.0
 10
54.80429529065893
 20
102.7163967753108
 30
0.0
 10
54.88848147259574
 20
102.9424325866117
 30
0.0
 10
55.08005757065428
 20
103.1960095215513
 30
0.0
 10
55.37253061067239
 20
103.3809124246581
 30
0.0
 10
55.60767950531707
 20
103.3998297592534
 30
0.0
 10
55.72537505929557
 20
103.4092981693787
 30
0.0
  0
LINE
  5
E4
330
1F
100
AcDbEntity
  8
0
  6
Continuous
 62
     7
370
    30
100
AcDbLine
 10
59.3139155388
 20
103.1528864381
 30
0.0
 11
59.3139155388
 21
102.5433320878
 31
0.0
  0
LINE
  5
E5
330
1F
100
AcDbEntity
  8
0
  6
Continuous
 62
     7
370
    30
100
AcDbLine
 10
60.4421215684
 20
103.1528864381
 30
0.0
 11
59.3139155388
 21
103.1528864381
 31
0.0
  0
LINE
  5
E6
330
1F
100
AcDbEntity
  8
0
  6
Continuous
 62
     7
370
    30
100
AcDbLine
 10
60.4421215684
 20
103.3836569963
 30
0.0
 11
60.4421215684
 21
103.1528864381
 31
0.0
  0
LINE
  5
E7
330
1F
100
AcDbEntity
  8
0
  6
Continuous
 62
     7
370
    30
100
AcDbLine
 10
59.0318644971
 20
103.3836569963
 30
0.0
 11
60.4421215684
 21
103.3836569963
 31
0.0
  0
LINE
  5
E8
330
1F
100
AcDbEntity
  8
0
  6
Continuous
 62
     7
370
    30
100
AcDbLine
 10
59.0318644971
 20
102.5433320878
 30
0.0
 11
59.0318644971
 21
103.3836569963
 31
0.0
  0
SPLINE
  5
E9
330
1F
100
AcDbEntity
  8
0
  6
Continuous
 62
     7
370
    30
100
AcDbSpline
210
0.0
220
0.0
230
1.0
 70
     8
 71
     3
 72
    10
 73
     6
 74
     0
 42
0.00000001
 43
0.00000001
 40
0.0
 40
0.0
 40
0.0
 40
0.0
 40
0.495190408320485
 40
0.9937478668732861
 40
0.9999999999999999
 40
0.9999999999999999
 40
0.9999999999999999
 40
0.9999999999999999
 10
63.20614354615299
 20
102.7033686963362
 30
0.0
 10
63.2747221477966
 20
102.6663260011768
 30
0.0
 10
63.41234565170821
 20
102.5919887388242
 30
0.0
 10
63.56870561125819
 20
102.5671809384765
 30
0.0
 10
63.64401280096862
 20
102.543623845452
 30
0.0
 10
63.64494549040882
 20
102.5433320877594
 30
0.0
  0
SPLINE
  5
EA
330
1F
100
AcDbEntity
  8
0
  6
Continuous
 62
     7
370
    30
100
AcDbSpline
210
0.0
220
0.0
230
1.0
 70
     8
 71
     3
 72
     9
 73
     5
 74
     0
 42
0.00000001
 43
0.00000001
 40
0.0
 40
0.0
 40
0.0
 40
0.0
 40
0.5596146688768872
 40
1.0
 40
1.0
 40
1.0
 40
1.0
 10
63.13442891393987
 20
102.8800499019665
 30
0.0
 10
63.13787204068447
 20
102.8427648462316
 30
0.0
 10
63.14402471490136
 20
102.7761385445843
 30
0.0
 10
63.18715125188379
 20
102.7256174467393
 30
0.0
 10
63.20614354615299
 20
102.7033686963362
 30
0.0
  0
SPLINE
  5
EB
330
1F
100
AcDbEntity
  8
0
  6
Continuous
 62
     7
370
    30
100
AcDbSpline
210
0.0
220
0.0
230
1.0
 70
     8
 71
     3
 72
    12
 73
     8
 74
     0
 42
0.00000001
 43
0.00000001
 40
0.0
 40
0.0
 40
0.0
 40
0.0
 40
0.2508564998317083
 40
0.5007927693967975
 40
0.7496104325879906
 40
0.8747756630336861
 40
1.0
 40
1.0
 40
1.0
 40
1.0
 10
63.55790687655298
 20
103.1785276112598
 30
0.0
 10
63.50943383286975
 20
103.176751429828
 30
0.0
 10
63.4126655617526
 20
103.1732055826253
 30
0.0
 10
63.27054388186578
 20
103.1300493027339
 30
0.0
 10
63.18036871359005
 20
103.0422908446427
 30
0.0
 10
63.13993120481445
 20
102.9529320429898
 30
0.0
 10
63.13626329951116
 20
102.9043477718801
 30
0.0
 10
63.13442891393987
 20
102.8800499019665
 30
0.0
  0
SPLINE
  5
EC
330
1F
100
AcDbEntity
  8
0
  6
Continuous
 62
     7
370
    30
100
AcDbSpline
210
0.0
220
0.0
230
1.0
 70
     8
 71
     3
 72
    11
 73
     7
 74
     0
 42
0.00000001
 43
0.00000001
 40
0.0
 40
0.0
 40
0.0
 40
0.0
 40
0.2801591076248582
 40
0.5583506794257665
 40
0.7788636606592659
 40
1.0
 40
1.0
 40
1.0
 40
1.0
 10
64.00622414355365
 20
102.8195530501646
 30
0.0
 10
63.99535859744657
 20
102.8794239028605
 30
0.0
 10
63.9737038131254
 20
102.9987451398675
 30
0.0
 10
63.84903252581407
 20
103.1256047905495
 30
0.0
 10
63.69960051868989
 20
103.1726673445061
 30
0.0
 10
63.60518251213936
 20
103.1765723517908
 30
0.0
 10
63.55790687655298
 20
103.1785276112598
 30
0.0
  0
LINE
  5
ED
330
1F
100
AcDbEntity
  8
0
  6
Continuous
 62
     7
370
    30
100
AcDbLine
 10
64.2882751853
 20
102.8195530502
 30
0.0
 11
64.0062241436
 21
102.8195530502
 31
0.0
  0
SPLINE
  5
EE
330
1F
100
AcDbEntity
  8
0
  6
Continuous
 62
     7
370
    30
100
AcDbSpline
210
0.0
220
0.0
230
1.0
 70
     8
 71
     3
 72
    12
 73
     8
 74
     0
 42
0.00000001
 43
0.00000001
 40
0.0
 40
0.0
 40
0.0
 40
0.0
 40
0.1872508251446543
 40
0.3743529695393891
 40
0.560979109685729
 40
0.7802610614445671
 40
1.0
 40
1.0
 40
1.0
 40
1.0
 10
63.54668816481916
 20
103.4092981693787
 30
0.0
 10
63.61277936059476
 20
103.4065135936062
 30
0.0
 10
63.74490927446769
 20
103.4009466530679
 30
0.0
 10
63.93739521897718
 20
103.34669584863
 30
0.0
 10
64.1194522318965
 20
103.2382885828681
 30
0.0
 10
64.25583224945399
 20
103.0522067533329
 30
0.0
 10
64.27745337136332
 20
102.8971580824461
 30
0.0
 10
64.28827518527595
 20
102.8195530501646
 30
0.0
  0
SPLINE
  5
EF
330
1F
100
AcDbEntity
  8
0
  6
Continuous
 62
     7
370
    30
100
AcDbSpline
210
0.0
220
0.0
230
1.0
 70
     8
 71
     3
 72
    11
 73
     7
 74
     0
 42
0.00000001
 43
0.00000001
 40
0.0
 40
0.0
 40
0.0
 40
0.0
 40
0.2788671918108293
 40
0.5575613781452747
 40
0.7786488544215023
 40
1.0
 40
1.0
 40
1.0
 40
1.0
 10
62.85237787221757
 20
102.86162089086
 30
0.0
 10
62.86715196289297
 20
102.9543653855666
 30
0.0
 10
62.89669097859547
 20
103.1397968375355
 30
0.0
 10
63.10295803879399
 20
103.3194010619931
 30
0.0
 10
63.32854851042089
 20
103.3968994547216
 30
0.0
 10
63.47394606368093
 20
103.4051636228284
 30
0.0
 10
63.54668816481916
 20
103.4092981693787
 30
0.0
  0
SPLINE
  5
F0
330
1F
100
AcDbEntity
  8
0
  6
Continuous
 62
     7
370
    30
100
AcDbSpline
210
0.0
220
0.0
230
1.0
 70
     8
 71
     3
 72
    10
 73
     6
 74
     0
 42
0.00000001
 43
0.00000001
 40
0.0
 40
0.0
 40
0.0
 40
0.0
 40
0.3194148936664714
 40
0.6597371391102828
 40
0.9999999999999999
 40
0.9999999999999999
 40
0.9999999999999999
 40
0.9999999999999999
 10
62.9907994151601
 20
102.5433320877594
 30
0.0
 10
62.96399054554799
 20
102.5706322974072
 30
0.0
 10
62.90861802757411
 20
102.6270196561912
 30
0.0
 10
62.86147942776843
 20
102.7400944198179
 30
0.0
 10
62.85541154758327
 20
102.8211144236501
 30
0.0
 10
62.85237787221757
 20
102.86162089086
 30
0.0
  0
LINE
  5
F1
330
1F
100
AcDbEntity
  8
0
  6
Continuous
 62
     7
370
    30
100
AcDbLine
 10
68.2626337365
 20
103.3836569963
 30
0.0
 11
68.2626337365
 21
102.5433320878
 31
0.0
  0
LINE
  5
F2
330
1F
100
AcDbEntity
  8
0
  6
Continuous
 62
     7
370
    30
100
AcDbLine
 10
67.9805826948
 20
103.3836569963
 30
0.0
 11
68.2626337365
 21
103.3836569963
 31
0.0
  0
LINE
  5
F3
330
1F
100
AcDbEntity
  8
0
  6
Continuous
 62
     7
370
    30
100
AcDbLine
 10
67.9805826948
 20
102.5631431816
 30
0.0
 11
67.9805826948
 21
103.3836569963
 31
0.0
  0
LINE
  5
F4
330
1F
100
AcDbEntity
  8
0
  6
Continuous
 62
     7
370
    30
100
AcDbLine
 10
67.006223704
 20
102.5631431816
 30
0.0
 11
67.9805826948
 21
102.5631431816
 31
0.0
  0
LINE
  5
F5
330
1F
100
AcDbEntity
  8
0
  6
Continuous
 62
     7
370
    30
100
AcDbLine
 10
67.006223704
 20
103.3836569963
 30
0.0
 11
67.006223704
 21
102.5631431816
 31
0.0
  0
LINE
  5
F6
330
1F
100
AcDbEntity
  8
0
  6
Continuous
 62
     7
370
    30
100
AcDbLine
 10
66.7241726622
 20
103.3836569963
 30
0.0
 11
67.006223704
 21
103.3836569963
 31
0.0
  0
LINE
  5
F7
330
1F
100
AcDbEntity
  8
0
  6
Continuous
 62
     7
370
    30
100
AcDbLine
 10
66.7241726622
 20
102.5433320878
 30
0.0
 11
66.7241726622
 21
103.3836569963
 31
0.0
  0
LINE
  5
F8
330
1F
100
AcDbEntity
  8
0
  6
Continuous
 62
     7
370
    30
100
AcDbLine
 10
71.3395572819
 20
103.1528864381
 30
0.0
 11
71.3395572819
 21
102.5433320878
 31
0.0
  0
LINE
  5
F9
330
1F
100
AcDbEntity
  8
0
  6
Continuous
 62
     7
370
    30
100
AcDbLine
 10
71.9805828847
 20
103.1528864381
 30
0.0
 11
71.3395572819
 21
103.1528864381
 31
0.0
  0
LINE
  5
FA
330
1F
100
AcDbEntity
  8
0
  6
Continuous
 62
     7
370
    30
100
AcDbLine
 10
71.9805828847
 20
103.3836569963
 30
0.0
 11
71.9805828847
 21
103.1528864381
 31
0.0
  0
LINE
  5
FB
330
1F
100
AcDbEntity
  8
0
  6
Continuous
 62
     7
370
    30
100
AcDbLine
 10
70.4164801717
 20
103.3836569963
 30
0.0
 11
71.9805828847
 21
103.3836569963
 31
0.0
  0
LINE
  5
FC
330
1F
100
AcDbEntity
  8
0
  6
Continuous
 62
     7
370
    30
100
AcDbLine
 10
70.4164801717
 20
103.1528864381
 30
0.0
 11
70.4164801717
 21
103.3836569963
 31
0.0
  0
LINE
  5
FD
330
1F
100
AcDbEntity
  8
0
  6
Continuous
 62
     7
370
    30
100
AcDbLine
 10
71.0575057745
 20
103.1528864381
 30
0.0
 11
70.4164801717
 21
103.1528864381
 31
0.0
  0
LINE
  5
FE
330
1F
100
AcDbEntity
  8
0
  6
Continuous
 62
     7
370
    30
100
AcDbLine
 10
71.0575057745
 20
102.5433320878
 30
0.0
 11
71.0575057745
 21
103.1528864381
 31
0.0
  0
LINE
  5
FF
330
1F
100
AcDbEntity
  8
0
  6
Continuous
 62
     7
370
    30
100
AcDbLine
 10
57.7193646312
 20
103.1528864381
 30
0.0
 11
57.313915211
 21
103.1528864381
 31
0.0
  0
SPLINE
  5
100
330
1F
100
AcDbEntity
  8
0
  6
Continuous
 62
     7
370
    30
100
AcDbSpline
210
0.0
220
0.0
230
1.0
 70
     8
 71
     3
 72
     9
 73
     5
 74
     0
 42
0.00000001
 43
0.00000001
 40
0.0
 40
0.0
 40
0.0
 40
0.0
 40
0.5592528190981101
 40
1.0
 40
1.0
 40
1.0
 40
1.0
 10
58.04989287560073
 20
103.1116213974995
 30
0.0
 10
57.98910057428326
 20
103.1264685301269
 30
0.0
 10
57.88039785658303
 20
103.1530166888853
 30
0.0
 10
57.76862722291941
 20
103.1529262838847
 30
0.0
 10
57.71936463122455
 20
103.1528864381355
 30
0.0
  0
SPLINE
  5
101
330
1F
100
AcDbEntity
  8
0
  6
Continuous
 62
     7
370
    30
100
AcDbSpline
210
0.0
220
0.0
230
1.0
 70
     8
 71
     3
 72
    11
 73
     7
 74
     0
 42
0.00000001
 43
0.00000001
 40
0.0
 40
0.0
 40
0.0
 40
0.0
 40
0.129988472188325
 40
0.4686437150355473
 40
0.7348883117428618
 40
1.0
 40
1.0
 40
1.0
 40
1.0
 10
58.38055523042766
 20
102.5433320877594
 30
0.0
 10
58.3791349273184
 20
102.5732724136767
 30
0.0
 10
58.37401434920562
 20
102.681215413014
 30
0.0
 10
58.32283955488631
 20
102.8456129034724
 30
0.0
 10
58.21000623924381
 20
103.0175254895731
 30
0.0
 10
58.10318808090101
 20
103.0803007093523
 30
0.0
 10
58.04989287560073
 20
103.1116213974995
 30
0.0
  0
LINE
  5
102
330
1F
100
AcDbEntity
  8
0
  6
Continuous
 62
     7
370
    30
100
AcDbLine
 10
57.313915211
 20
103.1528864381
 30
0.0
 11
57.313915211
 21
102.5433320878
 31
0.0
  0
LINE
  5
103
330
1F
100
AcDbEntity
  8
0
  6
Continuous
 62
     7
370
    30
100
AcDbLine
 10
53.6949260712
 20
103.1528864381
 30
0.0
 11
53.313916418
 21
103.1528864381
 31
0.0
  0
SPLINE
  5
104
330
1F
100
AcDbEntity
  8
0
  6
Continuous
 62
     7
370
    30
100
AcDbSpline
210
0.0
220
0.0
230
1.0
 70
     8
 71
     3
 72
    12
 73
     8
 74
     0
 42
0.00000001
 43
0.00000001
 40
0.0
 40
0.0
 40
0.0
 40
0.0
 40
0.2490925894868218
 40
0.3742625665482086
 40
0.4992566390216473
 40
0.7489973541557562
 40
0.9999999999999999
 40
0.9999999999999999
 40
0.9999999999999999
 40
0.9999999999999999
 10
54.1600695431718
 20
102.8403867361587
 30
0.0
 10
54.1543252721874
 20
102.8948553856255
 30
0.0
 10
54.14569448310611
 20
102.9766947393688
 30
0.0
 10
54.08381417381133
 20
103.0679956572878
 30
0.0
 10
53.99421451790058
 20
103.1321942510924
 30
0.0
 10
53.85606182883475
 20
103.1499823555062
 30
0.0
 10
53.74872815481222
 20
103.1519167855972
 30
0.0
 10
53.69492607121555
 20
103.1528864381355
 30
0.0
  0
SPLINE
  5
105
330
1F
100
AcDbEntity
  8
0
  6
Continuous
 62
     7
370
    30
100
AcDbSpline
210
0.0
220
0.0
230
1.0
 70
     8
 71
     3
 72
    10
 73
     6
 74
     0
 42
0.00000001
 43
0.00000001
 40
0.0
 40
0.0
 40
0.0
 40
0.0
 40
0.2808855011307712
 40
0.5610107390125372
 40
1.0
 40
1.0
 40
1.0
 40
1.0
 10
53.96656120126335
 20
102.5611408380312
 30
0.0
 10
53.99847699291277
 20
102.5740384390969
 30
0.0
 10
54.06222219082201
 20
102.5997987317293
 30
0.0
 10
54.14602097680181
 20
102.6966947535496
 30
0.0
 10
54.15474431240884
 20
102.7859190455753
 30
0.0
 10
54.1600695431718
 20
102.8403867361587
 30
0.0
  0
LINE
  5
106
330
1F
100
AcDbEntity
  8
0
  6
Continuous
 62
     7
370
    30
100
AcDbLine
 10
53.313916418
 20
103.1528864381
 30
0.0
 11
53.313916418
 21
102.5433320878
 31
0.0
  0
SPLINE
  5
107
330
1F
100
AcDbEntity
  8
0
  6
Continuous
 62
     7
370
    30
100
AcDbSpline
210
0.0
220
0.0
230
1.0
 70
     8
 71
     3
 72
     9
 73
     5
 74
     0
 42
0.00000001
 43
0.00000001
 40
0.0
 40
0.0
 40
0.0
 40
0.0
 40
0.559908699286644
 40
0.9999999999999999
 40
0.9999999999999999
 40
0.9999999999999999
 40
0.9999999999999999
 10
69.40365942125408
 20
103.1528864381355
 30
0.0
 10
69.3846530371262
 20
103.0814857368892
 30
0.0
 10
69.35070753109619
 20
102.9539636938538
 30
0.0
 10
69.29260940062437
 20
102.8355908320751
 30
0.0
 10
69.26704091881601
 20
102.7834959653658
 30
0.0
  0
SPLINE
  5
108
330
1F
100
AcDbEntity
  8
0
  6
Continuous
 62
     7
370
    30
100
AcDbSpline
210
0.0
220
0.0
230
1.0
 70
     8
 71
     3
 72
     9
 73
     5
 74
     0
 42
0.00000001
 43
0.00000001
 40
0.0
 40
0.0
 40
0.0
 40
0.0
 40
0.5600033481879669
 40
0.9999999999999999
 40
0.9999999999999999
 40
0.9999999999999999
 40
0.9999999999999999
 10
69.55069476668922
 20
102.755451979999
 30
0.0
 10
69.52316429127015
 20
102.8296092272769
 30
0.0
 10
69.47400302195244
 20
102.9620320913863
 30
0.0
 10
69.425153185663
 20
103.0945701403527
 30
0.0
 10
69.40365942125408
 20
103.1528864381355
 30
0.0
  0
LINE
  5
109
330
1F
100
AcDbEntity
  8
0
  6
Continuous
 62
     7
370
    30
100
AcDbLine
 10
69.6291079365
 20
102.5433320878
 30
0.0
 11
69.5506947667
 21
102.75545198
 31
0.0
  0
LINE
  5
10A
330
1F
100
AcDbEntity
  8
0
  6
Continuous
 62
     7
370
    30
100
AcDbLine
 10
69.2670409188
 20
102.7834959654
 30
0.0
 11
69.178239777
 21
102.5433320878
 31
0.0
  0
SPLINE
  5
10B
330
1F
100
AcDbEntity
  8
0
  6
Continuous
 62
     7
370
    30
100
AcDbSpline
210
0.0
220
0.0
230
1.0
 70
     8
 71
     3
 72
    12
 73
     8
 74
     0
 42
0.00000001
 43
0.00000001
 40
0.0
 40
0.0
 40
0.0
 40
0.0
 40
0.2217477268809663
 40
0.4434083924122837
 40
0.6646275597573551
 40
0.9259829136697459
 40
1.0
 40
1.0
 40
1.0
 40
1.0
 10
55.72697693412391
 20
103.1785276112598
 30
0.0
 10
55.65193240421132
 20
103.1720728365472
 30
0.0
 10
55.50187280794882
 20
103.1591658213593
 30
0.0
 10
55.30121303176405
 20
103.0459596705979
 30
0.0
 10
55.14208381982341
 20
102.8649874823749
 30
0.0
 10
55.08095851752106
 20
102.6807901174035
 30
0.0
 10
55.0741629995135
 20
102.5681843181819
 30
0.0
 10
55.07266322081176
 20
102.5433320877594
 30
0.0
  0
SPLINE
  5
10C
330
1F
100
AcDbEntity
  8
0
  6
Continuous
 62
     7
370
    30
100
AcDbSpline
210
0.0
220
0.0
230
1.0
 70
     8
 71
     3
 72
    11
 73
     7
 74
     0
 42
0.00000001
 43
0.00000001
 40
0.0
 40
0.0
 40
0.0
 40
0.0
 40
0.1636049421897941
 40
0.4884207016883088
 40
0.7440972537076084
 40
1.0
 40
1.0
 40
1.0
 40
1.0
 10
56.36881092493621
 20
102.5433320877594
 30
0.0
 10
56.36413723089858
 20
102.5977504665799
 30
0.0
 10
56.35018454162904
 20
102.7602092677171
 30
0.0
 10
56.21895157470983
 20
102.9845214508893
 30
0.0
 10
55.98450349204482
 20
103.1519831498716
 30
0.0
 10
55.81284441972637
 20
103.1696768497132
 30
0.0
 10
55.72697693412391
 20
103.1785276112598
 30
0.0
  0
LINE
  5
10D
330
1F
100
AcDbEntity
  8
0
  6
Continuous
 62
     7
370
    30
100
AcDbLine
 10
103.0010952235
 20
106.3836556253
 30
0.0
 11
50.0010958493
 21
106.3836556253
 31
0.0
  0
LINE
  5
10E
330
1F
100
AcDbEntity
  8
0
  6
Continuous
 62
     7
370
    30
100
AcDbLine
 10
109.0010943443
 20
44.8836595146
 30
0.0
 11
109.0010943443
 21
100.3836565045
 31
0.0
  0
ARC
  5
10F
330
1F
100
AcDbEntity
  8
0
  6
Continuous
 62
     7
370
    30
100
AcDbCircle
 10
103.0010955364
 20
44.8836563555
 30
0.0
 40
6.000000000000007
100
AcDbArc
 50
270.0
 51
0.0
  0
LINE
  5
110
330
1F
100
AcDbEntity
  8
0
  6
Continuous
 62
     7
370
    30
100
AcDbLine
 10
50.0010958493
 20
38.8836548058
 30
0.0
 11
103.0010952235
 21
38.8836548058
 31
0.0
  0
ARC
  5
111
330
1F
100
AcDbEntity
  8
0
  6
Continuous
 62
     7
370
    30
100
AcDbCircle
 10
50.0010955364
 20
44.8836563555
 30
0.0
 40
6.0
100
AcDbArc
 50
180.0
 51
270.0
  0
LINE
  5
112
330
1F
100
AcDbEntity
  8
0
  6
Continuous
 62
     7
370
    30
100
AcDbLine
 10
44.0010967285
 20
100.3836565045
 30
0.0
 11
44.0010967285
 21
44.8836595146
 31
0.0
  0
ARC
  5
113
330
1F
100
AcDbEntity
  8
0
  6
Continuous
 62
     7
370
    30
100
AcDbCircle
 10
50.0010955364
 20
100.3836563555
 30
0.0
 40
6.000000000000014
100
AcDbArc
 50
90.0
 51
180.0
  0
ARC
  5
114
330
1F
100
AcDbEntity
  8
0
  6
Continuous
 62
     7
370
    30
100
AcDbCircle
 10
103.0010955364
 20
100.3836563555
 30
0.0
 40
6.000000000000014
100
AcDbArc
 50
0.0
 51
90.0
  0
LINE
  5
115
330
1F
100
AcDbEntity
  8
0
  6
Continuous
 62
     7
370
    30
100
AcDbLine
 10
102.2010947198
 20
107.8836568025
 30
0.0
 11
50.801096353
 21
107.8836568025
 31
0.0
  0
LINE
  5
116
330
1F
100
AcDbEntity
  8
0
  6
Continuous
 62
     7
370
    30
100
AcDbLine
 10
50.501095
 20
106.3836556253
 30
0.0
 11
50.501095
 21
107.8836568025
 31
0.0
  0
LINE
  5
117
330
1F
100
AcDbEntity
  8
0
  6
Continuous
 62
     7
370
    30
100
AcDbLine
 10
50.501095
 20
107.8836568025
 30
0.0
 11
50.801096353
 21
107.8836568025
 31
0.0
  0
LINE
  5
118
330
1F
100
AcDbEntity
  8
0
  6
Continuous
 62
     7
370
    30
100
AcDbLine
 10
102.2010947198
 20
107.8836568025
 30
0.0
 11
102.5010960728
 21
107.8836568025
 31
0.0
  0
LINE
  5
119
330
1F
100
AcDbEntity
  8
0
  6
Continuous
 62
     7
370
    30
100
AcDbLine
 10
102.5010960728
 20
107.8836568025
 30
0.0
 11
102.5010960728
 21
106.3836556253
 31
0.0
  0
ARC
  5
11A
330
1F
100
AcDbEntity
  8
0
  6
Continuous
 62
     7
370
    30
100
AcDbCircle
 10
102.2010955364
 20
127.5836563555
 30
0.0
 40
0.2999999999999972
100
AcDbArc
 50
0.0
 51
90.0
  0
ARC
  5
11B
330
1F
100
AcDbEntity
  8
0
  6
Continuous
 62
     7
370
    30
100
AcDbCircle
 10
50.8010955364
 20
127.5836563555
 30
0.0
 40
0.2999999999999972
100
AcDbArc
 50
90.0
 51
180.0
  0
LINE
  5
11C
330
1F
100
AcDbEntity
  8
0
  6
Continuous
 62
     7
370
    30
100
AcDbLine
 10
50.801096353
 20
127.8836563555
 30
0.0
 11
102.2010947198
 21
127.8836563555
 31
0.0
  0
LINE
  5
11D
330
1F
100
AcDbEntity
  8
0
  6
Continuous
 62
     7
370
    30
100
AcDbLine
 10
50.501095
 20
108.1836562929
 30
0.0
 11
50.501095
 21
127.5836563413
 31
0.0
  0
LINE
  5
11E
330
1F
100
AcDbEntity
  8
0
  6
Continuous
 62
     7
370
    30
100
AcDbLine
 10
102.5010960728
 20
127.5836563413
 30
0.0
 11
102.5010960728
 21
108.1836562929
 31
0.0
  0
ARC
  5
11F
330
1F
100
AcDbEntity
  8
0
  6
Continuous
 62
     7
370
    30
100
AcDbCircle
 10
50.8010955364
 20
108.1836563555
 30
0.0
 40
0.2999999999999972
100
AcDbArc
 50
180.0
 51
270.0
  0
ARC
  5
120
330
1F
100
AcDbEntity
  8
0
  6
Continuous
 62
     7
370
    30
100
AcDbCircle
 10
102.2010955364
 20
108.1836563555
 30
0.0
 40
0.2999999999999972
100
AcDbArc
 50
270.0
 51
0.0
  0
LINE
  5
121
330
1F
100
AcDbEntity
  8
0
  6
Continuous
 62
     7
370
    30
100
AcDbLine
 10
102.5010960728
 20
108.1836562929
 30
0.0
 11
102.5010960728
 21
107.8836568025
 31
0.0
  0
LINE
  5
122
330
1F
100
AcDbEntity
  8
0
  6
Continuous
 62
     7
370
    30
100
AcDbLine
 10
50.501095
 20
107.8836568025
 30
0.0
 11
50.501095
 21
108.1836562929
 31
0.0
  0
LINE
  5
123
330
1F
100
AcDbEntity
  8
0
  6
Continuous
 62
     8
370
     0
100
AcDbLine
 10
61.0010957897
 20
128.5836563305
 30
0.0
 11
61.0010957897
 21
127.8836563555
 31
0.0
  0
LINE
  5
124
330
1F
100
AcDbEntity
  8
0
  6
Continuous
 62
     8
370
     0
100
AcDbLine
 10
92.0010952831
 20
127.8836563555
 30
0.0
 11
92.0010952831
 21
128.5836563305
 31
0.0
  0
LINE
  5
125
330
1F
100
AcDbEntity
  8
0
  6
Continuous
 62
     8
370
     0
100
AcDbLine
 10
101.1685671837
 20
101.0433327732
 30
0.0
 11
51.8336238891
 21
101.0433327732
 31
0.0
  0
LINE
  5
126
330
1F
100
AcDbEntity
  8
0
  6
Continuous
 62
     8
370
     0
100
AcDbLine
 10
51.8336238891
 20
101.0433327732
 30
0.0
 11
51.8336238891
 21
102.5433320878
 31
0.0
  0
LINE
  5
127
330
1F
100
AcDbEntity
  8
0
  6
Continuous
 62
     8
370
     0
100
AcDbLine
 10
101.1685671837
 20
101.0433327732
 30
0.0
 11
101.1685671837
 21
102.5433320878
 31
0.0
  0
ELLIPSE
  5
128
330
1F
100
AcDbEntity
  8
0
  6
Continuous
 62
     8
370
     0
100
AcDbEllipse
 10
51.8492278693
 20
96.0355240226
 30
0.0
 11
3.546567990600252
 21
-3.546567990600266
 31
0.0
210
0.0
220
0.0
230
1.0
 40
0.9968887993
 41
2.357752512923529
 42
3.925432794256075
  0
LINE
  5
129
330
1F
100
AcDbEntity
  8
0
  6
Continuous
 62
     8
370
     0
100
AcDbLine
 10
46.8414201022
 20
96.0511289862
 30
0.0
 11
45.341418925
 21
96.0511289862
 31
0.0
  0
ELLIPSE
  5
12A
330
1F
100
AcDbEntity
  8
0
  6
Continuous
 62
     8
370
     0
100
AcDbEllipse
 10
101.1529632035
 20
96.0355240226
 30
0.0
 11
-3.546567990600252
 21
-3.546567990600266
 31
0.0
210
0.0
220
0.0
230
1.0
 40
0.9968887993
 41
2.357752512923527
 42
3.925432794256069
  0
LINE
  5
12B
330
1F
100
AcDbEntity
  8
0
  6
Continuous
 62
     8
370
     0
100
AcDbLine
 10
107.6607721478
 20
96.0511289862
 30
0.0
 11
106.1607709706
 21
96.0511289862
 31
0.0
  0
LINE
  5
12C
330
1F
100
AcDbEntity
  8
0
  6
Continuous
 62
     8
370
     0
100
AcDbLine
 10
106.1607709706
 20
46.7161819664
 30
0.0
 11
106.1607709706
 21
96.0511289862
 31
0.0
  0
ELLIPSE
  5
12D
330
1F
100
AcDbEntity
  8
0
  6
Continuous
 62
     8
370
     0
100
AcDbEllipse
 10
101.1529632035
 20
46.7317886884
 30
0.0
 11
-3.546567990600252
 21
3.546567990600266
 31
0.0
210
0.0
220
0.0
230
1.0
 40
0.9968887993
 41
2.35775251292353
 42
3.925432794256073
  0
LINE
  5
12E
330
1F
100
AcDbEntity
  8
0
  6
Continuous
 62
     8
370
     0
100
AcDbLine
 10
51.8336238891
 20
41.7239800421
 30
0.0
 11
101.1685671837
 21
41.7239800421
 31
0.0
  0
ELLIPSE
  5
12F
330
1F
100
AcDbEntity
  8
0
  6
Continuous
 62
     8
370
     0
100
AcDbEllipse
 10
51.8492278693
 20
46.7317886884
 30
0.0
 11
3.546567990600252
 21
3.546567990600266
 31
0.0
210
0.0
220
0.0
230
1.0
 40
0.9968887993
 41
2.357752512923526
 42
3.925432794256071
  0
LINE
  5
130
330
1F
100
AcDbEntity
  8
0
  6
Continuous
 62
     8
370
     0
100
AcDbLine
 10
46.8414201022
 20
96.0511289862
 30
0.0
 11
46.8414201022
 21
46.7161819664
 31
0.0
  0
ELLIPSE
  5
131
330
1F
100
AcDbEntity
  8
0
  6
Continuous
 62
     8
370
     0
100
AcDbEllipse
 10
98.369128083
 20
49.5156238089
 30
0.0
 11
-4.26883854363875
 21
4.268838543638758
 31
0.0
210
0.0
220
0.0
230
1.0
 40
0.9938630013
 41
2.359272424483101
 42
3.9239128826965
  0
LINE
  5
132
330
1F
100
AcDbEntity
  8
0
  6
Continuous
 62
     8
370
     0
100
AcDbLine
 10
104.3876818002
 20
93.288736823
 30
0.0
 11
104.3876818002
 21
49.4785741297
 31
0.0
  0
ELLIPSE
  5
133
330
1F
100
AcDbEntity
  8
0
  6
Continuous
 62
     8
370
     0
100
AcDbEllipse
 10
98.369128083
 20
93.2516889021
 30
0.0
 11
-4.268838543638751
 21
-4.268838543638751
 31
0.0
210
0.0
220
0.0
230
0.9999999999999998
 40
0.9938630013
 41
2.359272424483101
 42
3.923912882696499
  0
LINE
  5
134
330
1F
100
AcDbEntity
  8
0
  6
Continuous
 62
     8
370
     0
100
AcDbLine
 10
54.5960141898
 20
99.2702417401
 30
0.0
 11
98.406176883
 21
99.2702417401
 31
0.0
  0
ELLIPSE
  5
135
330
1F
100
AcDbEntity
  8
0
  6
Continuous
 62
     8
370
     0
100
AcDbEllipse
 10
54.6330629898
 20
93.2516889021
 30
0.0
 11
4.268838543638765
 21
-4.268838543638751
 31
0.0
210
0.0
220
0.0
230
1.0
 40
0.9938630013
 41
2.359272424483097
 42
3.923912882696497
  0
LINE
  5
136
330
1F
100
AcDbEntity
  8
0
  6
Continuous
 62
     8
370
     0
100
AcDbLine
 10
48.6145092726
 20
49.4785741297
 30
0.0
 11
48.6145092726
 21
93.288736823
 31
0.0
  0
ELLIPSE
  5
137
330
1F
100
AcDbEntity
  8
0
  6
Continuous
 62
     8
370
     0
100
AcDbEllipse
 10
54.6330629898
 20
49.5156238089
 30
0.0
 11
4.268838543638758
 21
4.268838543638765
 31
0.0
210
0.0
220
0.0
230
1.0
 40
0.9938630013
 41
2.359272424483098
 42
3.9239128826965
  0
LINE
  5
138
330
1F
100
AcDbEntity
  8
0
  6
Continuous
 62
     8
370
     0
100
AcDbLine
 10
98.406176883
 20
43.4970692126
 30
0.0
 11
54.5960141898
 21
43.4970692126
 31
0.0
  0
LINE
  5
139
330
1F
100
AcDbEntity
  8
0
  6
Continuous
 62
     8
370
     0
100
AcDbLine
 10
104.3876818002
 20
93.288736823
 30
0.0
 11
102.8923055709
 21
93.288736823
 31
0.0
  0
ELLIPSE
  5
13A
330
1F
100
AcDbEntity
  8
0
  6
Continuous
 62
     8
370
     0
100
AcDbEllipse
 10
98.369128083
 20
93.2516889021
 30
0.0
 11
3.214687641936081
 21
3.214687641936052
 31
0.0
210
0.0
220
0.0
230
1.0
 40
0.9898257217
 41
5.500865078072914
 42
7.065505536286282
  0
LINE
  5
13B
330
1F
100
AcDbEntity
  8
0
  6
Continuous
 62
     8
370
     0
100
AcDbLine
 10
98.406176883
 20
97.7748655108
 30
0.0
 11
98.406176883
 21
99.2702417401
 31
0.0
  0
ELLIPSE
  5
13C
330
1F
100
AcDbEntity
  8
0
  6
Continuous
 62
     8
370
     0
100
AcDbEllipse
 10
54.6330629898
 20
93.2516889021
 30
0.0
 11
3.214687641936081
 21
-3.214687641936052
 31
0.0
210
0.0
220
0.0
230
1.0
 40
0.9898257217
 41
2.359272424483097
 42
3.923912882696492
  0
LINE
  5
13D
330
1F
100
AcDbEntity
  8
0
  6
Continuous
 62
     8
370
     0
100
AcDbLine
 10
50.1098855019
 20
93.288736823
 30
0.0
 11
48.6145092726
 21
93.288736823
 31
0.0
  0
LINE
  5
13E
330
1F
100
AcDbEntity
  8
0
  6
Continuous
 62
     8
370
     0
100
AcDbLine
 10
54.5960141898
 20
97.7748655108
 30
0.0
 11
54.5960141898
 21
99.2702417401
 31
0.0
  0
LINE
  5
13F
330
1F
100
AcDbEntity
  8
0
  6
Continuous
 62
     8
370
     0
100
AcDbLine
 10
98.406176883
 20
97.7748655108
 30
0.0
 11
54.5960141898
 21
97.7748655108
 31
0.0
  0
LINE
  5
140
330
1F
100
AcDbEntity
  8
0
  6
Continuous
 62
     8
370
     0
100
AcDbLine
 10
46.8414201022
 20
46.7161819664
 30
0.0
 11
45.341418925
 21
46.7161819664
 31
0.0
  0
LINE
  5
141
330
1F
100
AcDbEntity
  8
0
  6
Continuous
 62
     8
370
     0
100
AcDbLine
 10
107.6607721478
 20
46.7161819664
 30
0.0
 11
106.1607709706
 21
46.7161819664
 31
0.0
  0
LINE
  5
142
330
1F
100
AcDbEntity
  8
0
  6
Continuous
 62
     8
370
     0
100
AcDbLine
 10
50.1098855019
 20
93.288736823
 30
0.0
 11
50.1098855019
 21
49.4785741297
 31
0.0
  0
LINE
  5
143
330
1F
100
AcDbEntity
  8
0
  6
Continuous
 62
     8
370
     0
100
AcDbLine
 10
50.1098855019
 20
49.4785741297
 30
0.0
 11
48.6145092726
 21
49.4785741297
 31
0.0
  0
LINE
  5
144
330
1F
100
AcDbEntity
  8
0
  6
Continuous
 62
     8
370
     0
100
AcDbLine
 10
104.3876818002
 20
49.4785741297
 30
0.0
 11
102.8923055709
 21
49.4785741297
 31
0.0
  0
LINE
  5
145
330
1F
100
AcDbEntity
  8
0
  6
Continuous
 62
     8
370
     0
100
AcDbLine
 10
102.8923055709
 20
49.4785741297
 30
0.0
 11
102.8923055709
 21
93.288736823
 31
0.0
  0
LINE
  5
146
330
1F
100
AcDbEntity
  8
0
  6
Continuous
 62
     8
370
     0
100
AcDbLine
 10
98.406176883
 20
43.4970692126
 30
0.0
 11
98.406176883
 21
44.9924454418
 31
0.0
  0
ELLIPSE
  5
147
330
1F
100
AcDbEntity
  8
0
  6
Continuous
 62
     8
370
     0
100
AcDbEllipse
 10
98.369128083
 20
49.5156238089
 30
0.0
 11
3.214687641936081
 21
-3.214687641936059
 31
0.0
210
0.0
220
0.0
230
1.0
 40
0.9898257217
 41
5.500865078072903
 42
7.065505536286276
  0
LINE
  5
148
330
1F
100
AcDbEntity
  8
0
  6
Continuous
 62
     8
370
     0
100
AcDbLine
 10
51.8336238891
 20
40.2239770023
 30
0.0
 11
51.8336238891
 21
41.7239800421
 31
0.0
  0
ELLIPSE
  5
149
330
1F
100
AcDbEntity
  8
0
  6
Continuous
 62
     8
370
     0
100
AcDbEllipse
 10
54.6330629898
 20
49.5156238089
 30
0.0
 11
3.214687641936081
 21
3.214687641936059
 31
0.0
210
0.0
220
0.0
230
1.0
 40
0.9898257217
 41
2.359272424483103
 42
3.923912882696505
  0
LINE
  5
14A
330
1F
100
AcDbEntity
  8
0
  6
Continuous
 62
     8
370
     0
100
AcDbLine
 10
54.5960141898
 20
43.4970692126
 30
0.0
 11
54.5960141898
 21
44.9924454418
 31
0.0
  0
LINE
  5
14B
330
1F
100
AcDbEntity
  8
0
  6
Continuous
 62
     8
370
     0
100
AcDbLine
 10
101.1685671837
 20
40.2239770023
 30
0.0
 11
101.1685671837
 21
41.7239800421
 31
0.0
  0
LINE
  5
14C
330
1F
100
AcDbEntity
  8
0
  6
Continuous
 62
     8
370
     0
100
AcDbLine
 10
54.5960141898
 20
44.9924454418
 30
0.0
 11
98.406176883
 21
44.9924454418
 31
0.0
  0
ARC
  5
14D
330
1F
100
AcDbEntity
  8
0
  6
Continuous
 62
     8
370
     0
100
AcDbCircle
 10
92.8577567691
 20
87.7403185717
 30
0.0
 40
4.518584347425293
100
AcDbArc
 50
0.4100747203
 51
89.5899252797
  0
LINE
  5
14E
330
1F
100
AcDbEntity
  8
0
  6
Continuous
 62
     8
370
     0
100
AcDbLine
 10
92.8900966973
 20
92.2587871877
 30
0.0
 11
98.406176883
 21
97.7748655108
 31
0.0
  0
LINE
  5
14F
330
1F
100
AcDbEntity
  8
0
  6
Continuous
 62
     8
370
     0
100
AcDbLine
 10
102.8923055709
 20
93.288736823
 30
0.0
 11
97.3762253851
 21
87.7726584998
 31
0.0
  0
ARC
  5
150
330
1F
100
AcDbEntity
  8
0
  6
Continuous
 62
     8
370
     0
100
AcDbCircle
 10
60.1444367579
 20
87.7403161174
 30
0.0
 40
4.51858681918482
100
AcDbArc
 50
90.4101056168
 51
179.5898943832
  0
LINE
  5
151
330
1F
100
AcDbEntity
  8
0
  6
Continuous
 62
     8
370
     0
100
AcDbLine
 10
55.6259656877
 20
87.7726584998
 30
0.0
 11
50.1098855019
 21
93.288736823
 31
0.0
  0
LINE
  5
152
330
1F
100
AcDbEntity
  8
0
  6
Continuous
 62
     8
370
     0
100
AcDbLine
 10
54.5960141898
 20
97.7748655108
 30
0.0
 11
60.1120943755
 21
92.2587871877
 31
0.0
  0
ARC
  5
153
330
1F
100
AcDbEntity
  8
0
  6
Continuous
 62
     8
370
     0
100
AcDbCircle
 10
60.1444271038
 20
55.0269889064
 30
0.0
 40
4.518577096175106
100
AcDbArc
 50
180.4099840808
 51
269.5900159192
  0
LINE
  5
154
330
1F
100
AcDbEntity
  8
0
  6
Continuous
 62
     8
370
     0
100
AcDbLine
 10
60.1120943755
 20
50.5085274903
 30
0.0
 11
54.5960141898
 21
44.9924454418
 31
0.0
  0
LINE
  5
155
330
1F
100
AcDbEntity
  8
0
  6
Continuous
 62
     8
370
     0
100
AcDbLine
 10
50.1098855019
 20
49.4785741297
 30
0.0
 11
55.6259656877
 21
54.9946561781
 31
0.0
  0
ARC
  5
156
330
1F
100
AcDbEntity
  8
0
  6
Continuous
 62
     8
370
     0
100
AcDbCircle
 10
92.8577605453
 20
55.0269923301
 30
0.0
 40
4.518580544317628
100
AcDbArc
 50
270.4100271821
 51
359.5899728179
  0
LINE
  5
157
330
1F
100
AcDbEntity
  8
0
  6
Continuous
 62
     8
370
     0
100
AcDbLine
 10
97.3762253851
 20
54.9946561781
 30
0.0
 11
102.8923055709
 21
49.4785741297
 31
0.0
  0
LINE
  5
158
330
1F
100
AcDbEntity
  8
0
  6
Continuous
 62
     8
370
     0
100
AcDbLine
 10
98.406176883
 20
44.9924454418
 30
0.0
 11
92.8900966973
 21
50.5085274903
 31
0.0
  0
LINE
  5
159
330
1F
100
AcDbEntity
  8
0
  6
Continuous
 62
     8
370
     0
100
AcDbLine
 10
60.1120943755
 20
92.2587871877
 30
0.0
 11
92.8900966973
 21
92.2587871877
 31
0.0
  0
LINE
  5
15A
330
1F
100
AcDbEntity
  8
0
  6
Continuous
 62
     8
370
     0
100
AcDbLine
 10
55.6259656877
 20
54.9946561781
 30
0.0
 11
55.6259656877
 21
87.7726584998
 31
0.0
  0
LINE
  5
15B
330
1F
100
AcDbEntity
  8
0
  6
Continuous
 62
     8
370
     0
100
AcDbLine
 10
97.3762253851
 20
87.7726584998
 30
0.0
 11
97.3762253851
 21
54.9946561781
 31
0.0
  0
LINE
  5
15C
330
1F
100
AcDbEntity
  8
0
  6
Continuous
 62
     8
370
     0
100
AcDbLine
 10
92.8900966973
 20
50.5085274903
 30
0.0
 11
60.1120943755
 21
50.5085274903
 31
0.0
  0
LWPOLYLINE
  5
15D
330
1F
100
AcDbEntity
  8
0
  6
Continuous
 62
     8
370
     0
100
AcDbPolyline
 90
       18
 70
   128
 43
0.0
 10
60.1120943755
 20
92.2587871877
 10
60.1281690032
 20
92.1944849519
 10
60.1556355685
 20
92.0846224157
 10
60.1942798675
 20
91.9300414947
 10
60.243807602
 20
91.7319305567
 10
60.3038369298
 20
91.4918169705
 10
60.3739040524
 20
91.2115484802
 10
60.4534688026
 20
90.8932857541
 10
60.5419202328
 20
90.5394800333
 10
60.6385784776
 20
90.1528507797
 10
60.7426947535
 20
89.7363782254
 10
60.8534718484
 20
89.2932735709
 10
60.9700557396
 20
88.8269417313
 10
61.0915467695
 20
88.3409738866
 10
61.2170108215
 20
87.8391176788
 10
61.3454811827
 20
87.3252362338
 10
61.4759687886
 20
86.8032858101
 10
61.6074696735
 20
86.2772822706
  0
LWPOLYLINE
  5
15E
330
1F
100
AcDbEntity
  8
0
  6
Continuous
 62
     8
370
     0
100
AcDbPolyline
 90
       18
 70
   128
 43
0.0
 10
55.6259656877
 20
87.7726584998
 10
55.6902660609
 20
87.7565838722
 10
55.8001285971
 20
87.7291173068
 10
55.9547113806
 20
87.6904711453
 10
56.1528223187
 20
87.6409434108
 10
56.3929359049
 20
87.5809140829
 10
56.6732025326
 20
87.510848823
 10
56.9914652586
 20
87.4312840728
 10
57.3452728421
 20
87.3428307799
 10
57.7319020957
 20
87.2461743978
 10
58.1483727873
 20
87.1420562593
 10
58.5914793045
 20
87.031281027
 10
59.057811144
 20
86.9146980671
 10
59.5437771261
 20
86.7932051746
 10
60.0456314713
 20
86.6677411226
 10
60.5595147789
 20
86.5392707614
 10
61.0814670653
 20
86.4087812928
 10
61.6074696735
 20
86.2772822706
  0
LWPOLYLINE
  5
15F
330
1F
100
AcDbEntity
  8
0
  6
Continuous
 62
     8
370
     0
100
AcDbPolyline
 90
       18
 70
   128
 43
0.0
 10
91.3947213993
 20
86.2772822706
 10
91.9207240075
 20
86.4087812928
 10
92.4426762939
 20
86.5392707614
 10
92.9565596015
 20
86.6677411226
 10
93.4584139467
 20
86.7932051746
 10
93.9443799288
 20
86.9146980671
 10
94.4107117683
 20
87.031281027
 10
94.8538182855
 20
87.1420562593
 10
95.2702889771
 20
87.2461743978
 10
95.6569182307
 20
87.3428307799
 10
96.0107258142
 20
87.4312840728
 10
96.3289885402
 20
87.510848823
 10
96.6092551679
 20
87.5809140829
 10
96.8493687541
 20
87.6409434108
 10
97.0474796922
 20
87.6904711453
 10
97.2020624757
 20
87.7291173068
 10
97.3119250119
 20
87.7565838722
 10
97.3762253851
 20
87.7726584998
  0
LWPOLYLINE
  5
160
330
1F
100
AcDbEntity
  8
0
  6
Continuous
 62
     8
370
     0
100
AcDbPolyline
 90
       18
 70
   128
 43
0.0
 10
92.8900966973
 20
92.2587871877
 10
92.8740220696
 20
92.1944849519
 10
92.8465555043
 20
92.0846224157
 10
92.8079112053
 20
91.9300414947
 10
92.7583834708
 20
91.7319305567
 10
92.698354143
 20
91.4918169705
 10
92.6282870204
 20
91.2115484802
 10
92.5487222702
 20
90.8932857541
 10
92.46027084
 20
90.5394800333
 10
92.3636125952
 20
90.1528507797
 10
92.2594963193
 20
89.7363782254
 10
92.1487192244
 20
89.2932735709
 10
92.0321353332
 20
88.8269417313
 10
91.9106443033
 20
88.3409738866
 10
91.7851802513
 20
87.8391176788
 10
91.6567098901
 20
87.3252362338
 10
91.5262222842
 20
86.8032858101
 10
91.3947213993
 20
86.2772822706
  0
LINE
  5
161
330
1F
100
AcDbEntity
  8
0
  6
Continuous
 62
     8
370
     0
100
AcDbLine
 10
91.3947213993
 20
86.2772822706
 30
0.0
 11
61.6074696735
 21
86.2772822706
 31
0.0
  0
LINE
  5
162
330
1F
100
AcDbEntity
  8
0
  6
Continuous
 62
     8
370
     0
100
AcDbLine
 10
61.6074696735
 20
86.2772822706
 30
0.0
 11
61.6074696735
 21
56.4900324074
 31
0.0
  0
LWPOLYLINE
  5
163
330
1F
100
AcDbEntity
  8
0
  6
Continuous
 62
     8
370
     0
100
AcDbPolyline
 90
       18
 70
   128
 43
0.0
 10
55.6259656877
 20
54.9946561781
 10
55.6902660609
 20
55.0107270805
 10
55.8001285971
 20
55.0381973711
 10
55.9547113806
 20
55.0768435327
 10
56.1528223187
 20
55.1263675419
 10
56.3929359049
 20
55.1863968698
 10
56.6732025326
 20
55.2564621297
 10
56.9914652586
 20
55.3360268799
 10
57.3452728421
 20
55.4244801728
 10
57.7319020957
 20
55.5211365548
 10
58.1483727873
 20
55.6252584187
 10
58.5914793045
 20
55.736033651
 10
59.057811144
 20
55.8526128856
 10
59.5437771261
 20
55.9741095034
 10
60.0456314713
 20
56.0995698301
 10
60.5595147789
 20
56.2280401913
 10
61.0814670653
 20
56.3585296599
 10
61.6074696735
 20
56.4900324074
  0
LINE
  5
164
330
1F
100
AcDbEntity
  8
0
  6
Continuous
 62
     8
370
     0
100
AcDbLine
 10
91.3947213993
 20
56.4900324074
 30
0.0
 11
91.3947213993
 21
86.2772822706
 31
0.0
  0
LWPOLYLINE
  5
165
330
1F
100
AcDbEntity
  8
0
  6
Continuous
 62
     8
370
     0
100
AcDbPolyline
 90
       18
 70
   128
 43
0.0
 10
91.3947213993
 20
56.4900324074
 10
91.9207240075
 20
56.3585296599
 10
92.4426762939
 20
56.2280401913
 10
92.9565596015
 20
56.0995698301
 10
93.4584139467
 20
55.9741095034
 10
93.9443799288
 20
55.8526128856
 10
94.4107117683
 20
55.736033651
 10
94.8538182855
 20
55.6252584187
 10
95.2702889771
 20
55.5211365548
 10
95.6569182307
 20
55.4244801728
 10
96.0107258142
 20
55.3360268799
 10
96.3289885402
 20
55.2564621297
 10
96.6092551679
 20
55.1863968698
 10
96.8493687541
 20
55.1263675419
 10
97.0474796922
 20
55.0768435327
 10
97.2020624757
 20
55.0381973711
 10
97.3119250119
 20
55.0107270805
 10
97.3762253851
 20
54.9946561781
  0
LWPOLYLINE
  5
166
330
1F
100
AcDbEntity
  8
0
  6
Continuous
 62
     8
370
     0
100
AcDbPolyline
 90
       18
 70
   128
 43
0.0
 10
61.6074696735
 20
56.4900324074
 10
61.4759687886
 20
55.9640288678
 10
61.3454811827
 20
55.4420784441
 10
61.2170108215
 20
54.9281895486
 10
61.0915467695
 20
54.4263407913
 10
60.9700557396
 20
53.9403692213
 10
60.8534718484
 20
53.4740373818
 10
60.7426947535
 20
53.0309364525
 10
60.6385784776
 20
52.6144638983
 10
60.5419202328
 20
52.2278309194
 10
60.4534688026
 20
51.8740251986
 10
60.3739040524
 20
51.5557661978
 10
60.3038369298
 20
51.2754977075
 10
60.243807602
 20
51.035380396
 10
60.1942798675
 20
50.8372694579
 10
60.1556355685
 20
50.6826922623
 10
60.1281690032
 20
50.5728260008
 10
60.1120943755
 20
50.5085274903
  0
LWPOLYLINE
  5
167
330
1F
100
AcDbEntity
  8
0
  6
Continuous
 62
     8
370
     0
100
AcDbPolyline
 90
       18
 70
   128
 43
0.0
 10
91.3947213993
 20
56.4900324074
 10
91.5262222842
 20
55.9640288678
 10
91.6567098901
 20
55.4420784441
 10
91.7851802513
 20
54.9281895486
 10
91.9106443033
 20
54.4263407913
 10
92.0321353332
 20
53.9403692213
 10
92.1487192244
 20
53.4740373818
 10
92.2594963193
 20
53.0309364525
 10
92.3636125952
 20
52.6144638983
 10
92.46027084
 20
52.2278309194
 10
92.5487222702
 20
51.8740251986
 10
92.6282870204
 20
51.5557661978
 10
92.698354143
 20
51.2754977075
 10
92.7583834708
 20
51.035380396
 10
92.8079112053
 20
50.8372694579
 10
92.8465555043
 20
50.6826922623
 10
92.8740220696
 20
50.5728260008
 10
92.8900966973
 20
50.5085274903
  0
LINE
  5
168
330
1F
100
AcDbEntity
  8
0
  6
Continuous
 62
     8
370
     0
100
AcDbLine
 10
61.6074696735
 20
56.4900324074
 30
0.0
 11
91.3947213993
 21
56.4900324074
 31
0.0
  0
LINE
  5
169
330
1F
100
AcDbEntity
  8
0
  6
Continuous
 62
     8
370
     0
100
AcDbLine
 10
50.801096353
 20
107.8836568025
 30
0.0
 11
50.801096353
 21
106.3836556253
 31
0.0
  0
LINE
  5
16A
330
1F
100
AcDbEntity
  8
0
  6
Continuous
 62
     8
370
     0
100
AcDbLine
 10
102.2010947198
 20
106.3836556253
 30
0.0
 11
102.2010947198
 21
107.8836568025
 31
0.0
  0
LINE
  5
16B
330
1F
100
AcDbEntity
  8
0
  6
Continuous
 62
     8
370
     0
100
AcDbLine
 10
102.5010960728
 20
127.5836563413
 30
0.0
 11
102.2010947198
 21
127.5836563413
 31
0.0
  0
LINE
  5
16C
330
1F
100
AcDbEntity
  8
0
  6
Continuous
 62
     8
370
     0
100
AcDbLine
 10
102.2010947198
 20
127.5836563413
 30
0.0
 11
102.2010947198
 21
127.8836563555
 31
0.0
  0
LINE
  5
16D
330
1F
100
AcDbEntity
  8
0
  6
Continuous
 62
     8
370
     0
100
AcDbLine
 10
50.801096353
 20
127.5836563413
 30
0.0
 11
50.801096353
 21
127.8836563555
 31
0.0
  0
LINE
  5
16E
330
1F
100
AcDbEntity
  8
0
  6
Continuous
 62
     8
370
     0
100
AcDbLine
 10
50.801096353
 20
127.5836563413
 30
0.0
 11
50.501095
 21
127.5836563413
 31
0.0
  0
LINE
  5
16F
330
1F
100
AcDbEntity
  8
0
  6
Continuous
 62
     8
370
     0
100
AcDbLine
 10
102.2010947198
 20
127.5836563413
 30
0.0
 11
50.801096353
 21
127.5836563413
 31
0.0
  0
LINE
  5
170
330
1F
100
AcDbEntity
  8
0
  6
Continuous
 62
     8
370
     0
100
AcDbLine
 10
50.801096353
 20
127.5836563413
 30
0.0
 11
50.801096353
 21
108.1836562929
 31
0.0
  0
LINE
  5
171
330
1F
100
AcDbEntity
  8
0
  6
Continuous
 62
     8
370
     0
100
AcDbLine
 10
50.801096353
 20
108.1836562929
 30
0.0
 11
50.501095
 21
108.1836562929
 31
0.0
  0
LINE
  5
172
330
1F
100
AcDbEntity
  8
0
  6
Continuous
 62
     8
370
     0
100
AcDbLine
 10
50.801096353
 20
108.1836562929
 30
0.0
 11
102.2010947198
 21
108.1836562929
 31
0.0
  0
LINE
  5
173
330
1F
100
AcDbEntity
  8
0
  6
Continuous
 62
     8
370
     0
100
AcDbLine
 10
102.2010947198
 20
108.1836562929
 30
0.0
 11
102.2010947198
 21
127.5836563413
 31
0.0
  0
LINE
  5
174
330
1F
100
AcDbEntity
  8
0
  6
Continuous
 62
     8
370
     0
100
AcDbLine
 10
102.5010960728
 20
108.1836562929
 30
0.0
 11
102.2010947198
 21
108.1836562929
 31
0.0
  0
LINE
  5
175
330
1F
100
AcDbEntity
  8
0
  6
Continuous
 62
     8
370
     0
100
AcDbLine
 10
50.801096353
 20
107.8836568025
 30
0.0
 11
50.801096353
 21
108.1836562929
 31
0.0
  0
LINE
  5
176
330
1F
100
AcDbEntity
  8
0
  6
Continuous
 62
     8
370
     0
100
AcDbLine
 10
102.2010947198
 20
107.8836568025
 30
0.0
 11
102.2010947198
 21
108.1836562929
 31
0.0
  0
DIMENSION
  5
177
330
1F
100
AcDbEntity
  8
0
  6
Continuous
 62
     7
370
     0
100
AcDbDimension
  2
*D2
 10
33.4529075972
 20
38.8836563555
 30
0.0
 11
33.4529075972
 21
81.8065465233
 31
0.0
 70
   160
  1
(<>)
 71
     2
 42
-1.0
  3
SLDDIMSTYLE0
100
AcDbAlignedDimension
 13
50.8010955364
 23
127.8836563555
 33
0.0
 14
50.0010955364
 24
38.8836563555
 34
0.0
 50
90.0
100
AcDbRotatedDimension
  0
DIMENSION
  5
183
330
1F
100
AcDbEntity
  8
0
  6
Continuous
 62
     7
370
     0
100
AcDbDimension
  2
*D3
 10
109.0010955364
 20
28.1770470332
 30
0.0
 11
76.7384383429
 21
28.1770470332
 31
0.0
 70
   160
  1
(<>)
 71
     2
 42
-1.0
  3
SLDDIMSTYLE0
100
AcDbAlignedDimension
 13
44.0010955364
 23
44.8836563555
 33
0.0
 14
109.0010955364
 24
44.8836563555
 34
0.0
 50
0.0
100
AcDbRotatedDimension
  0
LINE
  5
18F
330
1F
100
AcDbEntity
  8
0
  6
CENTERX2
 62
     7
370
     0
100
AcDbLine
 10
76.5010955364
 20
129.5836563555
 30
0.0
 11
76.5010955364
 21
36.5122841776
 31
0.0
  0
LINE
  5
190
330
1F
100
AcDbEntity
  8
0
  6
CENTERX2
 62
     7
370
     0
100
AcDbLine
 10
42.0649898619
 20
71.3836563555
 30
0.0
 11
109.8760101134
 21
71.3836563555
 31
0.0
  0
SPLINE
  5
191
330
1F
100
AcDbEntity
  8
0
  6
Continuous
 62
     7
370
    30
100
AcDbSpline
210
0.0
220
0.0
230
1.0
 70
     8
 71
     3
 72
    24
 73
    20
 74
     0
 42
0.00000001
 43
0.00000001
 40
0.0
 40
0.0
 40
0.0
 40
0.0
 40
0.006645322514323
 40
0.1269738314460131
 40
0.174981357690061
 40
0.2146323210116649
 40
0.2547089468692338
 40
0.3070547694187331
 40
0.3717422540854907
 40
0.4415654462180857
 40
0.4990336635839487
 40
0.5265736317785616
 40
0.549792886700387
 40
0.5708405616461731
 40
0.6173870262386241
 40
0.6851778968481068
 40
0.7746442554014566
 40
0.8859639821783591
 40
1.0
 40
1.0
 40
1.0
 40
1.0
 10
218.2452778259946
 20
174.6730504703584
 30
0.0
 10
218.2625133564887
 20
174.6730501524713
 30
0.0
 10
218.5918369279366
 20
174.6730440785231
 30
0.0
 10
219.045894720851
 20
174.6730469472136
 30
0.0
 10
219.5849865307252
 20
174.673042497083
 30
0.0
 10
219.9150275226775
 20
174.6730431721129
 30
0.0
 10
220.2550105522242
 20
174.6730428648611
 30
0.0
 10
220.6605393132957
 20
174.6730436418655
 30
0.0
 10
221.1429524232128
 20
174.6730400882772
 30
0.0
 10
221.6387416110886
 20
174.673036683277
 30
0.0
 10
222.0364135874115
 20
174.6730340841843
 30
0.0
 10
222.3111135743347
 20
174.6730326149676
 30
0.0
 10
222.4912177198419
 20
174.6730326922118
 30
0.0
 10
222.7107463550051
 20
174.6730333915009
 30
0.0
 10
222.9960200369198
 20
174.6730449980754
 30
0.0
 10
223.3992080929288
 20
174.6730707982161
 30
0.0
 10
223.9043518069637
 20
174.6730972612581
 30
0.0
 10
224.479327412079
 20
174.6730552511225
 30
0.0
 10
224.879573964244
 20
174.6730613526575
 30
0.0
 10
225.0821093956662
 20
174.673064440197
 30
0.0
  0
SPLINE
  5
192
330
1F
100
AcDbEntity
  8
0
  6
Continuous
 62
     7
370
    30
100
AcDbSpline
210
0.0
220
0.0
230
1.0
 70
     8
 71
     3
 72
    26
 73
    22
 74
     0
 42
0.00000001
 43
0.00000001
 40
0.0
 40
0.0
 40
0.0
 40
0.0
 40
0.0052247101745213
 40
0.0287361617984623
 40
0.0742376869531279
 40
0.0975631471047354
 40
0.1262077305039441
 40
0.1745963433498197
 40
0.2358023676633627
 40
0.3104561294092062
 40
0.3925089229231067
 40
0.4670202207511119
 40
0.533564582243567
 40
0.5924467361403237
 40
0.6441062890206218
 40
0.6896795927441882
 40
0.7579987031005363
 40
0.8253528045911166
 40
0.9009173516094747
 40
0.9866354562938827
 40
1.0
 40
1.0
 40
1.0
 40
1.0
 10
179.9204784373475
 20
174.6730476763906
 30
0.0
 10
179.9256547957814
 20
174.6730466900931
 30
0.0
 10
179.9541250206389
 20
174.6730412654088
 30
0.0
 10
179.9832623155129
 20
174.6730401400078
 30
0.0
 10
180.0316314627795
 20
174.673035886396
 30
0.0
 10
180.1069081136393
 20
174.6730336786324
 30
0.0
 10
180.285241365764
 20
174.6730305181715
 30
0.0
 10
180.5893199056771
 20
174.6730715626492
 30
0.0
 10
181.0527673310646
 20
174.6731860118848
 30
0.0
 10
181.638207874084
 20
174.6733319169978
 30
0.0
 10
182.2835291005042
 20
174.6733905694962
 30
0.0
 10
182.9260740676915
 20
174.6733252416451
 30
0.0
 10
183.5243022066859
 20
174.6732121578931
 30
0.0
 10
184.076276663514
 20
174.6731168694622
 30
0.0
 10
184.58398937268
 20
174.6730647465983
 30
0.0
 10
185.1454028473121
 20
174.6730479693945
 30
0.0
 10
185.7730618892627
 20
174.6730500614138
 30
0.0
 10
186.5073950530136
 20
174.6730492237153
 30
0.0
 10
187.3015096149873
 20
174.6730503537117
 30
0.0
 10
187.9079603412819
 20
174.6730428513739
 30
0.0
 10
188.2520737104312
 20
174.6730454616625
 30
0.0
 10
188.2984886805249
 20
174.6730458137455
 30
0.0
  0
LINE
  5
193
330
1F
100
AcDbEntity
  8
0
  6
Continuous
 62
     7
370
    30
100
AcDbLine
 10
156.104725499
 20
168.4931915399
 30
0.0
 11
156.104725499
 21
175.1730505523
 31
0.0
  0
LINE
  5
194
330
1F
100
AcDbEntity
  8
0
  6
Continuous
 62
     7
370
    30
100
AcDbLine
 10
150.1047259125
 20
175.1730505523
 30
0.0
 11
150.1047259125
 21
168.4931915399
 31
0.0
  0
LINE
  5
195
330
1F
100
AcDbEntity
  8
0
  6
Continuous
 62
     7
370
    30
100
AcDbLine
 10
156.104725499
 20
175.1730505523
 30
0.0
 11
153.1047259385
 21
178.1730510441
 31
0.0
  0
LINE
  5
196
330
1F
100
AcDbEntity
  8
0
  6
Continuous
 62
     7
370
    30
100
AcDbLine
 10
153.1047259385
 20
178.1730510441
 30
0.0
 11
150.1047259125
 21
175.1730505523
 31
0.0
  0
LINE
  5
197
330
1F
100
AcDbEntity
  8
0
  6
Continuous
 62
     7
370
    30
100
AcDbLine
 10
150.1047259125
 20
168.4931915399
 30
0.0
 11
150.6592255945
 21
168.1730512676
 31
0.0
  0
LINE
  5
198
330
1F
100
AcDbEntity
  8
0
  6
Continuous
 62
     7
370
    30
100
AcDbLine
 10
155.5502253513
 20
168.1730512676
 30
0.0
 11
156.104725499
 21
168.4931915399
 31
0.0
  0
LINE
  5
199
330
1F
100
AcDbEntity
  8
0
  6
Continuous
 62
     7
370
    30
100
AcDbLine
 10
162.1047264824
 20
206.1730519083
 30
0.0
 11
159.6556871126
 21
205.9156473872
 31
0.0
  0
LINE
  5
19A
330
1F
100
AcDbEntity
  8
0
  6
Continuous
 62
     7
370
    30
100
AcDbLine
 10
159.6556871126
 20
196.430455256
 30
0.0
 11
162.1047264824
 21
196.1730512005
 31
0.0
  0
ARC
  5
19B
330
1F
100
AcDbEntity
  8
0
  6
Continuous
 62
     7
370
    30
100
AcDbCircle
 10
167.3047257225
 20
201.1730509844
 30
0.0
 40
9.000000000000002
100
AcDbArc
 50
194.4775121859
 51
211.7999516825
  0
ARC
  5
19C
330
1F
100
AcDbEntity
  8
0
  6
Continuous
 62
     7
370
    30
100
AcDbCircle
 10
167.3047257225
 20
201.1730509844
 30
0.0
 40
9.000000000000007
100
AcDbArc
 50
148.2000483175
 51
165.5224878141
  0
LINE
  5
19D
330
1F
100
AcDbEntity
  8
0
  6
Continuous
 62
     7
370
    30
100
AcDbLine
 10
148.6047256666
 20
175.1730505523
 30
0.0
 11
145.4047257474
 21
175.1730505523
 31
0.0
  0
LINE
  5
19E
330
1F
100
AcDbEntity
  8
0
  6
Continuous
 62
     7
370
    30
100
AcDbLine
 10
145.4047257474
 20
207.1730502096
 30
0.0
 11
145.4047257474
 21
175.1730505523
 31
0.0
  0
LINE
  5
19F
330
1F
100
AcDbEntity
  8
0
  6
Continuous
 62
     7
370
    30
100
AcDbLine
 10
148.6047256666
 20
207.1730502096
 30
0.0
 11
148.6047256666
 21
175.1730505523
 31
0.0
  0
LINE
  5
1A0
330
1F
100
AcDbEntity
  8
0
  6
Continuous
 62
     7
370
    30
100
AcDbLine
 10
145.4047257474
 20
207.1730502096
 30
0.0
 11
148.6047256666
 21
207.1730502096
 31
0.0
  0
LINE
  5
1A1
330
1F
100
AcDbEntity
  8
0
  6
Continuous
 62
     7
370
    30
100
AcDbLine
 10
153.1047259385
 20
204.1730506492
 30
0.0
 11
155.104725335
 21
206.1730519083
 31
0.0
  0
LINE
  5
1A2
330
1F
100
AcDbEntity
  8
0
  6
Continuous
 62
     7
370
    30
100
AcDbLine
 10
157.1047256629
 20
206.1730519083
 30
0.0
 11
155.104725335
 21
206.1730519083
 31
0.0
  0
LINE
  5
1A3
330
1F
100
AcDbEntity
  8
0
  6
Continuous
 62
     7
370
    30
100
AcDbLine
 10
157.1047256629
 20
206.1730519083
 30
0.0
 11
157.1047256629
 21
204.9659442303
 31
0.0
  0
ARC
  5
1A4
330
1F
100
AcDbEntity
  8
0
  6
Continuous
 62
     7
370
    30
100
AcDbCircle
 10
154.6047257225
 20
204.9659442033
 30
0.0
 40
2.5
100
AcDbArc
 50
315.0
 51
0.0
  0
LINE
  5
1A5
330
1F
100
AcDbEntity
  8
0
  6
Continuous
 62
     7
370
    30
100
AcDbLine
 10
156.3724928464
 20
203.1981775683
 30
0.0
 11
154.6905121694
 21
201.5161968914
 31
0.0
  0
ARC
  5
1A6
330
1F
100
AcDbEntity
  8
0
  6
Continuous
 62
     7
370
    30
100
AcDbCircle
 10
156.1047257225
 20
200.1019831726
 30
0.0
 40
2.000000000000036
100
AcDbArc
 50
135.0
 51
180.0
  0
LINE
  5
1A7
330
1F
100
AcDbEntity
  8
0
  6
Continuous
 62
     7
370
    30
100
AcDbLine
 10
154.1047261025
 20
200.1019835618
 30
0.0
 11
154.1047261025
 21
186.0751105153
 31
0.0
  0
LINE
  5
1A8
330
1F
100
AcDbEntity
  8
0
  6
Continuous
 62
     7
370
    30
100
AcDbLine
 10
154.004725341
 20
186.0751105153
 30
0.0
 11
154.1047261025
 21
186.0751105153
 31
0.0
  0
LINE
  5
1A9
330
1F
100
AcDbEntity
  8
0
  6
Continuous
 62
     7
370
    30
100
AcDbLine
 10
154.1047261025
 20
185.861765701
 30
0.0
 11
154.1047261025
 21
185.1561337856
 31
0.0
  0
LINE
  5
1AA
330
1F
100
AcDbEntity
  8
0
  6
Continuous
 62
     7
370
    30
100
AcDbLine
 10
154.004725341
 20
185.1561337856
 30
0.0
 11
154.1047261025
 21
185.1561337856
 31
0.0
  0
LINE
  5
1AB
330
1F
100
AcDbEntity
  8
0
  6
Continuous
 62
     7
370
    30
100
AcDbLine
 10
154.004725341
 20
184.9982205924
 30
0.0
 11
154.004725341
 21
185.1561337856
 31
0.0
  0
LINE
  5
1AC
330
1F
100
AcDbEntity
  8
0
  6
Continuous
 62
     7
370
    30
100
AcDbLine
 10
154.1047261025
 20
184.9982205924
 30
0.0
 11
154.004725341
 21
184.9982205924
 31
0.0
  0
LINE
  5
1AD
330
1F
100
AcDbEntity
  8
0
  6
Continuous
 62
     7
370
    30
100
AcDbLine
 10
154.1047261025
 20
184.9982205924
 30
0.0
 11
154.1047261025
 21
184.4203717221
 31
0.0
  0
LINE
  5
1AE
330
1F
100
AcDbEntity
  8
0
  6
Continuous
 62
     7
370
    30
100
AcDbLine
 10
154.004725341
 20
184.4203721878
 30
0.0
 11
154.1047261025
 21
184.4203717221
 31
0.0
  0
LINE
  5
1AF
330
1F
100
AcDbEntity
  8
0
  6
Continuous
 62
     7
370
    30
100
AcDbLine
 10
154.004725341
 20
184.2636236136
 30
0.0
 11
154.004725341
 21
184.4203721878
 31
0.0
  0
LINE
  5
1B0
330
1F
100
AcDbEntity
  8
0
  6
Continuous
 62
     7
370
    30
100
AcDbLine
 10
154.1047261025
 20
184.2636236136
 30
0.0
 11
154.004725341
 21
184.2636236136
 31
0.0
  0
LINE
  5
1B1
330
1F
100
AcDbEntity
  8
0
  6
Continuous
 62
     7
370
    30
100
AcDbLine
 10
154.1047261025
 20
184.2636236136
 30
0.0
 11
154.1047261025
 21
182.2441185971
 31
0.0
  0
ARC
  5
1B2
330
1F
100
AcDbEntity
  8
0
  6
Continuous
 62
     7
370
    30
100
AcDbCircle
 10
156.1047257225
 20
182.2441187963
 30
0.0
 40
2.000000000000036
100
AcDbArc
 50
180.0
 51
225.0
  0
LINE
  5
1B3
330
1F
100
AcDbEntity
  8
0
  6
Continuous
 62
     7
370
    30
100
AcDbLine
 10
154.6905121694
 20
180.8299048019
 30
0.0
 11
156.3724928464
 21
179.1479250562
 31
0.0
  0
ARC
  5
1B4
330
1F
100
AcDbEntity
  8
0
  6
Continuous
 62
     7
370
    30
100
AcDbCircle
 10
154.6047257225
 20
177.3801577656
 30
0.0
 40
2.5
100
AcDbArc
 50
0.0
 51
45.0
  0
LINE
  5
1B5
330
1F
100
AcDbEntity
  8
0
  6
Continuous
 62
     7
370
    30
100
AcDbLine
 10
157.1047256629
 20
177.380157463
 30
0.0
 11
157.1047256629
 21
176.1730507162
 31
0.0
  0
LINE
  5
1B6
330
1F
100
AcDbEntity
  8
0
  6
Continuous
 62
     7
370
    30
100
AcDbLine
 10
157.1047256629
 20
176.1730507162
 30
0.0
 11
155.104725335
 21
176.1730507162
 31
0.0
  0
LINE
  5
1B7
330
1F
100
AcDbEntity
  8
0
  6
Continuous
 62
     7
370
    30
100
AcDbLine
 10
155.104725335
 20
176.1730507162
 30
0.0
 11
153.1047259385
 21
178.1730510441
 31
0.0
  0
LINE
  5
1B8
330
1F
100
AcDbEntity
  8
0
  6
Continuous
 62
     7
370
    30
100
AcDbLine
 10
153.1047259385
 20
178.1730510441
 30
0.0
 11
151.1047256107
 21
176.1730507162
 31
0.0
  0
LINE
  5
1B9
330
1F
100
AcDbEntity
  8
0
  6
Continuous
 62
     7
370
    30
100
AcDbLine
 10
151.1047256107
 20
176.1730507162
 30
0.0
 11
148.6047256666
 21
176.1730507162
 31
0.0
  0
LINE
  5
1BA
330
1F
100
AcDbEntity
  8
0
  6
Continuous
 62
     7
370
    30
100
AcDbLine
 10
148.6047256666
 20
176.1730507162
 30
0.0
 11
148.6047256666
 21
206.1730519083
 31
0.0
  0
LINE
  5
1BB
330
1F
100
AcDbEntity
  8
0
  6
Continuous
 62
     7
370
    30
100
AcDbLine
 10
151.1047256107
 20
206.1730519083
 30
0.0
 11
148.6047256666
 21
206.1730519083
 31
0.0
  0
LINE
  5
1BC
330
1F
100
AcDbEntity
  8
0
  6
Continuous
 62
     7
370
    30
100
AcDbLine
 10
151.1047256107
 20
206.1730519083
 30
0.0
 11
153.1047259385
 21
204.1730506492
 31
0.0
  0
LINE
  5
1BD
330
1F
100
AcDbEntity
  8
0
  6
Continuous
 62
     7
370
    30
100
AcDbLine
 10
154.1047261025
 20
185.861765701
 30
0.0
 11
154.004725341
 21
185.861765701
 31
0.0
  0
LINE
  5
1BE
330
1F
100
AcDbEntity
  8
0
  6
Continuous
 62
     7
370
    30
100
AcDbLine
 10
154.004725341
 20
185.861765701
 30
0.0
 11
154.004725341
 21
186.0751105153
 31
0.0
  0
SPLINE
  5
1BF
330
1F
100
AcDbEntity
  8
0
  6
Continuous
 62
     7
370
    30
100
AcDbSpline
210
0.0
220
0.0
230
1.0
 70
    24
 71
     3
 72
     9
 73
     5
 74
     0
 42
0.00000001
 43
0.00000001
 40
0.0
 40
0.0
 40
0.0
 40
0.0
 40
0.5597370966284941
 40
1.0
 40
1.0
 40
1.0
 40
1.0
 10
154.1047261024548
 20
186.0751105152877
 30
0.0
 10
154.1047261024548
 20
186.0666270314684
 30
0.0
 10
154.1047261024548
 20
186.0514708378367
 30
0.0
 10
154.1047261024548
 20
186.0350980138234
 30
0.0
 10
154.1047261024548
 20
186.027889666787
 30
0.0
  0
LINE
  5
1C0
330
1F
100
AcDbEntity
  8
0
  6
Continuous
 62
     7
370
    30
100
AcDbLine
 10
154.004725341
 20
186.0278896668
 30
0.0
 11
154.1047261025
 21
186.0278896668
 31
0.0
  0
LINE
  5
1C1
330
1F
100
AcDbEntity
  8
0
  6
Continuous
 62
     7
370
    30
100
AcDbLine
 10
154.1047261025
 20
184.3979701546
 30
0.0
 11
154.1047261025
 21
184.2636236136
 31
0.0
  0
SPLINE
  5
1C2
330
1F
100
AcDbEntity
  8
0
  6
Continuous
 62
     7
370
    30
100
AcDbSpline
210
0.0
220
0.0
230
1.0
 70
    24
 71
     3
 72
     9
 73
     5
 74
     0
 42
0.00000001
 43
0.00000001
 40
0.0
 40
0.0
 40
0.0
 40
0.0
 40
0.7050454844569849
 40
1.0
 40
1.0
 40
1.0
 40
1.0
 10
154.1047261024548
 20
185.156133785552
 30
0.0
 10
154.1047261024548
 20
185.1322618182868
 30
0.0
 10
154.1047261024548
 20
185.0984030562757
 30
0.0
 10
154.1047261024548
 20
185.0383463895742
 30
0.0
 10
154.1047261024548
 20
185.0206324045422
 30
0.0
  0
LINE
  5
1C3
330
1F
100
AcDbEntity
  8
0
  6
Continuous
 62
     7
370
    30
100
AcDbLine
 10
150.1047259125
 20
207.1730502096
 30
0.0
 11
148.6047256666
 21
207.1730502096
 31
0.0
  0
LINE
  5
1C4
330
1F
100
AcDbEntity
  8
0
  6
Continuous
 62
     7
370
    30
100
AcDbLine
 10
148.6047256666
 20
175.1730505523
 30
0.0
 11
150.1047259125
 21
175.1730505523
 31
0.0
  0
LINE
  5
1C5
330
1F
100
AcDbEntity
  8
0
  6
Continuous
 62
     7
370
    30
100
AcDbLine
 10
157.1047256629
 20
207.1730502096
 30
0.0
 11
156.104725499
 21
207.1730502096
 31
0.0
  0
LINE
  5
1C6
330
1F
100
AcDbEntity
  8
0
  6
Continuous
 62
     7
370
    30
100
AcDbLine
 10
157.1047256629
 20
206.1730519083
 30
0.0
 11
157.1047256629
 21
207.1730502096
 31
0.0
  0
LINE
  5
1C7
330
1F
100
AcDbEntity
  8
0
  6
Continuous
 62
     7
370
    30
100
AcDbLine
 10
157.1047256629
 20
175.1730505523
 30
0.0
 11
156.104725499
 21
175.1730505523
 31
0.0
  0
LINE
  5
1C8
330
1F
100
AcDbEntity
  8
0
  6
Continuous
 62
     7
370
    30
100
AcDbLine
 10
157.1047256629
 20
175.1730505523
 30
0.0
 11
157.1047256629
 21
176.1730507162
 31
0.0
  0
LINE
  5
1C9
330
1F
100
AcDbEntity
  8
0
  6
Continuous
 62
     7
370
    30
100
AcDbLine
 10
154.1047261025
 20
186.0229368933
 30
0.0
 11
154.1047261025
 21
185.861765701
 31
0.0
  0
SPLINE
  5
1CA
330
1F
100
AcDbEntity
  8
0
  6
Continuous
 62
     7
370
    30
100
AcDbSpline
210
0.0
220
0.0
230
1.0
 70
    24
 71
     3
 72
     9
 73
     5
 74
     0
 42
0.00000001
 43
0.00000001
 40
0.0
 40
0.0
 40
0.0
 40
0.0
 40
0.3641713351575335
 40
1.0
 40
1.0
 40
1.0
 40
1.0
 10
225.0821093956662
 20
174.6730514016809
 30
0.0
 10
225.1307335250783
 20
174.6730514016809
 30
0.0
 10
225.2642534502285
 20
174.6730514016809
 30
0.0
 10
225.2793658615969
 20
174.6730514016809
 30
0.0
 10
225.2889747659398
 20
174.6730514016809
 30
0.0
  0
LINE
  5
1CB
330
1F
100
AcDbEntity
  8
0
  6
Continuous
 62
     7
370
    30
100
AcDbLine
 10
188.2984886805
 20
174.6730514017
 30
0.0
 11
218.245277826
 21
174.6730514017
 31
0.0
  0
SPLINE
  5
1CC
330
1F
100
AcDbEntity
  8
0
  6
Continuous
 62
     7
370
    30
100
AcDbSpline
210
0.0
220
0.0
230
1.0
 70
     8
 71
     3
 72
    19
 73
    15
 74
     0
 42
0.00000001
 43
0.00000001
 40
0.0
 40
0.0
 40
0.0
 40
0.0
 40
0.0834508393777763
 40
0.1669247317162543
 40
0.2503966036660205
 40
0.3338912169647749
 40
0.4173839479750955
 40
0.5008427775276969
 40
0.5840217876576375
 40
0.6672340587498837
 40
0.7504482067074628
 40
0.8336384299030034
 40
0.9168306945294551
 40
1.0
 40
1.0
 40
1.0
 40
1.0
 10
225.2889747659399
 20
174.6730514016809
 30
0.0
 10
224.0254865978482
 20
174.687237983532
 30
0.0
 10
221.4981612281105
 20
174.7156150662205
 30
0.0
 10
217.7108541080857
 20
174.8992986559982
 30
0.0
 10
213.9271426674339
 20
175.1449843542786
 30
0.0
 10
210.1444065389299
 20
175.4108773329162
 30
0.0
 10
206.3578158817922
 20
175.6148984829208
 30
0.0
 10
202.5706602408652
 20
175.7025611240862
 30
0.0
 10
198.7878264606485
 20
175.6123821431834
 30
0.0
 10
195.0140340298928
 20
175.4076196734839
 30
0.0
 10
191.2440482702288
 20
175.1422883317855
 30
0.0
 10
187.4730544897746
 20
174.8978478905143
 30
0.0
 10
183.6985033580214
 20
174.7152917061939
 30
0.0
 10
181.179704206456
 20
174.6871302076853
 30
0.0
 10
179.9204784373475
 20
174.6730514016809
 30
0.0
  0
ARC
  5
1CD
330
1F
100
AcDbEntity
  8
0
  6
Continuous
 62
     7
370
    30
100
AcDbCircle
 10
172.9450497012
 20
259.6730509844
 30
0.0
 40
1.500000000000033
100
AcDbArc
 50
90.0
 51
183.2
  0
LINE
  5
1CE
330
1F
100
AcDbEntity
  8
0
  6
Continuous
 62
     7
370
    30
100
AcDbLine
 10
172.9450493048
 20
261.173047885
 30
0.0
 11
174.7181403379
 21
261.173047885
 31
0.0
  0
ARC
  5
1CF
330
1F
100
AcDbEntity
  8
0
  6
Continuous
 62
     7
370
    30
100
AcDbCircle
 10
174.718139985
 20
259.6730509844
 30
0.0
 40
1.5
100
AcDbArc
 50
4.5
 51
90.0
  0
LINE
  5
1D0
330
1F
100
AcDbEntity
  8
0
  6
Continuous
 62
     7
370
    30
100
AcDbLine
 10
176.2135165672
 20
259.7907416669
 30
0.0
 11
181.7295948903
 21
189.7022963997
 31
0.0
  0
ARC
  5
1D1
330
1F
100
AcDbEntity
  8
0
  6
Continuous
 62
     7
370
    30
100
AcDbCircle
 10
187.7111000979
 20
190.1730509844
 30
0.0
 40
6.0
100
AcDbArc
 50
184.5
 51
270.0
  0
LINE
  5
1D2
330
1F
100
AcDbEntity
  8
0
  6
Continuous
 62
     7
370
    30
100
AcDbLine
 10
187.7110998074
 20
184.1730510962
 30
0.0
 11
217.4983496706
 21
184.1730510962
 31
0.0
  0
ARC
  5
1D3
330
1F
100
AcDbEntity
  8
0
  6
Continuous
 62
     7
370
    30
100
AcDbCircle
 10
217.498351347
 20
190.1730509844
 30
0.0
 40
6.0
100
AcDbArc
 50
270.0
 51
355.5
  0
LINE
  5
1D4
330
1F
100
AcDbEntity
  8
0
  6
Continuous
 62
     7
370
    30
100
AcDbLine
 10
223.4798545877
 20
189.7022963997
 30
0.0
 11
228.9959366361
 21
259.7907416669
 31
0.0
  0
ARC
  5
1D5
330
1F
100
AcDbEntity
  8
0
  6
Continuous
 62
     7
370
    30
100
AcDbCircle
 10
230.49131146
 20
259.6730509844
 30
0.0
 40
1.500000000000026
100
AcDbArc
 50
90.0
 51
175.5
  0
LINE
  5
1D6
330
1F
100
AcDbEntity
  8
0
  6
Continuous
 62
     7
370
    30
100
AcDbLine
 10
230.4913128654
 20
261.173047885
 30
0.0
 11
232.2644020359
 21
261.173047885
 31
0.0
  0
ARC
  5
1D7
330
1F
100
AcDbEntity
  8
0
  6
Continuous
 62
     7
370
    30
100
AcDbCircle
 10
232.2644017437
 20
259.6730509844
 30
0.0
 40
1.500000000000005
100
AcDbArc
 50
356.8
 51
90.0
  0
LINE
  5
1D8
330
1F
100
AcDbEntity
  8
0
  6
Continuous
 62
     7
370
    30
100
AcDbLine
 10
233.7620655934
 20
259.5893152204
 30
0.0
 11
230.1473568122
 21
194.9355856662
 31
0.0
  0
ARC
  5
1D9
330
1F
100
AcDbEntity
  8
0
  6
Continuous
 62
     7
370
    30
100
AcDbCircle
 10
228.150476514
 20
195.0472289008
 30
0.0
 40
2.000000000000016
100
AcDbArc
 50
315.0
 51
356.8
  0
LINE
  5
1DA
330
1F
100
AcDbEntity
  8
0
  6
Continuous
 62
     7
370
    30
100
AcDbLine
 10
229.1475932042
 20
193.2159166929
 30
0.0
 11
229.5646916072
 21
193.6330155616
 31
0.0
  0
ARC
  5
1DB
330
1F
100
AcDbEntity
  8
0
  6
Continuous
 62
     7
370
    30
100
AcDbCircle
 10
230.5618050093
 20
191.8017031465
 30
0.0
 40
1.999999999999966
100
AcDbArc
 50
135.0
 51
177.0
  0
LINE
  5
1DC
330
1F
100
AcDbEntity
  8
0
  6
Continuous
 62
     7
370
    30
100
AcDbLine
 10
227.7855451147
 20
177.0422112343
 30
0.0
 11
228.5645480196
 21
191.9063751732
 31
0.0
  0
ARC
  5
1DD
330
1F
100
AcDbEntity
  8
0
  6
Continuous
 62
     7
370
    30
100
AcDbCircle
 10
225.2889742786
 20
177.1730509844
 30
0.0
 40
2.500000000000028
100
AcDbArc
 50
270.0
 51
357.0
  0
ARC
  5
1DE
330
1F
100
AcDbEntity
  8
0
  6
Continuous
 62
     7
370
    30
100
AcDbCircle
 10
179.9204771664
 20
177.1730509844
 30
0.0
 40
2.500000000000028
100
AcDbArc
 50
183.0
 51
270.0
  0
LINE
  5
1DF
330
1F
100
AcDbEntity
  8
0
  6
Continuous
 62
     7
370
    30
100
AcDbLine
 10
176.6449051837
 20
191.9063751732
 30
0.0
 11
177.4239043633
 21
177.0422112343
 31
0.0
  0
ARC
  5
1E0
330
1F
100
AcDbEntity
  8
0
  6
Continuous
 62
     7
370
    30
100
AcDbCircle
 10
174.6476464356
 20
191.8017031465
 30
0.0
 40
2.000000000000016
100
AcDbArc
 50
3.0
 51
45.0
  0
LINE
  5
1E1
330
1F
100
AcDbEntity
  8
0
  6
Continuous
 62
     7
370
    30
100
AcDbLine
 10
175.6447615961
 20
193.6330155616
 30
0.0
 11
176.0618599991
 21
193.2159166929
 31
0.0
  0
ARC
  5
1E2
330
1F
100
AcDbEntity
  8
0
  6
Continuous
 62
     7
370
    30
100
AcDbCircle
 10
177.0589749309
 20
195.0472289008
 30
0.0
 40
1.999999999999996
100
AcDbArc
 50
183.2
 51
225.0
  0
LINE
  5
1E3
330
1F
100
AcDbEntity
  8
0
  6
Continuous
 62
     7
370
    30
100
AcDbLine
 10
175.0620926658
 20
194.9355856662
 30
0.0
 11
171.4473894725
 21
259.5893152204
 31
0.0
  0
LWPOLYLINE
  5
1E4
330
1F
100
AcDbEntity
  8
0
  6
Continuous
 62
     7
370
    30
100
AcDbPolyline
 90
        2
 70
   128
 43
0.0
 10
175.6447615961
 20
193.6330155616
 10
175.6447615961
 20
193.6330155616
  0
LWPOLYLINE
  5
1E5
330
1F
100
AcDbEntity
  8
0
  6
Continuous
 62
     7
370
    30
100
AcDbPolyline
 90
        2
 70
   128
 43
0.0
 10
229.5646916072
 20
193.6330155616
 10
229.5646916072
 20
193.6330155616
  0
LINE
  5
1E6
330
1F
100
AcDbEntity
  8
0
  6
Continuous
 62
     7
370
    30
100
AcDbLine
 10
174.7181403379
 20
261.173047885
 30
0.0
 11
180.699645255
 21
261.173047885
 31
0.0
  0
LINE
  5
1E7
330
1F
100
AcDbEntity
  8
0
  6
Continuous
 62
     7
370
    30
100
AcDbLine
 10
224.5098079483
 20
261.173047885
 30
0.0
 11
230.4913128654
 21
261.173047885
 31
0.0
  0
LINE
  5
1E8
330
1F
100
AcDbEntity
  8
0
  6
Continuous
 62
     7
370
    30
100
AcDbLine
 10
180.699645255
 20
261.173047885
 30
0.0
 11
224.5098079483
 21
261.173047885
 31
0.0
  0
ARC
  5
1E9
330
1F
100
AcDbEntity
  8
0
  6
Continuous
 62
     7
370
    30
100
AcDbCircle
 10
175.4478229748
 20
192.1730509844
 30
0.0
 40
1.000000000000008
100
AcDbArc
 50
270.0
 51
60.0
  0
LINE
  5
1EA
330
1F
100
AcDbEntity
  8
0
  6
Continuous
 62
     7
370
    30
100
AcDbLine
 10
173.0987547825
 20
191.1730510794
 30
0.0
 11
175.4478222619
 21
191.1730510794
 31
0.0
  0
LINE
  5
1EB
330
1F
100
AcDbEntity
  8
0
  6
Continuous
 62
     7
370
    30
100
AcDbLine
 10
172.68981104
 20
192.673036657
 30
0.0
 11
173.0987547825
 21
191.1730510794
 31
0.0
  0
LINE
  5
1EC
330
1F
100
AcDbEntity
  8
0
  6
Continuous
 62
     7
370
    30
100
AcDbLine
 10
172.6178160797
 20
209.1730505374
 30
0.0
 11
172.68981104
 21
192.673036657
 31
0.0
  0
LINE
  5
1ED
330
1F
100
AcDbEntity
  8
0
  6
Continuous
 62
     7
370
    30
100
AcDbLine
 10
169.3934003751
 20
209.1730505374
 30
0.0
 11
172.6178160797
 21
209.1730505374
 31
0.0
  0
LINE
  5
1EE
330
1F
100
AcDbEntity
  8
0
  6
Continuous
 62
     7
370
    30
100
AcDbLine
 10
169.1047257672
 20
209.6730515507
 30
0.0
 11
169.3934003751
 21
209.1730505374
 31
0.0
  0
ARC
  5
1EF
330
1F
100
AcDbEntity
  8
0
  6
Continuous
 62
     7
370
    30
100
AcDbCircle
 10
176.1047257225
 20
195.2578896214
 30
0.0
 40
2.000000000000028
100
AcDbArc
 50
180.0
 51
240.0
  0
LINE
  5
1F0
330
1F
100
AcDbEntity
  8
0
  6
Continuous
 62
     7
370
    30
100
AcDbLine
 10
175.104724888
 20
193.5258389597
 30
0.0
 11
175.9478232751
 21
193.039076464
 31
0.0
  0
LINE
  5
1F1
330
1F
100
AcDbEntity
  8
0
  6
Continuous
 62
     7
370
    30
100
AcDbLine
 10
169.1047257672
 20
209.6730515507
 30
0.0
 11
169.1047257672
 21
212.1730510292
 31
0.0
  0
LINE
  5
1F2
330
1F
100
AcDbEntity
  8
0
  6
Continuous
 62
     7
370
    30
100
AcDbLine
 10
174.1047265867
 20
212.1730510292
 30
0.0
 11
174.1047265867
 21
195.2578894009
 31
0.0
  0
LINE
  5
1F3
330
1F
100
AcDbEntity
  8
0
  6
Continuous
 62
     7
370
    30
100
AcDbLine
 10
169.1047257672
 20
212.1730510292
 30
0.0
 11
174.1047265867
 21
212.1730510292
 31
0.0
  0
ARC
  5
1F4
330
1F
100
AcDbEntity
  8
0
  6
Continuous
 62
     7
370
    30
100
AcDbCircle
 10
229.1047257225
 20
195.2578896214
 30
0.0
 40
2.000000000000002
100
AcDbArc
 50
300.0
 51
0.0
  0
LINE
  5
1F5
330
1F
100
AcDbEntity
  8
0
  6
Continuous
 62
     7
370
    30
100
AcDbLine
 10
233.6047242324
 20
212.1730510292
 30
0.0
 11
233.6047242324
 21
209.6730515507
 31
0.0
  0
LINE
  5
1F6
330
1F
100
AcDbEntity
  8
0
  6
Continuous
 62
     7
370
    30
100
AcDbLine
 10
233.3160514871
 20
209.1730505374
 30
0.0
 11
233.6047242324
 21
209.6730515507
 31
0.0
  0
LINE
  5
1F7
330
1F
100
AcDbEntity
  8
0
  6
Continuous
 62
     7
370
    30
100
AcDbLine
 10
232.519644026
 20
192.673036657
 30
0.0
 11
232.5916389863
 21
209.1730505374
 31
0.0
  0
LINE
  5
1F8
330
1F
100
AcDbEntity
  8
0
  6
Continuous
 62
     7
370
    30
100
AcDbLine
 10
232.1106965582
 20
191.1730510794
 30
0.0
 11
232.519644026
 21
192.673036657
 31
0.0
  0
ARC
  5
1F9
330
1F
100
AcDbEntity
  8
0
  6
Continuous
 62
     7
370
    30
100
AcDbCircle
 10
229.7616284702
 20
192.1730509844
 30
0.0
 40
1.000000000000008
100
AcDbArc
 50
120.0
 51
270.0
  0
LINE
  5
1FA
330
1F
100
AcDbEntity
  8
0
  6
Continuous
 62
     7
370
    30
100
AcDbLine
 10
229.2616317908
 20
193.039076464
 30
0.0
 11
230.10472459
 21
193.5258389597
 31
0.0
  0
LINE
  5
1FB
330
1F
100
AcDbEntity
  8
0
  6
Continuous
 62
     7
370
    30
100
AcDbLine
 10
229.7616253535
 20
191.1730510794
 30
0.0
 11
232.1106965582
 21
191.1730510794
 31
0.0
  0
LINE
  5
1FC
330
1F
100
AcDbEntity
  8
0
  6
Continuous
 62
     7
370
    30
100
AcDbLine
 10
232.5916389863
 20
209.1730505374
 30
0.0
 11
233.3160514871
 21
209.1730505374
 31
0.0
  0
LINE
  5
1FD
330
1F
100
AcDbEntity
  8
0
  6
Continuous
 62
     7
370
    30
100
AcDbLine
 10
231.1047266165
 20
195.2578894009
 30
0.0
 11
231.1047266165
 21
212.1730510292
 31
0.0
  0
LINE
  5
1FE
330
1F
100
AcDbEntity
  8
0
  6
Continuous
 62
     7
370
    30
100
AcDbLine
 10
231.1047266165
 20
212.1730510292
 30
0.0
 11
233.6047242324
 21
212.1730510292
 31
0.0
  0
LINE
  5
1FF
330
1F
100
AcDbEntity
  8
0
  6
Continuous
 62
     7
370
    30
100
AcDbLine
 10
175.4478222619
 20
191.1730510794
 30
0.0
 11
176.6833371411
 21
191.1730510794
 31
0.0
  0
LINE
  5
200
330
1F
100
AcDbEntity
  8
0
  6
Continuous
 62
     7
370
    30
100
AcDbLine
 10
228.5261104743
 20
191.1730510794
 30
0.0
 11
229.7616253535
 21
191.1730510794
 31
0.0
  0
LINE
  5
201
330
1F
100
AcDbEntity
  8
0
  6
Continuous
 62
     7
370
    30
100
AcDbLine
 10
169.1047257672
 20
212.1730510292
 30
0.0
 11
169.1047257672
 21
209.1730505374
 31
0.0
  0
LINE
  5
202
330
1F
100
AcDbEntity
  8
0
  6
Continuous
 62
     7
370
    30
100
AcDbLine
 10
172.6178160797
 20
209.1730505374
 30
0.0
 11
169.1047257672
 21
209.1730505374
 31
0.0
  0
LINE
  5
203
330
1F
100
AcDbEntity
  8
0
  6
Continuous
 62
     7
370
    30
100
AcDbLine
 10
172.6178160797
 20
209.1730505374
 30
0.0
 11
172.70071869
 21
190.1730510319
 31
0.0
  0
LINE
  5
204
330
1F
100
AcDbEntity
  8
0
  6
Continuous
 62
     7
370
    30
100
AcDbLine
 10
169.1047257672
 20
212.1730510292
 30
0.0
 11
167.6047264526
 21
212.1730510292
 31
0.0
  0
LINE
  5
205
330
1F
100
AcDbEntity
  8
0
  6
Continuous
 62
     7
370
    30
100
AcDbLine
 10
172.70071869
 20
190.1730510319
 30
0.0
 11
167.6047264526
 21
190.1730510319
 31
0.0
  0
LINE
  5
206
330
1F
100
AcDbEntity
  8
0
  6
Continuous
 62
     7
370
    30
100
AcDbLine
 10
167.6047264526
 20
190.1730510319
 30
0.0
 11
167.6047264526
 21
212.1730510292
 31
0.0
  0
LINE
  5
207
330
1F
100
AcDbEntity
  8
0
  6
Continuous
 62
     7
370
    30
100
AcDbLine
 10
233.6047242324
 20
209.1730505374
 30
0.0
 11
233.6047242324
 21
212.1730510292
 31
0.0
  0
LINE
  5
208
330
1F
100
AcDbEntity
  8
0
  6
Continuous
 62
     7
370
    30
100
AcDbLine
 10
235.1047272722
 20
212.1730510292
 30
0.0
 11
235.1047272722
 21
190.1730510319
 31
0.0
  0
LINE
  5
209
330
1F
100
AcDbEntity
  8
0
  6
Continuous
 62
     7
370
    30
100
AcDbLine
 10
232.5087289254
 20
190.1730510319
 30
0.0
 11
232.5916389863
 21
209.1730505374
 31
0.0
  0
LINE
  5
20A
330
1F
100
AcDbEntity
  8
0
  6
Continuous
 62
     7
370
    30
100
AcDbLine
 10
233.6047242324
 20
209.1730505374
 30
0.0
 11
232.5916389863
 21
209.1730505374
 31
0.0
  0
LINE
  5
20B
330
1F
100
AcDbEntity
  8
0
  6
Continuous
 62
     7
370
    30
100
AcDbLine
 10
235.1047272722
 20
212.1730510292
 30
0.0
 11
233.6047242324
 21
212.1730510292
 31
0.0
  0
LINE
  5
20C
330
1F
100
AcDbEntity
  8
0
  6
Continuous
 62
     7
370
    30
100
AcDbLine
 10
235.1047272722
 20
190.1730510319
 30
0.0
 11
232.5087289254
 21
190.1730510319
 31
0.0
  0
LINE
  5
20D
330
1F
100
AcDbEntity
  8
0
  6
Continuous
 62
     7
370
    30
100
AcDbLine
 10
176.1047250519
 20
190.1730510319
 30
0.0
 11
172.70071869
 21
190.1730510319
 31
0.0
  0
LINE
  5
20E
330
1F
100
AcDbEntity
  8
0
  6
Continuous
 62
     7
370
    30
100
AcDbLine
 10
232.5087289254
 20
190.1730510319
 30
0.0
 11
229.1047225634
 21
190.1730510319
 31
0.0
  0
LINE
  5
20F
330
1F
100
AcDbEntity
  8
0
  6
Continuous
 62
     7
370
    30
100
AcDbLine
 10
229.1047225634
 20
190.1730510319
 30
0.0
 11
228.4737030904
 21
190.1730510319
 31
0.0
  0
LINE
  5
210
330
1F
100
AcDbEntity
  8
0
  6
Continuous
 62
     7
370
    30
100
AcDbLine
 10
176.735744525
 20
190.1730510319
 30
0.0
 11
176.1047250519
 21
190.1730510319
 31
0.0
  0
LINE
  5
211
330
1F
100
AcDbEntity
  8
0
  6
Continuous
 62
     7
370
    30
100
AcDbLine
 10
166.1047252754
 20
210.1730507013
 30
0.0
 11
166.1047252754
 21
190.1730510319
 31
0.0
  0
LINE
  5
212
330
1F
100
AcDbEntity
  8
0
  6
Continuous
 62
     7
370
    30
100
AcDbLine
 10
166.1047252754
 20
210.1730507013
 30
0.0
 11
167.6047264526
 21
210.1730507013
 31
0.0
  0
LINE
  5
213
330
1F
100
AcDbEntity
  8
0
  6
Continuous
 62
     7
370
    30
100
AcDbLine
 10
167.6047264526
 20
210.1730507013
 30
0.0
 11
167.6047264526
 21
190.1730510319
 31
0.0
  0
LINE
  5
214
330
1F
100
AcDbEntity
  8
0
  6
Continuous
 62
     7
370
    30
100
AcDbLine
 10
167.6047264526
 20
190.1730510319
 30
0.0
 11
166.1047252754
 21
190.1730510319
 31
0.0
  0
LINE
  5
215
330
1F
100
AcDbEntity
  8
0
  6
Continuous
 62
     7
370
    30
100
AcDbLine
 10
166.1047252754
 20
190.1730510319
 30
0.0
 11
169.1047257672
 21
190.1730510319
 31
0.0
  0
LINE
  5
216
330
1F
100
AcDbEntity
  8
0
  6
Continuous
 62
     7
370
    30
100
AcDbLine
 10
170.1047259311
 20
189.5957007103
 30
0.0
 11
169.1047257672
 21
190.1730510319
 31
0.0
  0
LINE
  5
217
330
1F
100
AcDbEntity
  8
0
  6
Continuous
 62
     7
370
    30
100
AcDbLine
 10
170.1047259311
 20
189.5957007103
 30
0.0
 11
170.1047259311
 21
186.6730510403
 31
0.0
  0
LINE
  5
218
330
1F
100
AcDbEntity
  8
0
  6
Continuous
 62
     7
370
    30
100
AcDbLine
 10
170.1047259311
 20
186.6730510403
 30
0.0
 11
169.1047257672
 21
186.6730510403
 31
0.0
  0
ARC
  5
219
330
1F
100
AcDbEntity
  8
0
  6
Continuous
 62
     7
370
    30
100
AcDbCircle
 10
169.1047257225
 20
183.6730509844
 30
0.0
 40
3.0
100
AcDbArc
 50
90.0
 51
180.0
  0
LINE
  5
21A
330
1F
100
AcDbEntity
  8
0
  6
Continuous
 62
     7
370
    30
100
AcDbLine
 10
166.1047252754
 20
183.6730510143
 30
0.0
 11
166.1047252754
 21
168.473050758
 31
0.0
  0
ARC
  5
21B
330
1F
100
AcDbEntity
  8
0
  6
Continuous
 62
     7
370
    30
100
AcDbCircle
 10
165.8047257225
 20
168.4730509844
 30
0.0
 40
0.3000000000000398
100
AcDbArc
 50
270.0
 51
0.0
  0
LINE
  5
21C
330
1F
100
AcDbEntity
  8
0
  6
Continuous
 62
     7
370
    30
100
AcDbLine
 10
165.8047257851
 20
168.1730512676
 30
0.0
 11
156.6047255809
 21
168.1730512676
 31
0.0
  0
LINE
  5
21D
330
1F
100
AcDbEntity
  8
0
  6
Continuous
 62
     7
370
    30
100
AcDbLine
 10
156.6047255809
 20
168.1730512676
 30
0.0
 11
156.104725499
 21
168.6730504182
 31
0.0
  0
ARC
  5
21E
330
1F
100
AcDbEntity
  8
0
  6
Continuous
 62
     7
370
    30
100
AcDbCircle
 10
161.1047257225
 20
173.6730509844
 30
0.0
 40
1.0
100
AcDbArc
 50
270.0
 51
0.0
  0
LINE
  5
21F
330
1F
100
AcDbEntity
  8
0
  6
Continuous
 62
     7
370
    30
100
AcDbLine
 10
162.1047264824
 20
173.6730512378
 30
0.0
 11
162.1047264824
 21
207.1730502096
 31
0.0
  0
ARC
  5
220
330
1F
100
AcDbEntity
  8
0
  6
Continuous
 62
     7
370
    30
100
AcDbCircle
 10
161.1047257225
 20
207.1730509844
 30
0.0
 40
1.0
100
AcDbArc
 50
0.0
 51
90.0
  0
LINE
  5
221
330
1F
100
AcDbEntity
  8
0
  6
Continuous
 62
     7
370
    30
100
AcDbLine
 10
161.1047253872
 20
208.1730503735
 30
0.0
 11
157.1047256629
 21
208.1730503735
 31
0.0
  0
LINE
  5
222
330
1F
100
AcDbEntity
  8
0
  6
Continuous
 62
     7
370
    30
100
AcDbLine
 10
157.1047256629
 20
208.1730503735
 30
0.0
 11
154.1047261025
 21
205.1730517444
 31
0.0
  0
LINE
  5
223
330
1F
100
AcDbEntity
  8
0
  6
Continuous
 62
     7
370
    30
100
AcDbLine
 10
154.1047261025
 20
205.1730517444
 30
0.0
 11
152.1047257746
 21
205.1730517444
 31
0.0
  0
LINE
  5
224
330
1F
100
AcDbEntity
  8
0
  6
Continuous
 62
     7
370
    30
100
AcDbLine
 10
152.1047257746
 20
205.1730517444
 30
0.0
 11
149.1047257486
 21
208.1730503735
 31
0.0
  0
LINE
  5
225
330
1F
100
AcDbEntity
  8
0
  6
Continuous
 62
     7
370
    30
100
AcDbLine
 10
146.1047257225
 20
208.1730503735
 30
0.0
 11
146.1047257225
 21
209.8730512109
 31
0.0
  0
ARC
  5
226
330
1F
100
AcDbEntity
  8
0
  6
Continuous
 62
     7
370
    30
100
AcDbCircle
 10
146.4047257225
 20
209.8730509844
 30
0.0
 40
0.3000000000000114
100
AcDbArc
 50
90.0
 51
180.0
  0
LINE
  5
227
330
1F
100
AcDbEntity
  8
0
  6
Continuous
 62
     7
370
    30
100
AcDbLine
 10
146.4047257367
 20
210.1730507013
 30
0.0
 11
165.8047257851
 21
210.1730507013
 31
0.0
  0
ARC
  5
228
330
1F
100
AcDbEntity
  8
0
  6
Continuous
 62
     7
370
    30
100
AcDbCircle
 10
165.8047257225
 20
209.8730509844
 30
0.0
 40
0.3000000000000398
100
AcDbArc
 50
0.0
 51
90.0
  0
LINE
  5
229
330
1F
100
AcDbEntity
  8
0
  6
Continuous
 62
     7
370
    30
100
AcDbLine
 10
166.1047252754
 20
209.8730512109
 30
0.0
 11
166.1047252754
 21
190.1730510319
 31
0.0
  0
LINE
  5
22A
330
1F
100
AcDbEntity
  8
0
  6
Continuous
 62
     7
370
    30
100
AcDbLine
 10
156.104725499
 20
172.6730510739
 30
0.0
 11
161.1047253872
 21
172.6730510739
 31
0.0
  0
LINE
  5
22B
330
1F
100
AcDbEntity
  8
0
  6
Continuous
 62
     7
370
    30
100
AcDbLine
 10
149.1047257486
 20
208.1730503735
 30
0.0
 11
146.1047257225
 21
208.1730503735
 31
0.0
  0
LINE
  5
22C
330
1F
100
AcDbEntity
  8
0
  6
Continuous
 62
     7
370
    30
100
AcDbLine
 10
150.1047259125
 20
168.6730504182
 30
0.0
 11
149.6047258305
 21
168.1730512676
 31
0.0
  0
LINE
  5
22D
330
1F
100
AcDbEntity
  8
0
  6
Continuous
 62
     7
370
    30
100
AcDbLine
 10
149.6047258305
 20
168.1730512676
 30
0.0
 11
146.4047257367
 21
168.1730512676
 31
0.0
  0
ARC
  5
22E
330
1F
100
AcDbEntity
  8
0
  6
Continuous
 62
     7
370
    30
100
AcDbCircle
 10
146.4047257225
 20
168.4730509844
 30
0.0
 40
0.3000000000000398
100
AcDbArc
 50
180.0
 51
270.0
  0
LINE
  5
22F
330
1F
100
AcDbEntity
  8
0
  6
Continuous
 62
     7
370
    30
100
AcDbLine
 10
146.1047257225
 20
168.473050758
 30
0.0
 11
146.1047257225
 21
172.6730510739
 31
0.0
  0
LINE
  5
230
330
1F
100
AcDbEntity
  8
0
  6
Continuous
 62
     7
370
    30
100
AcDbLine
 10
146.1047257225
 20
172.6730510739
 30
0.0
 11
150.1047259125
 21
172.6730510739
 31
0.0
  0
LINE
  5
231
330
1F
100
AcDbEntity
  8
0
  6
Continuous
 62
     7
370
    30
100
AcDbLine
 10
149.6047258305
 20
168.1730512676
 30
0.0
 11
150.6592255945
 21
168.1730512676
 31
0.0
  0
LINE
  5
232
330
1F
100
AcDbEntity
  8
0
  6
Continuous
 62
     7
370
    30
100
AcDbLine
 10
155.5502253513
 20
168.1730512676
 30
0.0
 11
156.6047255809
 21
168.1730512676
 31
0.0
  0
LINE
  5
233
330
1F
100
AcDbEntity
  8
0
  6
Continuous
 62
     7
370
    30
100
AcDbLine
 10
149.1047257486
 20
208.1730503735
 30
0.0
 11
149.1047257486
 21
207.1730502096
 31
0.0
  0
LINE
  5
234
330
1F
100
AcDbEntity
  8
0
  6
Continuous
 62
     7
370
    30
100
AcDbLine
 10
146.1047257225
 20
207.1730502096
 30
0.0
 11
146.1047257225
 21
208.1730503735
 31
0.0
  0
LINE
  5
235
330
1F
100
AcDbEntity
  8
0
  6
Continuous
 62
     7
370
    30
100
AcDbLine
 10
146.1047257225
 20
172.6730510739
 30
0.0
 11
146.1047257225
 21
175.1730505523
 31
0.0
  0
LINE
  5
236
330
1F
100
AcDbEntity
  8
0
  6
Continuous
 62
     7
370
    30
100
AcDbLine
 10
156.104725499
 20
168.4931915399
 30
0.0
 11
150.1047259125
 21
168.4931915399
 31
0.0
  0
LINE
  5
237
330
1F
100
AcDbEntity
  8
0
  6
Continuous
 62
     7
370
    30
100
AcDbLine
 10
156.104725499
 20
175.1730505523
 30
0.0
 11
150.1047259125
 21
175.1730505523
 31
0.0
  0
LINE
  5
238
330
1F
100
AcDbEntity
  8
0
  6
Continuous
 62
     7
370
    30
100
AcDbLine
 10
155.5502253513
 20
168.1730512676
 30
0.0
 11
150.6592255945
 21
168.1730512676
 31
0.0
  0
LINE
  5
239
330
1F
100
AcDbEntity
  8
0
  6
Continuous
 62
     7
370
    30
100
AcDbLine
 10
159.6556871126
 20
201.1730510888
 30
0.0
 11
159.6556871126
 21
205.9156473872
 31
0.0
  0
LINE
  5
23A
330
1F
100
AcDbEntity
  8
0
  6
Continuous
 62
     7
370
    30
100
AcDbLine
 10
159.6556871126
 20
196.430455256
 30
0.0
 11
159.6556871126
 21
201.1730510888
 31
0.0
  0
LINE
  5
23B
330
1F
100
AcDbEntity
  8
0
  6
Continuous
 62
     7
370
    30
100
AcDbLine
 10
158.5905129949
 20
198.9230511856
 30
0.0
 11
158.5905129949
 21
200.0480506715
 31
0.0
  0
LINE
  5
23C
330
1F
100
AcDbEntity
  8
0
  6
Continuous
 62
     7
370
    30
100
AcDbLine
 10
158.5905129949
 20
200.0480506715
 30
0.0
 11
158.5905129949
 21
202.2980505747
 31
0.0
  0
LINE
  5
23D
330
1F
100
AcDbEntity
  8
0
  6
Continuous
 62
     7
370
    30
100
AcDbLine
 10
158.5905129949
 20
202.2980505747
 30
0.0
 11
158.5905129949
 21
203.4230509919
 31
0.0
  0
LWPOLYLINE
  5
23E
330
1F
100
AcDbEntity
  8
0
  6
Continuous
 62
     8
370
     0
100
AcDbPolyline
 90
        2
 70
   128
 43
0.0
 10
229.1475932042
 20
193.2159166929
 10
229.1475932042
 20
193.2159166929
  0
ELLIPSE
  5
23F
330
1F
100
AcDbEntity
  8
0
  6
Continuous
 62
     8
370
     0
100
AcDbEllipse
 10
187.7111000979
 20
190.1730509844
 30
0.0
 11
0.0
 21
6.0
 31
0.0
210
0.0
220
0.0
230
1.0
 40
0.25
 41
1.649336143134643
 42
3.141592653589793
  0
ARC
  5
240
330
1F
100
AcDbEntity
  8
0
  6
Continuous
 62
     8
370
     0
100
AcDbCircle
 10
183.9726592342
 20
205.0939464944
 30
0.0
 40
15.55423512384534
100
AcDbArc
 50
261.7085095874
 51
278.2914904126
  0
LINE
  5
241
330
1F
100
AcDbEntity
  8
0
  6
Continuous
 62
     8
370
     0
100
AcDbLine
 10
186.2157235781
 20
189.7022963997
 30
0.0
 11
218.9937258999
 21
189.7022963997
 31
0.0
  0
ELLIPSE
  5
242
330
1F
100
AcDbEntity
  8
0
  6
Continuous
 62
     8
370
     0
100
AcDbEllipse
 10
217.498351347
 20
190.1730509844
 30
0.0
 11
0.0
 21
6.0
 31
0.0
210
0.0
220
0.0
230
1.0
 40
0.25
 41
3.141592653589793
 42
4.633849164044946
  0
ARC
  5
243
330
1F
100
AcDbEntity
  8
0
  6
Continuous
 62
     8
370
     0
100
AcDbCircle
 10
221.2367902438
 20
203.1067630891
 30
0.0
 40
13.59084489200013
100
AcDbArc
 50
260.5003080424
 51
279.4996919576
  0
ELLIPSE
  5
244
330
1F
100
AcDbEntity
  8
0
  6
Continuous
 62
     8
370
     0
100
AcDbEllipse
 10
180.7366931759
 20
259.6730509844
 30
0.0
 11
4.52318553390802
 21
-0.1180049533385272
 31
0.0
210
0.0
220
0.0
230
0.9999999999999999
 40
0.0257887415
 41
1.579660166866659
 42
3.144300625080645
  0
LINE
  5
245
330
1F
100
AcDbEntity
  8
0
  6
Continuous
 62
     8
370
     0
100
AcDbLine
 10
180.699645255
 20
259.7907416669
 30
0.0
 11
186.2157235781
 21
189.7022963997
 31
0.0
  0
LINE
  5
246
330
1F
100
AcDbEntity
  8
0
  6
Continuous
 62
     8
370
     0
100
AcDbLine
 10
218.9937258999
 20
189.7022963997
 30
0.0
 11
224.5098079483
 21
259.7907416669
 31
0.0
  0
ELLIPSE
  5
247
330
1F
100
AcDbEntity
  8
0
  6
Continuous
 62
     8
370
     0
100
AcDbEllipse
 10
224.4727582691
 20
259.6730509844
 30
0.0
 11
4.523185533908048
 21
0.1180049533385272
 31
0.0
210
0.0
220
0.0
230
0.9999999999999999
 40
0.0257887415
 41
6.280477335689822
 42
7.845117793902714
  0
LINE
  5
248
330
1F
100
AcDbEntity
  8
0
  6
Continuous
 62
     8
370
     0
100
AcDbLine
 10
224.5098079483
 20
259.7907416669
 30
0.0
 11
180.699645255
 21
259.7907416669
 31
0.0
  0
LINE
  5
249
330
1F
100
AcDbEntity
  8
0
  6
Continuous
 62
     8
370
     0
100
AcDbLine
 10
180.699645255
 20
261.173047885
 30
0.0
 11
180.699645255
 21
259.7907416669
 31
0.0
  0
LINE
  5
24A
330
1F
100
AcDbEntity
  8
0
  6
Continuous
 62
     8
370
     0
100
AcDbLine
 10
224.5098079483
 20
261.173047885
 30
0.0
 11
224.5098079483
 21
259.7907416669
 31
0.0
  0
SPLINE
  5
24B
330
1F
100
AcDbEntity
  8
0
  6
Continuous
 62
     8
370
     0
100
AcDbSpline
210
0.0
220
0.0
230
1.0
 70
     8
 71
     3
 72
    11
 73
     7
 74
     0
 42
0.00000001
 43
0.00000001
 40
0.0
 40
0.0
 40
0.0
 40
0.0
 40
0.1331646716544864
 40
0.4663579496018443
 40
0.7329116297803723
 40
0.9999999999999999
 40
0.9999999999999999
 40
0.9999999999999999
 40
0.9999999999999999
 10
175.6918902436925
 20
193.5799925734165
 30
0.0
 10
175.6326554444133
 20
193.5785564316461
 30
0.0
 10
175.4252083851165
 20
193.5735268984897
 30
0.0
 10
175.2344118150967
 20
193.5628337028523
 30
0.0
 10
175.1143596432716
 20
193.5360110002446
 30
0.0
 10
175.1079386176425
 20
193.5292319039982
 30
0.0
 10
175.1047248880101
 20
193.5258389596703
 30
0.0
  0
SPLINE
  5
24C
330
1F
100
AcDbEntity
  8
0
  6
Continuous
 62
     8
370
     0
100
AcDbSpline
210
0.0
220
0.0
230
1.0
 70
     8
 71
     3
 72
    13
 73
     9
 74
     0
 42
0.00000001
 43
0.00000001
 40
0.0
 40
0.0
 40
0.0
 40
0.0
 40
0.0000166873760395
 40
0.1963731078281857
 40
0.3927399138032764
 40
0.6032294523790556
 40
0.81439652347892
 40
0.9999999999999999
 40
0.9999999999999999
 40
0.9999999999999999
 40
0.9999999999999999
 10
174.1047265867425
 20
195.2626996819737
 30
0.0
 10
174.1047265867116
 20
195.2626985954265
 30
0.0
 10
174.1047262236542
 20
195.2499123637228
 30
0.0
 10
174.1303609116824
 20
195.2278529185011
 30
0.0
 10
174.244592432261
 20
195.1966999941292
 30
0.0
 10
174.4433838058821
 20
195.1705423313761
 30
0.0
 10
174.708466226867
 20
195.149126792632
 30
0.0
 10
174.9417874364954
 20
195.1396633885437
 30
0.0
 10
175.0509316961003
 20
195.1352365461054
 30
0.0
  0
LINE
  5
24D
330
1F
100
AcDbEntity
  8
0
  6
Continuous
 62
     8
370
     0
100
AcDbLine
 10
175.9478232751
 20
193.039076464
 30
0.0
 11
176.2189219634
 21
193.039076464
 31
0.0
  0
SPLINE
  5
24E
330
1F
100
AcDbEntity
  8
0
  6
Continuous
 62
     8
370
     0
100
AcDbSpline
210
0.0
220
0.0
230
1.0
 70
     8
 71
     3
 72
    11
 73
     7
 74
     0
 42
0.00000001
 43
0.00000001
 40
0.0
 40
0.0
 40
0.0
 40
0.0
 40
0.2108876104334877
 40
0.4214885210253312
 40
0.7539497972033932
 40
1.0
 40
1.0
 40
1.0
 40
1.0
 10
230.1047245899869
 20
193.5258389596703
 30
0.0
 10
230.1034687741641
 20
193.5284407354536
 30
0.0
 10
230.1009588497891
 20
193.5336407499292
 30
0.0
 10
230.027934527665
 20
193.5571075029321
 30
0.0
 10
229.8529126184584
 20
193.5697706483886
 30
0.0
 10
229.617487952008
 20
193.5770740017097
 30
0.0
 10
229.5173580686285
 20
193.5801802349152
 30
0.0
  0
LWPOLYLINE
  5
24F
330
1F
100
AcDbEntity
  8
0
  6
Continuous
 62
     8
370
     0
100
AcDbPolyline
 90
        8
 70
   128
 43
0.0
 10
230.1585773865
 20
195.1362572756
 10
230.303617839
 20
195.1405665052
 10
230.6226218979
 20
195.1594188024
 10
230.8645124475
 20
195.1840173599
 10
231.0242677967
 20
195.21372655
 10
231.1047266165
 20
195.2626964223
 10
231.1047266165
 20
195.262699682
 10
231.1047266165
 20
195.262699682
  0
LINE
  5
250
330
1F
100
AcDbEntity
  8
0
  6
Continuous
 62
     8
370
     0
100
AcDbLine
 10
228.9905275146
 20
193.039076464
 30
0.0
 11
229.2616317908
 21
193.039076464
 31
0.0
  0
LINE
  5
251
330
1F
100
AcDbEntity
  8
0
  6
Continuous
 62
     8
370
     0
100
AcDbLine
 10
176.1047250519
 20
190.1730510319
 30
0.0
 11
176.1047250519
 21
191.1730510794
 31
0.0
  0
LINE
  5
252
330
1F
100
AcDbEntity
  8
0
  6
Continuous
 62
     8
370
     0
100
AcDbLine
 10
229.1047225634
 20
190.1730510319
 30
0.0
 11
229.1047225634
 21
191.1730510794
 31
0.0
  0
LINE
  5
253
330
1F
100
AcDbEntity
  8
0
  6
Continuous
 62
     8
370
     0
100
AcDbLine
 10
161.1047253872
 20
206.0679465678
 30
0.0
 11
161.1047253872
 21
208.1730503735
 31
0.0
  0
LINE
  5
254
330
1F
100
AcDbEntity
  8
0
  6
Continuous
 62
     8
370
     0
100
AcDbLine
 10
158.5905129949
 20
201.1730510888
 30
0.0
 11
154.4156984354
 21
201.1730510888
 31
0.0
  0
LINE
  5
255
330
1F
100
AcDbEntity
  8
0
  6
Continuous
 62
     8
370
     0
100
AcDbLine
 10
157.1047256629
 20
175.1730505523
 30
0.0
 11
161.1047253872
 21
175.1730505523
 31
0.0
  0
LINE
  5
256
330
1F
100
AcDbEntity
  8
0
  6
Continuous
 62
     8
370
     0
100
AcDbLine
 10
161.1047253872
 20
172.6730510739
 30
0.0
 11
161.1047253872
 21
175.1730505523
 31
0.0
  0
LINE
  5
257
330
1F
100
AcDbEntity
  8
0
  6
Continuous
 62
     8
370
     0
100
AcDbLine
 10
161.1047253872
 20
175.1730505523
 30
0.0
 11
162.1047264824
 21
175.1730505523
 31
0.0
  0
LINE
  5
258
330
1F
100
AcDbEntity
  8
0
  6
Continuous
 62
     8
370
     0
100
AcDbLine
 10
161.1047253872
 20
175.1730505523
 30
0.0
 11
161.1047253872
 21
196.278155144
 31
0.0
  0
HATCH
  5
259
330
1F
100
AcDbEntity
  8
0
  6
Continuous
 62
     7
370
     0
100
AcDbHatch
 10
0.0
 20
0.0
 30
0.0
210
0.0
220
0.0
230
1.0
  2
ANSI31
 70
     0
 71
     0
 91
        1
 92
        0
 93
       24
 72
     1
 10
166.1047257224751
 20
190.1730509844484
 11
166.1047257224751
 21
209.8730509844484
 72
     2
 10
165.8047257224752
 20
209.8730509844484
 40
0.3
 50
0.0
 51
90.0
 73
     1
 72
     1
 10
165.8047257224752
 20
210.1730509844484
 11
146.4047257224751
 21
210.1730509844485
 72
     2
 10
146.4047257224751
 20
209.8730509844484
 40
0.3
 50
90.0
 51
180.0
 73
     1
 72
     1
 10
146.1047257224752
 20
209.8730509844484
 11
146.1047257224752
 21
208.1730509844485
 72
     1
 10
146.1047257224752
 20
208.1730509844485
 11
149.1047257224752
 21
208.1730509844485
 72
     1
 10
149.1047257224752
 20
208.1730509844485
 11
152.1047257224751
 21
205.1730509844484
 72
     1
 10
152.1047257224751
 20
205.1730509844484
 11
154.1047257224752
 21
205.1730509844484
 72
     1
 10
154.1047257224752
 20
205.1730509844484
 11
157.1047257224751
 21
208.1730509844485
 72
     1
 10
157.1047257224751
 20
208.1730509844485
 11
161.1047257224751
 21
208.1730509844485
 72
     2
 10
161.1047257224751
 20
207.1730509844484
 40
1.0
 50
270.0000000000008
 51
360.0000000000008
 73
     0
 72
     1
 10
162.1047257224751
 20
207.1730509844484
 11
162.1047257224751
 21
173.6730509844484
 72
     2
 10
161.1047257224751
 20
173.6730509844484
 40
1.0
 50
0.0000000000016284
 51
90.0
 73
     0
 72
     1
 10
161.1047257224751
 20
172.6730509844484
 11
155.6047257224752
 21
172.6730509844484
 72
     1
 10
155.6047257224752
 20
172.6730509844484
 11
155.6047257224752
 21
169.1730509844484
 72
     1
 10
155.6047257224752
 20
169.1730509844484
 11
156.6047257224752
 21
168.1730509844484
 72
     1
 10
156.6047257224752
 20
168.1730509844484
 11
165.8047257224752
 21
168.1730509844484
 72
     2
 10
165.8047257224752
 20
168.4730509844484
 40
0.3
 50
270.0000000000008
 51
360.0000000000008
 73
     1
 72
     1
 10
166.1047257224751
 20
168.4730509844484
 11
166.1047257224751
 21
183.6730509844484
 72
     2
 10
169.1047257224751
 20
183.6730509844484
 40
3.0
 50
180.0
 51
270.0000000000008
 73
     0
 72
     1
 10
169.1047257224751
 20
186.6730509844484
 11
170.1047257224751
 21
186.6730509844484
 72
     1
 10
170.1047257224751
 20
186.6730509844484
 11
170.1047257224751
 21
189.5957007152588
 72
     1
 10
170.1047257224751
 20
189.5957007152588
 11
169.1047257224751
 21
190.1730509844484
 72
     1
 10
169.1047257224751
 20
190.1730509844484
 11
166.1047257224751
 21
190.1730509844484
 97
        0
 75
     0
 76
     1
 52
0.0
 41
1.0
 77
     0
 78
     1
 53
45.0
 43
0.0
 44
0.0
 45
-2.245064030267288
 46
2.245064030267288
 79
     0
 98
        1
 10
0.0
 20
0.0
  0
HATCH
  5
25A
330
1F
100
AcDbEntity
  8
0
  6
Continuous
 62
     7
370
     0
100
AcDbHatch
 10
0.0
 20
0.0
 30
0.0
210
0.0
220
0.0
230
1.0
  2
ANSI31
 70
     0
 71
     0
 91
        1
 92
        0
 93
        6
 72
     1
 10
146.1047257224752
 20
172.6730509844484
 11
146.1047257224752
 21
168.4730509844484
 72
     2
 10
146.4047257224751
 20
168.4730509844484
 40
0.3
 50
180.0
 51
270.0000000000008
 73
     1
 72
     1
 10
146.4047257224751
 20
168.1730509844484
 11
149.6047257224752
 21
168.1730509844484
 72
     1
 10
149.6047257224752
 20
168.1730509844484
 11
150.6047257224752
 21
169.1730509844484
 72
     1
 10
150.6047257224752
 20
169.1730509844484
 11
150.6047257224752
 21
172.6730509844484
 72
     1
 10
150.6047257224752
 20
172.6730509844484
 11
146.1047257224752
 21
172.6730509844484
 97
        0
 75
     0
 76
     1
 52
0.0
 41
1.0
 77
     0
 78
     1
 53
45.0
 43
0.0
 44
0.0
 45
-2.245064030267288
 46
2.245064030267288
 79
     0
 98
        1
 10
0.0
 20
0.0
  0
HATCH
  5
25B
330
1F
100
AcDbEntity
  8
0
  6
Continuous
 62
     7
370
     0
100
AcDbHatch
 10
0.0
 20
0.0
 30
0.0
210
0.0
220
0.0
230
1.0
  2
NET
 70
     0
 71
     0
 91
        1
 92
        0
 93
        4
 72
     1
 10
166.1047257224751
 20
190.1730509844484
 11
167.6047257224751
 21
190.1730509844484
 72
     1
 10
167.6047257224751
 20
190.1730509844484
 11
167.6047257224751
 21
210.1730509844484
 72
     1
 10
167.6047257224751
 20
210.1730509844484
 11
166.1047257224751
 21
210.1730509844484
 72
     1
 10
166.1047257224751
 20
210.1730509844484
 11
166.1047257224751
 21
190.1730509844484
 97
        0
 75
     0
 76
     1
 52
134.999991007
 41
1.0
 77
     0
 78
     2
 53
134.9999910069555
 43
0.0
 44
0.0
 45
-2.24506438264855
 46
-2.245063677885971
 79
     0
 53
224.9999910069555
 43
0.0
 44
0.0
 45
2.245063677885971
 46
-2.24506438264855
 79
     0
 98
        1
 10
0.0
 20
0.0
  0
HATCH
  5
25C
330
1F
100
AcDbEntity
  8
0
  6
Continuous
 62
     7
370
     0
100
AcDbHatch
 10
0.0
 20
0.0
 30
0.0
210
0.0
220
0.0
230
1.0
  2
ANSI31
 70
     0
 71
     0
 91
        1
 92
        0
 93
        6
 72
     1
 10
167.6047257224751
 20
190.1730509844484
 11
172.7007194405306
 21
190.1730509844484
 72
     1
 10
172.7007194405306
 20
190.1730509844484
 11
172.6178157749373
 21
209.1730509844484
 72
     1
 10
172.6178157749373
 20
209.1730509844484
 11
169.1047257224751
 21
209.1730509844484
 72
     1
 10
169.1047257224751
 20
209.1730509844484
 11
169.1047257224751
 21
212.1730509844484
 72
     1
 10
169.1047257224751
 20
212.1730509844484
 11
167.6047257224751
 21
212.1730509844484
 72
     1
 10
167.6047257224751
 20
212.1730509844484
 11
167.6047257224751
 21
190.1730509844484
 97
        0
 75
     0
 76
     1
 52
0.0
 41
1.0
 77
     0
 78
     1
 53
45.0
 43
0.0
 44
0.0
 45
-2.245064030267288
 46
2.245064030267288
 79
     0
 98
        1
 10
0.0
 20
0.0
  0
HATCH
  5
25D
330
1F
100
AcDbEntity
  8
0
  6
Continuous
 62
     7
370
     0
100
AcDbHatch
 10
0.0
 20
0.0
 30
0.0
210
0.0
220
0.0
230
1.0
  2
ANSI31
 70
     0
 71
     0
 91
        1
 92
        0
 93
        6
 72
     1
 10
232.5087320044197
 20
190.1730509844484
 11
235.1047257224751
 21
190.1730509844484
 72
     1
 10
235.1047257224751
 20
190.1730509844484
 11
235.1047257224751
 21
212.1730509844484
 72
     1
 10
235.1047257224751
 20
212.1730509844484
 11
233.6047257224751
 21
212.1730509844484
 72
     1
 10
233.6047257224751
 20
212.1730509844484
 11
233.6047257224751
 21
209.1730509844484
 72
     1
 10
233.6047257224751
 20
209.1730509844484
 11
232.5916356700131
 21
209.1730509844484
 72
     1
 10
232.5916356700131
 20
209.1730509844484
 11
232.5087320044197
 21
190.1730509844484
 97
        0
 75
     0
 76
     1
 52
0.0
 41
1.0
 77
     0
 78
     1
 53
45.0
 43
0.0
 44
0.0
 45
-2.245064030267288
 46
2.245064030267288
 79
     0
 98
        1
 10
0.0
 20
0.0
  0
HATCH
  5
25E
330
1F
100
AcDbEntity
  8
0
  6
Continuous
 62
     7
370
     0
100
AcDbHatch
 10
0.0
 20
0.0
 30
0.0
210
0.0
220
0.0
230
1.0
  2
NET
 70
     0
 71
     0
 91
        1
 92
        0
 93
       11
 72
     1
 10
175.9478229747986
 20
193.0390763882328
 11
175.1047257224752
 21
193.5258388138147
 72
     2
 10
176.1047257224752
 20
195.2578896213836
 40
2.0
 50
119.9999999999997
 51
180.0
 73
     0
 72
     1
 10
174.1047257224751
 20
195.2578896213836
 11
174.1047257224751
 21
212.1730509844483
 72
     1
 10
174.1047257224751
 20
212.1730509844483
 11
169.1047257224751
 21
212.1730509844483
 72
     1
 10
169.1047257224751
 20
212.1730509844483
 11
169.1047257224751
 21
209.6730509844483
 72
     1
 10
169.1047257224751
 20
209.6730509844483
 11
169.39340085707
 21
209.1730509844483
 72
     1
 10
169.39340085707
 20
209.1730509844483
 11
172.6178157749373
 21
209.1730509844483
 72
     1
 10
172.6178157749373
 20
209.1730509844483
 11
172.6898111257828
 21
192.6730367055295
 72
     1
 10
172.6898111257828
 20
192.6730367055295
 11
173.0987541706808
 21
191.1730509844483
 72
     1
 10
173.0987541706808
 20
191.1730509844483
 11
175.4478229747986
 21
191.1730509844483
 72
     2
 10
175.4478229747986
 20
192.1730509844483
 40
1.000000000000002
 50
270.0000000000008
 51
420.0000000000011
 73
     1
 97
        0
 75
     0
 76
     1
 52
44.999991007
 41
1.0
 77
     0
 78
     2
 53
44.99999100695533
 43
0.0
 44
0.0
 45
-2.245063677885963
 46
2.245064382648558
 79
     0
 53
134.9999910069553
 43
0.0
 44
0.0
 45
-2.245064382648558
 46
-2.245063677885963
 79
     0
 98
        1
 10
0.0
 20
0.0
  0
HATCH
  5
25F
330
1F
100
AcDbEntity
  8
0
  6
Continuous
 62
     7
370
     0
100
AcDbHatch
 10
0.0
 20
0.0
 30
0.0
210
0.0
220
0.0
230
1.0
  2
NET
 70
     0
 71
     0
 91
        1
 92
        0
 93
       11
 72
     1
 10
230.1047257224751
 20
193.5258388138147
 11
229.2616284701517
 21
193.0390763882328
 72
     2
 10
229.7616284701517
 20
192.1730509844483
 40
1.000000000000002
 50
119.9999999999997
 51
270.0000000000008
 73
     1
 72
     1
 10
229.7616284701517
 20
191.1730509844483
 11
232.1106972742695
 21
191.1730509844483
 72
     1
 10
232.1106972742695
 20
191.1730509844483
 11
232.5196403191676
 21
192.6730367055295
 72
     1
 10
232.5196403191676
 20
192.6730367055295
 11
232.5916356700131
 21
209.1730509844483
 72
     1
 10
232.5916356700131
 20
209.1730509844483
 11
233.3160505878803
 21
209.1730509844483
 72
     1
 10
233.3160505878803
 20
209.1730509844483
 11
233.6047257224751
 21
209.6730509844483
 72
     1
 10
233.6047257224751
 20
209.6730509844483
 11
233.6047257224751
 21
212.1730509844483
 72
     1
 10
233.6047257224751
 20
212.1730509844483
 11
231.1047257224751
 21
212.1730509844483
 72
     1
 10
231.1047257224751
 20
212.1730509844483
 11
231.1047257224751
 21
195.2578896213836
 72
     2
 10
229.1047257224752
 20
195.2578896213836
 40
2.0
 50
0.0
 51
60.00000000000097
 73
     0
 97
        0
 75
     0
 76
     1
 52
44.999991007
 41
1.0
 77
     0
 78
     2
 53
44.99999100695533
 43
0.0
 44
0.0
 45
-2.245063677885963
 46
2.245064382648558
 79
     0
 53
134.9999910069553
 43
0.0
 44
0.0
 45
-2.245064382648558
 46
-2.245063677885963
 79
     0
 98
        1
 10
0.0
 20
0.0
  0
HATCH
  5
260
330
1F
100
AcDbEntity
  8
0
  6
Continuous
 62
     7
370
     0
100
AcDbHatch
 10
0.0
 20
0.0
 30
0.0
210
0.0
220
0.0
230
1.0
  2
ANSI35
 70
     0
 71
     0
 91
        1
 92
        0
 93
       24
 72
     1
 10
171.4473885549423
 20
259.5893187269587
 11
175.0620934025546
 21
194.935585890765
 72
     2
 10
177.0589749309185
 20
195.0472289007513
 40
2.0
 50
183.2000000000007
 51
224.9999999999991
 73
     1
 72
     1
 10
175.6447613685454
 20
193.6330153383782
 11
176.0618599980209
 21
193.2159167089028
 72
     2
 10
174.6476464356477
 20
191.8017031465297
 40
2.0
 50
315.0000000000008
 51
357.0000000000001
 73
     0
 72
     1
 10
176.6449055051569
 20
191.9063750590156
 11
177.4239033294707
 21
177.042211093841
 72
     2
 10
179.9204771663571
 20
177.1730509844484
 40
2.5
 50
183.0000000000011
 51
270.0000000000008
 73
     1
 72
     4
 94
        3
 73
     1
 74
     0
 95
       11
 96
        7
 40
0.0098240675016233
 40
0.0098240675016233
 40
0.0098240675016233
 40
0.0098240675016233
 40
0.0324865820226782
 40
0.0324865820226782
 40
0.0324865820226782
 40
0.0552260191258435
 40
0.0552260191258435
 40
0.0552260191258435
 40
0.0552260191258435
 10
179.9204771663572
 20
174.6730510560582
 42
1.0
 10
187.4764833929394
 20
174.6765493878703
 42
1.0
 10
195.0104292748555
 20
175.6698673355861
 42
1.0
 10
202.5664356935228
 20
175.6729227459074
 42
1.0
 10
210.1479440234101
 20
175.675988468396
 42
1.0
 10
217.707466159428
 20
174.6766006122762
 42
1.0
 10
225.2889742785931
 20
174.6730518326245
 42
1.0
 72
     2
 10
225.2889742785932
 20
177.1730509844484
 40
2.5
 50
270.0000000000008
 51
357.0000000000005
 73
     1
 72
     1
 10
227.7855481154797
 20
177.042211093841
 11
228.5645459397934
 21
191.9063750590156
 72
     2
 10
230.5618050093026
 20
191.8017031465297
 40
2.0
 50
183.0000000000016
 51
225.0000000000043
 73
     0
 72
     1
 10
229.1475914469296
 20
193.2159167089028
 11
229.564690076405
 21
193.6330153383782
 72
     2
 10
228.1504765140318
 20
195.0472289007513
 40
2.0
 50
315.0000000000026
 51
356.8000000000009
 73
     1
 72
     1
 10
230.1473580423958
 20
194.9355858907649
 11
233.762062890008
 21
259.5893187269587
 72
     2
 10
232.264401743735
 20
259.6730509844484
 40
1.5
 50
356.7999999999998
 51
450.0000000000008
 73
     1
 72
     1
 10
232.264401743735
 20
261.1730509844484
 11
230.4913114599625
 21
261.1730509844484
 72
     2
 10
230.4913114599625
 20
259.6730509844484
 40
1.5
 50
90.0
 51
175.4999999999987
 73
     1
 72
     1
 10
228.9959354593628
 20
259.7907396280402
 11
223.479855349429
 21
189.7022964100813
 72
     2
 10
217.4983513470303
 20
190.1730509844484
 40
6.0
 50
4.5000000000001
 51
90.0
 73
     0
 72
     1
 10
217.4983513470303
 20
184.1730509844484
 11
187.71110009792
 21
184.1730509844484
 72
     2
 10
187.71110009792
 20
190.1730509844484
 40
6.0
 50
90.0
 51
175.4999999999999
 73
     0
 72
     1
 10
181.7295960955213
 20
189.7022964100813
 11
176.2135159855875
 21
259.7907396280402
 72
     2
 10
174.7181399849879
 20
259.6730509844484
 40
1.5
 50
4.500000000001433
 51
90.0
 73
     1
 72
     1
 10
174.7181399849879
 20
261.1730509844484
 11
172.9450497012153
 21
261.1730509844484
 72
     2
 10
172.9450497012153
 20
259.6730509844484
 40
1.5
 50
90.0
 51
183.2000000000017
 73
     1
 97
        0
 75
     0
 76
     1
 52
90.0
 41
1.0
 77
     0
 78
     2
 53
135.0000000000002
 43
0.0
 44
0.0
 45
-4.490128060534562
 46
-4.490128060534592
 79
     0
 53
135.0000000000002
 43
-0.0000000000000157
 44
4.49013
 45
-4.490128060534562
 46
-4.490128060534592
 79
     4
 49
7.9375
 49
-1.5875
 49
0.0
 49
-1.5875
 98
        1
 10
0.0
 20
0.0
  0
HATCH
  5
261
330
1F
100
AcDbEntity
  8
0
  6
Continuous
 62
     7
370
     0
100
AcDbHatch
 10
0.0
 20
0.0
 30
0.0
210
0.0
220
0.0
230
1.0
  2
ANSI33
 70
     0
 71
     0
 91
        1
 92
        0
 93
       30
 72
     1
 10
153.1047257224752
 20
204.1730509844484
 11
151.1047257224752
 21
206.1730509844484
 72
     1
 10
151.1047257224752
 20
206.1730509844484
 11
148.6047257224752
 21
206.1730509844484
 72
     1
 10
148.6047257224752
 20
206.1730509844484
 11
148.6047257224752
 21
176.1730509844484
 72
     1
 10
148.6047257224752
 20
176.1730509844484
 11
151.1047257224751
 21
176.1730509844484
 72
     1
 10
151.1047257224751
 20
176.1730509844484
 11
153.1047257224752
 21
178.1730509844485
 72
     1
 10
153.1047257224752
 20
178.1730509844485
 11
155.1047257224752
 21
176.1730509844484
 72
     1
 10
155.1047257224752
 20
176.1730509844484
 11
157.1047257224752
 21
176.1730509844484
 72
     1
 10
157.1047257224752
 20
176.1730509844484
 11
157.1047257224752
 21
177.380157765635
 72
     2
 10
154.6047257224752
 20
177.380157765635
 40
2.5
 50
0.0
 51
44.99999999999954
 73
     1
 72
     1
 10
156.3724926754415
 20
179.1479247186013
 11
154.690512160102
 21
180.8299052339408
 72
     2
 10
156.1047257224752
 20
182.2441187963139
 40
2.0
 50
135.0000000000006
 51
180.0
 73
     0
 72
     1
 10
154.1047257224752
 20
182.2441187963139
 11
154.1047257224752
 21
184.2636236189238
 72
     1
 10
154.1047257224752
 20
184.2636236189238
 11
154.0047257224751
 21
184.2636236180947
 72
     1
 10
154.0047257224751
 20
184.2636236180947
 11
154.0047257224751
 21
184.420371955037
 72
     1
 10
154.0047257224751
 20
184.420371955037
 11
154.1047257224752
 21
184.4203719523012
 72
     1
 10
154.1047257224752
 20
184.4203719523012
 11
154.1047257224752
 21
184.9982204835289
 72
     1
 10
154.1047257224752
 20
184.9982204835289
 11
154.0047257224751
 21
184.9982204906235
 72
     1
 10
154.0047257224751
 20
184.9982204906235
 11
154.0047257224751
 21
185.1561339012899
 72
     1
 10
154.0047257224751
 20
185.1561339012899
 11
154.1047257224752
 21
185.1561339032922
 72
     1
 10
154.1047257224752
 20
185.1561339032922
 11
154.1047257224752
 21
185.861765768766
 72
     1
 10
154.1047257224752
 20
185.861765768766
 11
154.0047257224751
 21
185.8617657820615
 72
     1
 10
154.0047257224751
 20
185.8617657820615
 11
154.0047257224752
 21
186.0751104726678
 72
     1
 10
154.0047257224752
 20
186.0751104726678
 11
154.1047257224752
 21
186.0751104666277
 72
     1
 10
154.1047257224752
 20
186.0751104666277
 11
154.1047257224752
 21
200.1019831725829
 72
     2
 10
156.1047257224752
 20
200.1019831725829
 40
2.0
 50
180.0
 51
225.0000000000014
 73
     0
 72
     1
 10
154.6905121601021
 20
201.516196734956
 11
156.3724926754415
 21
203.1981772502955
 72
     2
 10
154.6047257224752
 20
204.9659442032618
 40
2.5
 50
315.0000000000003
 51
360.0000000000008
 73
     1
 72
     1
 10
157.1047257224752
 20
204.9659442032618
 11
157.1047257224752
 21
206.1730509844484
 72
     1
 10
157.1047257224752
 20
206.1730509844484
 11
155.1047257224752
 21
206.1730509844484
 72
     1
 10
155.1047257224752
 20
206.1730509844484
 11
153.1047257224752
 21
204.1730509844484
 97
        0
 75
     0
 76
     1
 52
90.0
 41
1.0
 77
     0
 78
     2
 53
135.0000000000002
 43
0.0
 44
0.0
 45
-4.490128060534562
 46
-4.490128060534592
 79
     0
 53
135.0000000000002
 43
-0.0000000000000157
 44
4.49013
 45
-4.490128060534562
 46
-4.490128060534592
 79
     2
 49
3.175
 49
-1.5875
 98
        1
 10
0.0
 20
0.0
  0
HATCH
  5
262
330
1F
100
AcDbEntity
  8
0
  6
Continuous
 62
     7
370
     0
100
AcDbHatch
 10
0.0
 20
0.0
 30
0.0
210
0.0
220
0.0
230
1.0
  2
ANSI37
 70
     0
 71
     0
 91
        1
 92
        0
 93
        4
 72
     1
 10
148.6047257224752
 20
175.1730509844484
 11
148.6047257224752
 21
207.1730509844484
 72
     1
 10
148.6047257224752
 20
207.1730509844484
 11
145.4047257224751
 21
207.1730509844484
 72
     1
 10
145.4047257224751
 20
207.1730509844484
 11
145.4047257224751
 21
175.1730509844484
 72
     1
 10
145.4047257224751
 20
175.1730509844484
 11
148.6047257224752
 21
175.1730509844484
 97
        0
 75
     0
 76
     1
 52
0.0
 41
1.0
 77
     0
 78
     2
 53
45.0
 43
0.0
 44
0.0
 45
-2.245064030267288
 46
2.245064030267288
 79
     0
 53
135.0
 43
0.0
 44
0.0
 45
-2.245064030267288
 46
-2.245064030267288
 79
     0
 98
        1
 10
0.0
 20
0.0
  0
MTEXT
  5
263
330
1F
100
AcDbEntity
  8
0
  6
Continuous
 62
     7
370
     0
100
AcDbMText
 10
202.863996515
 20
275.5450807947
 30
0.0
 40
5.0
 41
0.0
 71
     2
 72
     1
  1
A-A
  7
SLDTEXTSTYLE0
 73
     1
 44
1.0
  0
LINE
  5
264
330
1F
100
AcDbEntity
  8
0
  6
CENTERX2
 62
     7
370
     0
100
AcDbLine
 10
143.4047257225
 20
191.1730509844
 30
0.0
 11
150.6047257225
 21
191.1730509844
 31
0.0
  0
LINE
  5
265
330
1F
100
AcDbEntity
  8
0
  6
CENTERX2
 62
     7
370
     0
100
AcDbLine
 10
156.1047257225
 20
191.1730509844
 30
0.0
 11
150.6047257225
 21
191.1730509844
 31
0.0
  0
LINE
  5
266
330
1F
100
AcDbEntity
  8
0
  6
CENTERX2
 62
     7
370
     0
100
AcDbLine
 10
153.1047257225
 20
166.1730509844
 30
0.0
 11
153.1047257225
 21
180.1730509844
 31
0.0
  0
LINE
  5
267
330
1F
100
AcDbEntity
  8
0
  6
CENTERX2
 62
     7
370
     0
100
AcDbLine
 10
147.1047257225
 20
201.1730509844
 30
0.0
 11
174.1047257225
 21
201.1730509844
 31
0.0
  0
ENDSEC
  0
SECTION
  2
OBJECTS
  0
DICTIONARY
  5
C
330
0
100
AcDbDictionary
281
     1
  3
ACAD_GROUP
350
D
  3
ACAD_LAYOUT
350
1A
  3
ACAD_MLINESTYLE
350
17
  3
ACAD_PLOTSETTINGS
350
19
  3
ACAD_PLOTSTYLENAME
350
E
  0
DICTIONARY
  5
D
102
{ACAD_REACTORS
330
C
102
}
330
C
100
AcDbDictionary
281
     1
  0
DICTIONARY
  5
1A
102
{ACAD_REACTORS
330
C
102
}
330
C
100
AcDbDictionary
281
     1
  3
Layout1
350
1E
  3
Layout2
350
26
  3
Model
350
22
  0
DICTIONARY
  5
17
102
{ACAD_REACTORS
330
C
102
}
330
C
100
AcDbDictionary
281
     1
  3
Standard
350
18
  0
DICTIONARY
  5
19
102
{ACAD_REACTORS
330
C
102
}
330
C
100
AcDbDictionary
281
     1
  0
ACDBDICTIONARYWDFLT
  5
E
102
{ACAD_REACTORS
330
C
102
}
330
C
100
AcDbDictionary
281
     1
  3
Normal
350
F
100
AcDbDictionaryWithDefault
340
F
  0
LAYOUT
  5
1E
102
{ACAD_REACTORS
330
1A
102
}
330
1A
100
AcDbPlotSettings
  1

  2
none_device
  4

  6

 40
0.0
 41
0.0
 42
0.0
 43
0.0
 44
0.0
 45
0.0
 46
0.0
 47
0.0
 48
0.0
 49
0.0
140
0.0
141
0.0
142
1.0
143
1.0
 70
   688
 72
     0
 73
     0
 74
     5
  7

 75
    16
147
1.0
148
0.0
149
0.0
100
AcDbLayout
  1
Layout1
 70
     1
 71
     1
 10
0.0
 20
0.0
 11
420.0
 21
297.0
 12
0.0
 22
0.0
 32
0.0
 14
1.0000000000E+20
 24
1.0000000000E+20
 34
1.0000000000E+20
 15
-1.0000000000E+20
 25
-1.0000000000E+20
 35
-1.0000000000E+20
146
0.0
 13
0.0
 23
0.0
 33
0.0
 16
1.0
 26
0.0
 36
0.0
 17
0.0
 27
1.0
 37
0.0
 76
     0
330
1B
  0
LAYOUT
  5
26
102
{ACAD_REACTORS
330
1A
102
}
330
1A
100
AcDbPlotSettings
  1

  2
none_device
  4

  6

 40
0.0
 41
0.0
 42
0.0
 43
0.0
 44
0.0
 45
0.0
 46
0.0
 47
0.0
 48
0.0
 49
0.0
140
0.0
141
0.0
142
1.0
143
1.0
 70
   688
 72
     0
 73
     0
 74
     5
  7

 75
    16
147
1.0
148
0.0
149
0.0
100
AcDbLayout
  1
Layout2
 70
     1
 71
     2
 10
0.0
 20
0.0
 11
0.0
 21
0.0
 12
0.0
 22
0.0
 32
0.0
 14
0.0
 24
0.0
 34
0.0
 15
0.0
 25
0.0
 35
0.0
146
0.0
 13
0.0
 23
0.0
 33
0.0
 16
1.0
 26
0.0
 36
0.0
 17
0.0
 27
1.0
 37
0.0
 76
     0
330
23
  0
LAYOUT
  5
22
102
{ACAD_REACTORS
330
1A
102
}
330
1A
100
AcDbPlotSettings
  1

  2
none_device
  4

  6

 40
0.0
 41
0.0
 42
0.0
 43
0.0
 44
0.0
 45
0.0
 46
0.0
 47
0.0
 48
0.0
 49
0.0
140
0.0
141
0.0
142
1.0
143
1.0
 70
  1712
 72
     0
 73
     0
 74
     0
  7

 75
     0
147
1.0
148
0.0
149
0.0
100
AcDbLayout
  1
Model
 70
     1
 71
     0
 10
0.0
 20
0.0
 11
420.0
 21
297.0
 12
0.0
 22
0.0
 32
0.0
 14
0.0
 24
0.0
 34
0.0
 15
420.0
 25
297.0
 35
0.0
146
0.0
 13
0.0
 23
0.0
 33
0.0
 16
1.0
 26
0.0
 36
0.0
 17
0.0
 27
1.0
 37
0.0
 76
     0
330
1F
331
29
  0
MLINESTYLE
  5
18
102
{ACAD_REACTORS
330
17
102
}
330
17
100
AcDbMlineStyle
  2
Standard
 70
     0
  3

 62
   256
 51
90.0
 52
90.0
 71
     2
 49
0.5
 62
   256
  6
BYLAYER
 49
-0.5
 62
   256
  6
BYLAYER
  0
ACDBPLACEHOLDER
  5
F
102
{ACAD_REACTORS
330
E
102
}
330
E
  0
ENDSEC
  0
EOF
