  0
SECTION
  2
HEADER
  9
$ACADVER
  1
AC1015
  9
$ACADMAINTVER
 70
     6
  9
$DWGCODEPAGE
  3
ANSI_1252
  9
$INSBASE
 10
0.0
 20
0.0
 30
0.0
  9
$EXTMIN
 10
0.0
 20
0.0
 30
0.0
  9
$EXTMAX
 10
594.0
 20
420.0
 30
0.0
  9
$LIMMIN
 10
0.0
 20
0.0
  9
$LIMMAX
 10
594.0
 20
420.0
  9
$ORTHOMODE
 70
     0
  9
$REGENMODE
 70
     1
  9
$FILLMODE
 70
     1
  9
$QTEXTMODE
 70
     0
  9
$MIRRTEXT
 70
     1
  9
$LTSCALE
 40
1.0
  9
$ATTMODE
 70
     1
  9
$TEXTSIZE
 40
3.5
  9
$TRACEWID
 40
1.0
  9
$TEXTSTYLE
  7
Standard
  9
$CLAYER
  8
0
  9
$CELTYPE
  6
ByLayer
  9
$CECOLOR
 62
   256
  9
$CELTSCALE
 40
1.0
  9
$DISPSILH
 70
     0
  9
$DIMSCALE
 40
1.0
  9
$DIMASZ
 40
3.5
  9
$DIMEXO
 40
1.0
  9
$DIMDLI
 40
3.75
  9
$DIMRND
 40
0.0
  9
$DIMDLE
 40
0.0
  9
$DIMEXE
 40
1.0
  9
$DIMTP
 40
0.0
  9
$DIMTM
 40
0.0
  9
$DIMTXT
 40
3.5
  9
$DIMCEN
 40
2.5
  9
$DIMTSZ
 40
0.0
  9
$DIMTOL
 70
     0
  9
$DIMLIM
 70
     0
  9
$DIMTIH
 70
     1
  9
$DIMTOH
 70
     1
  9
$DIMSE1
 70
     0
  9
$DIMSE2
 70
     0
  9
$DIMTAD
 70
     1
  9
$DIMZIN
 70
     0
  9
$DIMBLK
  1

  9
$DIMASO
 70
     1
  9
$DIMSHO
 70
     1
  9
$DIMPOST
  1

  9
$DIMAPOST
  1

  9
$DIMALT
 70
     0
  9
$DIMALTD
 70
     3
  9
$DIMALTF
 40
0.0393700787
  9
$DIMLFAC
 40
1.0
  9
$DIMTOFL
 70
     1
  9
$DIMTVP
 40
0.0
  9
$DIMTIX
 70
     0
  9
$DIMSOXD
 70
     0
  9
$DIMSAH
 70
     0
  9
$DIMBLK1
  1

  9
$DIMBLK2
  1

  9
$DIMSTYLE
  2
ISO-25
  9
$DIMCLRD
 70
     0
  9
$DIMCLRE
 70
     0
  9
$DIMCLRT
 70
     0
  9
$DIMTFAC
 40
1.0
  9
$DIMGAP
 40
4.0
  9
$DIMJUST
 70
     0
  9
$DIMSD1
 70
     0
  9
$DIMSD2
 70
     0
  9
$DIMTOLJ
 70
     0
  9
$DIMTZIN
 70
     0
  9
$DIMALTZ
 70
     0
  9
$DIMALTTZ
 70
     0
  9
$DIMUPT
 70
     0
  9
$DIMDEC
 70
     1
  9
$DIMTDEC
 70
     1
  9
$DIMALTU
 70
     2
  9
$DIMALTTD
 70
     3
  9
$DIMTXSTY
  7
Standard
  9
$DIMAUNIT
 70
     0
  9
$DIMADEC
 70
     1
  9
$DIMALTRND
 40
0.0
  9
$DIMAZIN
 70
     0
  9
$DIMDSEP
 70
    44
  9
$DIMATFIT
 70
     3
  9
$DIMFRAC
 70
     0
  9
$DIMLDRBLK
  1

  9
$DIMLUNIT
 70
     2
  9
$DIMLWD
 70
    -2
  9
$DIMLWE
 70
    -2
  9
$DIMTMOVE
 70
     0
  9
$LUNITS
 70
     2
  9
$LUPREC
 70
     1
  9
$SKETCHINC
 40
1.0
  9
$FILLETRAD
 40
10.0
  9
$AUNITS
 70
     0
  9
$AUPREC
 70
     1
  9
$MENU
  1
.
  9
$ELEVATION
 40
0.0
  9
$PELEVATION
 40
0.0
  9
$THICKNESS
 40
0.0
  9
$LIMCHECK
 70
     0
  9
$CHAMFERA
 40
10.0
  9
$CHAMFERB
 40
10.0
  9
$CHAMFERC
 40
20.0
  9
$CHAMFERD
 40
0.0
  9
$SKPOLY
 70
     0
  9
$TDCREATE
 40
2456156.495658739
  9
$TDUCREATE
 40
2456156.412325405
  9
$TDUPDATE
 40
2456156.49565875
  9
$TDUUPDATE
 40
2456156.412325417
  9
$TDINDWG
 40
0.0000000116
  9
$TDUSRTIMER
 40
0.0000000116
  9
$USRTIMER
 70
     1
  9
$ANGBASE
 50
0.0
  9
$ANGDIR
 70
     0
  9
$PDMODE
 70
     0
  9
$PDSIZE
 40
-1.0
  9
$PLINEWID
 40
0.0
  9
$SPLFRAME
 70
     0
  9
$SPLINETYPE
 70
     6
  9
$SPLINESEGS
 70
     8
  9
$HANDSEED
  5
3F5
  9
$SURFTAB1
 70
     6
  9
$SURFTAB2
 70
     6
  9
$SURFTYPE
 70
     6
  9
$SURFU
 70
     6
  9
$SURFV
 70
     6
  9
$UCSBASE
  2

  9
$UCSNAME
  2

  9
$UCSORG
 10
0.0
 20
0.0
 30
0.0
  9
$UCSXDIR
 10
1.0
 20
0.0
 30
0.0
  9
$UCSYDIR
 10
0.0
 20
1.0
 30
0.0
  9
$UCSORTHOREF
  2

  9
$UCSORTHOVIEW
 70
     0
  9
$UCSORGTOP
 10
0.0
 20
0.0
 30
0.0
  9
$UCSORGBOTTOM
 10
0.0
 20
0.0
 30
0.0
  9
$UCSORGLEFT
 10
0.0
 20
0.0
 30
0.0
  9
$UCSORGRIGHT
 10
0.0
 20
0.0
 30
0.0
  9
$UCSORGFRONT
 10
0.0
 20
0.0
 30
0.0
  9
$UCSORGBACK
 10
0.0
 20
0.0
 30
0.0
  9
$PUCSBASE
  2

  9
$PUCSNAME
  2

  9
$PUCSORG
 10
0.0
 20
0.0
 30
0.0
  9
$PUCSXDIR
 10
1.0
 20
0.0
 30
0.0
  9
$PUCSYDIR
 10
0.0
 20
1.0
 30
0.0
  9
$PUCSORTHOREF
  2

  9
$PUCSORTHOVIEW
 70
     0
  9
$PUCSORGTOP
 10
0.0
 20
0.0
 30
0.0
  9
$PUCSORGBOTTOM
 10
0.0
 20
0.0
 30
0.0
  9
$PUCSORGLEFT
 10
0.0
 20
0.0
 30
0.0
  9
$PUCSORGRIGHT
 10
0.0
 20
0.0
 30
0.0
  9
$PUCSORGFRONT
 10
0.0
 20
0.0
 30
0.0
  9
$PUCSORGBACK
 10
0.0
 20
0.0
 30
0.0
  9
$USERI1
 70
     0
  9
$USERI2
 70
     0
  9
$USERI3
 70
     0
  9
$USERI4
 70
     0
  9
$USERI5
 70
     0
  9
$USERR1
 40
0.0
  9
$USERR2
 40
0.0
  9
$USERR3
 40
0.0
  9
$USERR4
 40
0.0
  9
$USERR5
 40
0.0
  9
$WORLDVIEW
 70
     1
  9
$SHADEDGE
 70
     3
  9
$SHADEDIF
 70
    70
  9
$TILEMODE
 70
     1
  9
$MAXACTVP
 70
    64
  9
$PINSBASE
 10
0.0
 20
0.0
 30
0.0
  9
$PLIMCHECK
 70
     0
  9
$PEXTMIN
 10
1.0000000000E+20
 20
1.0000000000E+20
 30
1.0000000000E+20
  9
$PEXTMAX
 10
-1.0000000000E+20
 20
-1.0000000000E+20
 30
-1.0000000000E+20
  9
$PLIMMIN
 10
0.0
 20
0.0
  9
$PLIMMAX
 10
420.0
 20
297.0
  9
$UNITMODE
 70
     0
  9
$VISRETAIN
 70
     1
  9
$PLINEGEN
 70
     0
  9
$PSLTSCALE
 70
     1
  9
$TREEDEPTH
 70
  3020
  9
$CMLSTYLE
  2
Standard
  9
$CMLJUST
 70
     0
  9
$CMLSCALE
 40
20.0
  9
$PROXYGRAPHICS
 70
     1
  9
$MEASUREMENT
 70
     1
  9
$CELWEIGHT
370
    -1
  9
$ENDCAPS
280
     0
  9
$JOINSTYLE
280
     0
  9
$LWDISPLAY
290
     1
  9
$INSUNITS
 70
     4
  9
$HYPERLINKBASE
  1

  9
$STYLESHEET
  1

  9
$XEDIT
290
     1
  9
$CEPSNTYPE
380
     0
  9
$PSTYLEMODE
290
     1
  9
$FINGERPRINTGUID
  2
{C7002E73-6A21-48C9-ACC5-8A3843B5C183}
  9
$VERSIONGUID
  2
{FAEB1C32-E019-11D5-929B-00C0DF256EC4}
  9
$EXTNAMES
290
     1
  9
$PSVPSCALE
 40
0.0
  9
$OLESTARTUP
290
     0
  0
ENDSEC
  0
SECTION
  2
CLASSES
  0
CLASS
  1
ACDBDICTIONARYWDFLT
  2
AcDbDictionaryWithDefault
  3
ObjectDBX Classes
 90
        0
280
     0
281
     0
  0
CLASS
  1
VISUALSTYLE
  2
AcDbVisualStyle
  3
ObjectDBX Classes
 90
     4095
280
     0
281
     0
  0
CLASS
  1
MATERIAL
  2
AcDbMaterial
  3
ObjectDBX Classes
 90
     1153
280
     0
281
     0
  0
CLASS
  1
ACDBPLACEHOLDER
  2
AcDbPlaceHolder
  3
ObjectDBX Classes
 90
        0
280
     0
281
     0
  0
CLASS
  1
LAYOUT
  2
AcDbLayout
  3
ObjectDBX Classes
 90
        0
280
     0
281
     0
  0
ENDSEC
  0
SECTION
  2
TABLES
  0
TABLE
  2
VPORT
  5
8
330
0
100
AcDbSymbolTable
 70
     1
  0
VPORT
  5
29
330
8
100
AcDbSymbolTableRecord
100
AcDbViewportTableRecord
  2
*Active
 70
     0
 10
0.0
 20
0.0
 11
1.0
 21
1.0
 12
297.0
 22
210.0
 13
0.0
 23
0.0
 14
10.0
 24
10.0
 15
10.0
 25
10.0
 16
0.0
 26
0.0
 36
1.0
 17
0.0
 27
0.0
 37
0.0
 40
420.0
 41
1.4142857143
 42
50.0
 43
0.0
 44
0.0
 50
0.0
 51
0.0
 71
     0
 72
  2000
 73
     1
 74
     3
 75
     0
 76
     0
 77
     0
 78
     0
281
     0
 65
     1
110
0.0
120
0.0
130
0.0
111
1.0
121
0.0
131
0.0
112
0.0
122
1.0
132
0.0
 79
     0
146
0.0
  0
ENDTAB
  0
TABLE
  2
LTYPE
  5
5
330
0
100
AcDbSymbolTable
 70
     6
  0
LTYPE
  5
14
330
5
100
AcDbSymbolTableRecord
100
AcDbLinetypeTableRecord
  2
ByBlock
 70
     0
  3

 72
    65
 73
     0
 40
0.0
  0
LTYPE
  5
15
330
5
100
AcDbSymbolTableRecord
100
AcDbLinetypeTableRecord
  2
ByLayer
 70
     0
  3

 72
    65
 73
     0
 40
0.0
  0
LTYPE
  5
16
330
5
100
AcDbSymbolTableRecord
100
AcDbLinetypeTableRecord
  2
Continuous
 70
     0
  3
Solid line
 72
    65
 73
     0
 40
0.0
  0
LTYPE
  5
3F
330
5
100
AcDbSymbolTableRecord
100
AcDbLinetypeTableRecord
  2
HIDDEN
 70
     0
  3
Hidden __ __ __ __ __ __ __ __ __ __ __ __ __ __
 72
    65
 73
     2
 40
1.905
 49
1.27
 74
     0
 49
-0.635
 74
     0
  0
LTYPE
  5
40
330
5
100
AcDbSymbolTableRecord
100
AcDbLinetypeTableRecord
  2
PHANTOM
 70
     0
  3
Phantom ______  __  __  ______  __  __  ______
 72
    65
 73
     6
 40
12.7
 49
6.35
 74
     0
 49
-1.27
 74
     0
 49
1.27
 74
     0
 49
-1.27
 74
     0
 49
1.27
 74
     0
 49
-1.27
 74
     0
  0
LTYPE
  5
41
330
5
100
AcDbSymbolTableRecord
100
AcDbLinetypeTableRecord
  2
CENTER
 70
     0
  3
Center ____ _ ____ _ ____ _ ____ _ ____ _ ____
 72
    65
 73
     4
 40
10.16
 49
6.35
 74
     0
 49
-1.27
 74
     0
 49
1.27
 74
     0
 49
-1.27
 74
     0
  0
LTYPE
  5
42
330
5
100
AcDbSymbolTableRecord
100
AcDbLinetypeTableRecord
  2
CENTERX2
 70
     0
  3
Center (2x) ________  __  ________  __  _____
 72
    65
 73
     4
 40
20.32
 49
12.7
 74
     0
 49
-2.54
 74
     0
 49
2.54
 74
     0
 49
-2.54
 74
     0
  0
LTYPE
  5
43
330
5
100
AcDbSymbolTableRecord
100
AcDbLinetypeTableRecord
  2
DOT2
 70
     0
  3
Dot (.5x) ........................................
 72
    65
 73
     2
 40
0.635
 49
0.0
 74
     0
 49
-0.635
 74
     0
  0
ENDTAB
  0
TABLE
  2
LAYER
  5
2
330
0
100
AcDbSymbolTable
 70
     5
  0
LAYER
  5
10
330
2
100
AcDbSymbolTableRecord
100
AcDbLayerTableRecord
  2
0
 70
     0
 62
     7
  6
Continuous
370
    -3
390
F
  0
LAYER
  5
44
330
2
100
AcDbSymbolTableRecord
100
AcDbLayerTableRecord
  2
VORLAGE
 70
     0
 62
    -1
  6
Continuous
370
    -3
390
F
  0
LAYER
  5
45
330
2
100
AcDbSymbolTableRecord
100
AcDbLayerTableRecord
  2
RAHMEN
 70
     0
 62
   179
  6
Continuous
370
    -3
390
F
  0
LAYER
  5
46
330
2
100
AcDbSymbolTableRecord
100
AcDbLayerTableRecord
  2
KOPF
 70
     0
 62
     7
  6
Continuous
370
    -3
390
F
  0
LAYER
  5
47
330
2
100
AcDbSymbolTableRecord
100
AcDbLayerTableRecord
  2
TEMP
 70
     0
 62
    -7
  6
Continuous
370
    -3
390
F
  0
ENDTAB
  0
TABLE
  2
STYLE
  5
3
330
0
100
AcDbSymbolTable
 70
     2
  0
STYLE
  5
11
330
3
100
AcDbSymbolTableRecord
100
AcDbTextStyleTableRecord
  2
Standard
 70
     0
 40
0.0
 41
1.0
 50
0.0
 71
     0
 42
2.5
  3
txt
  4

  0
STYLE
  5
AD
330
3
100
AcDbSymbolTableRecord
100
AcDbTextStyleTableRecord
  2
SLDTEXTSTYLE0
 70
     0
 40
0.0
 41
0.605
 50
0.0
 71
     0
 42
0.2
  3
TXT
  4

  0
ENDTAB
  0
TABLE
  2
VIEW
  5
6
330
0
100
AcDbSymbolTable
 70
     0
  0
ENDTAB
  0
TABLE
  2
UCS
  5
7
330
0
100
AcDbSymbolTable
 70
     0
  0
ENDTAB
  0
TABLE
  2
APPID
  5
9
330
0
100
AcDbSymbolTable
 70
     1
  0
APPID
  5
12
330
9
100
AcDbSymbolTableRecord
100
AcDbRegAppTableRecord
  2
ACAD
 70
     0
  0
ENDTAB
  0
TABLE
  2
DIMSTYLE
  5
A
330
0
100
AcDbSymbolTable
 70
     2
100
AcDbDimStyleTable
  0
DIMSTYLE
105
27
330
A
100
AcDbSymbolTableRecord
100
AcDbDimStyleTableRecord
  2
ISO-25
 70
     0
 41
2.5
 42
0.625
 43
3.75
 44
1.25
 73
     0
 74
     0
 77
     1
 78
     8
140
2.5
141
2.5
143
0.0393700787
147
0.625
171
     3
172
     1
178
     0
271
     2
272
     2
274
     3
278
    44
283
     0
284
     8
340
11
  0
DIMSTYLE
105
AE
102
{ACAD_REACTORS
330
AC
330
3D1
330
3DD
102
}
330
A
100
AcDbSymbolTableRecord
100
AcDbDimStyleTableRecord
  2
SLDDIMSTYLE0
 70
     0
 41
3.5
 44
0.0
 45
0.000000001
 73
     0
 74
     0
 77
     1
 78
    12
 79
     3
140
3.5
147
0.875
173
     1
178
     0
271
     1
272
     1
276
     2
284
    12
340
AD
  0
ENDTAB
  0
TABLE
  2
BLOCK_RECORD
  5
1
330
0
100
AcDbSymbolTable
 70
     5
  0
BLOCK_RECORD
  5
1F
330
1
100
AcDbSymbolTableRecord
100
AcDbBlockTableRecord
  2
*Model_Space
340
22
  0
BLOCK_RECORD
  5
1B
330
1
100
AcDbSymbolTableRecord
100
AcDbBlockTableRecord
  2
*Paper_Space
340
1E
  0
BLOCK_RECORD
  5
23
330
1
100
AcDbSymbolTableRecord
100
AcDbBlockTableRecord
  2
*Paper_Space0
340
26
  0
BLOCK_RECORD
  5
AF
330
1
100
AcDbSymbolTableRecord
100
AcDbBlockTableRecord
  2
*D1
340
0
  0
BLOCK_RECORD
  5
3D2
330
1
100
AcDbSymbolTableRecord
100
AcDbBlockTableRecord
  2
*D2
340
0
  0
BLOCK_RECORD
  5
3DE
330
1
100
AcDbSymbolTableRecord
100
AcDbBlockTableRecord
  2
*D3
340
0
  0
BLOCK_RECORD
  5
3E9
330
1
100
AcDbSymbolTableRecord
100
AcDbBlockTableRecord
  2
SW_CENTERMARKSYMBOL_0
340
0
102
{BLKREFS
331
3F4
102
}
  0
ENDTAB
  0
ENDSEC
  0
SECTION
  2
BLOCKS
  0
BLOCK
  5
20
330
1F
100
AcDbEntity
  8
0
100
AcDbBlockBegin
  2
*Model_Space
 70
     0
 10
0.0
 20
0.0
 30
0.0
  3
*Model_Space
  1

  0
ENDBLK
  5
21
330
1F
100
AcDbEntity
  8
0
100
AcDbBlockEnd
  0
BLOCK
  5
1C
330
1B
100
AcDbEntity
 67
     1
  8
0
100
AcDbBlockBegin
  2
*Paper_Space
 70
     0
 10
0.0
 20
0.0
 30
0.0
  3
*Paper_Space
  1

  0
ENDBLK
  5
1D
330
1B
100
AcDbEntity
 67
     1
  8
0
100
AcDbBlockEnd
  0
BLOCK
  5
24
330
23
100
AcDbEntity
  8
0
100
AcDbBlockBegin
  2
*Paper_Space0
 70
     0
 10
0.0
 20
0.0
 30
0.0
  3
*Paper_Space0
  1

  0
ENDBLK
  5
25
330
23
100
AcDbEntity
  8
0
100
AcDbBlockEnd
  0
BLOCK
  5
B0
330
AF
100
AcDbEntity
  8
0
100
AcDbBlockBegin
  2
*D1
 70
     1
 10
0.0
 20
0.0
 30
0.0
  3
*D1
  1

  0
ARC
  5
B2
330
AF
100
AcDbEntity
  8
0
  6
Continuous
 62
     7
370
     0
100
AcDbCircle
 10
155.8951678254
 20
171.9655162895
 30
0.0
 40
6.004473245913029
100
AcDbArc
 50
243.4349488229
 51
296.5650511771
  0
ARC
  5
B3
330
AF
100
AcDbEntity
  8
0
  6
Continuous
 62
     7
370
     0
100
AcDbCircle
 10
155.8951678254
 20
176.4263656443
 30
0.0
 40
6.004473245913042
100
AcDbArc
 50
63.4349488229
 51
116.5650511771
  0
SOLID
  5
B4
330
AF
100
AcDbEntity
  8
0
  6
Continuous
 62
     7
370
     0
100
AcDbTrace
 10
158.5804498948
 20
407.5830635568
 30
0.0
 11
157.6804498948
 21
404.0830635568
 31
0.0
 12
159.4804498948
 22
404.0830635568
 32
0.0
 13
159.4804498948
 23
404.0830635568
 33
0.0
  0
SOLID
  5
B5
330
AF
100
AcDbEntity
  8
0
  6
Continuous
 62
     7
370
     0
100
AcDbTrace
 10
158.5804498948
 20
13.0830635568
 30
0.0
 11
159.4804498948
 21
16.5830635568
 31
0.0
 12
157.6804498948
 22
16.5830635568
 32
0.0
 13
157.6804498948
 23
16.5830635568
 33
0.0
  0
LINE
  5
B6
330
AF
100
AcDbEntity
  8
0
  6
Continuous
 62
     7
370
     0
100
AcDbLine
 10
108.2013245033
 20
407.5830635568
 30
0.0
 11
159.5804498948
 21
407.5830635568
 31
0.0
  0
LINE
  5
B7
330
AF
100
AcDbEntity
  8
0
  6
Continuous
 62
     7
370
     0
100
AcDbLine
 10
139.2013245033
 20
13.0830635568
 30
0.0
 11
159.5804498948
 21
13.0830635568
 31
0.0
  0
LINE
  5
B8
330
AF
100
AcDbEntity
  8
0
  6
Continuous
 62
     7
370
     0
100
AcDbLine
 10
158.5804498948
 20
407.5830635568
 30
0.0
 11
158.5804498948
 21
13.0830635568
 31
0.0
  0
MTEXT
  5
B9
330
AF
100
AcDbEntity
  8
0
  6
Continuous
 62
     7
370
     0
100
AcDbMText
 10
154.0687125728
 20
168.1824521507
 30
0.0
 40
3.5
 41
0.0
 71
     1
 72
     1
  1
394.5
  7
SLDTEXTSTYLE0
 11
-7.044195017643634E-15
 21
1.0
 31
0.0
 73
     1
 44
1.0
  0
ENDBLK
  5
B1
330
AF
100
AcDbEntity
  8
0
100
AcDbBlockEnd
  0
BLOCK
  5
3D3
330
3D2
100
AcDbEntity
  8
0
100
AcDbBlockBegin
  2
*D2
 70
     1
 10
0.0
 20
0.0
 30
0.0
  3
*D2
  1

  0
ARC
  5
3D5
330
3D2
100
AcDbEntity
  8
0
  6
Continuous
 62
     7
370
     0
100
AcDbCircle
 10
301.2608794016
 20
317.9261811117
 30
0.0
 40
6.004473245912863
100
AcDbArc
 50
243.4349488229
 51
296.5650511771
  0
ARC
  5
3D6
330
3D2
100
AcDbEntity
  8
0
  6
Continuous
 62
     7
370
     0
100
AcDbCircle
 10
301.2608794016
 20
318.3794666439
 30
0.0
 40
6.004473245912965
100
AcDbArc
 50
63.4349488229
 51
116.5650511771
  0
SOLID
  5
3D7
330
3D2
100
AcDbEntity
  8
0
  6
Continuous
 62
     7
370
     0
100
AcDbTrace
 10
303.946161471
 20
376.5060124185
 30
0.0
 11
303.046161471
 21
373.0060124185
 31
0.0
 12
304.846161471
 22
373.0060124185
 32
0.0
 13
304.846161471
 23
373.0060124185
 33
0.0
  0
SOLID
  5
3D8
330
3D2
100
AcDbEntity
  8
0
  6
Continuous
 62
     7
370
     0
100
AcDbTrace
 10
303.946161471
 20
265.5060124185
 30
0.0
 11
304.846161471
 21
269.0060124185
 31
0.0
 12
303.046161471
 22
269.0060124185
 32
0.0
 13
303.046161471
 23
269.0060124185
 33
0.0
  0
LINE
  5
3D9
330
3D2
100
AcDbEntity
  8
0
  6
Continuous
 62
     7
370
     0
100
AcDbLine
 10
340.2946516876
 20
376.5060124185
 30
0.0
 11
302.946161471
 21
376.5060124185
 31
0.0
  0
LINE
  5
3DA
330
3D2
100
AcDbEntity
  8
0
  6
Continuous
 62
     7
370
     0
100
AcDbLine
 10
323.2446516876
 20
265.5060124185
 30
0.0
 11
302.946161471
 21
265.5060124185
 31
0.0
  0
LINE
  5
3DB
330
3D2
100
AcDbEntity
  8
0
  6
Continuous
 62
     7
370
     0
100
AcDbLine
 10
303.946161471
 20
376.5060124185
 30
0.0
 11
303.946161471
 21
265.5060124185
 31
0.0
  0
MTEXT
  5
3DC
330
3D2
100
AcDbEntity
  8
0
  6
Continuous
 62
     7
370
     0
100
AcDbMText
 10
299.434424149
 20
314.1431169729
 30
0.0
 40
3.5
 41
0.0
 71
     1
 72
     1
  1
111
  7
SLDTEXTSTYLE0
 11
-7.044195017643634E-15
 21
1.0
 31
0.0
 73
     1
 44
1.0
  0
ENDBLK
  5
3D4
330
3D2
100
AcDbEntity
  8
0
100
AcDbBlockEnd
  0
BLOCK
  5
3DF
330
3DE
100
AcDbEntity
  8
0
100
AcDbBlockBegin
  2
*D3
 70
     1
 10
0.0
 20
0.0
 30
0.0
  3
*D3
  1

  0
ARC
  5
3E1
330
3DE
100
AcDbEntity
  8
0
  6
Continuous
 62
     7
370
     0
100
AcDbCircle
 10
364.0608492236
 20
255.7556817943
 30
0.0
 40
6.004473245912914
100
AcDbArc
 50
153.4349488229
 51
206.5650511771
  0
ARC
  5
3E2
330
3DE
100
AcDbEntity
  8
0
  6
Continuous
 62
     7
370
     0
100
AcDbCircle
 10
368.5216985785
 20
255.7556817943
 30
0.0
 40
6.004473245912914
100
AcDbArc
 50
333.4349488229
 51
26.5650511771
  0
SOLID
  5
3E3
330
3DE
100
AcDbEntity
  8
0
  6
Continuous
 62
     7
370
     0
100
AcDbTrace
 10
316.2446516876
 20
253.0703997249
 30
0.0
 11
319.7446516876
 21
252.1703997249
 31
0.0
 12
319.7446516876
 22
253.9703997249
 32
0.0
 13
319.7446516876
 23
253.9703997249
 33
0.0
  0
SOLID
  5
3E4
330
3DE
100
AcDbEntity
  8
0
  6
Continuous
 62
     7
370
     0
100
AcDbTrace
 10
417.7446516876
 20
253.0703997249
 30
0.0
 11
414.2446516876
 21
253.9703997249
 31
0.0
 12
414.2446516876
 22
252.1703997249
 32
0.0
 13
414.2446516876
 23
252.1703997249
 33
0.0
  0
LINE
  5
3E5
330
3DE
100
AcDbEntity
  8
0
  6
Continuous
 62
     7
370
     0
100
AcDbLine
 10
316.2446516876
 20
272.5060124185
 30
0.0
 11
316.2446516876
 21
252.0703997249
 31
0.0
  0
LINE
  5
3E6
330
3DE
100
AcDbEntity
  8
0
  6
Continuous
 62
     7
370
     0
100
AcDbLine
 10
417.7446516876
 20
272.5060124185
 30
0.0
 11
417.7446516876
 21
252.0703997249
 31
0.0
  0
LINE
  5
3E7
330
3DE
100
AcDbEntity
  8
0
  6
Continuous
 62
     7
370
     0
100
AcDbLine
 10
316.2446516876
 20
253.0703997249
 30
0.0
 11
417.7446516876
 21
253.0703997249
 31
0.0
  0
MTEXT
  5
3E8
330
3DE
100
AcDbEntity
  8
0
  6
Continuous
 62
     7
370
     0
100
AcDbMText
 10
360.2777850849
 20
257.5821370469
 30
0.0
 40
3.5
 41
0.0
 71
     1
 72
     1
  1
101.5
  7
SLDTEXTSTYLE0
 73
     1
 44
1.0
  0
ENDBLK
  5
3E0
330
3DE
100
AcDbEntity
  8
0
100
AcDbBlockEnd
  0
BLOCK
  5
3EA
330
3E9
100
AcDbEntity
  8
0
100
AcDbBlockBegin
  2
SW_CENTERMARKSYMBOL_0
 70
     0
 10
0.0
 20
0.0
 30
0.0
  3
SW_CENTERMARKSYMBOL_0
  1

  0
LINE
  5
3EC
330
3E9
100
AcDbEntity
  8
0
  6
Continuous
 62
     0
370
     0
100
AcDbLine
 10
0.0
 20
0.0
 30
0.0
 11
0.0
 21
2.5
 31
0.0
  0
LINE
  5
3ED
330
3E9
100
AcDbEntity
  8
0
  6
Continuous
 62
     0
370
     0
100
AcDbLine
 10
0.0
 20
0.0
 30
0.0
 11
-2.5
 21
0.0
 31
0.0
  0
LINE
  5
3EE
330
3E9
100
AcDbEntity
  8
0
  6
Continuous
 62
     0
370
     0
100
AcDbLine
 10
0.0
 20
0.0
 30
0.0
 11
0.0
 21
-2.5
 31
0.0
  0
LINE
  5
3EF
330
3E9
100
AcDbEntity
  8
0
  6
Continuous
 62
     0
370
     0
100
AcDbLine
 10
0.0
 20
0.0
 30
0.0
 11
2.5
 21
0.0
 31
0.0
  0
LINE
  5
3F0
330
3E9
100
AcDbEntity
  8
0
  6
Continuous
 62
     0
370
     0
100
AcDbLine
 10
0.0
 20
5.0
 30
0.0
 11
0.0
 21
63.570761424
 31
0.0
  0
LINE
  5
3F1
330
3E9
100
AcDbEntity
  8
0
  6
Continuous
 62
     0
370
     0
100
AcDbLine
 10
-5.0
 20
0.0
 30
0.0
 11
-52.7715339532
 21
0.0
 31
0.0
  0
LINE
  5
3F2
330
3E9
100
AcDbEntity
  8
0
  6
Continuous
 62
     0
370
     0
100
AcDbLine
 10
0.0
 20
-5.0
 30
0.0
 11
0.0
 21
-54.2778532271
 31
0.0
  0
LINE
  5
3F3
330
3E9
100
AcDbEntity
  8
0
  6
Continuous
 62
     0
370
     0
100
AcDbLine
 10
5.0
 20
0.0
 30
0.0
 11
52.4299122963
 21
0.0
 31
0.0
  0
ENDBLK
  5
3EB
330
3E9
100
AcDbEntity
  8
0
100
AcDbBlockEnd
  0
ENDSEC
  0
SECTION
  2
ENTITIES
  0
ARC
  5
48
330
1F
100
AcDbEntity
  8
0
  6
Continuous
 62
     7
370
    30
100
AcDbCircle
 10
106.0913245033
 20
402.0830635568
 30
0.0
 40
0.8900000000000444
100
AcDbArc
 50
277.0996552363
 51
82.9003447637
  0
ARC
  5
49
330
1F
100
AcDbEntity
  8
0
  6
Continuous
 62
     7
370
    30
100
AcDbCircle
 10
90.3113245033
 20
402.0830635568
 30
0.0
 40
0.8900000000000444
100
AcDbArc
 50
97.0996552363
 51
262.9003447637
  0
LINE
  5
4A
330
1F
100
AcDbEntity
  8
0
  6
Continuous
 62
     7
370
    30
100
AcDbLine
 10
108.2013242798
 20
162.5830678484
 30
0.0
 11
108.2013242798
 21
256.5830646297
 31
0.0
  0
LINE
  5
4B
330
1F
100
AcDbEntity
  8
0
  6
Continuous
 62
     7
370
    30
100
AcDbLine
 10
88.2013247268
 20
256.5830646297
 30
0.0
 11
88.2013247268
 21
162.5830678484
 31
0.0
  0
LINE
  5
4C
330
1F
100
AcDbEntity
  8
0
  6
Continuous
 62
     7
370
    30
100
AcDbLine
 10
107.2013241159
 20
403.5830645105
 30
0.0
 11
107.2013241159
 21
405.5830685636
 31
0.0
  0
LINE
  5
4D
330
1F
100
AcDbEntity
  8
0
  6
Continuous
 62
     7
370
    30
100
AcDbLine
 10
89.2013248907
 20
405.5830685636
 30
0.0
 11
89.2013248907
 21
403.5830645105
 31
0.0
  0
LINE
  5
4E
330
1F
100
AcDbEntity
  8
0
  6
Continuous
 62
     7
370
    30
100
AcDbLine
 10
106.2013248833
 20
256.5830646297
 30
0.0
 11
106.2013248833
 21
401.1998919984
 31
0.0
  0
LINE
  5
4F
330
1F
100
AcDbEntity
  8
0
  6
Continuous
 62
     7
370
    30
100
AcDbLine
 10
106.2013248833
 20
402.966245844
 30
0.0
 11
106.2013248833
 21
403.5830645105
 31
0.0
  0
LINE
  5
50
330
1F
100
AcDbEntity
  8
0
  6
Continuous
 62
     7
370
    30
100
AcDbLine
 10
90.2013241233
 20
403.5830645105
 30
0.0
 11
90.2013241233
 21
402.966245844
 31
0.0
  0
LINE
  5
51
330
1F
100
AcDbEntity
  8
0
  6
Continuous
 62
     7
370
    30
100
AcDbLine
 10
90.2013241233
 20
401.1998919984
 30
0.0
 11
90.2013241233
 21
256.5830646297
 31
0.0
  0
LINE
  5
52
330
1F
100
AcDbEntity
  8
0
  6
Continuous
 62
     7
370
    30
100
AcDbLine
 10
99.7656736676
 20
25.0830639368
 30
0.0
 11
99.7656736676
 21
25.0705637252
 31
0.0
  0
ARC
  5
53
330
1F
100
AcDbEntity
  8
0
  6
Continuous
 62
     7
370
    30
100
AcDbCircle
 10
131.2013245033
 20
14.8278003989
 30
0.0
 40
3.644736842105257
100
AcDbArc
 50
208.6005548984
 51
270.0
  0
ARC
  5
54
330
1F
100
AcDbEntity
  8
0
  6
Continuous
 62
     7
370
    30
100
AcDbCircle
 10
131.2013245033
 20
14.8278003989
 30
0.0
 40
3.644736842105257
100
AcDbArc
 50
270.0
 51
331.3994451016
  0
ARC
  5
55
330
1F
100
AcDbEntity
  8
0
  6
Continuous
 62
     7
370
    30
100
AcDbCircle
 10
65.2013245033
 20
14.8278003989
 30
0.0
 40
3.644736842105283
100
AcDbArc
 50
208.6005548984
 51
270.0
  0
ARC
  5
56
330
1F
100
AcDbEntity
  8
0
  6
Continuous
 62
     7
370
    30
100
AcDbCircle
 10
65.2013245033
 20
14.8278003989
 30
0.0
 40
3.644736842105283
100
AcDbArc
 50
270.0
 51
331.3994451016
  0
LINE
  5
57
330
1F
100
AcDbEntity
  8
0
  6
Continuous
 62
     7
370
    30
100
AcDbLine
 10
108.2013242798
 20
256.5830646297
 30
0.0
 11
88.2013247268
 21
256.5830646297
 31
0.0
  0
LINE
  5
58
330
1F
100
AcDbEntity
  8
0
  6
Continuous
 62
     7
370
    30
100
AcDbLine
 10
107.2013241159
 20
405.5830685636
 30
0.0
 11
89.2013248907
 21
405.5830685636
 31
0.0
  0
LINE
  5
59
330
1F
100
AcDbEntity
  8
0
  6
Continuous
 62
     7
370
    30
100
AcDbLine
 10
107.2013241159
 20
403.5830645105
 30
0.0
 11
89.2013248907
 21
403.5830645105
 31
0.0
  0
LINE
  5
5A
330
1F
100
AcDbEntity
  8
0
  6
Continuous
 62
     7
370
    30
100
AcDbLine
 10
53.6587920891
 20
162.5830678484
 30
0.0
 11
59.6505713569
 21
162.5830678484
 31
0.0
  0
ARC
  5
5B
330
1F
100
AcDbEntity
  8
0
  6
Continuous
 62
     7
370
    30
100
AcDbCircle
 10
53.6587934573
 20
161.5830635568
 30
0.0
 40
1.000000000000006
100
AcDbArc
 50
90.0
 51
183.0
  0
LINE
  5
5C
330
1F
100
AcDbEntity
  8
0
  6
Continuous
 62
     7
370
    30
100
AcDbLine
 10
59.6505713569
 20
162.5830678484
 30
0.0
 11
136.7520776497
 21
162.5830678484
 31
0.0
  0
LINE
  5
5D
330
1F
100
AcDbEntity
  8
0
  6
Continuous
 62
     7
370
    30
100
AcDbLine
 10
136.7520776497
 20
162.5830678484
 30
0.0
 11
142.7438569175
 21
162.5830678484
 31
0.0
  0
ARC
  5
5E
330
1F
100
AcDbEntity
  8
0
  6
Continuous
 62
     7
370
    30
100
AcDbCircle
 10
142.7438555494
 20
161.5830635568
 30
0.0
 40
1.0
100
AcDbArc
 50
357.0
 51
90.0
  0
LINE
  5
5F
330
1F
100
AcDbEntity
  8
0
  6
Continuous
 62
     7
370
    30
100
AcDbLine
 10
143.7424843119
 20
161.5307329437
 30
0.0
 11
142.6708673047
 21
141.0830615303
 31
0.0
  0
LINE
  5
60
330
1F
100
AcDbEntity
  8
0
  6
Continuous
 62
     7
370
    30
100
AcDbLine
 10
53.7317817019
 20
141.0830615303
 30
0.0
 11
52.6601646947
 21
161.5307329437
 31
0.0
  0
LINE
  5
61
330
1F
100
AcDbEntity
  8
0
  6
Continuous
 62
     7
370
    30
100
AcDbLine
 10
139.0440997588
 20
117.0830650469
 30
0.0
 11
134.346747111
 21
27.4522237694
 31
0.0
  0
LINE
  5
62
330
1F
100
AcDbEntity
  8
0
  6
Continuous
 62
     7
370
    30
100
AcDbLine
 10
62.0559018957
 20
27.4522237694
 30
0.0
 11
57.3585492479
 21
117.0830650469
 31
0.0
  0
LINE
  5
63
330
1F
100
AcDbEntity
  8
0
  6
Continuous
 62
     7
370
    30
100
AcDbLine
 10
69.0463085579
 20
25.0830639368
 30
0.0
 11
64.5524759697
 21
25.0830639368
 31
0.0
  0
ARC
  5
64
330
1F
100
AcDbEntity
  8
0
  6
Continuous
 62
     7
370
    30
100
AcDbCircle
 10
64.552474952
 20
27.5830635568
 30
0.0
 40
2.500000000000012
100
AcDbArc
 50
183.0
 51
270.0
  0
LINE
  5
65
330
1F
100
AcDbEntity
  8
0
  6
Continuous
 62
     7
370
    30
100
AcDbLine
 10
127.3563404487
 20
25.0830639368
 30
0.0
 11
69.0463085579
 21
25.0830639368
 31
0.0
  0
ARC
  5
66
330
1F
100
AcDbEntity
  8
0
  6
Continuous
 62
     7
370
    30
100
AcDbCircle
 10
131.8501740546
 20
27.5830635568
 30
0.0
 40
2.5
100
AcDbArc
 50
270.0
 51
357.0
  0
LINE
  5
67
330
1F
100
AcDbEntity
  8
0
  6
Continuous
 62
     7
370
    30
100
AcDbLine
 10
131.8501730369
 20
25.0830639368
 30
0.0
 11
127.3563404487
 21
25.0830639368
 31
0.0
  0
LINE
  5
68
330
1F
100
AcDbEntity
  8
0
  6
Continuous
 62
     7
370
    30
100
AcDbLine
 10
146.9513227152
 20
139.0830649277
 30
0.0
 11
146.9513227152
 21
141.0830615303
 31
0.0
  0
LINE
  5
69
330
1F
100
AcDbEntity
  8
0
  6
Continuous
 62
     7
370
    30
100
AcDbLine
 10
138.4513241159
 20
141.0830615303
 30
0.0
 11
146.9513227152
 21
141.0830615303
 31
0.0
  0
LINE
  5
6A
330
1F
100
AcDbEntity
  8
0
  6
Continuous
 62
     7
370
    30
100
AcDbLine
 10
49.4513262915
 20
139.0830649277
 30
0.0
 11
49.4513262915
 21
141.0830615303
 31
0.0
  0
LINE
  5
6B
330
1F
100
AcDbEntity
  8
0
  6
Continuous
 62
     7
370
    30
100
AcDbLine
 10
49.4513262915
 20
141.0830615303
 30
0.0
 11
57.9513248907
 21
141.0830615303
 31
0.0
  0
LINE
  5
6C
330
1F
100
AcDbEntity
  8
0
  6
Continuous
 62
     7
370
    30
100
AcDbLine
 10
57.9513248907
 20
141.0830615303
 30
0.0
 11
138.4513241159
 21
141.0830615303
 31
0.0
  0
LINE
  5
6D
330
1F
100
AcDbEntity
  8
0
  6
Continuous
 62
     7
370
    30
100
AcDbLine
 10
55.4513235496
 20
139.0830649277
 30
0.0
 11
140.951325457
 21
139.0830649277
 31
0.0
  0
LINE
  5
6E
330
1F
100
AcDbEntity
  8
0
  6
Continuous
 62
     7
370
    30
100
AcDbLine
 10
55.4513235496
 20
117.0830650469
 30
0.0
 11
47.9513232516
 21
117.0830650469
 31
0.0
  0
ARC
  5
6F
330
1F
100
AcDbEntity
  8
0
  6
Continuous
 62
     7
370
    30
100
AcDbCircle
 10
47.9513245033
 20
117.5830635568
 30
0.0
 40
0.5000000000000426
100
AcDbArc
 50
180.0
 51
270.0
  0
ARC
  5
70
330
1F
100
AcDbEntity
  8
0
  6
Continuous
 62
     7
370
    30
100
AcDbCircle
 10
47.9513245033
 20
138.5830635568
 30
0.0
 40
0.5000000000000284
100
AcDbArc
 50
90.0
 51
180.0
  0
LINE
  5
71
330
1F
100
AcDbEntity
  8
0
  6
Continuous
 62
     7
370
    30
100
AcDbLine
 10
47.9513232516
 20
139.0830649277
 30
0.0
 11
55.4513235496
 21
139.0830649277
 31
0.0
  0
LINE
  5
72
330
1F
100
AcDbEntity
  8
0
  6
Continuous
 62
     7
370
    30
100
AcDbLine
 10
47.4513259636
 20
138.5830639145
 30
0.0
 11
47.4513259636
 21
117.5830660602
 31
0.0
  0
LINE
  5
73
330
1F
100
AcDbEntity
  8
0
  6
Continuous
 62
     7
370
    30
100
AcDbLine
 10
148.951323043
 20
138.5830639145
 30
0.0
 11
148.951323043
 21
117.5830660602
 31
0.0
  0
LINE
  5
74
330
1F
100
AcDbEntity
  8
0
  6
Continuous
 62
     7
370
    30
100
AcDbLine
 10
140.951325457
 20
139.0830649277
 30
0.0
 11
148.451325755
 21
139.0830649277
 31
0.0
  0
ARC
  5
75
330
1F
100
AcDbEntity
  8
0
  6
Continuous
 62
     7
370
    30
100
AcDbCircle
 10
148.4513245033
 20
138.5830635568
 30
0.0
 40
0.5
100
AcDbArc
 50
0.0
 51
90.0
  0
LINE
  5
76
330
1F
100
AcDbEntity
  8
0
  6
Continuous
 62
     7
370
    30
100
AcDbLine
 10
140.951325457
 20
117.0830650469
 30
0.0
 11
55.4513235496
 21
117.0830650469
 31
0.0
  0
LINE
  5
77
330
1F
100
AcDbEntity
  8
0
  6
Continuous
 62
     7
370
    30
100
AcDbLine
 10
148.451325755
 20
117.0830650469
 30
0.0
 11
140.951325457
 21
117.0830650469
 31
0.0
  0
ARC
  5
78
330
1F
100
AcDbEntity
  8
0
  6
Continuous
 62
     7
370
    30
100
AcDbCircle
 10
148.4513245033
 20
117.5830635568
 30
0.0
 40
0.5
100
AcDbArc
 50
270.0
 51
0.0
  0
LINE
  5
79
330
1F
100
AcDbEntity
  8
0
  6
Continuous
 62
     7
370
    30
100
AcDbLine
 10
131.2013243245
 20
13.0830633668
 30
0.0
 11
65.2013246821
 21
13.0830633668
 31
0.0
  0
LINE
  5
7A
330
1F
100
AcDbEntity
  8
0
  6
Continuous
 62
     7
370
    30
100
AcDbLine
 10
131.2013243245
 20
17.0830635568
 30
0.0
 11
65.2013246821
 21
17.0830635568
 31
0.0
  0
LINE
  5
7B
330
1F
100
AcDbEntity
  8
0
  6
Continuous
 62
     7
370
    30
100
AcDbLine
 10
138.2013236092
 20
17.0830635568
 30
0.0
 11
138.2013236092
 21
13.0830633668
 31
0.0
  0
LINE
  5
7C
330
1F
100
AcDbEntity
  8
0
  6
Continuous
 62
     7
370
    30
100
AcDbLine
 10
131.2013243245
 20
17.0830635568
 30
0.0
 11
138.2013236092
 21
17.0830635568
 31
0.0
  0
LINE
  5
7D
330
1F
100
AcDbEntity
  8
0
  6
Continuous
 62
     7
370
    30
100
AcDbLine
 10
138.2013236092
 20
13.0830633668
 30
0.0
 11
131.2013243245
 21
13.0830633668
 31
0.0
  0
LINE
  5
7E
330
1F
100
AcDbEntity
  8
0
  6
Continuous
 62
     7
370
    30
100
AcDbLine
 10
58.2013253974
 20
13.0830633668
 30
0.0
 11
58.2013253974
 21
17.0830635568
 31
0.0
  0
LINE
  5
7F
330
1F
100
AcDbEntity
  8
0
  6
Continuous
 62
     7
370
    30
100
AcDbLine
 10
58.2013253974
 20
17.0830635568
 30
0.0
 11
65.2013246821
 21
17.0830635568
 31
0.0
  0
LINE
  5
80
330
1F
100
AcDbEntity
  8
0
  6
Continuous
 62
     7
370
    30
100
AcDbLine
 10
65.2013246821
 20
13.0830633668
 30
0.0
 11
58.2013253974
 21
13.0830633668
 31
0.0
  0
LINE
  5
81
330
1F
100
AcDbEntity
  8
0
  6
Continuous
 62
     7
370
    30
100
AcDbLine
 10
72.2013239669
 20
17.0830635568
 30
0.0
 11
72.2013239669
 21
21.0830637468
 31
0.0
  0
LINE
  5
82
330
1F
100
AcDbEntity
  8
0
  6
Continuous
 62
     7
370
    30
100
AcDbLine
 10
83.2013248386
 20
17.0830635568
 30
0.0
 11
83.2013248386
 21
21.0830637468
 31
0.0
  0
LINE
  5
83
330
1F
100
AcDbEntity
  8
0
  6
Continuous
 62
     7
370
    30
100
AcDbLine
 10
124.2013250398
 20
21.0830637468
 30
0.0
 11
124.2013250398
 21
17.0830635568
 31
0.0
  0
LINE
  5
84
330
1F
100
AcDbEntity
  8
0
  6
Continuous
 62
     7
370
    30
100
AcDbLine
 10
113.201324168
 20
21.0830637468
 30
0.0
 11
113.201324168
 21
17.0830635568
 31
0.0
  0
LINE
  5
85
330
1F
100
AcDbEntity
  8
0
  6
Continuous
 62
     7
370
    30
100
AcDbLine
 10
124.2013250398
 20
25.0830639368
 30
0.0
 11
124.2013250398
 21
21.0830637468
 31
0.0
  0
LINE
  5
86
330
1F
100
AcDbEntity
  8
0
  6
Continuous
 62
     7
370
    30
100
AcDbLine
 10
113.201324168
 20
25.0830639368
 30
0.0
 11
113.201324168
 21
21.0830637468
 31
0.0
  0
LINE
  5
87
330
1F
100
AcDbEntity
  8
0
  6
Continuous
 62
     7
370
    30
100
AcDbLine
 10
83.2013248386
 20
21.0830637468
 30
0.0
 11
83.2013248386
 21
25.0830639368
 31
0.0
  0
LINE
  5
88
330
1F
100
AcDbEntity
  8
0
  6
Continuous
 62
     7
370
    30
100
AcDbLine
 10
72.2013239669
 20
25.0830639368
 30
0.0
 11
72.2013239669
 21
21.0830637468
 31
0.0
  0
LINE
  5
89
330
1F
100
AcDbEntity
  8
0
  6
Continuous
 62
     8
370
     0
100
AcDbLine
 10
59.6505713569
 20
161.5307329437
 30
0.0
 11
59.6505713569
 21
162.5830678484
 31
0.0
  0
ELLIPSE
  5
8A
330
1F
100
AcDbEntity
  8
0
  6
Continuous
 62
     8
370
     0
100
AcDbEllipse
 10
59.6670275333
 20
161.5830635568
 30
0.0
 11
7.006864133796213
 21
0.05231848236786618
 31
0.0
210
0.0
220
0.0
230
0.9999999999999999
 40
0.00745131
 41
3.141927392156275
 42
4.70998466320721
  0
LINE
  5
8B
330
1F
100
AcDbEntity
  8
0
  6
Continuous
 62
     8
370
     0
100
AcDbLine
 10
136.7520776497
 20
161.5307329437
 30
0.0
 11
59.6505713569
 21
161.5307329437
 31
0.0
  0
LINE
  5
8C
330
1F
100
AcDbEntity
  8
0
  6
Continuous
 62
     8
370
     0
100
AcDbLine
 10
136.7520776497
 20
161.5307329437
 30
0.0
 11
136.7520776497
 21
162.5830678484
 31
0.0
  0
ELLIPSE
  5
8D
330
1F
100
AcDbEntity
  8
0
  6
Continuous
 62
     8
370
     0
100
AcDbEllipse
 10
136.7356214734
 20
161.5830635568
 30
0.0
 11
7.006864133796228
 21
-0.0523184823678946
 31
0.0
210
0.0
220
0.0
230
0.9999999999999999
 40
0.00745131
 41
4.714793297562169
 42
6.282850568617405
  0
LINE
  5
8E
330
1F
100
AcDbEntity
  8
0
  6
Continuous
 62
     8
370
     0
100
AcDbLine
 10
59.6505713569
 20
161.5307329437
 30
0.0
 11
60.7221883642
 21
141.0830615303
 31
0.0
  0
LINE
  5
8F
330
1F
100
AcDbEntity
  8
0
  6
Continuous
 62
     8
370
     0
100
AcDbLine
 10
135.6804606425
 20
141.0830615303
 30
0.0
 11
136.7520776497
 21
161.5307329437
 31
0.0
  0
ELLIPSE
  5
90
330
1F
100
AcDbEntity
  8
0
  6
Continuous
 62
     8
370
     0
100
AcDbEllipse
 10
127.3439984976
 20
27.5830635568
 30
0.0
 11
7.002752308332334
 21
-0.1307578735743889
 31
0.0
210
0.0
220
0.0
230
0.9999999999999999
 40
0.0186446967
 41
4.714499664353909
 42
6.282556935409015
  0
LINE
  5
91
330
1F
100
AcDbEntity
  8
0
  6
Continuous
 62
     8
370
     0
100
AcDbLine
 10
127.3563404487
 20
27.4522237694
 30
0.0
 11
132.0536930965
 21
117.0830650469
 31
0.0
  0
ELLIPSE
  5
92
330
1F
100
AcDbEntity
  8
0
  6
Continuous
 62
     8
370
     0
100
AcDbEllipse
 10
69.058650509
 20
27.5830635568
 30
0.0
 11
7.002752308332348
 21
0.1307578735743889
 31
0.0
210
0.0
220
0.0
230
1.0
 40
0.0186446967
 41
3.142221025361846
 42
4.710278296415478
  0
LINE
  5
93
330
1F
100
AcDbEntity
  8
0
  6
Continuous
 62
     8
370
     0
100
AcDbLine
 10
64.3489559101
 20
117.0830650469
 30
0.0
 11
69.0463085579
 21
27.4522237694
 31
0.0
  0
LINE
  5
94
330
1F
100
AcDbEntity
  8
0
  6
Continuous
 62
     8
370
     0
100
AcDbLine
 10
69.0463085579
 20
27.4522237694
 30
0.0
 11
127.3563404487
 21
27.4522237694
 31
0.0
  0
LINE
  5
95
330
1F
100
AcDbEntity
  8
0
  6
Continuous
 62
     8
370
     0
100
AcDbLine
 10
69.0463085579
 20
27.4522237694
 30
0.0
 11
69.0463085579
 21
25.0830639368
 31
0.0
  0
LINE
  5
96
330
1F
100
AcDbEntity
  8
0
  6
Continuous
 62
     8
370
     0
100
AcDbLine
 10
127.3563404487
 20
27.4522237694
 30
0.0
 11
127.3563404487
 21
25.0830639368
 31
0.0
  0
LINE
  5
97
330
1F
100
AcDbEntity
  8
0
  6
Continuous
 62
     8
370
     0
100
AcDbLine
 10
138.4513241159
 20
139.0830649277
 30
0.0
 11
138.4513241159
 21
141.0830615303
 31
0.0
  0
LINE
  5
98
330
1F
100
AcDbEntity
  8
0
  6
Continuous
 62
     8
370
     0
100
AcDbLine
 10
57.9513248907
 20
139.0830649277
 30
0.0
 11
57.9513248907
 21
141.0830615303
 31
0.0
  0
LINE
  5
99
330
1F
100
AcDbEntity
  8
0
  6
Continuous
 62
     8
370
     0
100
AcDbLine
 10
140.951325457
 20
138.5830639145
 30
0.0
 11
55.4513235496
 21
138.5830639145
 31
0.0
  0
LINE
  5
9A
330
1F
100
AcDbEntity
  8
0
  6
Continuous
 62
     8
370
     0
100
AcDbLine
 10
55.4513235496
 20
138.5830639145
 30
0.0
 11
55.4513235496
 21
139.0830649277
 31
0.0
  0
LINE
  5
9B
330
1F
100
AcDbEntity
  8
0
  6
Continuous
 62
     8
370
     0
100
AcDbLine
 10
140.951325457
 20
138.5830639145
 30
0.0
 11
140.951325457
 21
139.0830649277
 31
0.0
  0
LINE
  5
9C
330
1F
100
AcDbEntity
  8
0
  6
Continuous
 62
     8
370
     0
100
AcDbLine
 10
47.4513259636
 20
117.5830660602
 30
0.0
 11
55.4513235496
 21
117.5830660602
 31
0.0
  0
LINE
  5
9D
330
1F
100
AcDbEntity
  8
0
  6
Continuous
 62
     8
370
     0
100
AcDbLine
 10
55.4513235496
 20
117.0830650469
 30
0.0
 11
55.4513235496
 21
117.5830660602
 31
0.0
  0
LINE
  5
9E
330
1F
100
AcDbEntity
  8
0
  6
Continuous
 62
     8
370
     0
100
AcDbLine
 10
55.4513235496
 20
138.5830639145
 30
0.0
 11
47.4513259636
 21
138.5830639145
 31
0.0
  0
LINE
  5
9F
330
1F
100
AcDbEntity
  8
0
  6
Continuous
 62
     8
370
     0
100
AcDbLine
 10
55.4513235496
 20
117.5830660602
 30
0.0
 11
55.4513235496
 21
138.5830639145
 31
0.0
  0
LINE
  5
A0
330
1F
100
AcDbEntity
  8
0
  6
Continuous
 62
     8
370
     0
100
AcDbLine
 10
55.4513235496
 20
117.5830660602
 30
0.0
 11
140.951325457
 21
117.5830660602
 31
0.0
  0
LINE
  5
A1
330
1F
100
AcDbEntity
  8
0
  6
Continuous
 62
     8
370
     0
100
AcDbLine
 10
140.951325457
 20
117.5830660602
 30
0.0
 11
140.951325457
 21
138.5830639145
 31
0.0
  0
LINE
  5
A2
330
1F
100
AcDbEntity
  8
0
  6
Continuous
 62
     8
370
     0
100
AcDbLine
 10
140.951325457
 20
117.5830660602
 30
0.0
 11
148.951323043
 21
117.5830660602
 31
0.0
  0
LINE
  5
A3
330
1F
100
AcDbEntity
  8
0
  6
Continuous
 62
     8
370
     0
100
AcDbLine
 10
148.951323043
 20
138.5830639145
 30
0.0
 11
140.951325457
 21
138.5830639145
 31
0.0
  0
LINE
  5
A4
330
1F
100
AcDbEntity
  8
0
  6
Continuous
 62
     8
370
     0
100
AcDbLine
 10
140.951325457
 20
117.0830650469
 30
0.0
 11
140.951325457
 21
117.5830660602
 31
0.0
  0
LINE
  5
A5
330
1F
100
AcDbEntity
  8
0
  6
Continuous
 62
     8
370
     0
100
AcDbLine
 10
131.2013243245
 20
13.0830633668
 30
0.0
 11
131.2013243245
 21
17.0830635568
 31
0.0
  0
LINE
  5
A6
330
1F
100
AcDbEntity
  8
0
  6
Continuous
 62
     8
370
     0
100
AcDbLine
 10
65.2013246821
 20
17.0830635568
 30
0.0
 11
65.2013246821
 21
13.0830633668
 31
0.0
  0
LINE
  5
A7
330
1F
100
AcDbEntity
  8
0
  6
Continuous
 62
     8
370
     0
100
AcDbLine
 10
72.2013239669
 20
21.0830637468
 30
0.0
 11
83.2013248386
 21
21.0830637468
 31
0.0
  0
LINE
  5
A8
330
1F
100
AcDbEntity
  8
0
  6
Continuous
 62
     8
370
     0
100
AcDbLine
 10
113.201324168
 20
21.0830637468
 30
0.0
 11
124.2013250398
 21
21.0830637468
 31
0.0
  0
LINE
  5
A9
330
1F
100
AcDbEntity
  8
0
  6
Continuous
 62
     7
370
     0
100
AcDbLine
 10
122.3527635813
 20
361.3293116322
 30
0.0
 11
122.3527635813
 21
339.8198133599
 31
0.0
  0
LINE
  5
AA
330
1F
100
AcDbEntity
  8
0
  6
Continuous
 62
     7
370
     0
100
AcDbLine
 10
122.3527635813
 20
339.8198133599
 30
0.0
 11
125.1644627019
 21
346.4273062932
 31
0.0
  0
LINE
  5
AB
330
1F
100
AcDbEntity
  8
0
  6
Continuous
 62
     7
370
     0
100
AcDbLine
 10
122.3527635813
 20
339.8198133599
 30
0.0
 11
119.5410644607
 21
346.4273062932
 31
0.0
  0
DIMENSION
  5
AC
330
1F
100
AcDbEntity
  8
0
  6
Continuous
 62
     7
370
     0
100
AcDbDimension
  2
*D1
 10
158.5804498948
 20
13.0830635568
 30
0.0
 11
158.5804498948
 21
174.1959409669
 31
0.0
 70
   160
  1
(<>)
 71
     2
 42
-1.0
  3
SLDDIMSTYLE0
100
AcDbAlignedDimension
 13
107.2013245033
 23
407.5830635568
 33
0.0
 14
138.2013245033
 24
13.0830635568
 34
0.0
 50
90.0
100
AcDbRotatedDimension
  0
MTEXT
  5
BA
330
1F
100
AcDbEntity
  8
0
  6
Continuous
 62
     7
370
     0
100
AcDbMText
 10
355.6199302541
 20
388.4628834589
 30
0.0
 40
3.5
 41
0.0
 71
     1
 72
     1
  1
Ansicht "X"
  7
SLDTEXTSTYLE0
 73
     1
 44
1.0
  0
MTEXT
  5
BB
330
1F
100
AcDbEntity
  8
0
  6
Continuous
 62
     7
370
     0
100
AcDbMText
 10
117.8988758115
 20
368.2520542791
 30
0.0
 40
5.0
 41
0.0
 71
     1
 72
     1
  1
"X"
  7
SLDTEXTSTYLE0
 73
     1
 44
1.0
  0
LINE
  5
BC
330
1F
100
AcDbEntity
  8
0
  6
CENTER
 62
     7
370
     0
100
AcDbLine
 10
98.2013245033
 20
413.3604474313
 30
0.0
 11
98.2013245033
 21
6.2513327278
 31
0.0
  0
LINE
  5
BD
330
1F
100
AcDbEntity
  8
0
  6
Continuous
 62
     7
370
     0
100
AcDbLine
 10
86.2013245033
 20
411.3604474313
 30
0.0
 11
98.2013245033
 21
411.3604474313
 31
0.0
  0
SOLID
  5
BE
330
1F
100
AcDbEntity
  8
0
  6
Continuous
 62
     7
370
     0
100
AcDbTrace
 10
98.2013245033
 20
411.3604474313
 30
0.0
 11
92.2013245033
 21
412.8604474313
 31
0.0
 12
92.2013245033
 22
409.8604474313
 32
0.0
 13
92.2013245033
 23
409.8604474313
 33
0.0
  0
LINE
  5
BF
330
1F
100
AcDbEntity
  8
0
  6
Continuous
 62
     7
370
     0
100
AcDbLine
 10
86.2013245033
 20
8.2513327278
 30
0.0
 11
98.2013245033
 21
8.2513327278
 31
0.0
  0
SOLID
  5
C0
330
1F
100
AcDbEntity
  8
0
  6
Continuous
 62
     7
370
     0
100
AcDbTrace
 10
98.2013245033
 20
8.2513327278
 30
0.0
 11
92.2013245033
 21
9.7513327278
 31
0.0
 12
92.2013245033
 22
6.7513327278
 32
0.0
 13
92.2013245033
 23
6.7513327278
 33
0.0
  0
MTEXT
  5
C1
330
1F
100
AcDbEntity
  8
0
  6
Continuous
 62
     7
100
AcDbMText
 10
79.6432550982
 20
414.1851812307
 30
0.0
 40
5.0
 41
0.0
 71
     1
 72
     1
  1
A
  7
SLDTEXTSTYLE0
 73
     1
 44
1.0
  0
MTEXT
  5
C2
330
1F
100
AcDbEntity
  8
0
  6
Continuous
 62
     7
100
AcDbMText
 10
79.7623634264
 20
11.5014042155
 30
0.0
 40
5.0
 41
0.0
 71
     1
 72
     1
  1
A
  7
SLDTEXTSTYLE0
 73
     1
 44
1.0
  0
ARC
  5
C3
330
1F
100
AcDbEntity
  8
0
  6
Continuous
 62
     7
370
    30
100
AcDbCircle
 10
235.9682119205
 20
14.8278003989
 30
0.0
 40
3.644736842105281
100
AcDbArc
 50
208.6005548984
 51
331.3994451016
  0
ARC
  5
C4
330
1F
100
AcDbEntity
  8
0
  6
Continuous
 62
     7
370
    30
100
AcDbCircle
 10
301.9682119205
 20
14.8278003989
 30
0.0
 40
3.644736842105294
100
AcDbArc
 50
208.6005548984
 51
331.3994451016
  0
CIRCLE
  5
C5
330
1F
100
AcDbEntity
  8
0
  6
Continuous
 62
     7
370
    30
100
AcDbCircle
 10
260.8282119205
 20
402.0830635568
 30
0.0
 40
0.8899999999999864
  0
CIRCLE
  5
C6
330
1F
100
AcDbEntity
  8
0
  6
Continuous
 62
     7
370
    30
100
AcDbCircle
 10
276.6082119205
 20
402.0830635568
 30
0.0
 40
0.8899999999999864
  0
LINE
  5
C7
330
1F
100
AcDbEntity
  8
0
  6
Continuous
 62
     7
370
    30
100
AcDbLine
 10
259.7182108178
 20
256.5830646297
 30
0.0
 11
260.668211998
 21
256.5830646297
 31
0.0
  0
LINE
  5
C8
330
1F
100
AcDbEntity
  8
0
  6
Continuous
 62
     7
370
    30
100
AcDbLine
 10
260.668211998
 20
256.5830646297
 30
0.0
 11
260.668211998
 21
241.5830640337
 31
0.0
  0
LINE
  5
C9
330
1F
100
AcDbEntity
  8
0
  6
Continuous
 62
     7
370
    30
100
AcDbLine
 10
260.668211998
 20
241.5830640337
 30
0.0
 11
259.7182108178
 21
241.5830640337
 31
0.0
  0
LINE
  5
CA
330
1F
100
AcDbEntity
  8
0
  6
Continuous
 62
     7
370
    30
100
AcDbLine
 10
259.7182108178
 20
241.5830640337
 30
0.0
 11
259.7182108178
 21
256.5830646297
 31
0.0
  0
LINE
  5
CB
330
1F
100
AcDbEntity
  8
0
  6
Continuous
 62
     7
370
    30
100
AcDbLine
 10
277.7182137683
 20
256.5830646297
 30
0.0
 11
277.7182137683
 21
241.5830640337
 31
0.0
  0
LINE
  5
CC
330
1F
100
AcDbEntity
  8
0
  6
Continuous
 62
     7
370
    30
100
AcDbLine
 10
276.7682125881
 20
241.5830640337
 30
0.0
 11
276.7682125881
 21
256.5830646297
 31
0.0
  0
LINE
  5
CD
330
1F
100
AcDbEntity
  8
0
  6
Continuous
 62
     7
370
    30
100
AcDbLine
 10
260.668211998
 20
256.5830646297
 30
0.0
 11
260.7182128444
 21
256.5830646297
 31
0.0
  0
LINE
  5
CE
330
1F
100
AcDbEntity
  8
0
  6
Continuous
 62
     7
370
    30
100
AcDbLine
 10
276.7182117417
 20
256.5830646297
 30
0.0
 11
276.7682125881
 21
256.5830646297
 31
0.0
  0
LINE
  5
CF
330
1F
100
AcDbEntity
  8
0
  6
Continuous
 62
     7
370
    30
100
AcDbLine
 10
260.668211998
 20
241.5830640337
 30
0.0
 11
260.7182128444
 21
241.5830640337
 31
0.0
  0
LINE
  5
D0
330
1F
100
AcDbEntity
  8
0
  6
Continuous
 62
     7
370
    30
100
AcDbLine
 10
276.7182117417
 20
241.5830640337
 30
0.0
 11
276.7682125881
 21
241.5830640337
 31
0.0
  0
LINE
  5
D1
330
1F
100
AcDbEntity
  8
0
  6
Continuous
 62
     7
370
    30
100
AcDbLine
 10
276.7682125881
 20
256.5830646297
 30
0.0
 11
277.7182137683
 21
256.5830646297
 31
0.0
  0
LINE
  5
D2
330
1F
100
AcDbEntity
  8
0
  6
Continuous
 62
     7
370
    30
100
AcDbLine
 10
277.7182137683
 20
241.5830640337
 30
0.0
 11
276.7682125881
 21
241.5830640337
 31
0.0
  0
LINE
  5
D3
330
1F
100
AcDbEntity
  8
0
  6
Continuous
 62
     7
370
    30
100
AcDbLine
 10
259.7182108178
 20
156.0830621263
 30
0.0
 11
259.7182108178
 21
171.0830627224
 31
0.0
  0
LINE
  5
D4
330
1F
100
AcDbEntity
  8
0
  6
Continuous
 62
     7
370
    30
100
AcDbLine
 10
277.7182137683
 20
171.0830627224
 30
0.0
 11
277.7182137683
 21
156.0830621263
 31
0.0
  0
LINE
  5
D5
330
1F
100
AcDbEntity
  8
0
  6
Continuous
 62
     7
370
    30
100
AcDbLine
 10
259.7182108178
 20
171.0830627224
 30
0.0
 11
260.668211998
 21
171.0830627224
 31
0.0
  0
LINE
  5
D6
330
1F
100
AcDbEntity
  8
0
  6
Continuous
 62
     7
370
    30
100
AcDbLine
 10
260.668211998
 20
171.0830627224
 30
0.0
 11
260.668211998
 21
156.0830621263
 31
0.0
  0
LINE
  5
D7
330
1F
100
AcDbEntity
  8
0
  6
Continuous
 62
     7
370
    30
100
AcDbLine
 10
260.668211998
 20
156.0830621263
 30
0.0
 11
259.7182108178
 21
156.0830621263
 31
0.0
  0
LINE
  5
D8
330
1F
100
AcDbEntity
  8
0
  6
Continuous
 62
     7
370
    30
100
AcDbLine
 10
276.7682125881
 20
156.0830621263
 30
0.0
 11
276.7682125881
 21
171.0830627224
 31
0.0
  0
LINE
  5
D9
330
1F
100
AcDbEntity
  8
0
  6
Continuous
 62
     7
370
    30
100
AcDbLine
 10
260.668211998
 20
171.0830627224
 30
0.0
 11
260.7182128444
 21
171.0830627224
 31
0.0
  0
LINE
  5
DA
330
1F
100
AcDbEntity
  8
0
  6
Continuous
 62
     7
370
    30
100
AcDbLine
 10
276.7182117417
 20
171.0830627224
 30
0.0
 11
276.7682125881
 21
171.0830627224
 31
0.0
  0
LINE
  5
DB
330
1F
100
AcDbEntity
  8
0
  6
Continuous
 62
     7
370
    30
100
AcDbLine
 10
260.668211998
 20
156.0830621263
 30
0.0
 11
260.7182128444
 21
156.0830621263
 31
0.0
  0
LINE
  5
DC
330
1F
100
AcDbEntity
  8
0
  6
Continuous
 62
     7
370
    30
100
AcDbLine
 10
276.7182117417
 20
156.0830621263
 30
0.0
 11
276.7682125881
 21
156.0830621263
 31
0.0
  0
LINE
  5
DD
330
1F
100
AcDbEntity
  8
0
  6
Continuous
 62
     7
370
    30
100
AcDbLine
 10
276.7682125881
 20
171.0830627224
 30
0.0
 11
277.7182137683
 21
171.0830627224
 31
0.0
  0
LINE
  5
DE
330
1F
100
AcDbEntity
  8
0
  6
Continuous
 62
     7
370
    30
100
AcDbLine
 10
277.7182137683
 20
156.0830621263
 30
0.0
 11
276.7682125881
 21
156.0830621263
 31
0.0
  0
LINE
  5
DF
330
1F
100
AcDbEntity
  8
0
  6
Continuous
 62
     7
370
    30
100
AcDbLine
 10
258.9682130232
 20
158.0830661794
 30
0.0
 11
258.9682130232
 21
156.5830705902
 31
0.0
  0
LINE
  5
E0
330
1F
100
AcDbEntity
  8
0
  6
Continuous
 62
     7
370
    30
100
AcDbLine
 10
233.718212144
 20
156.5830705902
 30
0.0
 11
258.9682130232
 21
156.5830705902
 31
0.0
  0
LINE
  5
E1
330
1F
100
AcDbEntity
  8
0
  6
Continuous
 62
     7
370
    30
100
AcDbLine
 10
233.718212144
 20
156.5830705902
 30
0.0
 11
233.718212144
 21
158.0830661794
 31
0.0
  0
LINE
  5
E2
330
1F
100
AcDbEntity
  8
0
  6
Continuous
 62
     7
370
    30
100
AcDbLine
 10
233.718212144
 20
158.0830661794
 30
0.0
 11
258.9682130232
 21
158.0830661794
 31
0.0
  0
LINE
  5
E3
330
1F
100
AcDbEntity
  8
0
  6
Continuous
 62
     7
370
    30
100
AcDbLine
 10
278.4682115629
 20
156.5830705902
 30
0.0
 11
278.4682115629
 21
158.0830661794
 31
0.0
  0
LINE
  5
E4
330
1F
100
AcDbEntity
  8
0
  6
Continuous
 62
     7
370
    30
100
AcDbLine
 10
303.7182143047
 20
158.0830661794
 30
0.0
 11
303.7182143047
 21
156.5830705902
 31
0.0
  0
LINE
  5
E5
330
1F
100
AcDbEntity
  8
0
  6
Continuous
 62
     7
370
    30
100
AcDbLine
 10
278.4682115629
 20
156.5830705902
 30
0.0
 11
303.7182143047
 21
156.5830705902
 31
0.0
  0
LINE
  5
E6
330
1F
100
AcDbEntity
  8
0
  6
Continuous
 62
     7
370
    30
100
AcDbLine
 10
278.4682115629
 20
158.0830661794
 30
0.0
 11
303.7182143047
 21
158.0830661794
 31
0.0
  0
ARC
  5
E7
330
1F
100
AcDbEntity
  8
0
  6
Continuous
 62
     7
370
    30
100
AcDbCircle
 10
232.7182119205
 20
160.5830635568
 30
0.0
 40
1.0
100
AcDbArc
 50
90.0
 51
180.0
  0
LINE
  5
E8
330
1F
100
AcDbEntity
  8
0
  6
Continuous
 62
     7
370
    30
100
AcDbLine
 10
233.718212144
 20
161.5830658218
 30
0.0
 11
232.7182119801
 21
161.5830658218
 31
0.0
  0
LINE
  5
E9
330
1F
100
AcDbEntity
  8
0
  6
Continuous
 62
     7
370
    30
100
AcDbLine
 10
233.718212144
 20
161.5830658218
 30
0.0
 11
233.718212144
 21
160.0830702325
 31
0.0
  0
LINE
  5
EA
330
1F
100
AcDbEntity
  8
0
  6
Continuous
 62
     7
370
    30
100
AcDbLine
 10
238.718211101
 20
160.0830702325
 30
0.0
 11
233.718212144
 21
160.0830702325
 31
0.0
  0
LINE
  5
EB
330
1F
100
AcDbEntity
  8
0
  6
Continuous
 62
     7
370
    30
100
AcDbLine
 10
238.718211101
 20
160.0830702325
 30
0.0
 11
238.718211101
 21
158.0830661794
 31
0.0
  0
LINE
  5
EC
330
1F
100
AcDbEntity
  8
0
  6
Continuous
 62
     7
370
    30
100
AcDbLine
 10
238.718211101
 20
158.0830661794
 30
0.0
 11
233.718212144
 21
158.0830661794
 31
0.0
  0
LINE
  5
ED
330
1F
100
AcDbEntity
  8
0
  6
Continuous
 62
     7
370
    30
100
AcDbLine
 10
233.718212144
 20
158.0830661794
 30
0.0
 11
233.718212144
 21
156.4242242118
 31
0.0
  0
ARC
  5
EE
330
1F
100
AcDbEntity
  8
0
  6
Continuous
 62
     7
370
    30
100
AcDbCircle
 10
231.2182119205
 20
156.4242309572
 30
0.0
 40
2.5
100
AcDbArc
 50
287.2591628249
 51
0.0
  0
LINE
  5
EF
330
1F
100
AcDbEntity
  8
0
  6
Continuous
 62
     7
370
    30
100
AcDbLine
 10
231.9599477663
 20
154.0368048689
 30
0.0
 11
229.968211995
 21
153.418004348
 31
0.0
  0
ARC
  5
F0
330
1F
100
AcDbEntity
  8
0
  6
Continuous
 62
     7
370
    30
100
AcDbCircle
 10
230.7182119205
 20
155.5830635568
 30
0.0
 40
0.9999999999999716
100
AcDbArc
 50
300.0
 51
0.0
  0
LINE
  5
F1
330
1F
100
AcDbEntity
  8
0
  6
Continuous
 62
     7
370
    30
100
AcDbLine
 10
231.7182118162
 20
155.5830685636
 30
0.0
 11
231.7182118162
 21
160.5830637952
 31
0.0
  0
LINE
  5
F2
330
1F
100
AcDbEntity
  8
0
  6
Continuous
 62
     7
370
    30
100
AcDbLine
 10
229.7182114884
 20
153.8510171911
 30
0.0
 11
231.2182126656
 21
154.7170428774
 31
0.0
  0
LINE
  5
F3
330
1F
100
AcDbEntity
  8
0
  6
Continuous
 62
     7
370
    30
100
AcDbLine
 10
229.968211995
 20
153.418004348
 30
0.0
 11
229.7182114884
 21
153.8510171911
 31
0.0
  0
ARC
  5
F4
330
1F
100
AcDbEntity
  8
0
  6
Continuous
 62
     7
370
    30
100
AcDbCircle
 10
306.7182119205
 20
155.5830635568
 30
0.0
 40
1.0
100
AcDbArc
 50
180.0
 51
240.0
  0
LINE
  5
F5
330
1F
100
AcDbEntity
  8
0
  6
Continuous
 62
     7
370
    30
100
AcDbLine
 10
306.2182119205
 20
154.7170428774
 30
0.0
 11
307.7182149604
 21
153.8510171911
 31
0.0
  0
LINE
  5
F6
330
1F
100
AcDbEntity
  8
0
  6
Continuous
 62
     7
370
    30
100
AcDbLine
 10
307.7182149604
 20
153.8510171911
 30
0.0
 11
307.4682107284
 21
153.418004348
 31
0.0
  0
LINE
  5
F7
330
1F
100
AcDbEntity
  8
0
  6
Continuous
 62
     7
370
    30
100
AcDbLine
 10
307.4682107284
 20
153.418004348
 30
0.0
 11
305.4764768198
 21
154.0368048689
 31
0.0
  0
ARC
  5
F8
330
1F
100
AcDbEntity
  8
0
  6
Continuous
 62
     7
370
    30
100
AcDbCircle
 10
306.2182119205
 20
156.4242309572
 30
0.0
 40
2.5
100
AcDbArc
 50
180.0
 51
252.7408371751
  0
LINE
  5
F9
330
1F
100
AcDbEntity
  8
0
  6
Continuous
 62
     7
370
    30
100
AcDbLine
 10
303.7182143047
 20
156.4242242118
 30
0.0
 11
303.7182143047
 21
158.0830661794
 31
0.0
  0
LINE
  5
FA
330
1F
100
AcDbEntity
  8
0
  6
Continuous
 62
     7
370
    30
100
AcDbLine
 10
298.7182116225
 20
158.0830661794
 30
0.0
 11
298.7182116225
 21
160.0830702325
 31
0.0
  0
LINE
  5
FB
330
1F
100
AcDbEntity
  8
0
  6
Continuous
 62
     7
370
    30
100
AcDbLine
 10
303.7182143047
 20
160.0830702325
 30
0.0
 11
303.7182143047
 21
161.5830658218
 31
0.0
  0
ARC
  5
FC
330
1F
100
AcDbEntity
  8
0
  6
Continuous
 62
     7
370
    30
100
AcDbCircle
 10
304.7182119205
 20
160.5830635568
 30
0.0
 40
1.0
100
AcDbArc
 50
0.0
 51
90.0
  0
LINE
  5
FD
330
1F
100
AcDbEntity
  8
0
  6
Continuous
 62
     7
370
    30
100
AcDbLine
 10
305.7182109073
 20
160.5830637952
 30
0.0
 11
305.7182109073
 21
155.5830685636
 31
0.0
  0
LINE
  5
FE
330
1F
100
AcDbEntity
  8
0
  6
Continuous
 62
     7
370
    30
100
AcDbLine
 10
303.7182143047
 20
158.0830661794
 30
0.0
 11
298.7182116225
 21
158.0830661794
 31
0.0
  0
LINE
  5
FF
330
1F
100
AcDbEntity
  8
0
  6
Continuous
 62
     7
370
    30
100
AcDbLine
 10
303.7182143047
 20
160.0830702325
 30
0.0
 11
298.7182116225
 21
160.0830702325
 31
0.0
  0
LINE
  5
100
330
1F
100
AcDbEntity
  8
0
  6
Continuous
 62
     7
370
    30
100
AcDbLine
 10
304.7182088807
 20
161.5830658218
 30
0.0
 11
303.7182143047
 21
161.5830658218
 31
0.0
  0
LINE
  5
101
330
1F
100
AcDbEntity
  8
0
  6
Continuous
 62
     7
370
    30
100
AcDbLine
 10
229.968211995
 20
153.418004348
 30
0.0
 11
234.718212308
 21
153.418004348
 31
0.0
  0
LINE
  5
102
330
1F
100
AcDbEntity
  8
0
  6
Continuous
 62
     7
370
    30
100
AcDbLine
 10
302.7182122782
 20
153.418004348
 30
0.0
 11
307.4682107284
 21
153.418004348
 31
0.0
  0
LINE
  5
103
330
1F
100
AcDbEntity
  8
0
  6
Continuous
 62
     7
370
    30
100
AcDbLine
 10
234.718212308
 20
153.418004348
 30
0.0
 11
260.7182128444
 21
153.418004348
 31
0.0
  0
LINE
  5
104
330
1F
100
AcDbEntity
  8
0
  6
Continuous
 62
     7
370
    30
100
AcDbLine
 10
276.7182117417
 20
153.418004348
 30
0.0
 11
302.7182122782
 21
153.418004348
 31
0.0
  0
LINE
  5
105
330
1F
100
AcDbEntity
  8
0
  6
Continuous
 62
     7
370
    30
100
AcDbLine
 10
259.7182108178
 20
256.5830646297
 30
0.0
 11
259.7182108178
 21
156.0830621263
 31
0.0
  0
LINE
  5
106
330
1F
100
AcDbEntity
  8
0
  6
Continuous
 62
     7
370
    30
100
AcDbLine
 10
259.7182108178
 20
156.0830621263
 30
0.0
 11
258.9682130232
 21
156.0830621263
 31
0.0
  0
LINE
  5
107
330
1F
100
AcDbEntity
  8
0
  6
Continuous
 62
     7
370
    30
100
AcDbLine
 10
258.9682130232
 20
156.0830621263
 30
0.0
 11
258.9682130232
 21
161.5830658218
 31
0.0
  0
LINE
  5
108
330
1F
100
AcDbEntity
  8
0
  6
Continuous
 62
     7
370
    30
100
AcDbLine
 10
258.9682130232
 20
161.5830658218
 30
0.0
 11
258.7182125166
 21
161.5830658218
 31
0.0
  0
LINE
  5
109
330
1F
100
AcDbEntity
  8
0
  6
Continuous
 62
     7
370
    30
100
AcDbLine
 10
258.7182125166
 20
161.5830658218
 30
0.0
 11
258.7182125166
 21
256.5830646297
 31
0.0
  0
LINE
  5
10A
330
1F
100
AcDbEntity
  8
0
  6
Continuous
 62
     7
370
    30
100
AcDbLine
 10
258.7182125166
 20
256.5830646297
 30
0.0
 11
259.7182108178
 21
256.5830646297
 31
0.0
  0
LINE
  5
10B
330
1F
100
AcDbEntity
  8
0
  6
Continuous
 62
     7
370
    30
100
AcDbLine
 10
277.7182137683
 20
156.0830621263
 30
0.0
 11
277.7182137683
 21
256.5830646297
 31
0.0
  0
LINE
  5
10C
330
1F
100
AcDbEntity
  8
0
  6
Continuous
 62
     7
370
    30
100
AcDbLine
 10
278.7182083443
 20
256.5830646297
 30
0.0
 11
278.7182083443
 21
161.5830658218
 31
0.0
  0
LINE
  5
10D
330
1F
100
AcDbEntity
  8
0
  6
Continuous
 62
     7
370
    30
100
AcDbLine
 10
278.4682115629
 20
161.5830658218
 30
0.0
 11
278.4682115629
 21
156.0830621263
 31
0.0
  0
LINE
  5
10E
330
1F
100
AcDbEntity
  8
0
  6
Continuous
 62
     7
370
    30
100
AcDbLine
 10
278.7182083443
 20
161.5830658218
 30
0.0
 11
278.4682115629
 21
161.5830658218
 31
0.0
  0
LINE
  5
10F
330
1F
100
AcDbEntity
  8
0
  6
Continuous
 62
     7
370
    30
100
AcDbLine
 10
277.7182137683
 20
256.5830646297
 30
0.0
 11
278.7182083443
 21
256.5830646297
 31
0.0
  0
LINE
  5
110
330
1F
100
AcDbEntity
  8
0
  6
Continuous
 62
     7
370
    30
100
AcDbLine
 10
278.4682115629
 20
156.0830621263
 30
0.0
 11
277.7182137683
 21
156.0830621263
 31
0.0
  0
LINE
  5
111
330
1F
100
AcDbEntity
  8
0
  6
Continuous
 62
     7
370
    30
100
AcDbLine
 10
258.9682130232
 20
161.5830658218
 30
0.0
 11
258.9682130232
 21
160.0830702325
 31
0.0
  0
LINE
  5
112
330
1F
100
AcDbEntity
  8
0
  6
Continuous
 62
     7
370
    30
100
AcDbLine
 10
233.718212144
 20
160.0830702325
 30
0.0
 11
258.9682130232
 21
160.0830702325
 31
0.0
  0
LINE
  5
113
330
1F
100
AcDbEntity
  8
0
  6
Continuous
 62
     7
370
    30
100
AcDbLine
 10
233.718212144
 20
161.5830658218
 30
0.0
 11
258.9682130232
 21
161.5830658218
 31
0.0
  0
LINE
  5
114
330
1F
100
AcDbEntity
  8
0
  6
Continuous
 62
     7
370
    30
100
AcDbLine
 10
278.4682115629
 20
160.0830702325
 30
0.0
 11
278.4682115629
 21
161.5830658218
 31
0.0
  0
LINE
  5
115
330
1F
100
AcDbEntity
  8
0
  6
Continuous
 62
     7
370
    30
100
AcDbLine
 10
278.4682115629
 20
160.0830702325
 30
0.0
 11
303.7182143047
 21
160.0830702325
 31
0.0
  0
LINE
  5
116
330
1F
100
AcDbEntity
  8
0
  6
Continuous
 62
     7
370
    30
100
AcDbLine
 10
278.4682115629
 20
161.5830658218
 30
0.0
 11
303.7182143047
 21
161.5830658218
 31
0.0
  0
LINE
  5
117
330
1F
100
AcDbEntity
  8
0
  6
Continuous
 62
     7
370
    30
100
AcDbLine
 10
259.7182108178
 20
403.5830645105
 30
0.0
 11
259.7182108178
 21
405.5830685636
 31
0.0
  0
LINE
  5
118
330
1F
100
AcDbEntity
  8
0
  6
Continuous
 62
     7
370
    30
100
AcDbLine
 10
277.7182137683
 20
405.5830685636
 30
0.0
 11
277.7182137683
 21
403.5830645105
 31
0.0
  0
LINE
  5
119
330
1F
100
AcDbEntity
  8
0
  6
Continuous
 62
     7
370
    30
100
AcDbLine
 10
261.7182111457
 20
403.5830645105
 30
0.0
 11
259.7182108178
 21
403.5830645105
 31
0.0
  0
LINE
  5
11A
330
1F
100
AcDbEntity
  8
0
  6
Continuous
 62
     7
370
    30
100
AcDbLine
 10
259.7182108178
 20
405.5830685636
 30
0.0
 11
277.7182137683
 21
405.5830685636
 31
0.0
  0
LINE
  5
11B
330
1F
100
AcDbEntity
  8
0
  6
Continuous
 62
     7
370
    30
100
AcDbLine
 10
277.7182137683
 20
403.5830645105
 30
0.0
 11
275.7182097152
 21
403.5830645105
 31
0.0
  0
LINE
  5
11C
330
1F
100
AcDbEntity
  8
0
  6
Continuous
 62
     7
370
    30
100
AcDbLine
 10
275.7182097152
 20
403.5830645105
 30
0.0
 11
275.7182097152
 21
399.5830564043
 31
0.0
  0
LINE
  5
11D
330
1F
100
AcDbEntity
  8
0
  6
Continuous
 62
     7
370
    30
100
AcDbLine
 10
274.8521877542
 20
398.0830757162
 30
0.0
 11
275.7182097152
 21
399.5830564043
 31
0.0
  0
LINE
  5
11E
330
1F
100
AcDbEntity
  8
0
  6
Continuous
 62
     7
370
    30
100
AcDbLine
 10
274.8521877542
 20
398.0830757162
 30
0.0
 11
273.7182131126
 21
398.0830757162
 31
0.0
  0
LINE
  5
11F
330
1F
100
AcDbEntity
  8
0
  6
Continuous
 62
     7
370
    30
100
AcDbLine
 10
273.7182131126
 20
398.0830757162
 30
0.0
 11
273.7182131126
 21
401.0830668947
 31
0.0
  0
LINE
  5
120
330
1F
100
AcDbEntity
  8
0
  6
Continuous
 62
     7
370
    30
100
AcDbLine
 10
273.7182131126
 20
401.0830668947
 30
0.0
 11
268.7182104304
 21
404.0873794099
 31
0.0
  0
LINE
  5
121
330
1F
100
AcDbEntity
  8
0
  6
Continuous
 62
     7
370
    30
100
AcDbLine
 10
268.7182104304
 20
404.0873794099
 30
0.0
 11
263.7182114735
 21
401.0830668947
 31
0.0
  0
LINE
  5
122
330
1F
100
AcDbEntity
  8
0
  6
Continuous
 62
     7
370
    30
100
AcDbLine
 10
263.7182114735
 20
401.0830668947
 30
0.0
 11
263.7182114735
 21
398.0830757162
 31
0.0
  0
LINE
  5
123
330
1F
100
AcDbEntity
  8
0
  6
Continuous
 62
     7
370
    30
100
AcDbLine
 10
263.7182114735
 20
398.0830757162
 30
0.0
 11
262.5842368319
 21
398.0830757162
 31
0.0
  0
LINE
  5
124
330
1F
100
AcDbEntity
  8
0
  6
Continuous
 62
     7
370
    30
100
AcDbLine
 10
261.7182111457
 20
399.5830564043
 30
0.0
 11
262.5842368319
 21
398.0830757162
 31
0.0
  0
LINE
  5
125
330
1F
100
AcDbEntity
  8
0
  6
Continuous
 62
     7
370
    30
100
AcDbLine
 10
261.7182111457
 20
399.5830564043
 30
0.0
 11
261.7182111457
 21
403.5830645105
 31
0.0
  0
LINE
  5
126
330
1F
100
AcDbEntity
  8
0
  6
Continuous
 62
     7
370
    30
100
AcDbLine
 10
263.7182114735
 20
401.0830668947
 30
0.0
 11
273.7182131126
 21
401.0830668947
 31
0.0
  0
LINE
  5
127
330
1F
100
AcDbEntity
  8
0
  6
Continuous
 62
     7
370
    30
100
AcDbLine
 10
263.7182114735
 20
398.0830757162
 30
0.0
 11
273.7182131126
 21
398.0830757162
 31
0.0
  0
LINE
  5
128
330
1F
100
AcDbEntity
  8
0
  6
Continuous
 62
     7
370
    30
100
AcDbLine
 10
260.7182128444
 20
148.5830692789
 30
0.0
 11
260.7182128444
 21
403.5830645105
 31
0.0
  0
LINE
  5
129
330
1F
100
AcDbEntity
  8
0
  6
Continuous
 62
     7
370
    30
100
AcDbLine
 10
276.7182117417
 20
403.5830645105
 30
0.0
 11
276.7182117417
 21
148.5830692789
 31
0.0
  0
LINE
  5
12A
330
1F
100
AcDbEntity
  8
0
  6
Continuous
 62
     7
370
    30
100
AcDbLine
 10
261.7182111457
 20
148.5830692789
 30
0.0
 11
261.7182111457
 21
403.5830645105
 31
0.0
  0
LINE
  5
12B
330
1F
100
AcDbEntity
  8
0
  6
Continuous
 62
     7
370
    30
100
AcDbLine
 10
275.7182097152
 20
403.5830645105
 30
0.0
 11
275.7182097152
 21
148.5830692789
 31
0.0
  0
LINE
  5
12C
330
1F
100
AcDbEntity
  8
0
  6
Continuous
 62
     7
370
    30
100
AcDbLine
 10
261.7182111457
 20
403.5830645105
 30
0.0
 11
260.7182128444
 21
403.5830645105
 31
0.0
  0
LINE
  5
12D
330
1F
100
AcDbEntity
  8
0
  6
Continuous
 62
     7
370
    30
100
AcDbLine
 10
261.7182111457
 20
148.5830692789
 30
0.0
 11
260.7182128444
 21
148.5830692789
 31
0.0
  0
LINE
  5
12E
330
1F
100
AcDbEntity
  8
0
  6
Continuous
 62
     7
370
    30
100
AcDbLine
 10
276.7182117417
 20
403.5830645105
 30
0.0
 11
275.7182097152
 21
403.5830645105
 31
0.0
  0
LINE
  5
12F
330
1F
100
AcDbEntity
  8
0
  6
Continuous
 62
     7
370
    30
100
AcDbLine
 10
276.7182117417
 20
148.5830692789
 30
0.0
 11
275.7182097152
 21
148.5830692789
 31
0.0
  0
LINE
  5
130
330
1F
100
AcDbEntity
  8
0
  6
Continuous
 62
     7
370
    30
100
AcDbLine
 10
275.7182097152
 20
149.5830564043
 30
0.0
 11
275.7182097152
 21
163.5830698749
 31
0.0
  0
LINE
  5
131
330
1F
100
AcDbEntity
  8
0
  6
Continuous
 62
     7
370
    30
100
AcDbLine
 10
261.7182111457
 20
163.5830698749
 30
0.0
 11
261.7182111457
 21
149.5830564043
 31
0.0
  0
LINE
  5
132
330
1F
100
AcDbEntity
  8
0
  6
Continuous
 62
     7
370
    30
100
AcDbLine
 10
274.7182114139
 20
149.5830564043
 30
0.0
 11
275.7182097152
 21
149.5830564043
 31
0.0
  0
LINE
  5
133
330
1F
100
AcDbEntity
  8
0
  6
Continuous
 62
     7
370
    30
100
AcDbLine
 10
274.7182114139
 20
135.5830652854
 30
0.0
 11
274.7182114139
 21
149.5830564043
 31
0.0
  0
LINE
  5
134
330
1F
100
AcDbEntity
  8
0
  6
Continuous
 62
     7
370
    30
100
AcDbLine
 10
272.7182110861
 20
133.5830612322
 30
0.0
 11
274.7182114139
 21
135.5830652854
 31
0.0
  0
LINE
  5
135
330
1F
100
AcDbEntity
  8
0
  6
Continuous
 62
     7
370
    30
100
AcDbLine
 10
264.7182135001
 20
133.5830612322
 30
0.0
 11
272.7182110861
 21
133.5830612322
 31
0.0
  0
LINE
  5
136
330
1F
100
AcDbEntity
  8
0
  6
Continuous
 62
     7
370
    30
100
AcDbLine
 10
262.7182131722
 20
135.5830652854
 30
0.0
 11
264.7182135001
 21
133.5830612322
 31
0.0
  0
LINE
  5
137
330
1F
100
AcDbEntity
  8
0
  6
Continuous
 62
     7
370
    30
100
AcDbLine
 10
262.7182131722
 20
149.5830564043
 30
0.0
 11
262.7182131722
 21
135.5830652854
 31
0.0
  0
LINE
  5
138
330
1F
100
AcDbEntity
  8
0
  6
Continuous
 62
     7
370
    30
100
AcDbLine
 10
261.7182111457
 20
149.5830564043
 30
0.0
 11
262.7182131722
 21
149.5830564043
 31
0.0
  0
LINE
  5
139
330
1F
100
AcDbEntity
  8
0
  6
Continuous
 62
     7
370
    30
100
AcDbLine
 10
275.7182097152
 20
163.5830698749
 30
0.0
 11
261.7182111457
 21
163.5830698749
 31
0.0
  0
LINE
  5
13A
330
1F
100
AcDbEntity
  8
0
  6
Continuous
 62
     7
370
    30
100
AcDbLine
 10
255.2182128742
 20
71.5830622455
 30
0.0
 11
255.2182128742
 21
126.0830609342
 31
0.0
  0
LINE
  5
13B
330
1F
100
AcDbEntity
  8
0
  6
Continuous
 62
     7
370
    30
100
AcDbLine
 10
255.2182128742
 20
126.0830609342
 30
0.0
 11
254.2182108476
 21
126.0830609342
 31
0.0
  0
LINE
  5
13C
330
1F
100
AcDbEntity
  8
0
  6
Continuous
 62
     7
370
    30
100
AcDbLine
 10
254.2182108476
 20
126.0830609342
 30
0.0
 11
254.2182108476
 21
128.5830660006
 31
0.0
  0
LINE
  5
13D
330
1F
100
AcDbEntity
  8
0
  6
Continuous
 62
     7
370
    30
100
AcDbLine
 10
254.2182108476
 20
128.5830660006
 30
0.0
 11
259.5197981313
 21
128.5830660006
 31
0.0
  0
LINE
  5
13E
330
1F
100
AcDbEntity
  8
0
  6
Continuous
 62
     7
370
    30
100
AcDbLine
 10
259.5197981313
 20
128.5830660006
 30
0.0
 11
260.2182118311
 21
148.5830692789
 31
0.0
  0
LINE
  5
13F
330
1F
100
AcDbEntity
  8
0
  6
Continuous
 62
     7
370
    30
100
AcDbLine
 10
260.2182118311
 20
148.5830692789
 30
0.0
 11
262.7182131722
 21
148.5830692789
 31
0.0
  0
LINE
  5
140
330
1F
100
AcDbEntity
  8
0
  6
Continuous
 62
     7
370
    30
100
AcDbLine
 10
262.7182131722
 20
148.5830692789
 30
0.0
 11
262.7182131722
 21
133.5830612322
 31
0.0
  0
LINE
  5
141
330
1F
100
AcDbEntity
  8
0
  6
Continuous
 62
     7
370
    30
100
AcDbLine
 10
262.7182131722
 20
133.5830612322
 30
0.0
 11
263.618213506
 21
133.5830612322
 31
0.0
  0
LINE
  5
142
330
1F
100
AcDbEntity
  8
0
  6
Continuous
 62
     7
370
    30
100
AcDbLine
 10
263.618213506
 20
133.5830612322
 30
0.0
 11
263.618213506
 21
128.5830660006
 31
0.0
  0
LINE
  5
143
330
1F
100
AcDbEntity
  8
0
  6
Continuous
 62
     7
370
    30
100
AcDbLine
 10
263.618213506
 20
128.5830660006
 30
0.0
 11
268.7182104304
 21
125.5186720034
 31
0.0
  0
LINE
  5
144
330
1F
100
AcDbEntity
  8
0
  6
Continuous
 62
     7
370
    30
100
AcDbLine
 10
268.7182104304
 20
125.5186720034
 30
0.0
 11
273.8182110801
 21
128.5830660006
 31
0.0
  0
LINE
  5
145
330
1F
100
AcDbEntity
  8
0
  6
Continuous
 62
     7
370
    30
100
AcDbLine
 10
273.8182110801
 20
128.5830660006
 30
0.0
 11
273.8182110801
 21
133.5830612322
 31
0.0
  0
LINE
  5
146
330
1F
100
AcDbEntity
  8
0
  6
Continuous
 62
     7
370
    30
100
AcDbLine
 10
273.8182110801
 20
133.5830612322
 30
0.0
 11
274.7182114139
 21
133.5830612322
 31
0.0
  0
LINE
  5
147
330
1F
100
AcDbEntity
  8
0
  6
Continuous
 62
     7
370
    30
100
AcDbLine
 10
274.7182114139
 20
133.5830612322
 30
0.0
 11
274.7182114139
 21
148.5830692789
 31
0.0
  0
LINE
  5
148
330
1F
100
AcDbEntity
  8
0
  6
Continuous
 62
     7
370
    30
100
AcDbLine
 10
274.7182114139
 20
148.5830692789
 30
0.0
 11
277.218212755
 21
148.5830692789
 31
0.0
  0
LINE
  5
149
330
1F
100
AcDbEntity
  8
0
  6
Continuous
 62
     7
370
    30
100
AcDbLine
 10
277.218212755
 20
148.5830692789
 30
0.0
 11
277.9166301802
 21
128.5830660006
 31
0.0
  0
LINE
  5
14A
330
1F
100
AcDbEntity
  8
0
  6
Continuous
 62
     7
370
    30
100
AcDbLine
 10
277.9166301802
 20
128.5830660006
 30
0.0
 11
283.2182100132
 21
128.5830660006
 31
0.0
  0
LINE
  5
14B
330
1F
100
AcDbEntity
  8
0
  6
Continuous
 62
     7
370
    30
100
AcDbLine
 10
283.2182100132
 20
128.5830660006
 30
0.0
 11
283.2182100132
 21
126.0830609342
 31
0.0
  0
LINE
  5
14C
330
1F
100
AcDbEntity
  8
0
  6
Continuous
 62
     7
370
    30
100
AcDbLine
 10
283.2182100132
 20
126.0830609342
 30
0.0
 11
282.2182154372
 21
126.0830609342
 31
0.0
  0
LINE
  5
14D
330
1F
100
AcDbEntity
  8
0
  6
Continuous
 62
     7
370
    30
100
AcDbLine
 10
282.2182154372
 20
126.0830609342
 30
0.0
 11
282.2182154372
 21
71.5830622455
 31
0.0
  0
ARC
  5
14E
330
1F
100
AcDbEntity
  8
0
  6
Continuous
 62
     7
370
    30
100
AcDbCircle
 10
268.7182119205
 20
71.5830635568
 30
0.0
 40
13.5
100
AcDbArc
 50
180.0
 51
0.0
  0
LINE
  5
14F
330
1F
100
AcDbEntity
  8
0
  6
Continuous
 62
     7
370
    30
100
AcDbLine
 10
273.8182110801
 20
128.5830660006
 30
0.0
 11
263.618213506
 21
128.5830660006
 31
0.0
  0
LINE
  5
150
330
1F
100
AcDbEntity
  8
0
  6
Continuous
 62
     7
370
    30
100
AcDbLine
 10
273.8182110801
 20
133.5830612322
 30
0.0
 11
272.7182110861
 21
133.5830612322
 31
0.0
  0
LINE
  5
151
330
1F
100
AcDbEntity
  8
0
  6
Continuous
 62
     7
370
    30
100
AcDbLine
 10
264.7182135001
 20
133.5830612322
 30
0.0
 11
263.618213506
 21
133.5830612322
 31
0.0
  0
LINE
  5
152
330
1F
100
AcDbEntity
  8
0
  6
Continuous
 62
     7
370
    30
100
AcDbLine
 10
299.6993264273
 20
70.5011783382
 30
0.0
 11
301.2736192062
 21
115.5830620071
 31
0.0
  0
LINE
  5
153
330
1F
100
AcDbEntity
  8
0
  6
Continuous
 62
     7
370
    30
100
AcDbLine
 10
236.1628016546
 20
115.5830620071
 30
0.0
 11
237.7370962962
 21
70.5011783382
 31
0.0
  0
ARC
  5
154
330
1F
100
AcDbEntity
  8
0
  6
Continuous
 62
     7
370
    30
100
AcDbCircle
 10
268.7182119205
 20
71.5830635568
 30
0.0
 40
31.00000000000004
100
AcDbArc
 50
182.0
 51
358.0
  0
LINE
  5
155
330
1F
100
AcDbEntity
  8
0
  6
Continuous
 62
     7
370
    30
100
AcDbLine
 10
301.2736192062
 20
115.5830620071
 30
0.0
 11
236.1628016546
 21
115.5830620071
 31
0.0
  0
LWPOLYLINE
  5
156
330
1F
100
AcDbEntity
  8
0
  6
Continuous
 62
     7
370
    30
100
AcDbPolyline
 90
        2
 70
   128
 43
0.0
 10
225.7610777482
 20
122.0401970884
 10
225.7610777482
 20
122.0401970884
  0
ARC
  5
157
330
1F
100
AcDbEntity
  8
0
  6
Continuous
 62
     7
370
    30
100
AcDbCircle
 10
227.1752912074
 20
123.4544113947
 30
0.0
 40
2.000000000000016
100
AcDbArc
 50
183.0
 51
225.0
  0
LWPOLYLINE
  5
158
330
1F
100
AcDbEntity
  8
0
  6
Continuous
 62
     7
370
    30
100
AcDbPolyline
 90
        2
 70
   128
 43
0.0
 10
311.6753449753
 20
122.0401970884
 10
311.6753449753
 20
122.0401970884
  0
LWPOLYLINE
  5
159
330
1F
100
AcDbEntity
  8
0
  6
Continuous
 62
     7
370
    30
100
AcDbPolyline
 90
        3
 70
   128
 43
0.0
 10
225.7610777482
 20
122.0401970884
 10
226.4775777325
 20
121.3236971041
 10
227.1753460258
 20
120.6259278795
  0
LINE
  5
15A
330
1F
100
AcDbEntity
  8
0
  6
Continuous
 62
     7
370
    30
100
AcDbLine
 10
310.2610757664
 20
120.6259278795
 30
0.0
 11
311.6753449753
 21
122.0401970884
 31
0.0
  0
ARC
  5
15B
330
1F
100
AcDbEntity
  8
0
  6
Continuous
 62
     7
370
    30
100
AcDbCircle
 10
225.7611326337
 20
119.2117157189
 30
0.0
 40
1.999999999999994
100
AcDbArc
 50
3.0
 51
45.0
  0
LWPOLYLINE
  5
15C
330
1F
100
AcDbEntity
  8
0
  6
Continuous
 62
     7
370
    30
100
AcDbPolyline
 90
        3
 70
   128
 43
0.0
 10
305.7290738538
 20
149.11897464
 10
306.9212412551
 20
150.3696141979
 10
308.5407739594
 20
152.0685849926
  0
LINE
  5
15D
330
1F
100
AcDbEntity
  8
0
  6
Continuous
 62
     7
370
    30
100
AcDbLine
 10
305.719067724
 20
149.1084842226
 30
0.0
 11
305.7290738538
 21
149.11897464
 31
0.0
  0
LWPOLYLINE
  5
15E
330
1F
100
AcDbEntity
  8
0
  6
Continuous
 62
     7
370
    30
100
AcDbPolyline
 90
        3
 70
   128
 43
0.0
 10
228.8956469014
 20
152.0685849926
 10
230.1159011289
 20
150.788485839
 10
231.707352595
 20
149.11897464
  0
ARC
  5
15F
330
1F
100
AcDbEntity
  8
0
  6
Continuous
 62
     7
370
    30
100
AcDbCircle
 10
311.6752912074
 20
119.2117157189
 30
0.0
 40
1.999999999999956
100
AcDbArc
 50
135.0
 51
177.0
  0
ARC
  5
160
330
1F
100
AcDbEntity
  8
0
  6
Continuous
 62
     7
370
    30
100
AcDbCircle
 10
307.0931263862
 20
153.4485585199
 30
0.0
 40
1.999999999999983
100
AcDbArc
 50
316.3712103311
 51
355.5
  0
ARC
  5
161
330
1F
100
AcDbEntity
  8
0
  6
Continuous
 62
     7
370
    30
100
AcDbCircle
 10
230.2597020658
 20
147.7390125802
 30
0.0
 40
2.000000000006231
100
AcDbArc
 50
3.000143436
 51
43.6287896689
  0
ARC
  5
162
330
1F
100
AcDbEntity
  8
0
  6
Continuous
 62
     7
370
    30
100
AcDbCircle
 10
307.1767217752
 20
147.7390125802
 30
0.0
 40
2.000000000006262
100
AcDbArc
 50
136.3712103311
 51
176.999856564
  0
LINE
  5
163
330
1F
100
AcDbEntity
  8
0
  6
Continuous
 62
     7
370
    30
100
AcDbLine
 10
266.7482620194
 20
25.0830639368
 30
0.0
 11
267.6212912515
 21
25.0830639368
 31
0.0
  0
LINE
  5
164
330
1F
100
AcDbEntity
  8
0
  6
Continuous
 62
     7
370
    30
100
AcDbLine
 10
266.7482620194
 20
25.0830639368
 30
0.0
 11
266.7482620194
 21
25.1830637669
 31
0.0
  0
LINE
  5
165
330
1F
100
AcDbEntity
  8
0
  6
Continuous
 62
     7
370
    30
100
AcDbLine
 10
266.7482620194
 20
25.1830637669
 30
0.0
 11
266.6158801034
 21
25.1830637669
 31
0.0
  0
LINE
  5
166
330
1F
100
AcDbEntity
  8
0
  6
Continuous
 62
     7
370
    30
100
AcDbLine
 10
266.6158801034
 20
25.1830637669
 30
0.0
 11
266.6158801034
 21
25.0830639368
 31
0.0
  0
LINE
  5
167
330
1F
100
AcDbEntity
  8
0
  6
Continuous
 62
     7
370
    30
100
AcDbLine
 10
265.815043272
 20
25.0830639368
 30
0.0
 11
266.6158801034
 21
25.0830639368
 31
0.0
  0
LINE
  5
168
330
1F
100
AcDbEntity
  8
0
  6
Continuous
 62
     7
370
    30
100
AcDbLine
 10
265.815043272
 20
25.0830639368
 30
0.0
 11
265.815043272
 21
25.1830637669
 31
0.0
  0
LINE
  5
169
330
1F
100
AcDbEntity
  8
0
  6
Continuous
 62
     7
370
    30
100
AcDbLine
 10
265.815043272
 20
25.1830637669
 30
0.0
 11
265.686062546
 21
25.1830637669
 31
0.0
  0
LINE
  5
16A
330
1F
100
AcDbEntity
  8
0
  6
Continuous
 62
     7
370
    30
100
AcDbLine
 10
265.686062546
 20
25.1830637669
 30
0.0
 11
265.686062546
 21
25.0830639368
 31
0.0
  0
LINE
  5
16B
330
1F
100
AcDbEntity
  8
0
  6
Continuous
 62
     7
370
    30
100
AcDbLine
 10
235.0693618968
 20
25.0830639368
 30
0.0
 11
265.686062546
 21
25.0830639368
 31
0.0
  0
ARC
  5
16C
330
1F
100
AcDbEntity
  8
0
  6
Continuous
 62
     7
370
    30
100
AcDbCircle
 10
235.0693623692
 20
27.5830635568
 30
0.0
 40
2.5
100
AcDbArc
 50
183.0
 51
270.0
  0
LINE
  5
16D
330
1F
100
AcDbEntity
  8
0
  6
Continuous
 62
     7
370
    30
100
AcDbLine
 10
225.1780325636
 20
123.3497409364
 30
0.0
 11
223.1770515531
 21
161.5307329437
 31
0.0
  0
ARC
  5
16E
330
1F
100
AcDbEntity
  8
0
  6
Continuous
 62
     7
370
    30
100
AcDbCircle
 10
224.1756808745
 20
161.5830635568
 30
0.0
 40
1.0
100
AcDbArc
 50
90.0
 51
183.0
  0
LINE
  5
16F
330
1F
100
AcDbEntity
  8
0
  6
Continuous
 62
     7
370
    30
100
AcDbLine
 10
224.1756808102
 20
162.5830678484
 30
0.0
 11
226.6938215211
 21
162.5830678484
 31
0.0
  0
ARC
  5
170
330
1F
100
AcDbEntity
  8
0
  6
Continuous
 62
     7
370
    30
100
AcDbCircle
 10
226.6938214289
 20
161.5830635568
 30
0.0
 40
1.000000000000007
100
AcDbArc
 50
4.5
 51
90.0
  0
LINE
  5
171
330
1F
100
AcDbEntity
  8
0
  6
Continuous
 62
     7
370
    30
100
AcDbLine
 10
227.6907390073
 20
161.6615204355
 30
0.0
 11
228.3494634643
 21
153.291642501
 31
0.0
  0
ARC
  5
172
330
1F
100
AcDbEntity
  8
0
  6
Continuous
 62
     7
370
    30
100
AcDbCircle
 10
230.3432974549
 20
153.4485585199
 30
0.0
 40
1.99999999999999
100
AcDbArc
 50
184.5
 51
223.6287896689
  0
LINE
  5
173
330
1F
100
AcDbEntity
  8
0
  6
Continuous
 62
     7
370
    30
100
AcDbLine
 10
232.2569614365
 20
147.8436885616
 30
0.0
 11
237.5912344172
 21
46.0597032895
 31
0.0
  0
ARC
  5
174
330
1F
100
AcDbEntity
  8
0
  6
Continuous
 62
     7
370
    30
100
AcDbCircle
 10
247.5775288674
 20
46.5830635568
 30
0.0
 40
10.00000000000001
100
AcDbArc
 50
183.0
 51
270.0
  0
LINE
  5
175
330
1F
100
AcDbEntity
  8
0
  6
Continuous
 62
     7
370
    30
100
AcDbLine
 10
247.5775307133
 20
36.5830639592
 30
0.0
 11
248.072390826
 21
36.5830639592
 31
0.0
  0
ARC
  5
176
330
1F
100
AcDbEntity
  8
0
  6
Continuous
 62
     7
370
    30
100
AcDbCircle
 10
248.0723890985
 20
46.5830635568
 30
0.0
 40
10.00000000000001
100
AcDbArc
 50
270.0
 51
302.4093867534
  0
ARC
  5
177
330
1F
100
AcDbEntity
  8
0
  6
Continuous
 62
     7
370
    30
100
AcDbCircle
 10
268.7182119205
 20
14.0622302235
 30
0.0
 40
28.52083333333333
100
AcDbArc
 50
57.5906132466
 51
122.4093867534
  0
ARC
  5
178
330
1F
100
AcDbEntity
  8
0
  6
Continuous
 62
     7
370
    30
100
AcDbCircle
 10
289.3640347426
 20
46.5830635568
 30
0.0
 40
10.00000000000002
100
AcDbArc
 50
237.5906132466
 51
270.0
  0
LINE
  5
179
330
1F
100
AcDbEntity
  8
0
  6
Continuous
 62
     7
370
    30
100
AcDbLine
 10
289.3640374854
 20
36.5830639592
 30
0.0
 11
289.8588975981
 21
36.5830639592
 31
0.0
  0
ARC
  5
17A
330
1F
100
AcDbEntity
  8
0
  6
Continuous
 62
     7
370
    30
100
AcDbCircle
 10
289.8588949737
 20
46.5830635568
 30
0.0
 40
10.00000000000001
100
AcDbArc
 50
270.0
 51
357.0
  0
LINE
  5
17B
330
1F
100
AcDbEntity
  8
0
  6
Continuous
 62
     7
370
    30
100
AcDbLine
 10
299.8451938942
 20
46.0597032895
 30
0.0
 11
305.1794594243
 21
147.8436885616
 31
0.0
  0
LINE
  5
17C
330
1F
100
AcDbEntity
  8
0
  6
Continuous
 62
     7
370
    30
100
AcDbLine
 10
309.0869611218
 20
153.291642501
 30
0.0
 11
309.7456818536
 21
161.6615204355
 31
0.0
  0
ARC
  5
17D
330
1F
100
AcDbEntity
  8
0
  6
Continuous
 62
     7
370
    30
100
AcDbCircle
 10
310.7426024122
 20
161.5830635568
 30
0.0
 40
1.0
100
AcDbArc
 50
90.0
 51
175.5
  0
LINE
  5
17E
330
1F
100
AcDbEntity
  8
0
  6
Continuous
 62
     7
370
    30
100
AcDbLine
 10
310.7425993398
 20
162.5830678484
 30
0.0
 11
313.2607465699
 21
162.5830678484
 31
0.0
  0
ARC
  5
17F
330
1F
100
AcDbEntity
  8
0
  6
Continuous
 62
     7
370
    30
100
AcDbCircle
 10
313.2607429666
 20
161.5830635568
 30
0.0
 40
1.0
100
AcDbArc
 50
357.0
 51
90.0
  0
LINE
  5
180
330
1F
100
AcDbEntity
  8
0
  6
Continuous
 62
     7
370
    30
100
AcDbLine
 10
314.259370239
 20
161.5307329437
 30
0.0
 11
312.2583901599
 21
123.3497409364
 31
0.0
  0
ARC
  5
181
330
1F
100
AcDbEntity
  8
0
  6
Continuous
 62
     7
370
    30
100
AcDbCircle
 10
310.2611326337
 20
123.4544113947
 30
0.0
 40
2.000000000000049
100
AcDbArc
 50
315.0
 51
357.0
  0
ARC
  5
182
330
1F
100
AcDbEntity
  8
0
  6
Continuous
 62
     7
370
    30
100
AcDbCircle
 10
302.3670614719
 20
27.5830635568
 30
0.0
 40
2.50000000000002
100
AcDbArc
 50
270.0
 51
357.0
  0
LINE
  5
183
330
1F
100
AcDbEntity
  8
0
  6
Continuous
 62
     7
370
    30
100
AcDbLine
 10
271.0407910958
 20
25.0830639368
 30
0.0
 11
302.367058964
 21
25.0830639368
 31
0.0
  0
LINE
  5
184
330
1F
100
AcDbEntity
  8
0
  6
Continuous
 62
     7
370
    30
100
AcDbLine
 10
271.0407910958
 20
25.0830639368
 30
0.0
 11
271.0407910958
 21
25.1830637669
 31
0.0
  0
LINE
  5
185
330
1F
100
AcDbEntity
  8
0
  6
Continuous
 62
     7
370
    30
100
AcDbLine
 10
271.0407910958
 20
25.1830637669
 30
0.0
 11
270.9101004615
 21
25.1830637669
 31
0.0
  0
LINE
  5
186
330
1F
100
AcDbEntity
  8
0
  6
Continuous
 62
     7
370
    30
100
AcDbLine
 10
270.9101004615
 20
25.1830637669
 30
0.0
 11
270.9101004615
 21
25.0830639368
 31
0.0
  0
LINE
  5
187
330
1F
100
AcDbEntity
  8
0
  6
Continuous
 62
     7
370
    30
100
AcDbLine
 10
267.750458242
 20
25.0830639368
 30
0.0
 11
270.9101004615
 21
25.0830639368
 31
0.0
  0
LINE
  5
188
330
1F
100
AcDbEntity
  8
0
  6
Continuous
 62
     7
370
    30
100
AcDbLine
 10
267.750458242
 20
25.0830639368
 30
0.0
 11
267.750458242
 21
25.1830637669
 31
0.0
  0
LINE
  5
189
330
1F
100
AcDbEntity
  8
0
  6
Continuous
 62
     7
370
    30
100
AcDbLine
 10
267.750458242
 20
25.1830637669
 30
0.0
 11
267.6212912515
 21
25.1830637669
 31
0.0
  0
LINE
  5
18A
330
1F
100
AcDbEntity
  8
0
  6
Continuous
 62
     7
370
    30
100
AcDbLine
 10
267.6212912515
 20
25.1830637669
 30
0.0
 11
267.6212912515
 21
25.0830639368
 31
0.0
  0
LINE
  5
18B
330
1F
100
AcDbEntity
  8
0
  6
Continuous
 62
     7
370
    30
100
AcDbLine
 10
304.8636367634
 20
27.4522237694
 30
0.0
 11
309.6780305817
 21
119.3163840314
 31
0.0
  0
LINE
  5
18C
330
1F
100
AcDbEntity
  8
0
  6
Continuous
 62
     7
370
    30
100
AcDbLine
 10
227.7583921417
 20
119.3163840314
 30
0.0
 11
232.5727878228
 21
27.4522237694
 31
0.0
  0
LINE
  5
18D
330
1F
100
AcDbEntity
  8
0
  6
Continuous
 62
     7
370
    30
100
AcDbLine
 10
265.8149873927
 20
25.1830637669
 30
0.0
 11
265.8149873927
 21
25.0830639368
 31
0.0
  0
SPLINE
  5
18E
330
1F
100
AcDbEntity
  8
0
  6
Continuous
 62
     7
370
    30
100
AcDbSpline
210
0.0
220
0.0
230
1.0
 70
    24
 71
     3
 72
     9
 73
     5
 74
     0
 42
0.00000001
 43
0.00000001
 40
0.0
 40
0.0
 40
0.0
 40
0.0
 40
0.5599871519348206
 40
1.0
 40
1.0
 40
1.0
 40
1.0
 10
265.8149873926939
 20
25.08306393680354
 30
0.0
 10
265.8149970108849
 20
25.08306393680354
 30
0.0
 10
265.81501418662
 20
25.08306393680354
 30
0.0
 10
265.815034384654
 20
25.08306393680354
 30
0.0
 10
265.8150432720484
 20
25.08306393680354
 30
0.0
  0
LINE
  5
18F
330
1F
100
AcDbEntity
  8
0
  6
Continuous
 62
     7
370
    30
100
AcDbLine
 10
266.6158801034
 20
25.0830639368
 30
0.0
 11
266.6214382365
 21
25.0830639368
 31
0.0
  0
LINE
  5
190
330
1F
100
AcDbEntity
  8
0
  6
Continuous
 62
     7
370
    30
100
AcDbLine
 10
267.6214365378
 20
25.1830637669
 30
0.0
 11
267.6214365378
 21
25.0830639368
 31
0.0
  0
LINE
  5
191
330
1F
100
AcDbEntity
  8
0
  6
Continuous
 62
     7
370
    30
100
AcDbLine
 10
270.9112553015
 20
25.1830637669
 30
0.0
 11
270.9112553015
 21
25.0830639368
 31
0.0
  0
LINE
  5
192
330
1F
100
AcDbEntity
  8
0
  6
Continuous
 62
     7
370
    30
100
AcDbLine
 10
270.9101004615
 20
25.0830639368
 30
0.0
 11
270.9112553015
 21
25.0830639368
 31
0.0
  0
LINE
  5
193
330
1F
100
AcDbEntity
  8
0
  6
Continuous
 62
     7
370
    30
100
AcDbLine
 10
267.6825685516
 20
25.0830639368
 30
0.0
 11
267.7504694178
 21
25.0830639368
 31
0.0
  0
SPLINE
  5
194
330
1F
100
AcDbEntity
  8
0
  6
Continuous
 62
     7
370
    30
100
AcDbSpline
210
0.0
220
0.0
230
1.0
 70
    24
 71
     3
 72
     9
 73
     5
 74
     0
 42
0.00000001
 43
0.00000001
 40
0.0
 40
0.0
 40
0.0
 40
0.0
 40
0.7855212417689245
 40
1.0
 40
1.0
 40
1.0
 40
1.0
 10
265.6859545126261
 20
25.08306393680354
 30
0.0
 10
265.6904363299323
 20
25.08306393680354
 30
0.0
 10
265.6961418628549
 20
25.08306393680354
 30
0.0
 10
265.7674354242017
 20
25.08306393680354
 30
0.0
 10
265.7827263787092
 20
25.08306393680354
 30
0.0
  0
SPLINE
  5
195
330
1F
100
AcDbEntity
  8
0
  6
Continuous
 62
     7
370
    30
100
AcDbSpline
210
0.0
220
0.0
230
1.0
 70
    24
 71
     3
 72
     9
 73
     5
 74
     0
 42
0.00000001
 43
0.00000001
 40
0.0
 40
0.0
 40
0.0
 40
0.0
 40
0.3488997318640573
 40
1.0
 40
1.0
 40
1.0
 40
1.0
 10
266.6466584518255
 20
25.08306393680354
 30
0.0
 10
266.6520463329313
 20
25.08306393680354
 30
0.0
 10
266.6674888243226
 20
25.08306393680354
 30
0.0
 10
266.700347430499
 20
25.08306393680354
 30
0.0
 10
266.721741677791
 20
25.08306393680354
 30
0.0
  0
LINE
  5
196
330
1F
100
AcDbEntity
  8
0
  6
Continuous
 62
     7
370
    30
100
AcDbLine
 10
270.9112553015
 20
25.0830639368
 30
0.0
 11
271.0407910958
 21
25.0830639368
 31
0.0
  0
LINE
  5
197
330
1F
100
AcDbEntity
  8
0
  6
Continuous
 62
     7
370
    30
100
AcDbLine
 10
226.6938215211
 20
162.5830678484
 30
0.0
 11
231.678408952
 21
162.5830678484
 31
0.0
  0
LINE
  5
198
330
1F
100
AcDbEntity
  8
0
  6
Continuous
 62
     7
370
    30
100
AcDbLine
 10
305.7580193594
 20
162.5830678484
 30
0.0
 11
310.7425993398
 21
162.5830678484
 31
0.0
  0
LINE
  5
199
330
1F
100
AcDbEntity
  8
0
  6
Continuous
 62
     7
370
    30
100
AcDbLine
 10
231.678408952
 20
162.5830678484
 30
0.0
 11
258.7182125166
 21
162.5830678484
 31
0.0
  0
LINE
  5
19A
330
1F
100
AcDbEntity
  8
0
  6
Continuous
 62
     7
370
    30
100
AcDbLine
 10
278.7182083443
 20
162.5830678484
 30
0.0
 11
305.7580193594
 21
162.5830678484
 31
0.0
  0
ARC
  5
19B
330
1F
100
AcDbEntity
  8
0
  6
Continuous
 62
     7
370
    30
100
AcDbCircle
 10
225.9682119205
 20
123.6245154412
 30
0.0
 40
2.0
100
AcDbArc
 50
180.0
 51
240.0
  0
LINE
  5
19C
330
1F
100
AcDbEntity
  8
0
  6
Continuous
 62
     7
370
    30
100
AcDbLine
 10
224.9682121068
 20
121.8924669763
 30
0.0
 11
226.718211928
 21
120.8821011922
 31
0.0
  0
ARC
  5
19D
330
1F
100
AcDbEntity
  8
0
  6
Continuous
 62
     7
370
    30
100
AcDbCircle
 10
225.9682119205
 20
119.5830635568
 30
0.0
 40
1.500000000000014
100
AcDbArc
 50
270.0
 51
60.0
  0
LINE
  5
19E
330
1F
100
AcDbEntity
  8
0
  6
Continuous
 62
     7
370
    30
100
AcDbLine
 10
222.3701359793
 20
118.0830670735
 30
0.0
 11
225.9682122707
 21
118.0830670735
 31
0.0
  0
LINE
  5
19F
330
1F
100
AcDbEntity
  8
0
  6
Continuous
 62
     7
370
    30
100
AcDbLine
 10
221.9682116151
 20
119.5830626628
 30
0.0
 11
222.3701359793
 21
118.0830670735
 31
0.0
  0
LINE
  5
1A0
330
1F
100
AcDbEntity
  8
0
  6
Continuous
 62
     7
370
    30
100
AcDbLine
 10
221.9682116151
 20
119.5830626628
 30
0.0
 11
221.9682116151
 21
139.0830649277
 31
0.0
  0
LINE
  5
1A1
330
1F
100
AcDbEntity
  8
0
  6
Continuous
 62
     7
370
    30
100
AcDbLine
 10
215.9682120286
 20
139.0830649277
 30
0.0
 11
221.9682116151
 21
139.0830649277
 31
0.0
  0
LINE
  5
1A2
330
1F
100
AcDbEntity
  8
0
  6
Continuous
 62
     7
370
    30
100
AcDbLine
 10
215.9682120286
 20
141.0830615303
 30
0.0
 11
215.9682120286
 21
139.0830649277
 31
0.0
  0
LINE
  5
1A3
330
1F
100
AcDbEntity
  8
0
  6
Continuous
 62
     7
370
    30
100
AcDbLine
 10
223.9682119429
 20
123.6245183488
 30
0.0
 11
223.9682119429
 21
141.0830615303
 31
0.0
  0
LINE
  5
1A4
330
1F
100
AcDbEntity
  8
0
  6
Continuous
 62
     7
370
    30
100
AcDbLine
 10
215.9682120286
 20
141.0830615303
 30
0.0
 11
223.9682119429
 21
141.0830615303
 31
0.0
  0
LINE
  5
1A5
330
1F
100
AcDbEntity
  8
0
  6
Continuous
 62
     7
370
    30
100
AcDbLine
 10
315.0662904694
 20
118.0830670735
 30
0.0
 11
315.4682120397
 21
119.5830626628
 31
0.0
  0
LINE
  5
1A6
330
1F
100
AcDbEntity
  8
0
  6
Continuous
 62
     7
370
    30
100
AcDbLine
 10
310.7182135895
 20
120.8821011922
 30
0.0
 11
312.4682134106
 21
121.8924669763
 31
0.0
  0
ARC
  5
1A7
330
1F
100
AcDbEntity
  8
0
  6
Continuous
 62
     7
370
    30
100
AcDbCircle
 10
311.4682119205
 20
123.6245154412
 30
0.0
 40
2.000000000000004
100
AcDbArc
 50
300.0
 51
0.0
  0
LINE
  5
1A8
330
1F
100
AcDbEntity
  8
0
  6
Continuous
 62
     7
370
    30
100
AcDbLine
 10
317.4682086423
 20
139.0830649277
 30
0.0
 11
317.4682086423
 21
141.0830615303
 31
0.0
  0
LINE
  5
1A9
330
1F
100
AcDbEntity
  8
0
  6
Continuous
 62
     7
370
    30
100
AcDbLine
 10
315.4682120397
 20
139.0830649277
 30
0.0
 11
315.4682120397
 21
119.5830626628
 31
0.0
  0
ARC
  5
1AA
330
1F
100
AcDbEntity
  8
0
  6
Continuous
 62
     7
370
    30
100
AcDbCircle
 10
311.4682119205
 20
119.5830635568
 30
0.0
 40
1.500000000000028
100
AcDbArc
 50
120.0
 51
270.0
  0
LINE
  5
1AB
330
1F
100
AcDbEntity
  8
0
  6
Continuous
 62
     7
370
    30
100
AcDbLine
 10
311.4682113841
 20
118.0830670735
 30
0.0
 11
315.0662904694
 21
118.0830670735
 31
0.0
  0
LINE
  5
1AC
330
1F
100
AcDbEntity
  8
0
  6
Continuous
 62
     7
370
    30
100
AcDbLine
 10
315.4682120397
 20
139.0830649277
 30
0.0
 11
317.4682086423
 21
139.0830649277
 31
0.0
  0
LINE
  5
1AD
330
1F
100
AcDbEntity
  8
0
  6
Continuous
 62
     7
370
    30
100
AcDbLine
 10
313.4682154372
 20
141.0830615303
 30
0.0
 11
313.4682154372
 21
123.6245183488
 31
0.0
  0
LINE
  5
1AE
330
1F
100
AcDbEntity
  8
0
  6
Continuous
 62
     7
370
    30
100
AcDbLine
 10
313.4682154372
 20
141.0830615303
 30
0.0
 11
317.4682086423
 21
141.0830615303
 31
0.0
  0
LINE
  5
1AF
330
1F
100
AcDbEntity
  8
0
  6
Continuous
 62
     7
370
    30
100
AcDbLine
 10
223.9682119429
 20
141.0830615303
 30
0.0
 11
224.248667629
 21
141.0830615303
 31
0.0
  0
LINE
  5
1B0
330
1F
100
AcDbEntity
  8
0
  6
Continuous
 62
     7
370
    30
100
AcDbLine
 10
313.4682154372
 20
141.0830615303
 30
0.0
 11
313.1877532318
 21
141.0830615303
 31
0.0
  0
ARC
  5
1B1
330
1F
100
AcDbEntity
  8
0
  6
Continuous
 62
     7
370
    30
100
AcDbCircle
 10
221.6682119205
 20
118.8830635568
 30
0.0
 40
0.3000000000000114
100
AcDbArc
 50
270.0
 51
0.0
  0
LINE
  5
1B2
330
1F
100
AcDbEntity
  8
0
  6
Continuous
 62
     7
370
    30
100
AcDbLine
 10
221.6682121247
 20
118.5830606362
 30
0.0
 11
218.2682118468
 21
118.5830606362
 31
0.0
  0
ARC
  5
1B3
330
1F
100
AcDbEntity
  8
0
  6
Continuous
 62
     7
370
    30
100
AcDbCircle
 10
218.2682119205
 20
118.8830635568
 30
0.0
 40
0.3000000000000114
100
AcDbArc
 50
180.0
 51
270.0
  0
LINE
  5
1B4
330
1F
100
AcDbEntity
  8
0
  6
Continuous
 62
     7
370
    30
100
AcDbLine
 10
217.9682118907
 20
137.2830642602
 30
0.0
 11
217.9682118907
 21
118.8830657145
 31
0.0
  0
LINE
  5
1B5
330
1F
100
AcDbEntity
  8
0
  6
Continuous
 62
     7
370
    30
100
AcDbLine
 10
218.2682118468
 20
137.5830618879
 30
0.0
 11
221.6682121247
 21
137.5830618879
 31
0.0
  0
ARC
  5
1B6
330
1F
100
AcDbEntity
  8
0
  6
Continuous
 62
     7
370
    30
100
AcDbCircle
 10
221.6682119205
 20
137.2830635568
 30
0.0
 40
0.3000000000000398
100
AcDbArc
 50
0.0
 51
90.0
  0
LINE
  5
1B7
330
1F
100
AcDbEntity
  8
0
  6
Continuous
 62
     7
370
    30
100
AcDbLine
 10
221.9682116151
 20
137.2830642602
 30
0.0
 11
221.9682116151
 21
118.8830657145
 31
0.0
  0
ARC
  5
1B8
330
1F
100
AcDbEntity
  8
0
  6
Continuous
 62
     7
370
    30
100
AcDbCircle
 10
218.2682119205
 20
137.2830635568
 30
0.0
 40
0.3000000000000398
100
AcDbArc
 50
90.0
 51
180.0
  0
ARC
  5
1B9
330
1F
100
AcDbEntity
  8
0
  6
Continuous
 62
     7
370
    30
100
AcDbCircle
 10
315.9682119205
 20
117.5830635568
 30
0.0
 40
0.5
100
AcDbArc
 50
180.0
 51
270.0
  0
LINE
  5
1BA
330
1F
100
AcDbEntity
  8
0
  6
Continuous
 62
     7
370
    30
100
AcDbLine
 10
315.4682120397
 20
138.5830639145
 30
0.0
 11
315.4682120397
 21
117.5830660602
 31
0.0
  0
LINE
  5
1BB
330
1F
100
AcDbEntity
  8
0
  6
Continuous
 62
     7
370
    30
100
AcDbLine
 10
315.968213053
 20
139.0830649277
 30
0.0
 11
318.9682116821
 21
139.0830649277
 31
0.0
  0
ARC
  5
1BC
330
1F
100
AcDbEntity
  8
0
  6
Continuous
 62
     7
370
    30
100
AcDbCircle
 10
318.9682119205
 20
138.5830635568
 30
0.0
 40
0.5
100
AcDbArc
 50
0.0
 51
90.0
  0
LINE
  5
1BD
330
1F
100
AcDbEntity
  8
0
  6
Continuous
 62
     7
370
    30
100
AcDbLine
 10
319.4682126954
 20
117.5830660602
 30
0.0
 11
319.4682126954
 21
138.5830639145
 31
0.0
  0
ARC
  5
1BE
330
1F
100
AcDbEntity
  8
0
  6
Continuous
 62
     7
370
    30
100
AcDbCircle
 10
318.9682119205
 20
117.5830635568
 30
0.0
 40
0.5
100
AcDbArc
 50
270.0
 51
0.0
  0
LINE
  5
1BF
330
1F
100
AcDbEntity
  8
0
  6
Continuous
 62
     7
370
    30
100
AcDbLine
 10
315.968213053
 20
117.0830650469
 30
0.0
 11
318.9682116821
 21
117.0830650469
 31
0.0
  0
ARC
  5
1C0
330
1F
100
AcDbEntity
  8
0
  6
Continuous
 62
     7
370
    30
100
AcDbCircle
 10
315.9682119205
 20
138.5830635568
 30
0.0
 40
0.5
100
AcDbArc
 50
90.0
 51
180.0
  0
ARC
  5
1C1
330
1F
100
AcDbEntity
  8
0
  6
Continuous
 62
     7
370
    30
100
AcDbCircle
 10
214.4682119205
 20
117.5830635568
 30
0.0
 40
0.5
100
AcDbArc
 50
180.0
 51
270.0
  0
LINE
  5
1C2
330
1F
100
AcDbEntity
  8
0
  6
Continuous
 62
     7
370
    30
100
AcDbLine
 10
217.4682118088
 20
117.0830650469
 30
0.0
 11
214.4682120155
 21
117.0830650469
 31
0.0
  0
LINE
  5
1C3
330
1F
100
AcDbEntity
  8
0
  6
Continuous
 62
     7
370
    30
100
AcDbLine
 10
217.9682118907
 20
118.8830657145
 30
0.0
 11
217.9682118907
 21
117.5830660602
 31
0.0
  0
ARC
  5
1C4
330
1F
100
AcDbEntity
  8
0
  6
Continuous
 62
     7
370
    30
100
AcDbCircle
 10
217.4682119205
 20
117.5830635568
 30
0.0
 40
0.5
100
AcDbArc
 50
270.0
 51
0.0
  0
LINE
  5
1C5
330
1F
100
AcDbEntity
  8
0
  6
Continuous
 62
     7
370
    30
100
AcDbLine
 10
215.9682120286
 20
139.0830649277
 30
0.0
 11
214.4682120155
 21
139.0830649277
 31
0.0
  0
LINE
  5
1C6
330
1F
100
AcDbEntity
  8
0
  6
Continuous
 62
     7
370
    30
100
AcDbLine
 10
213.9682119336
 20
137.0830608746
 30
0.0
 11
213.9682119336
 21
138.5830639145
 31
0.0
  0
ARC
  5
1C7
330
1F
100
AcDbEntity
  8
0
  6
Continuous
 62
     7
370
    30
100
AcDbCircle
 10
214.4682119205
 20
138.5830635568
 30
0.0
 40
0.5
100
AcDbArc
 50
90.0
 51
180.0
  0
ARC
  5
1C8
330
1F
100
AcDbEntity
  8
0
  6
Continuous
 62
     7
370
    30
100
AcDbCircle
 10
217.4682119205
 20
138.5830635568
 30
0.0
 40
0.5
100
AcDbArc
 50
0.0
 51
90.0
  0
LINE
  5
1C9
330
1F
100
AcDbEntity
  8
0
  6
Continuous
 62
     7
370
    30
100
AcDbLine
 10
217.9682118907
 20
138.5830639145
 30
0.0
 11
217.9682118907
 21
137.2830642602
 31
0.0
  0
LINE
  5
1CA
330
1F
100
AcDbEntity
  8
0
  6
Continuous
 62
     7
370
    30
100
AcDbLine
 10
221.9682116151
 20
117.0830650469
 30
0.0
 11
217.4682118088
 21
117.0830650469
 31
0.0
  0
LINE
  5
1CB
330
1F
100
AcDbEntity
  8
0
  6
Continuous
 62
     7
370
    30
100
AcDbLine
 10
315.968213053
 20
117.0830650469
 30
0.0
 11
311.4682113841
 21
117.0830650469
 31
0.0
  0
LINE
  5
1CC
330
1F
100
AcDbEntity
  8
0
  6
Continuous
 62
     7
370
    30
100
AcDbLine
 10
311.4682113841
 20
117.0830650469
 30
0.0
 11
309.5609894111
 21
117.0830650469
 31
0.0
  0
LINE
  5
1CD
330
1F
100
AcDbEntity
  8
0
  6
Continuous
 62
     7
370
    30
100
AcDbLine
 10
227.875435175
 20
117.0830650469
 30
0.0
 11
221.9682116151
 21
117.0830650469
 31
0.0
  0
LINE
  5
1CE
330
1F
100
AcDbEntity
  8
0
  6
Continuous
 62
     7
370
    30
100
AcDbLine
 10
212.4682119205
 20
137.0830608746
 30
0.0
 11
212.4682119205
 21
117.0830650469
 31
0.0
  0
LINE
  5
1CF
330
1F
100
AcDbEntity
  8
0
  6
Continuous
 62
     7
370
    30
100
AcDbLine
 10
212.4682119205
 20
137.0830608746
 30
0.0
 11
213.9682119336
 21
137.0830608746
 31
0.0
  0
LINE
  5
1D0
330
1F
100
AcDbEntity
  8
0
  6
Continuous
 62
     7
370
    30
100
AcDbLine
 10
213.9682119336
 20
137.0830608746
 30
0.0
 11
213.9682119336
 21
117.0830650469
 31
0.0
  0
LINE
  5
1D1
330
1F
100
AcDbEntity
  8
0
  6
Continuous
 62
     7
370
    30
100
AcDbLine
 10
213.9682119336
 20
117.0830650469
 30
0.0
 11
212.4682119205
 21
117.0830650469
 31
0.0
  0
LINE
  5
1D2
330
1F
100
AcDbEntity
  8
0
  6
Continuous
 62
     7
370
    30
100
AcDbLine
 10
212.4682119205
 20
137.0830608746
 30
0.0
 11
212.4682119205
 21
29.0830636611
 31
0.0
  0
LINE
  5
1D3
330
1F
100
AcDbEntity
  8
0
  6
Continuous
 62
     7
370
    30
100
AcDbLine
 10
208.4682117305
 20
29.0830636611
 30
0.0
 11
208.4682117305
 21
137.0830608746
 31
0.0
  0
LINE
  5
1D4
330
1F
100
AcDbEntity
  8
0
  6
Continuous
 62
     7
370
    30
100
AcDbLine
 10
208.4682117305
 20
137.0830608746
 30
0.0
 11
212.4682119205
 21
137.0830608746
 31
0.0
  0
LINE
  5
1D5
330
1F
100
AcDbEntity
  8
0
  6
Continuous
 62
     7
370
    30
100
AcDbLine
 10
208.4682117305
 20
29.0830636611
 30
0.0
 11
212.4682119205
 21
29.0830636611
 31
0.0
  0
LINE
  5
1D6
330
1F
100
AcDbEntity
  8
0
  6
Continuous
 62
     7
370
    30
100
AcDbLine
 10
308.9682137683
 20
13.0830633668
 30
0.0
 11
308.9682137683
 21
17.0830635568
 31
0.0
  0
LINE
  5
1D7
330
1F
100
AcDbEntity
  8
0
  6
Continuous
 62
     7
370
    30
100
AcDbLine
 10
224.4682120248
 20
17.0830635568
 30
0.0
 11
224.4682120248
 21
13.0830633668
 31
0.0
  0
LINE
  5
1D8
330
1F
100
AcDbEntity
  8
0
  6
Continuous
 62
     7
370
    30
100
AcDbLine
 10
308.9682137683
 20
13.0830633668
 30
0.0
 11
224.4682120248
 21
13.0830633668
 31
0.0
  0
LINE
  5
1D9
330
1F
100
AcDbEntity
  8
0
  6
Continuous
 62
     7
370
    30
100
AcDbLine
 10
224.4682120248
 20
17.0830635568
 30
0.0
 11
308.9682137683
 21
17.0830635568
 31
0.0
  0
LINE
  5
1DA
330
1F
100
AcDbEntity
  8
0
  6
Continuous
 62
     7
370
    30
100
AcDbLine
 10
212.4682119205
 20
29.0830636611
 30
0.0
 11
212.4682119205
 21
25.0830639368
 31
0.0
  0
LINE
  5
1DB
330
1F
100
AcDbEntity
  8
0
  6
Continuous
 62
     7
370
    30
100
AcDbLine
 10
208.4682117305
 20
25.0830639368
 30
0.0
 11
208.4682117305
 21
29.0830636611
 31
0.0
  0
LINE
  5
1DC
330
1F
100
AcDbEntity
  8
0
  6
Continuous
 62
     7
370
    30
100
AcDbLine
 10
224.4682120248
 20
13.0830633668
 30
0.0
 11
220.4682123005
 21
13.0830633668
 31
0.0
  0
LINE
  5
1DD
330
1F
100
AcDbEntity
  8
0
  6
Continuous
 62
     7
370
    30
100
AcDbLine
 10
220.4682123005
 20
17.0830635568
 30
0.0
 11
224.4682120248
 21
17.0830635568
 31
0.0
  0
LINE
  5
1DE
330
1F
100
AcDbEntity
  8
0
  6
Continuous
 62
     7
370
    30
100
AcDbLine
 10
212.4682119205
 20
25.0830639368
 30
0.0
 11
212.4682119205
 21
21.0830637468
 31
0.0
  0
LINE
  5
1DF
330
1F
100
AcDbEntity
  8
0
  6
Continuous
 62
     7
370
    30
100
AcDbLine
 10
208.4682117305
 20
25.0830639368
 30
0.0
 11
208.4682117305
 21
21.0830637468
 31
0.0
  0
ARC
  5
1E0
330
1F
100
AcDbEntity
  8
0
  6
Continuous
 62
     7
370
    30
100
AcDbCircle
 10
216.4682119205
 20
21.0830635568
 30
0.0
 40
4.000000000000028
100
AcDbArc
 50
180.0
 51
270.0
  0
ARC
  5
1E1
330
1F
100
AcDbEntity
  8
0
  6
Continuous
 62
     7
370
    30
100
AcDbCircle
 10
216.4682119205
 20
21.0830635568
 30
0.0
 40
8.000000000000028
100
AcDbArc
 50
180.0
 51
270.0
  0
LINE
  5
1E2
330
1F
100
AcDbEntity
  8
0
  6
Continuous
 62
     7
370
    30
100
AcDbLine
 10
216.4682121105
 20
13.0830633668
 30
0.0
 11
220.4682123005
 21
13.0830633668
 31
0.0
  0
LINE
  5
1E3
330
1F
100
AcDbEntity
  8
0
  6
Continuous
 62
     7
370
    30
100
AcDbLine
 10
216.4682121105
 20
17.0830635568
 30
0.0
 11
220.4682123005
 21
17.0830635568
 31
0.0
  0
LINE
  5
1E4
330
1F
100
AcDbEntity
  8
0
  6
Continuous
 62
     8
370
     0
100
AcDbLine
 10
239.7182112649
 20
158.0830661794
 30
0.0
 11
239.7182112649
 21
160.0830702325
 31
0.0
  0
LINE
  5
1E5
330
1F
100
AcDbEntity
  8
0
  6
Continuous
 62
     8
370
     0
100
AcDbLine
 10
297.7182095959
 20
158.0830661794
 30
0.0
 11
297.7182095959
 21
160.0830702325
 31
0.0
  0
LINE
  5
1E6
330
1F
100
AcDbEntity
  8
0
  6
Continuous
 62
     8
370
     0
100
AcDbLine
 10
234.718212308
 20
154.0368048689
 30
0.0
 11
231.9599477663
 21
154.0368048689
 31
0.0
  0
LINE
  5
1E7
330
1F
100
AcDbEntity
  8
0
  6
Continuous
 62
     8
370
     0
100
AcDbLine
 10
233.718212144
 20
156.4242242118
 30
0.0
 11
234.718212308
 21
156.4242242118
 31
0.0
  0
LINE
  5
1E8
330
1F
100
AcDbEntity
  8
0
  6
Continuous
 62
     8
370
     0
100
AcDbLine
 10
234.718212308
 20
154.0368048689
 30
0.0
 11
234.718212308
 21
156.4242242118
 31
0.0
  0
LINE
  5
1E9
330
1F
100
AcDbEntity
  8
0
  6
Continuous
 62
     8
370
     0
100
AcDbLine
 10
234.718212308
 20
153.418004348
 30
0.0
 11
234.718212308
 21
154.0368048689
 31
0.0
  0
LINE
  5
1EA
330
1F
100
AcDbEntity
  8
0
  6
Continuous
 62
     8
370
     0
100
AcDbLine
 10
234.718212308
 20
156.4242242118
 30
0.0
 11
234.718212308
 21
156.5830705902
 31
0.0
  0
LINE
  5
1EB
330
1F
100
AcDbEntity
  8
0
  6
Continuous
 62
     8
370
     0
100
AcDbLine
 10
302.7182122782
 20
153.418004348
 30
0.0
 11
302.7182122782
 21
154.0368048689
 31
0.0
  0
LINE
  5
1EC
330
1F
100
AcDbEntity
  8
0
  6
Continuous
 62
     8
370
     0
100
AcDbLine
 10
305.4764768198
 20
154.0368048689
 30
0.0
 11
302.7182122782
 21
154.0368048689
 31
0.0
  0
LINE
  5
1ED
330
1F
100
AcDbEntity
  8
0
  6
Continuous
 62
     8
370
     0
100
AcDbLine
 10
302.7182122782
 20
156.4242242118
 30
0.0
 11
303.7182143047
 21
156.4242242118
 31
0.0
  0
LINE
  5
1EE
330
1F
100
AcDbEntity
  8
0
  6
Continuous
 62
     8
370
     0
100
AcDbLine
 10
302.7182122782
 20
154.0368048689
 30
0.0
 11
302.7182122782
 21
156.4242242118
 31
0.0
  0
LINE
  5
1EF
330
1F
100
AcDbEntity
  8
0
  6
Continuous
 62
     8
370
     0
100
AcDbLine
 10
302.7182122782
 20
156.4242242118
 30
0.0
 11
302.7182122782
 21
156.5830705902
 31
0.0
  0
LINE
  5
1F0
330
1F
100
AcDbEntity
  8
0
  6
Continuous
 62
     8
370
     0
100
AcDbLine
 10
234.718212308
 20
156.4242242118
 30
0.0
 11
258.9682130232
 21
156.4242242118
 31
0.0
  0
LINE
  5
1F1
330
1F
100
AcDbEntity
  8
0
  6
Continuous
 62
     8
370
     0
100
AcDbLine
 10
278.4682115629
 20
156.4242242118
 30
0.0
 11
302.7182122782
 21
156.4242242118
 31
0.0
  0
LINE
  5
1F2
330
1F
100
AcDbEntity
  8
0
  6
Continuous
 62
     8
370
     0
100
AcDbLine
 10
302.7182122782
 20
154.0368048689
 30
0.0
 11
276.7182117417
 21
154.0368048689
 31
0.0
  0
LINE
  5
1F3
330
1F
100
AcDbEntity
  8
0
  6
Continuous
 62
     8
370
     0
100
AcDbLine
 10
260.7182128444
 20
154.0368048689
 30
0.0
 11
234.718212308
 21
154.0368048689
 31
0.0
  0
SPLINE
  5
1F4
330
1F
100
AcDbEntity
  8
0
  6
Continuous
 62
     8
370
     0
100
AcDbSpline
210
0.0
220
0.0
230
1.0
 70
     8
 71
     3
 72
     9
 73
     5
 74
     0
 42
0.00000001
 43
0.00000001
 40
0.0
 40
0.0
 40
0.0
 40
0.0
 40
0.9999403822664006
 40
1.0
 40
1.0
 40
1.0
 40
1.0
 10
229.0910942569079
 20
151.9980130931475
 30
0.0
 10
229.0298250233081
 20
152.0332983415959
 30
0.0
 10
228.9685521367577
 20
152.0685856937962
 30
0.0
 10
228.8956512475849
 20
152.0685849926033
 30
0.0
 10
228.8956469013991
 20
152.0685849925615
 30
0.0
  0
SPLINE
  5
1F5
330
1F
100
AcDbEntity
  8
0
  6
Continuous
 62
     8
370
     0
100
AcDbSpline
210
0.0
220
0.0
230
1.0
 70
     8
 71
     3
 72
    12
 73
     8
 74
     0
 42
0.00000001
 43
0.00000001
 40
0.0
 40
0.0
 40
0.0
 40
0.0
 40
0.183863119392327
 40
0.3855720804859434
 40
0.5905408809062701
 40
0.7973727162703682
 40
1.0
 40
1.0
 40
1.0
 40
1.0
 10
232.0086466237606
 20
151.9980130931475
 30
0.0
 10
231.7464792675575
 20
152.0136312919379
 30
0.0
 10
231.1966984670313
 20
152.0463835993116
 30
0.0
 10
230.4392656093029
 20
152.0639923478687
 30
0.0
 10
229.7908711160763
 20
152.0648995162751
 30
0.0
 10
229.3071957110226
 20
152.0492515505668
 30
0.0
 10
229.1626332593352
 20
152.0149752563347
 30
0.0
 10
229.0910942569079
 20
151.9980130931475
 30
0.0
  0
SPLINE
  5
1F6
330
1F
100
AcDbEntity
  8
0
  6
Continuous
 62
     8
370
     0
100
AcDbSpline
210
0.0
220
0.0
230
1.0
 70
     8
 71
     3
 72
     9
 73
     5
 74
     0
 42
0.00000001
 43
0.00000001
 40
0.0
 40
0.0
 40
0.0
 40
0.0
 40
0.0000554179499474
 40
1.0
 40
1.0
 40
1.0
 40
1.0
 10
232.9484162941279
 20
152.0685849925615
 30
0.0
 10
232.9483989094391
 20
152.0685849925977
 30
0.0
 10
232.6346975047507
 20
152.0685856443539
 30
0.0
 10
232.3216633904013
 20
152.0332983909771
 30
0.0
 10
232.0086466237606
 20
151.9980130931475
 30
0.0
  0
LINE
  5
1F7
330
1F
100
AcDbEntity
  8
0
  6
Continuous
 62
     8
370
     0
100
AcDbLine
 10
304.488008292
 20
152.0685849926
 30
0.0
 11
276.7182117417
 21
152.0685849926
 31
0.0
  0
LINE
  5
1F8
330
1F
100
AcDbEntity
  8
0
  6
Continuous
 62
     8
370
     0
100
AcDbLine
 10
260.7182128444
 20
152.0685849926
 30
0.0
 11
232.9484162941
 21
152.0685849926
 31
0.0
  0
SPLINE
  5
1F9
330
1F
100
AcDbEntity
  8
0
  6
Continuous
 62
     8
370
     0
100
AcDbSpline
210
0.0
220
0.0
230
1.0
 70
     8
 71
     3
 72
     9
 73
     5
 74
     0
 42
0.00000001
 43
0.00000001
 40
0.0
 40
0.0
 40
0.0
 40
0.0
 40
0.9999445821547721
 40
0.9999999999999999
 40
0.9999999999999999
 40
0.9999999999999999
 40
0.9999999999999999
 10
305.4277798250021
 20
151.9980130931475
 30
0.0
 10
305.1147624234384
 20
152.0332983911138
 30
0.0
 10
304.8017276741633
 20
152.0685856446235
 30
0.0
 10
304.4880256766784
 20
152.0685849925976
 30
0.0
 10
304.4880082919897
 20
152.0685849925615
 30
0.0
  0
SPLINE
  5
1FA
330
1F
100
AcDbEntity
  8
0
  6
Continuous
 62
     8
370
     0
100
AcDbSpline
210
0.0
220
0.0
230
1.0
 70
     8
 71
     3
 72
    12
 73
     8
 74
     0
 42
0.00000001
 43
0.00000001
 40
0.0
 40
0.0
 40
0.0
 40
0.0
 40
0.1838629073592917
 40
0.3855722641051065
 40
0.5905407879158965
 40
0.7973733765374537
 40
0.9999999999999999
 40
0.9999999999999999
 40
0.9999999999999999
 40
0.9999999999999999
 10
308.3453303292097
 20
151.9980130931475
 30
0.0
 10
308.2820928797833
 20
152.0136312946203
 30
0.0
 10
308.1494799079676
 20
152.046383660987
 30
0.0
 10
307.7057304331794
 20
152.0639923284456
 30
0.0
 10
307.0761718945785
 20
152.0648994734196
 30
0.0
 10
306.3001448640122
 20
152.0492516905983
 30
0.0
 10
305.7165700109791
 20
152.0149752631398
 30
0.0
 10
305.4277798250021
 20
151.9980130931475
 30
0.0
  0
SPLINE
  5
1FB
330
1F
100
AcDbEntity
  8
0
  6
Continuous
 62
     8
370
     0
100
AcDbSpline
210
0.0
220
0.0
230
1.0
 70
     8
 71
     3
 72
     9
 73
     5
 74
     0
 42
0.00000001
 43
0.00000001
 40
0.0
 40
0.0
 40
0.0
 40
0.0
 40
0.00005857204349
 40
1.0
 40
1.0
 40
1.0
 40
1.0
 10
308.5407739594282
 20
152.0685849925615
 30
0.0
 10
308.5407714759404
 20
152.0685849926019
 30
0.0
 10
308.4983709092232
 20
152.0685856818692
 30
0.0
 10
308.421848378176
 20
152.0332983540829
 30
0.0
 10
308.3453303292097
 20
151.9980130931475
 30
0.0
  0
LWPOLYLINE
  5
1FC
330
1F
100
AcDbEntity
  8
0
  6
Continuous
 62
     8
370
     0
100
AcDbPolyline
 90
        2
 70
   128
 43
0.0
 10
308.5407739594
 20
152.0685849926
 10
308.5407739594
 20
152.0685849926
  0
SPLINE
  5
1FD
330
1F
100
AcDbEntity
  8
0
  6
Continuous
 62
     8
370
     0
100
AcDbSpline
210
0.0
220
0.0
230
1.0
 70
     8
 71
     3
 72
    18
 73
    14
 74
     0
 42
0.00000001
 43
0.00000001
 40
0.0
 40
0.0
 40
0.0
 40
0.0
 40
0.0000085200309937
 40
0.1700463543513685
 40
0.2896697220702887
 40
0.4093295387550336
 40
0.532434889170461
 40
0.6555365345438858
 40
0.7662773356781091
 40
0.8770031691470186
 40
0.8982605319392923
 40
0.999991496561098
 40
1.0
 40
1.0
 40
1.0
 40
1.0
 10
301.2712350204291
 20
149.0895150443652
 30
0.0
 10
301.2712548886391
 20
149.0895150443475
 30
0.0
 10
301.6677929644803
 20
149.0895146916564
 30
0.0
 10
302.3530894663042
 20
149.1254791766627
 30
0.0
 10
303.2558834158138
 20
149.1261576990377
 30
0.0
 10
303.9858961602621
 20
149.1282896048889
 30
0.0
 10
304.6199871594358
 20
149.1275990268074
 30
0.0
 10
305.1199444225151
 20
149.1285003631673
 30
0.0
 10
305.4675237373534
 20
149.1256184831221
 30
0.0
 10
305.6153285946608
 20
149.1180461060294
 30
0.0
 10
305.6984731929355
 20
149.1092411746356
 30
0.0
 10
305.7009852228487
 20
149.0895145897857
 30
0.0
 10
305.7009851649156
 20
149.0895150443271
 30
0.0
 10
305.7009851649107
 20
149.0895150443651
 30
0.0
  0
SPLINE
  5
1FE
330
1F
100
AcDbEntity
  8
0
  6
Continuous
 62
     8
370
     0
100
AcDbSpline
210
0.0
220
0.0
230
1.0
 70
     8
 71
     3
 72
     9
 73
     5
 74
     0
 42
0.00000001
 43
0.00000001
 40
0.0
 40
0.0
 40
0.0
 40
0.0
 40
0.9999102527445326
 40
1.0
 40
1.0
 40
1.0
 40
1.0
 10
300.6856268360914
 20
149.1189746400454
 30
0.0
 10
300.8815598848248
 20
149.1042452828796
 30
0.0
 10
301.0775105195897
 20
149.0895146036758
 30
0.0
 10
301.2712176357471
 20
149.0895150443255
 30
0.0
 10
301.2712350204291
 20
149.0895150443651
 30
0.0
  0
LINE
  5
1FF
330
1F
100
AcDbEntity
  8
0
  6
Continuous
 62
     8
370
     0
100
AcDbLine
 10
236.7507940247
 20
149.11897464
 30
0.0
 11
260.7182128444
 21
149.11897464
 31
0.0
  0
LINE
  5
200
330
1F
100
AcDbEntity
  8
0
  6
Continuous
 62
     8
370
     0
100
AcDbLine
 10
276.7182117417
 20
149.11897464
 30
0.0
 11
300.6856268361
 21
149.11897464
 31
0.0
  0
SPLINE
  5
201
330
1F
100
AcDbEntity
  8
0
  6
Continuous
 62
     8
370
     0
100
AcDbSpline
210
0.0
220
0.0
230
1.0
 70
     8
 71
     3
 72
     9
 73
     5
 74
     0
 42
0.00000001
 43
0.00000001
 40
0.0
 40
0.0
 40
0.0
 40
0.0
 40
0.0001023276234703
 40
1.0
 40
1.0
 40
1.0
 40
1.0
 10
236.1651858403982
 20
149.0895150443651
 30
0.0
 10
236.1652057086077
 20
149.0895150443137
 30
0.0
 10
236.3593684264129
 20
149.0895145418187
 30
0.0
 10
236.5550912394995
 20
149.1042453446161
 30
0.0
 10
236.7507940247359
 20
149.1189746400454
 30
0.0
  0
SPLINE
  5
202
330
1F
100
AcDbEntity
  8
0
  6
Continuous
 62
     8
370
     0
100
AcDbSpline
210
0.0
220
0.0
230
1.0
 70
     8
 71
     3
 72
    18
 73
    14
 74
     0
 42
0.00000001
 43
0.00000001
 40
0.0
 40
0.0
 40
0.0
 40
0.0
 40
0.0000085200339251
 40
0.1700464128574872
 40
0.2896698217340023
 40
0.4093290872762083
 40
0.5324350516808182
 40
0.6555367394085735
 40
0.766277818591657
 40
0.8770032959404465
 40
0.8982607456711167
 40
0.999991479966075
 40
1.0
 40
1.0
 40
1.0
 40
1.0
 10
231.735441283852
 20
149.0895150443651
 30
0.0
 10
231.7354400420273
 20
149.0895150443475
 30
0.0
 10
231.7106551825962
 20
149.089514691841
 30
0.0
 10
231.7932474867245
 20
149.1254791775888
 30
0.0
 10
232.1206352442647
 20
149.1261576957029
 30
0.0
 10
232.5613035904782
 20
149.1282896089957
 30
0.0
 10
233.1424474253031
 20
149.127599028133
 30
0.0
 10
233.8169175186371
 20
149.1285003513904
 30
0.0
 10
234.5479261196365
 20
149.125618522789
 30
0.0
 10
235.0990875649415
 20
149.1180460605991
 30
0.0
 10
235.638826706292
 20
149.1092412178891
 30
0.0
 10
235.9279161040652
 20
149.08951458867
 30
0.0
 10
236.1651659721877
 20
149.089515044327
 30
0.0
 10
236.1651858403982
 20
149.0895150443651
 30
0.0
  0
LWPOLYLINE
  5
203
330
1F
100
AcDbEntity
  8
0
  6
Continuous
 62
     8
370
     0
100
AcDbPolyline
 90
        2
 70
   128
 43
0.0
 10
228.8956469014
 20
152.0685849926
 10
228.8956469014
 20
152.0685849926
  0
ARC
  5
204
330
1F
100
AcDbEntity
  8
0
  6
Continuous
 62
     8
370
     0
100
AcDbCircle
 10
307.170068953
 20
153.5283630979
 30
0.0
 40
1.929562240396625
100
AcDbArc
 50
307.5231457016
 51
355.3551499965
  0
ARC
  5
205
330
1F
100
AcDbEntity
  8
0
  6
Continuous
 62
     8
370
     0
100
AcDbCircle
 10
230.2663395067
 20
153.5283569268
 30
0.0
 40
1.929547523749156
100
AcDbArc
 50
184.6447016591
 51
232.4771224716
  0
LINE
  5
206
330
1F
100
AcDbEntity
  8
0
  6
Continuous
 62
     8
370
     0
100
AcDbLine
 10
266.6214382365
 20
25.1830637669
 30
0.0
 11
266.6214382365
 21
25.0830639368
 31
0.0
  0
LINE
  5
207
330
1F
100
AcDbEntity
  8
0
  6
Continuous
 62
     8
370
     0
100
AcDbLine
 10
266.7217416778
 20
25.1830637669
 30
0.0
 11
266.7217416778
 21
25.0830639368
 31
0.0
  0
ARC
  5
208
330
1F
100
AcDbEntity
  8
0
  6
Continuous
 62
     8
370
     0
100
AcDbCircle
 10
239.8381507113
 20
68.4759937003
 30
0.0
 40
22.52861976708742
100
AcDbArc
 50
264.2760268211
 51
275.7239731789
  0
ELLIPSE
  5
209
330
1F
100
AcDbEntity
  8
0
  6
Continuous
 62
     8
370
     0
100
AcDbEllipse
 10
247.5775288674
 20
46.5830635568
 30
0.0
 11
0.0
 21
10.00000000000001
 31
0.0
210
0.0
220
0.0
230
1.0
 40
0.55
 41
1.623156204354727
 42
3.141592653589793
  0
LINE
  5
20A
330
1F
100
AcDbEntity
  8
0
  6
Continuous
 62
     8
370
     0
100
AcDbLine
 10
242.0850670054
 20
46.0597032895
 30
0.0
 11
251.1239474728
 21
46.0597032895
 31
0.0
  0
LINE
  5
20B
330
1F
100
AcDbEntity
  8
0
  6
Continuous
 62
     8
370
     0
100
AcDbLine
 10
286.312473388
 20
46.0597032895
 30
0.0
 11
295.3513538554
 21
46.0597032895
 31
0.0
  0
ELLIPSE
  5
20C
330
1F
100
AcDbEntity
  8
0
  6
Continuous
 62
     8
370
     0
100
AcDbEllipse
 10
289.8588949737
 20
46.5830635568
 30
0.0
 11
0.0
 21
10.00000000000001
 31
0.0
210
0.0
220
0.0
230
1.0
 40
0.55
 41
3.141592653589793
 42
4.660029102824864
  0
ARC
  5
20D
330
1F
100
AcDbEntity
  8
0
  6
Continuous
 62
     8
370
     0
100
AcDbCircle
 10
297.5982738748
 20
66.715277108
 30
0.0
 40
20.7774247524236
100
AcDbArc
 50
263.7917574325
 51
276.2082425675
  0
SPLINE
  5
20E
330
1F
100
AcDbEntity
  8
0
  6
Continuous
 62
     8
370
     0
100
AcDbSpline
210
0.0
220
0.0
230
1.0
 70
     8
 71
     3
 72
    17
 73
    13
 74
     0
 42
0.00000001
 43
0.00000001
 40
0.0
 40
0.0
 40
0.0
 40
0.0
 40
0.074084392823868
 40
0.1495955496799291
 40
0.2554262698895441
 40
0.3643568323505493
 40
0.470140553557265
 40
0.5790007212382003
 40
0.6826133105231522
 40
0.7891086230902586
 40
0.8931109832059696
 40
1.0
 40
1.0
 40
1.0
 40
1.0
 10
236.7507940247359
 20
147.8436885615923
 30
0.0
 10
236.5767425829436
 20
147.8341714609586
 30
0.0
 10
236.2252877067539
 20
147.8149539733558
 30
0.0
 10
235.6377693310533
 20
147.7407531680193
 30
0.0
 10
234.9887647058442
 20
147.6936813973163
 30
0.0
 10
234.3210563941425
 20
147.6609410684905
 30
0.0
 10
233.7159270059913
 20
147.6445161337021
 30
0.0
 10
233.2050114203847
 20
147.6499887612323
 30
0.0
 10
232.7907762542062
 20
147.6731920279644
 30
0.0
 10
232.4918536627234
 20
147.7113309516376
 30
0.0
 10
232.2962338807639
 20
147.7870912547664
 30
0.0
 10
232.2701711657535
 20
147.8246514195921
 30
0.0
 10
232.2569614365401
 20
147.8436885615923
 30
0.0
  0
LINE
  5
20F
330
1F
100
AcDbEntity
  8
0
  6
Continuous
 62
     8
370
     0
100
AcDbLine
 10
236.7507940247
 20
147.8436885616
 30
0.0
 11
238.4415021255
 21
115.5830620071
 31
0.0
  0
LINE
  5
210
330
1F
100
AcDbEntity
  8
0
  6
Continuous
 62
     8
370
     0
100
AcDbLine
 10
241.5277356371
 20
56.6942094108
 30
0.0
 11
242.0850670054
 21
46.0597032895
 31
0.0
  0
LINE
  5
211
330
1F
100
AcDbEntity
  8
0
  6
Continuous
 62
     8
370
     0
100
AcDbLine
 10
295.3513538554
 20
46.0597032895
 30
0.0
 11
295.9086870864
 21
56.6942094108
 31
0.0
  0
LINE
  5
212
330
1F
100
AcDbEntity
  8
0
  6
Continuous
 62
     8
370
     0
100
AcDbLine
 10
298.9949187353
 20
115.5830620071
 30
0.0
 11
300.6856268361
 21
147.8436885616
 31
0.0
  0
SPLINE
  5
213
330
1F
100
AcDbEntity
  8
0
  6
Continuous
 62
     8
370
     0
100
AcDbSpline
210
0.0
220
0.0
230
1.0
 70
     8
 71
     3
 72
    17
 73
    13
 74
     0
 42
0.00000001
 43
0.00000001
 40
0.0
 40
0.0
 40
0.0
 40
0.0
 40
0.0740843773163087
 40
0.149595518366156
 40
0.2554264661992671
 40
0.3643567729775128
 40
0.4701408903336208
 40
0.5790008557259045
 40
0.6826138643988257
 40
0.7891085656530469
 40
0.8931105275857824
 40
1.0
 40
1.0
 40
1.0
 40
1.0
 10
305.1794594242872
 20
147.8436885615923
 30
0.0
 10
305.1730659671667
 20
147.8341714630872
 30
0.0
 10
305.1601559236901
 20
147.8149539797826
 30
0.0
 10
305.0476683073667
 20
147.7407530647678
 30
0.0
 10
304.8326576538445
 20
147.6936815431159
 30
0.0
 10
304.4766077874149
 20
147.6609409600429
 30
0.0
 10
304.0103225481905
 20
147.6445161562192
 30
0.0
 10
303.4587778928934
 20
147.6499888329687
 30
0.0
 10
302.8299619463695
 20
147.6731918409733
 30
0.0
 10
302.1527250408978
 20
147.7113310045322
 30
0.0
 10
301.4313262766328
 20
147.7870915653553
 30
0.0
 10
300.9364519111138
 20
147.8246514736512
 30
0.0
 10
300.6856268360914
 20
147.8436885615923
 30
0.0
  0
LINE
  5
214
330
1F
100
AcDbEntity
  8
0
  6
Continuous
 62
     8
370
     0
100
AcDbLine
 10
300.6856268361
 20
147.8436885616
 30
0.0
 11
277.2440290168
 21
147.8436885616
 31
0.0
  0
LINE
  5
215
330
1F
100
AcDbEntity
  8
0
  6
Continuous
 62
     8
370
     0
100
AcDbLine
 10
260.1923918441
 20
147.8436885616
 30
0.0
 11
236.7507940247
 21
147.8436885616
 31
0.0
  0
LINE
  5
216
330
1F
100
AcDbEntity
  8
0
  6
Continuous
 62
     8
370
     0
100
AcDbLine
 10
236.7507940247
 20
149.11897464
 30
0.0
 11
236.7507940247
 21
147.8436885616
 31
0.0
  0
LINE
  5
217
330
1F
100
AcDbEntity
  8
0
  6
Continuous
 62
     8
370
     0
100
AcDbLine
 10
300.6856268361
 20
147.8436885616
 30
0.0
 11
300.6856268361
 21
149.11897464
 31
0.0
  0
ARC
  5
218
330
1F
100
AcDbEntity
  8
0
  6
Continuous
 62
     8
370
     0
100
AcDbCircle
 10
158.8305158765
 20
169.8791816158
 30
0.0
 40
75.33110252349366
100
AcDbArc
 50
346.268769788
 51
347.3422417211
  0
SPLINE
  5
219
330
1F
100
AcDbEntity
  8
0
  6
Continuous
 62
     8
370
     0
100
AcDbSpline
210
0.0
220
0.0
230
1.0
 70
     8
 71
     3
 72
    12
 73
     8
 74
     0
 42
0.00000001
 43
0.00000001
 40
0.0
 40
0.0
 40
0.0
 40
0.0
 40
0.0607502412461421
 40
0.1221426559083584
 40
0.1835598410082885
 40
0.5002794272710812
 40
1.0
 40
1.0
 40
1.0
 40
1.0
 10
232.3307985529007
 20
153.3721087714769
 30
0.0
 10
232.9014851020367
 20
153.2885193593669
 30
0.0
 10
234.0488907645132
 20
153.1204569353912
 30
0.0
 10
235.7895764276697
 20
153.2379334378006
 30
0.0
 10
239.9451145754207
 20
153.3774007126499
 30
0.0
 10
248.2607100097673
 20
153.2381157369022
 30
0.0
 10
255.9883418634029
 20
153.2713194321361
 30
0.0
 10
260.7182128444018
 20
153.2916425010302
 30
0.0
  0
SPLINE
  5
21A
330
1F
100
AcDbEntity
  8
0
  6
Continuous
 62
     8
370
     0
100
AcDbSpline
210
0.0
220
0.0
230
1.0
 70
     8
 71
     3
 72
    14
 73
    10
 74
     0
 42
0.00000001
 43
0.00000001
 40
0.0
 40
0.0
 40
0.0
 40
0.0
 40
0.2036313302727001
 40
0.6012528648001731
 40
0.6811290373486087
 40
0.7614253398870403
 40
0.8414868670818464
 40
0.9208826579474044
 40
0.9999999999999999
 40
0.9999999999999999
 40
0.9999999999999999
 40
0.9999999999999999
 10
276.7182117417158
 20
153.2916425010302
 30
0.0
 10
278.6472204116249
 20
153.2879589988921
 30
0.0
 10
284.3429156047664
 20
153.2770828915169
 30
0.0
 10
290.7958344847776
 20
153.373900789568
 30
0.0
 10
296.0792070270617
 20
153.238525343338
 30
0.0
 10
298.3495724416748
 20
153.0720901947261
 30
0.0
 10
300.6173134001897
 20
152.9663937288682
 30
0.0
 10
302.8845912931302
 20
152.9847453329494
 30
0.0
 10
304.3661473930405
 20
153.2431389258861
 30
0.0
 10
305.1056241705717
 20
153.3721087714769
 30
0.0
  0
ARC
  5
21B
330
1F
100
AcDbEntity
  8
0
  6
Continuous
 62
     8
370
     0
100
AcDbCircle
 10
378.5577645344
 20
169.8680930805
 30
0.0
 40
75.28170044805408
100
AcDbArc
 50
192.6575529636
 51
193.7317300085
  0
LINE
  5
21C
330
1F
100
AcDbEntity
  8
0
  6
Continuous
 62
     8
370
     0
100
AcDbLine
 10
305.7580193594
 20
161.6615204355
 30
0.0
 11
278.7182083443
 21
161.6615204355
 31
0.0
  0
LINE
  5
21D
330
1F
100
AcDbEntity
  8
0
  6
Continuous
 62
     8
370
     0
100
AcDbLine
 10
258.7182125166
 20
161.6615204355
 30
0.0
 11
231.678408952
 21
161.6615204355
 31
0.0
  0
LINE
  5
21E
330
1F
100
AcDbEntity
  8
0
  6
Continuous
 62
     8
370
     0
100
AcDbLine
 10
305.1056241706
 20
153.3721087715
 30
0.0
 11
305.1092377022
 21
153.418004348
 31
0.0
  0
LINE
  5
21F
330
1F
100
AcDbEntity
  8
0
  6
Continuous
 62
     8
370
     0
100
AcDbLine
 10
305.691284509
 20
160.8135698578
 30
0.0
 11
305.7580193594
 21
161.6615204355
 31
0.0
  0
LINE
  5
220
330
1F
100
AcDbEntity
  8
0
  6
Continuous
 62
     8
370
     0
100
AcDbLine
 10
231.678408952
 20
161.6615204355
 30
0.0
 11
231.7451419398
 21
160.8135698578
 31
0.0
  0
LINE
  5
221
330
1F
100
AcDbEntity
  8
0
  6
Continuous
 62
     8
370
     0
100
AcDbLine
 10
232.327186884
 20
153.418004348
 30
0.0
 11
232.3307985529
 21
153.3721087715
 31
0.0
  0
ELLIPSE
  5
222
330
1F
100
AcDbEntity
  8
0
  6
Continuous
 62
     8
370
     0
100
AcDbEllipse
 10
231.7092824213
 20
161.5830635568
 30
0.0
 11
4.018548056375636
 21
-0.07860757890460945
 31
0.0
210
0.0
220
0.0
230
0.9999999999999999
 40
0.019367171
 41
1.57885820167475
 42
3.143498659889095
  0
SPLINE
  5
223
330
1F
100
AcDbEntity
  8
0
  6
Continuous
 62
     8
370
     0
100
AcDbSpline
210
0.0
220
0.0
230
1.0
 70
     8
 71
     3
 72
    10
 73
     6
 74
     0
 42
0.00000001
 43
0.00000001
 40
0.0
 40
0.0
 40
0.0
 40
0.0
 40
0.3447958146417836
 40
0.6955925286707917
 40
1.0
 40
1.0
 40
1.0
 40
1.0
 10
228.3431286081375
 20
153.3721087714769
 30
0.0
 10
228.381163762015
 20
153.3979879442888
 30
0.0
 10
228.4578960416441
 20
153.4501966965175
 30
0.0
 10
229.0370347636755
 20
153.4721419699074
 30
0.0
 10
229.6536651420907
 20
153.468355995872
 30
0.0
 10
229.9401512458624
 20
153.4665970346071
 30
0.0
  0
LINE
  5
224
330
1F
100
AcDbEntity
  8
0
  6
Continuous
 62
     8
370
     0
100
AcDbLine
 10
231.515986295
 20
153.418004348
 30
0.0
 11
232.3307985529
 21
153.3721087715
 31
0.0
  0
LINE
  5
225
330
1F
100
AcDbEntity
  8
0
  6
Continuous
 62
     8
370
     0
100
AcDbLine
 10
305.1056241706
 20
153.3721087715
 30
0.0
 11
305.9448799208
 21
153.418004348
 31
0.0
  0
SPLINE
  5
226
330
1F
100
AcDbEntity
  8
0
  6
Continuous
 62
     8
370
     0
100
AcDbSpline
210
0.0
220
0.0
230
1.0
 70
     8
 71
     3
 72
    11
 73
     7
 74
     0
 42
0.00000001
 43
0.00000001
 40
0.0
 40
0.0
 40
0.0
 40
0.0
 40
0.0031909661449017
 40
0.347709678937105
 40
0.6885738014511845
 40
0.9999999999999999
 40
0.9999999999999999
 40
0.9999999999999999
 40
0.9999999999999999
 10
307.4969029143156
 20
153.4676997205355
 30
0.0
 10
307.5004027169648
 20
153.4677845523205
 30
0.0
 10
307.8817653514211
 20
153.4770284086918
 30
0.0
 10
308.4255824465403
 20
153.4676909593223
 30
0.0
 10
309.0037840720519
 20
153.4471330600938
 30
0.0
 10
309.0643688329055
 20
153.3963529641699
 30
0.0
 10
309.0932941153349
 20
153.3721087714769
 30
0.0
  0
ELLIPSE
  5
227
330
1F
100
AcDbEntity
  8
0
  6
Continuous
 62
     8
370
     0
100
AcDbEllipse
 10
305.7271414198
 20
161.5830635568
 30
0.0
 11
4.01854805637555
 21
0.07860757890458102
 31
0.0
210
0.0
220
0.0
230
1.0
 40
0.019367171
 41
6.281279300882077
 42
7.845919759094622
  0
LINE
  5
228
330
1F
100
AcDbEntity
  8
0
  6
Continuous
 62
     8
370
     0
100
AcDbLine
 10
231.678408952
 20
161.6615204355
 30
0.0
 11
231.678408952
 21
162.5830678484
 31
0.0
  0
LINE
  5
229
330
1F
100
AcDbEntity
  8
0
  6
Continuous
 62
     8
370
     0
100
AcDbLine
 10
305.7580193594
 20
161.6615204355
 30
0.0
 11
305.7580193594
 21
162.5830678484
 31
0.0
  0
SPLINE
  5
22A
330
1F
100
AcDbEntity
  8
0
  6
Continuous
 62
     8
370
     0
100
AcDbSpline
210
0.0
220
0.0
230
1.0
 70
     8
 71
     3
 72
    10
 73
     6
 74
     0
 42
0.00000001
 43
0.00000001
 40
0.0
 40
0.0
 40
0.0
 40
0.0
 40
0.2973152979773044
 40
0.6187372995658926
 40
1.0
 40
1.0
 40
1.0
 40
1.0
 10
225.7704421966972
 20
121.9357324978449
 30
0.0
 10
225.6183847864542
 20
121.932885214042
 30
0.0
 10
225.3019409571833
 20
121.9269597850333
 30
0.0
 10
225.0074682421035
 20
121.9117230890327
 30
0.0
 10
224.9820198802367
 20
121.8992400333106
 30
0.0
 10
224.9682121067943
 20
121.8924669763186
 30
0.0
  0
SPLINE
  5
22B
330
1F
100
AcDbEntity
  8
0
  6
Continuous
 62
     8
370
     0
100
AcDbSpline
210
0.0
220
0.0
230
1.0
 70
     8
 71
     3
 72
    12
 73
     8
 74
     0
 42
0.00000001
 43
0.00000001
 40
0.0
 40
0.0
 40
0.0
 40
0.0
 40
0.0000137573644951
 40
0.2917924605977447
 40
0.5938970126119358
 40
0.8960137008285542
 40
1.0
 40
1.0
 40
1.0
 40
1.0
 10
223.9682119428815
 20
123.6267907759287
 30
0.0
 10
223.9682119428564
 20
123.6267907759457
 30
0.0
 10
223.968211409682
 20
123.6267911367851
 30
0.0
 10
224.0372617686757
 20
123.5800703072863
 30
0.0
 10
224.3674764463835
 20
123.5581865258713
 30
0.0
 10
224.7586136947566
 20
123.5372866395889
 30
0.0
 10
225.0849851080073
 20
123.531936482942
 30
0.0
 10
225.1685554250778
 20
123.5305665275194
 30
0.0
  0
SPLINE
  5
22C
330
1F
100
AcDbEntity
  8
0
  6
Continuous
 62
     8
370
     0
100
AcDbSpline
210
0.0
220
0.0
230
1.0
 70
     8
 71
     3
 72
    10
 73
     6
 74
     0
 42
0.00000001
 43
0.00000001
 40
0.0
 40
0.0
 40
0.0
 40
0.0
 40
0.2467547113126347
 40
0.6056633691539323
 40
1.0
 40
1.0
 40
1.0
 40
1.0
 10
312.2678523972334
 20
123.530261053715
 30
0.0
 10
312.403256913823
 20
123.5330894552381
 30
0.0
 10
312.7356094564758
 20
123.5400318118265
 30
0.0
 10
313.1277470207293
 20
123.5598048092002
 30
0.0
 10
313.2884933969497
 20
123.5796778781033
 30
0.0
 10
313.3726468398871
 20
123.5900817653277
 30
0.0
  0
SPLINE
  5
22D
330
1F
100
AcDbEntity
  8
0
  6
Continuous
 62
     8
370
     0
100
AcDbSpline
210
0.0
220
0.0
230
1.0
 70
     8
 71
     3
 72
    10
 73
     6
 74
     0
 42
0.00000001
 43
0.00000001
 40
0.0
 40
0.0
 40
0.0
 40
0.0
 40
0.6112401045632622
 40
0.9999508459099788
 40
1.0
 40
1.0
 40
1.0
 40
1.0
 10
313.3726468398871
 20
123.5900817653277
 30
0.0
 10
313.4049699628234
 20
123.5956760710697
 30
0.0
 10
313.4578485843033
 20
123.6048280077918
 30
0.0
 10
313.4682156070695
 20
123.6267911358593
 30
0.0
 10
313.4682154372253
 20
123.6267907759742
 30
0.0
 10
313.4682154372038
 20
123.6267907759287
 30
0.0
  0
SPLINE
  5
22E
330
1F
100
AcDbEntity
  8
0
  6
Continuous
 62
     8
370
     0
100
AcDbSpline
210
0.0
220
0.0
230
1.0
 70
     8
 71
     3
 72
    10
 73
     6
 74
     0
 42
0.00000001
 43
0.00000001
 40
0.0
 40
0.0
 40
0.0
 40
0.0
 40
0.4761272737174002
 40
0.900419724567806
 40
1.0
 40
1.0
 40
1.0
 40
1.0
 10
312.3808031990828
 20
121.9116149684527
 30
0.0
 10
312.3058570564401
 20
121.9163795810929
 30
0.0
 10
312.1641239761466
 20
121.9253900945375
 30
0.0
 10
311.8948340162482
 20
121.9328673087247
 30
0.0
 10
311.6930608850256
 20
121.9352247746186
 30
0.0
 10
311.6547068670096
 20
121.9356728932001
 30
0.0
  0
SPLINE
  5
22F
330
1F
100
AcDbEntity
  8
0
  6
Continuous
 62
     8
370
     0
100
AcDbSpline
210
0.0
220
0.0
230
1.0
 70
     8
 71
     3
 72
     9
 73
     5
 74
     0
 42
0.00000001
 43
0.00000001
 40
0.0
 40
0.0
 40
0.0
 40
0.0
 40
0.5078073184171648
 40
1.0
 40
1.0
 40
1.0
 40
1.0
 10
312.4682134106459
 20
121.8924669763186
 30
0.0
 10
312.4682338386706
 20
121.8954895441302
 30
0.0
 10
312.4682740665759
 20
121.9014417384014
 30
0.0
 10
312.4096550500288
 20
121.9082593767512
 30
0.0
 10
312.3808031990828
 20
121.9116149684527
 30
0.0
  0
ARC
  5
230
330
1F
100
AcDbEntity
  8
0
  6
Continuous
 62
     8
370
     0
100
AcDbCircle
 10
311.3638049753
 20
123.644866722
 30
0.0
 40
2.009588770990455
100
AcDbArc
 50
300.4025933944
 51
358.437821813
  0
LINE
  5
231
330
1F
100
AcDbEntity
  8
0
  6
Continuous
 62
     8
370
     0
100
AcDbLine
 10
213.9682119336
 20
137.0830608746
 30
0.0
 11
214.4682120155
 21
137.0830608746
 31
0.0
  0
LINE
  5
232
330
1F
100
AcDbEntity
  8
0
  6
Continuous
 62
     8
370
     0
100
AcDbLine
 10
214.4682120155
 20
137.0830608746
 30
0.0
 11
214.4682120155
 21
119.0830616495
 31
0.0
  0
LINE
  5
233
330
1F
100
AcDbEntity
  8
0
  6
Continuous
 62
     8
370
     0
100
AcDbLine
 10
213.9682119336
 20
119.0830616495
 30
0.0
 11
214.4682120155
 21
119.0830616495
 31
0.0
  0
LINE
  5
234
330
1F
100
AcDbEntity
  8
0
  6
Continuous
 62
     8
370
     0
100
AcDbLine
 10
214.4682120155
 20
119.0830616495
 30
0.0
 11
214.4682120155
 21
117.0830650469
 31
0.0
  0
LINE
  5
235
330
1F
100
AcDbEntity
  8
0
  6
Continuous
 62
     8
370
     0
100
AcDbLine
 10
217.4682118088
 20
119.0830616495
 30
0.0
 11
217.4682118088
 21
137.0830608746
 31
0.0
  0
LINE
  5
236
330
1F
100
AcDbEntity
  8
0
  6
Continuous
 62
     8
370
     0
100
AcDbLine
 10
217.4682118088
 20
119.0830616495
 30
0.0
 11
214.4682120155
 21
119.0830616495
 31
0.0
  0
LINE
  5
237
330
1F
100
AcDbEntity
  8
0
  6
Continuous
 62
     8
370
     0
100
AcDbLine
 10
217.4682118088
 20
137.0830608746
 30
0.0
 11
214.4682120155
 21
137.0830608746
 31
0.0
  0
LINE
  5
238
330
1F
100
AcDbEntity
  8
0
  6
Continuous
 62
     8
370
     0
100
AcDbLine
 10
217.4682118088
 20
117.0830650469
 30
0.0
 11
217.4682118088
 21
119.0830616495
 31
0.0
  0
LINE
  5
239
330
1F
100
AcDbEntity
  8
0
  6
Continuous
 62
     8
370
     0
100
AcDbLine
 10
217.4682118088
 20
137.0830608746
 30
0.0
 11
217.9682118907
 21
137.0830608746
 31
0.0
  0
LINE
  5
23A
330
1F
100
AcDbEntity
  8
0
  6
Continuous
 62
     8
370
     0
100
AcDbLine
 10
217.4682118088
 20
119.0830616495
 30
0.0
 11
217.9682118907
 21
119.0830616495
 31
0.0
  0
LINE
  5
23B
330
1F
100
AcDbEntity
  8
0
  6
Continuous
 62
     8
370
     0
100
AcDbLine
 10
217.4682118088
 20
137.0830608746
 30
0.0
 11
217.4682118088
 21
139.0830649277
 31
0.0
  0
LINE
  5
23C
330
1F
100
AcDbEntity
  8
0
  6
Continuous
 62
     8
370
     0
100
AcDbLine
 10
214.4682120155
 20
139.0830649277
 30
0.0
 11
214.4682120155
 21
137.0830608746
 31
0.0
  0
LINE
  5
23D
330
1F
100
AcDbEntity
  8
0
  6
Continuous
 62
     8
370
     0
100
AcDbLine
 10
217.9682118907
 20
117.5830660602
 30
0.0
 11
221.9682116151
 21
117.5830660602
 31
0.0
  0
LINE
  5
23E
330
1F
100
AcDbEntity
  8
0
  6
Continuous
 62
     8
370
     0
100
AcDbLine
 10
221.9682116151
 20
138.5830639145
 30
0.0
 11
217.9682118907
 21
138.5830639145
 31
0.0
  0
LINE
  5
23F
330
1F
100
AcDbEntity
  8
0
  6
Continuous
 62
     8
370
     0
100
AcDbLine
 10
221.9682116151
 20
117.5830660602
 30
0.0
 11
221.9682116151
 21
118.8830657145
 31
0.0
  0
LINE
  5
240
330
1F
100
AcDbEntity
  8
0
  6
Continuous
 62
     8
370
     0
100
AcDbLine
 10
221.9682116151
 20
117.5830660602
 30
0.0
 11
221.9682116151
 21
117.0830650469
 31
0.0
  0
LINE
  5
241
330
1F
100
AcDbEntity
  8
0
  6
Continuous
 62
     8
370
     0
100
AcDbLine
 10
311.4682113841
 20
117.5830660602
 30
0.0
 11
315.4682120397
 21
117.5830660602
 31
0.0
  0
LINE
  5
242
330
1F
100
AcDbEntity
  8
0
  6
Continuous
 62
     8
370
     0
100
AcDbLine
 10
311.4682113841
 20
117.5830660602
 30
0.0
 11
311.4682113841
 21
117.0830650469
 31
0.0
  0
LINE
  5
243
330
1F
100
AcDbEntity
  8
0
  6
Continuous
 62
     8
370
     0
100
AcDbLine
 10
311.4682113841
 20
117.5830660602
 30
0.0
 11
311.4682113841
 21
118.0830670735
 31
0.0
  0
LINE
  5
244
330
1F
100
AcDbEntity
  8
0
  6
Continuous
 62
     8
370
     0
100
AcDbLine
 10
221.9682116151
 20
117.5830660602
 30
0.0
 11
227.849231483
 21
117.5830660602
 31
0.0
  0
LINE
  5
245
330
1F
100
AcDbEntity
  8
0
  6
Continuous
 62
     8
370
     0
100
AcDbLine
 10
309.5871931031
 20
117.5830660602
 30
0.0
 11
311.4682113841
 21
117.5830660602
 31
0.0
  0
LINE
  5
246
330
1F
100
AcDbEntity
  8
0
  6
Continuous
 62
     8
370
     0
100
AcDbLine
 10
212.4682119205
 20
25.0830639368
 30
0.0
 11
208.4682117305
 21
25.0830639368
 31
0.0
  0
LINE
  5
247
330
1F
100
AcDbEntity
  8
0
  6
Continuous
 62
     8
370
     0
100
AcDbLine
 10
220.4682123005
 20
13.0830633668
 30
0.0
 11
220.4682123005
 21
17.0830635568
 31
0.0
  0
LINE
  5
248
330
1F
100
AcDbEntity
  8
0
  6
Continuous
 62
     8
370
     0
100
AcDbLine
 10
212.4682119205
 20
21.0830637468
 30
0.0
 11
208.4682117305
 21
21.0830637468
 31
0.0
  0
LINE
  5
249
330
1F
100
AcDbEntity
  8
0
  6
Continuous
 62
     8
370
     0
100
AcDbLine
 10
216.4682121105
 20
17.0830635568
 30
0.0
 11
216.4682121105
 21
13.0830633668
 31
0.0
  0
HATCH
  5
24A
330
1F
100
AcDbEntity
  8
0
  6
Continuous
 62
     7
370
     0
100
AcDbHatch
 10
0.0
 20
0.0
 30
0.0
210
0.0
220
0.0
230
1.0
  2
ANSI33
 70
     0
 71
     0
 91
        1
 92
        0
 93
        4
 72
     1
 10
212.4682119205298
 20
137.0830635568239
 11
208.4682119205298
 21
137.0830635568239
 72
     1
 10
208.4682119205298
 20
137.0830635568239
 11
208.4682119205298
 21
29.08306355682395
 72
     1
 10
208.4682119205298
 20
29.08306355682395
 11
212.4682119205298
 21
29.08306355682395
 72
     1
 10
212.4682119205298
 20
29.08306355682395
 11
212.4682119205298
 21
137.0830635568239
 97
        0
 75
     0
 76
     1
 52
0.0
 41
1.0
 77
     0
 78
     2
 53
45.0
 43
0.0
 44
0.0
 45
-4.490128060534576
 46
4.490128060534577
 79
     0
 53
45.0
 43
4.49013
 44
0.0
 45
-4.490128060534576
 46
4.490128060534577
 79
     2
 49
3.175
 49
-1.5875
 98
        1
 10
0.0
 20
0.0
  0
HATCH
  5
24B
330
1F
100
AcDbEntity
  8
0
  6
Continuous
 62
     7
370
     0
100
AcDbHatch
 10
0.0
 20
0.0
 30
0.0
210
0.0
220
0.0
230
1.0
  2
ANSI33
 70
     0
 71
     0
 91
        1
 92
        0
 93
        4
 72
     1
 10
224.4682119205298
 20
13.08306355682394
 11
308.9682119205298
 21
13.08306355682393
 72
     1
 10
308.9682119205298
 20
13.08306355682393
 11
308.9682119205298
 21
17.08306355682393
 72
     1
 10
308.9682119205298
 20
17.08306355682393
 11
224.4682119205298
 21
17.08306355682393
 72
     1
 10
224.4682119205298
 20
17.08306355682393
 11
224.4682119205298
 21
13.08306355682394
 97
        0
 75
     0
 76
     1
 52
0.0
 41
1.0
 77
     0
 78
     2
 53
45.0
 43
0.0
 44
0.0
 45
-4.490128060534576
 46
4.490128060534577
 79
     0
 53
45.0
 43
4.49013
 44
0.0
 45
-4.490128060534576
 46
4.490128060534577
 79
     2
 49
3.175
 49
-1.5875
 98
        1
 10
0.0
 20
0.0
  0
HATCH
  5
24C
330
1F
100
AcDbEntity
  8
0
  6
Continuous
 62
     7
370
     0
100
AcDbHatch
 10
0.0
 20
0.0
 30
0.0
210
0.0
220
0.0
230
1.0
  2
NET
 70
     0
 71
     0
 91
        1
 92
        0
 93
        4
 72
     1
 10
212.4682119205298
 20
117.0830635568239
 11
213.9682119205298
 21
117.0830635568239
 72
     1
 10
213.9682119205298
 20
117.0830635568239
 11
213.9682119205298
 21
137.0830635568239
 72
     1
 10
213.9682119205298
 20
137.0830635568239
 11
212.4682119205298
 21
137.0830635568239
 72
     1
 10
212.4682119205298
 20
137.0830635568239
 11
212.4682119205298
 21
117.0830635568239
 97
        0
 75
     0
 76
     1
 52
134.999991007
 41
1.0
 77
     0
 78
     2
 53
134.9999910069555
 43
0.0
 44
0.0
 45
-2.24506438264855
 46
-2.245063677885971
 79
     0
 53
224.9999910069555
 43
0.0
 44
0.0
 45
2.245063677885971
 46
-2.24506438264855
 79
     0
 98
        1
 10
0.0
 20
0.0
  0
HATCH
  5
24D
330
1F
100
AcDbEntity
  8
0
  6
Continuous
 62
     7
370
     0
100
AcDbHatch
 10
0.0
 20
0.0
 30
0.0
210
0.0
220
0.0
230
1.0
  2
ANSI33
 70
     0
 71
     0
 91
        1
 92
        0
 93
        8
 72
     1
 10
315.9682119205298
 20
117.0830635568239
 11
318.9682119205298
 21
117.0830635568239
 72
     2
 10
318.9682119205298
 20
117.5830635568239
 40
0.5
 50
270.0000000000008
 51
360.0000000000008
 73
     1
 72
     1
 10
319.4682119205298
 20
117.5830635568239
 11
319.4682119205298
 21
138.5830635568239
 72
     2
 10
318.9682119205298
 20
138.5830635568239
 40
0.5
 50
0.0
 51
90.0
 73
     1
 72
     1
 10
318.9682119205298
 20
139.0830635568239
 11
315.9682119205298
 21
139.0830635568239
 72
     2
 10
315.9682119205298
 20
138.5830635568239
 40
0.5
 50
90.0
 51
180.0
 73
     1
 72
     1
 10
315.4682119205298
 20
138.5830635568239
 11
315.4682119205298
 21
117.5830635568239
 72
     2
 10
315.9682119205298
 20
117.5830635568239
 40
0.5
 50
180.0
 51
270.0000000000008
 73
     1
 97
        0
 75
     0
 76
     1
 52
0.0
 41
1.0
 77
     0
 78
     2
 53
45.0
 43
0.0
 44
0.0
 45
-4.490128060534576
 46
4.490128060534577
 79
     0
 53
45.0
 43
4.49013
 44
0.0
 45
-4.490128060534576
 46
4.490128060534577
 79
     2
 49
3.175
 49
-1.5875
 98
        1
 10
0.0
 20
0.0
  0
HATCH
  5
24E
330
1F
100
AcDbEntity
  8
0
  6
Continuous
 62
     7
370
     0
100
AcDbHatch
 10
0.0
 20
0.0
 30
0.0
210
0.0
220
0.0
230
1.0
  2
ANSI31
 70
     0
 71
     0
 91
        1
 92
        0
 93
        8
 72
     1
 10
221.9682119205298
 20
118.8830635568239
 11
221.9682119205298
 21
137.2830635568239
 72
     2
 10
221.6682119205298
 20
137.2830635568239
 40
0.3
 50
0.0
 51
90.0
 73
     1
 72
     1
 10
221.6682119205298
 20
137.5830635568239
 11
218.2682119205298
 21
137.5830635568239
 72
     2
 10
218.2682119205298
 20
137.2830635568239
 40
0.3
 50
90.0
 51
180.0
 73
     1
 72
     1
 10
217.9682119205298
 20
137.2830635568239
 11
217.9682119205298
 21
118.8830635568239
 72
     2
 10
218.2682119205298
 20
118.8830635568239
 40
0.3
 50
180.0
 51
270.0000000000008
 73
     1
 72
     1
 10
218.2682119205298
 20
118.5830635568239
 11
221.6682119205298
 21
118.5830635568239
 72
     2
 10
221.6682119205298
 20
118.8830635568239
 40
0.3
 50
270.0000000000008
 51
360.0000000000008
 73
     1
 97
        0
 75
     0
 76
     1
 52
0.0
 41
1.0
 77
     0
 78
     1
 53
45.0
 43
0.0
 44
0.0
 45
-2.245064030267288
 46
2.245064030267288
 79
     0
 98
        1
 10
0.0
 20
0.0
  0
HATCH
  5
24F
330
1F
100
AcDbEntity
  8
0
  6
Continuous
 62
     7
370
     0
100
AcDbHatch
 10
0.0
 20
0.0
 30
0.0
210
0.0
220
0.0
230
1.0
  2
NET
 70
     0
 71
     0
 91
        1
 92
        0
 93
       10
 72
     1
 10
221.9682119205297
 20
139.0830635568239
 11
221.9682119205297
 21
119.5830635568239
 72
     1
 10
221.9682119205297
 20
119.5830635568239
 11
222.3701357091764
 21
118.0830635568239
 72
     1
 10
222.3701357091764
 20
118.0830635568239
 11
225.9682119205297
 21
118.0830635568239
 72
     2
 10
225.9682119205297
 20
119.5830635568239
 40
1.499999999999999
 50
270.0000000000008
 51
420.0000000000018
 73
     1
 72
     1
 10
226.7182119205297
 20
120.8821016625006
 11
224.9682119205297
 21
121.8924646335824
 72
     2
 10
225.9682119205297
 20
123.6245154411513
 40
2.0
 50
119.9999999999999
 51
180.0
 73
     0
 72
     1
 10
223.9682119205297
 20
123.6245154411513
 11
223.9682119205297
 21
141.0830635568239
 72
     1
 10
223.9682119205297
 20
141.0830635568239
 11
215.9682119205297
 21
141.0830635568239
 72
     1
 10
215.9682119205297
 20
141.0830635568239
 11
215.9682119205297
 21
139.0830635568239
 72
     1
 10
215.9682119205297
 20
139.0830635568239
 11
221.9682119205297
 21
139.0830635568239
 97
        0
 75
     0
 76
     1
 52
134.999991007
 41
1.0
 77
     0
 78
     2
 53
134.9999910069555
 43
0.0
 44
0.0
 45
-2.24506438264855
 46
-2.245063677885971
 79
     0
 53
224.9999910069555
 43
0.0
 44
0.0
 45
2.245063677885971
 46
-2.24506438264855
 79
     0
 98
        1
 10
0.0
 20
0.0
  0
HATCH
  5
250
330
1F
100
AcDbEntity
  8
0
  6
Continuous
 62
     7
370
     0
100
AcDbHatch
 10
0.0
 20
0.0
 30
0.0
210
0.0
220
0.0
230
1.0
  2
NET
 70
     0
 71
     0
 91
        1
 92
        0
 93
       10
 72
     1
 10
315.4682119205297
 20
119.5830635568239
 11
315.4682119205297
 21
139.0830635568239
 72
     1
 10
315.4682119205297
 20
139.0830635568239
 11
317.4682119205297
 21
139.0830635568239
 72
     1
 10
317.4682119205297
 20
139.0830635568239
 11
317.4682119205297
 21
141.0830635568239
 72
     1
 10
317.4682119205297
 20
141.0830635568239
 11
313.4682119205297
 21
141.0830635568239
 72
     1
 10
313.4682119205297
 20
141.0830635568239
 11
313.4682119205297
 21
123.6245154411513
 72
     2
 10
311.4682119205297
 20
123.6245154411513
 40
2.0
 50
0.0
 51
60.00000000000008
 73
     0
 72
     1
 10
312.4682119205297
 20
121.8924646335824
 11
310.7182119205297
 21
120.8821016625006
 72
     2
 10
311.4682119205297
 20
119.5830635568239
 40
1.499999999999999
 50
120.0
 51
270.0000000000008
 73
     1
 72
     1
 10
311.4682119205297
 20
118.0830635568239
 11
315.066288131883
 21
118.0830635568239
 72
     1
 10
315.066288131883
 20
118.0830635568239
 11
315.4682119205297
 21
119.5830635568239
 97
        0
 75
     0
 76
     1
 52
134.999991007
 41
1.0
 77
     0
 78
     2
 53
134.9999910069555
 43
0.0
 44
0.0
 45
-2.24506438264855
 46
-2.245063677885971
 79
     0
 53
224.9999910069555
 43
0.0
 44
0.0
 45
2.245063677885971
 46
-2.24506438264855
 79
     0
 98
        1
 10
0.0
 20
0.0
  0
HATCH
  5
251
330
1F
100
AcDbEntity
  8
0
  6
Continuous
 62
     7
370
     0
100
AcDbHatch
 10
0.0
 20
0.0
 30
0.0
210
0.0
220
0.0
230
1.0
  2
ANSI35
 70
     0
 71
     0
 91
        1
 92
        0
 93
       52
 72
     1
 10
267.6212901229357
 20
25.08306355682394
 11
267.6212901229357
 21
25.18306355683214
 72
     1
 10
267.6212901229357
 20
25.18306355683214
 11
267.750458826479
 21
25.18306355682394
 72
     1
 10
267.750458826479
 20
25.18306355682394
 11
267.750458826479
 21
25.08306355682394
 72
     1
 10
267.750458826479
 20
25.08306355682394
 11
270.9101004293356
 21
25.08306355682392
 72
     1
 10
270.9101004293356
 20
25.08306355682392
 11
270.9101004293356
 21
25.18306355682144
 72
     1
 10
270.9101004293356
 20
25.18306355682144
 11
271.040792565691
 21
25.18306355682394
 72
     1
 10
271.040792565691
 20
25.18306355682394
 11
271.040792565691
 21
25.08306355682394
 72
     1
 10
271.040792565691
 20
25.08306355682394
 11
302.3670614718537
 21
25.08306355682394
 72
     2
 10
302.3670614718537
 20
27.58306355682394
 40
2.5
 50
270.0000000000008
 51
357.0000000000008
 73
     1
 72
     1
 10
304.8636353087401
 20
27.45222366621658
 11
309.678032137848
 21
119.3163876313911
 72
     2
 10
311.6752912073571
 20
119.2117157189052
 40
2.0
 50
183.0000000000016
 51
225.0000000000037
 73
     0
 72
     1
 10
310.2610776449841
 20
120.6259292812783
 11
311.6753461960754
 21
122.0401978323696
 72
     2
 10
310.2611326337023
 20
123.4544113947427
 40
2.0
 50
315.0000000000017
 51
357.0000000000013
 73
     1
 72
     1
 10
312.2583917032114
 20
123.3497394822568
 11
314.259372501325
 21
161.530727600581
 72
     2
 10
313.2607429665705
 20
161.583063556824
 40
1.0
 50
356.9999999999999
 51
450.0000000000008
 73
     1
 72
     1
 10
313.2607429665705
 20
162.583063556824
 11
310.742602412188
 21
162.583063556824
 72
     2
 10
310.742602412188
 20
161.583063556824
 40
1.0
 50
90.0
 51
175.5000000000014
 73
     1
 72
     1
 10
309.7456850784548
 20
161.6615226525518
 11
309.0869610536234
 21
153.2916403284075
 72
     2
 10
307.0931263861572
 20
153.4485585198632
 40
2.0
 50
4.499999999999623
 51
43.62878966892905
 73
     0
 72
     1
 10
308.5407768937326
 20
152.0685918507307
 11
305.7290712676657
 21
149.1189792493717
 72
     2
 10
307.1767217752412
 20
147.7390125802392
 40
2.0
 50
136.3712103310721
 51
176.9998565639769
 73
     1
 72
     1
 10
305.1794629677709
 20
147.8436894927251
 11
299.845190321226
 21
46.05970399439448
 72
     2
 10
289.8588949736803
 20
46.58306355682393
 40
10.0
 50
3.000000000000106
 51
90.0
 73
     0
 72
     1
 10
289.8588949736803
 20
36.58306355682393
 11
289.3640347425923
 21
36.58306355682393
 72
     2
 10
289.3640347425923
 20
46.58306355682393
 40
10.0
 50
90.0
 51
122.4093867534147
 73
     0
 72
     2
 10
268.7182119205298
 20
14.06223022349061
 40
28.52083333333333
 50
57.59061324658559
 51
122.4093867534146
 73
     1
 72
     2
 10
248.0723890984671
 20
46.58306355682393
 40
10.0
 50
57.59061324658548
 51
90.0
 73
     0
 72
     1
 10
248.0723890984671
 20
36.58306355682393
 11
247.5775288673792
 21
36.58306355682393
 72
     2
 10
247.5775288673792
 20
46.58306355682393
 40
10.0
 50
90.0
 51
176.9999999999999
 73
     0
 72
     1
 10
237.5912335198335
 20
46.05970399439448
 11
232.2569608732886
 21
147.8436894927252
 72
     2
 10
230.2597020658184
 20
147.7390125802393
 40
2.0
 50
3.000143436021594
 51
43.62878966892905
 73
     1
 72
     1
 10
231.7073525733938
 20
149.1189792493718
 11
228.8956469473268
 21
152.0685918507308
 72
     2
 10
230.3432974549023
 20
153.4485585198632
 40
2.0
 50
136.3712103310716
 51
175.4999999999996
 73
     0
 72
     1
 10
228.349462787436
 20
153.2916403284075
 11
227.6907387626046
 21
161.6615226525518
 72
     2
 10
226.6938214288715
 20
161.583063556824
 40
1.0
 50
4.499999999998812
 51
90.0
 73
     1
 72
     1
 10
226.6938214288715
 20
162.583063556824
 11
224.1756808744891
 21
162.583063556824
 72
     2
 10
224.1756808744891
 20
161.583063556824
 40
1.0
 50
90.0
 51
183.0000000000014
 73
     1
 72
     1
 10
223.1770513397345
 20
161.530727600581
 11
225.178032137848
 21
123.3497394822568
 72
     2
 10
227.1752912073572
 20
123.4544113947427
 40
2.0
 50
183.0000000000015
 51
225.0000000000008
 73
     1
 72
     1
 10
225.7610776449841
 20
122.0401978323696
 11
227.1753461960754
 21
120.6259292812783
 72
     2
 10
225.7611326337023
 20
119.2117157189052
 40
2.0
 50
315.0000000000005
 51
357.0000000000005
 73
     0
 72
     1
 10
227.7583917032114
 20
119.3163876313911
 11
232.5727885323194
 21
27.45222366621659
 72
     2
 10
235.0693623692059
 20
27.58306355682394
 40
2.5
 50
183.0000000000004
 51
270.0000000000008
 73
     1
 72
     1
 10
235.0693623692059
 20
25.08306355682394
 11
265.6860623719637
 21
25.08306355682394
 72
     1
 10
265.6860623719637
 20
25.08306355682394
 11
265.6860623719637
 21
25.18306355682392
 72
     1
 10
265.6860623719637
 20
25.18306355682392
 11
265.815043664369
 21
25.18306355682447
 72
     1
 10
265.815043664369
 20
25.18306355682447
 11
265.815043664369
 21
25.08306355682391
 72
     1
 10
265.815043664369
 20
25.08306355682391
 11
266.6158801890581
 21
25.08306355682394
 72
     1
 10
266.6158801890581
 20
25.08306355682394
 11
266.6158801873893
 21
25.18306355682392
 72
     1
 10
266.6158801873893
 20
25.18306355682392
 11
266.7482625699381
 21
25.18306355682844
 72
     1
 10
266.7482625699381
 20
25.18306355682844
 11
266.7482625699388
 21
25.08306355682392
 72
     1
 10
266.7482625699388
 20
25.08306355682392
 11
267.6212901229357
 21
25.08306355682394
 97
        0
 75
     0
 76
     1
 52
0.0
 41
1.0
 77
     0
 78
     2
 53
45.0
 43
0.0
 44
0.0
 45
-4.490128060534576
 46
4.490128060534577
 79
     0
 53
45.0
 43
4.49013
 44
0.0
 45
-4.490128060534576
 46
4.490128060534577
 79
     4
 49
7.9375
 49
-1.5875
 49
0.0
 49
-1.5875
 98
        1
 10
0.0
 20
0.0
  0
HATCH
  5
252
330
1F
100
AcDbEntity
  8
0
  6
Continuous
 62
     7
370
     0
100
AcDbHatch
 10
0.0
 20
0.0
 30
0.0
210
0.0
220
0.0
230
1.0
  2
ANSI31
 70
     0
 71
     0
 91
        1
 92
        0
 93
        4
 72
     1
 10
299.6993275581217
 20
70.50117915904661
 11
301.2736216514298
 21
115.5830635568239
 72
     1
 10
301.2736216514298
 20
115.5830635568239
 11
236.1628021896296
 21
115.5830635568239
 72
     1
 10
236.1628021896296
 20
115.5830635568239
 11
237.7370962829377
 21
70.50117915904661
 72
     2
 10
268.7182119205297
 20
71.58306355682393
 40
31.0
 50
182.0000000000004
 51
358.0000000000012
 73
     1
 97
        0
 75
     0
 76
     1
 52
90.0
 41
1.0
 77
     0
 78
     1
 53
135.0000000000002
 43
0.0
 44
0.0
 45
-2.245064030267281
 46
-2.245064030267296
 79
     0
 98
        1
 10
0.0
 20
0.0
  0
HATCH
  5
253
330
1F
100
AcDbEntity
  8
0
  6
Continuous
 62
     7
370
     0
100
AcDbHatch
 10
0.0
 20
0.0
 30
0.0
210
0.0
220
0.0
230
1.0
  2
ANSI31
 70
     0
 71
     0
 91
        1
 92
        0
 93
       21
 72
     2
 10
268.7182119205297
 20
71.58306355682393
 40
13.49999999999999
 50
180.0
 51
360.0000000000008
 73
     1
 72
     1
 10
282.2182119205297
 20
71.58306355682393
 11
282.2182119205297
 21
126.0830635568239
 72
     1
 10
282.2182119205297
 20
126.0830635568239
 11
283.2182119205297
 21
126.0830635568239
 72
     1
 10
283.2182119205297
 20
126.0830635568239
 11
283.2182119205297
 21
128.583063556824
 72
     1
 10
283.2182119205297
 20
128.583063556824
 11
277.9166273103646
 21
128.583063556824
 72
     1
 10
277.9166273103646
 20
128.583063556824
 11
277.2182119205298
 21
148.5830635568239
 72
     1
 10
277.2182119205298
 20
148.5830635568239
 11
274.7182119205297
 21
148.5830635568239
 72
     1
 10
274.7182119205297
 20
148.5830635568239
 11
274.7182119205297
 21
133.583063556824
 72
     1
 10
274.7182119205297
 20
133.583063556824
 11
273.8182119205297
 21
133.583063556824
 72
     1
 10
273.8182119205297
 20
133.583063556824
 11
273.8182119205297
 21
128.583063556824
 72
     1
 10
273.8182119205297
 20
128.583063556824
 11
268.7182119205297
 21
125.5186743997834
 72
     1
 10
268.7182119205297
 20
125.5186743997834
 11
263.6182119205297
 21
128.583063556824
 72
     1
 10
263.6182119205297
 20
128.583063556824
 11
263.6182119205297
 21
133.583063556824
 72
     1
 10
263.6182119205297
 20
133.583063556824
 11
262.7182119205298
 21
133.583063556824
 72
     1
 10
262.7182119205298
 20
133.583063556824
 11
262.7182119205298
 21
148.5830635568239
 72
     1
 10
262.7182119205298
 20
148.5830635568239
 11
260.2182119205298
 21
148.5830635568239
 72
     1
 10
260.2182119205298
 20
148.5830635568239
 11
259.5197965306949
 21
128.583063556824
 72
     1
 10
259.5197965306949
 20
128.583063556824
 11
254.2182119205297
 21
128.583063556824
 72
     1
 10
254.2182119205297
 20
128.583063556824
 11
254.2182119205297
 21
126.0830635568239
 72
     1
 10
254.2182119205297
 20
126.0830635568239
 11
255.2182119205297
 21
126.0830635568239
 72
     1
 10
255.2182119205297
 20
126.0830635568239
 11
255.2182119205297
 21
71.58306355682393
 97
        0
 75
     0
 76
     1
 52
0.0
 41
1.0
 77
     0
 78
     1
 53
45.0
 43
0.0
 44
0.0
 45
-2.245064030267288
 46
2.245064030267288
 79
     0
 98
        1
 10
0.0
 20
0.0
  0
HATCH
  5
254
330
1F
100
AcDbEntity
  8
0
  6
Continuous
 62
     7
370
     0
100
AcDbHatch
 10
0.0
 20
0.0
 30
0.0
210
0.0
220
0.0
230
1.0
  2
ANSI33
 70
     0
 71
     0
 91
        1
 92
        0
 93
       10
 72
     1
 10
275.7182119205297
 20
163.583063556824
 11
261.7182119205298
 21
163.583063556824
 72
     1
 10
261.7182119205298
 20
163.583063556824
 11
261.7182119205298
 21
149.5830635568239
 72
     1
 10
261.7182119205298
 20
149.5830635568239
 11
262.7182119205298
 21
149.5830635568239
 72
     1
 10
262.7182119205298
 20
149.5830635568239
 11
262.7182119205298
 21
135.5830635568239
 72
     1
 10
262.7182119205298
 20
135.5830635568239
 11
264.7182119205298
 21
133.5830635568239
 72
     1
 10
264.7182119205298
 20
133.5830635568239
 11
272.7182119205297
 21
133.5830635568239
 72
     1
 10
272.7182119205297
 20
133.5830635568239
 11
274.7182119205298
 21
135.5830635568239
 72
     1
 10
274.7182119205298
 20
135.5830635568239
 11
274.7182119205298
 21
149.5830635568239
 72
     1
 10
274.7182119205298
 20
149.5830635568239
 11
275.7182119205297
 21
149.5830635568239
 72
     1
 10
275.7182119205297
 20
149.5830635568239
 11
275.7182119205297
 21
163.583063556824
 97
        0
 75
     0
 76
     1
 52
90.0
 41
1.0
 77
     0
 78
     2
 53
135.0000000000002
 43
0.0
 44
0.0
 45
-4.490128060534562
 46
-4.490128060534592
 79
     0
 53
135.0000000000002
 43
-0.0000000000000157
 44
4.49013
 45
-4.490128060534562
 46
-4.490128060534592
 79
     2
 49
3.175
 49
-1.5875
 98
        1
 10
0.0
 20
0.0
  0
HATCH
  5
255
330
1F
100
AcDbEntity
  8
0
  6
Continuous
 62
     7
370
     0
100
AcDbHatch
 10
0.0
 20
0.0
 30
0.0
210
0.0
220
0.0
230
1.0
  2
ANSI33
 70
     0
 71
     0
 91
        1
 92
        0
 93
        4
 72
     1
 10
260.7182119205298
 20
403.583063556824
 11
260.7182119205298
 21
148.5830635568239
 72
     1
 10
260.7182119205298
 20
148.5830635568239
 11
261.7182119205298
 21
148.5830635568239
 72
     1
 10
261.7182119205298
 20
148.5830635568239
 11
261.7182119205298
 21
403.583063556824
 72
     1
 10
261.7182119205298
 20
403.583063556824
 11
260.7182119205298
 21
403.583063556824
 97
        0
 75
     0
 76
     1
 52
0.0
 41
1.0
 77
     0
 78
     2
 53
45.0
 43
0.0
 44
0.0
 45
-4.490128060534576
 46
4.490128060534577
 79
     0
 53
45.0
 43
4.49013
 44
0.0
 45
-4.490128060534576
 46
4.490128060534577
 79
     2
 49
3.175
 49
-1.5875
 98
        1
 10
0.0
 20
0.0
  0
HATCH
  5
256
330
1F
100
AcDbEntity
  8
0
  6
Continuous
 62
     7
370
     0
100
AcDbHatch
 10
0.0
 20
0.0
 30
0.0
210
0.0
220
0.0
230
1.0
  2
ANSI33
 70
     0
 71
     0
 91
        1
 92
        0
 93
        4
 72
     1
 10
276.7182119205297
 20
148.5830635568239
 11
276.7182119205297
 21
403.583063556824
 72
     1
 10
276.7182119205297
 20
403.583063556824
 11
275.7182119205297
 21
403.583063556824
 72
     1
 10
275.7182119205297
 20
403.583063556824
 11
275.7182119205297
 21
148.5830635568239
 72
     1
 10
275.7182119205297
 20
148.5830635568239
 11
276.7182119205297
 21
148.5830635568239
 97
        0
 75
     0
 76
     1
 52
0.0
 41
1.0
 77
     0
 78
     2
 53
45.0
 43
0.0
 44
0.0
 45
-4.490128060534576
 46
4.490128060534577
 79
     0
 53
45.0
 43
4.49013
 44
0.0
 45
-4.490128060534576
 46
4.490128060534577
 79
     2
 49
3.175
 49
-1.5875
 98
        1
 10
0.0
 20
0.0
  0
HATCH
  5
257
330
1F
100
AcDbEntity
  8
0
  6
Continuous
 62
     7
370
     0
100
AcDbHatch
 10
0.0
 20
0.0
 30
0.0
210
0.0
220
0.0
230
1.0
  2
ANSI33
 70
     0
 71
     0
 91
        1
 92
        0
 93
       15
 72
     1
 10
261.7182119205298
 20
403.583063556824
 11
261.7182119205298
 21
399.583063556824
 72
     1
 10
261.7182119205298
 20
399.583063556824
 11
262.5842373243142
 21
398.083063556824
 72
     1
 10
262.5842373243142
 20
398.083063556824
 11
263.7182119205298
 21
398.083063556824
 72
     1
 10
263.7182119205298
 20
398.083063556824
 11
263.7182119205298
 21
401.083063556824
 72
     1
 10
263.7182119205298
 20
401.083063556824
 11
268.7182119205297
 21
404.0873666519617
 72
     1
 10
268.7182119205297
 20
404.0873666519617
 11
273.7182119205297
 21
401.083063556824
 72
     1
 10
273.7182119205297
 20
401.083063556824
 11
273.7182119205297
 21
398.083063556824
 72
     1
 10
273.7182119205297
 20
398.083063556824
 11
274.8521865167452
 21
398.083063556824
 72
     1
 10
274.8521865167452
 20
398.083063556824
 11
275.7182119205297
 21
399.583063556824
 72
     1
 10
275.7182119205297
 20
399.583063556824
 11
275.7182119205297
 21
403.583063556824
 72
     1
 10
275.7182119205297
 20
403.583063556824
 11
277.7182119205297
 21
403.583063556824
 72
     1
 10
277.7182119205297
 20
403.583063556824
 11
277.7182119205297
 21
405.583063556824
 72
     1
 10
277.7182119205297
 20
405.583063556824
 11
259.7182119205298
 21
405.583063556824
 72
     1
 10
259.7182119205298
 20
405.583063556824
 11
259.7182119205298
 21
403.583063556824
 72
     1
 10
259.7182119205298
 20
403.583063556824
 11
261.7182119205298
 21
403.583063556824
 97
        0
 75
     0
 76
     1
 52
0.0
 41
1.0
 77
     0
 78
     2
 53
45.0
 43
0.0
 44
0.0
 45
-4.490128060534576
 46
4.490128060534577
 79
     0
 53
45.0
 43
4.49013
 44
0.0
 45
-4.490128060534576
 46
4.490128060534577
 79
     2
 49
3.175
 49
-1.5875
 98
        1
 10
0.0
 20
0.0
  0
HATCH
  5
258
330
1F
100
AcDbEntity
  8
0
  6
Continuous
 62
     7
370
     0
100
AcDbHatch
 10
0.0
 20
0.0
 30
0.0
210
0.0
220
0.0
230
1.0
  2
ANSI33
 70
     0
 71
     0
 91
        1
 92
        0
 93
        4
 72
     1
 10
303.7182119205297
 20
160.083063556824
 11
303.7182119205297
 21
161.583063556824
 72
     1
 10
303.7182119205297
 20
161.583063556824
 11
278.4682119205297
 21
161.583063556824
 72
     1
 10
278.4682119205297
 20
161.583063556824
 11
278.4682119205297
 21
160.083063556824
 72
     1
 10
278.4682119205297
 20
160.083063556824
 11
303.7182119205297
 21
160.083063556824
 97
        0
 75
     0
 76
     1
 52
0.0
 41
1.0
 77
     0
 78
     2
 53
45.0
 43
0.0
 44
0.0
 45
-4.490128060534576
 46
4.490128060534577
 79
     0
 53
45.0
 43
4.49013
 44
0.0
 45
-4.490128060534576
 46
4.490128060534577
 79
     2
 49
3.175
 49
-1.5875
 98
        1
 10
0.0
 20
0.0
  0
HATCH
  5
259
330
1F
100
AcDbEntity
  8
0
  6
Continuous
 62
     7
370
     0
100
AcDbHatch
 10
0.0
 20
0.0
 30
0.0
210
0.0
220
0.0
230
1.0
  2
ANSI33
 70
     0
 71
     0
 91
        1
 92
        0
 93
        4
 72
     1
 10
233.7182119205297
 20
161.583063556824
 11
233.7182119205297
 21
160.083063556824
 72
     1
 10
233.7182119205297
 20
160.083063556824
 11
258.9682119205297
 21
160.083063556824
 72
     1
 10
258.9682119205297
 20
160.083063556824
 11
258.9682119205297
 21
161.583063556824
 72
     1
 10
258.9682119205297
 20
161.583063556824
 11
233.7182119205297
 21
161.583063556824
 97
        0
 75
     0
 76
     1
 52
0.0
 41
1.0
 77
     0
 78
     2
 53
45.0
 43
0.0
 44
0.0
 45
-4.490128060534576
 46
4.490128060534577
 79
     0
 53
45.0
 43
4.49013
 44
0.0
 45
-4.490128060534576
 46
4.490128060534577
 79
     2
 49
3.175
 49
-1.5875
 98
        1
 10
0.0
 20
0.0
  0
HATCH
  5
25A
330
1F
100
AcDbEntity
  8
0
  6
Continuous
 62
     7
370
     0
100
AcDbHatch
 10
0.0
 20
0.0
 30
0.0
210
0.0
220
0.0
230
1.0
  2
ANSI33
 70
     0
 71
     0
 91
        1
 92
        0
 93
        6
 72
     1
 10
278.7182119205297
 20
256.5830635568239
 11
277.7182119205297
 21
256.5830635568239
 72
     1
 10
277.7182119205297
 20
256.5830635568239
 11
277.7182119205297
 21
156.0830635568239
 72
     1
 10
277.7182119205297
 20
156.0830635568239
 11
278.4682119205297
 21
156.0830635568239
 72
     1
 10
278.4682119205297
 20
156.0830635568239
 11
278.4682119205297
 21
161.583063556824
 72
     1
 10
278.4682119205297
 20
161.583063556824
 11
278.7182119205297
 21
161.583063556824
 72
     1
 10
278.7182119205297
 20
161.583063556824
 11
278.7182119205297
 21
256.5830635568239
 97
        0
 75
     0
 76
     1
 52
90.0
 41
1.0
 77
     0
 78
     2
 53
135.0000000000002
 43
0.0
 44
0.0
 45
-4.490128060534562
 46
-4.490128060534592
 79
     0
 53
135.0000000000002
 43
-0.0000000000000157
 44
4.49013
 45
-4.490128060534562
 46
-4.490128060534592
 79
     2
 49
3.175
 49
-1.5875
 98
        1
 10
0.0
 20
0.0
  0
HATCH
  5
25B
330
1F
100
AcDbEntity
  8
0
  6
Continuous
 62
     7
370
     0
100
AcDbHatch
 10
0.0
 20
0.0
 30
0.0
210
0.0
220
0.0
230
1.0
  2
ANSI33
 70
     0
 71
     0
 91
        1
 92
        0
 93
        6
 72
     1
 10
259.7182119205298
 20
256.5830635568239
 11
258.7182119205297
 21
256.5830635568239
 72
     1
 10
258.7182119205297
 20
256.5830635568239
 11
258.7182119205297
 21
161.583063556824
 72
     1
 10
258.7182119205297
 20
161.583063556824
 11
258.9682119205297
 21
161.583063556824
 72
     1
 10
258.9682119205297
 20
161.583063556824
 11
258.9682119205297
 21
156.0830635568239
 72
     1
 10
258.9682119205297
 20
156.0830635568239
 11
259.7182119205298
 21
156.0830635568239
 72
     1
 10
259.7182119205298
 20
156.0830635568239
 11
259.7182119205298
 21
256.5830635568239
 97
        0
 75
     0
 76
     1
 52
90.0
 41
1.0
 77
     0
 78
     2
 53
135.0000000000002
 43
0.0
 44
0.0
 45
-4.490128060534562
 46
-4.490128060534592
 79
     0
 53
135.0000000000002
 43
-0.0000000000000157
 44
4.49013
 45
-4.490128060534562
 46
-4.490128060534592
 79
     2
 49
3.175
 49
-1.5875
 98
        1
 10
0.0
 20
0.0
  0
HATCH
  5
25C
330
1F
100
AcDbEntity
  8
0
  6
Continuous
 62
     7
370
     0
100
AcDbHatch
 10
0.0
 20
0.0
 30
0.0
210
0.0
220
0.0
230
1.0
  2
ANSI34
 70
     0
 71
     0
 91
        1
 92
        0
 93
       13
 72
     1
 10
305.7182119205297
 20
155.5830635568239
 11
305.7182119205297
 21
160.583063556824
 72
     2
 10
304.7182119205297
 20
160.583063556824
 40
1.0
 50
0.0
 51
90.0
 73
     1
 72
     1
 10
304.7182119205297
 20
161.583063556824
 11
303.7182119205297
 21
161.583063556824
 72
     1
 10
303.7182119205297
 20
161.583063556824
 11
303.7182119205297
 21
160.083063556824
 72
     1
 10
303.7182119205297
 20
160.083063556824
 11
298.7182119205297
 21
160.083063556824
 72
     1
 10
298.7182119205297
 20
160.083063556824
 11
298.7182119205297
 21
158.0830635568239
 72
     1
 10
298.7182119205297
 20
158.0830635568239
 11
303.7182119205297
 21
158.0830635568239
 72
     1
 10
303.7182119205297
 20
158.0830635568239
 11
303.7182119205297
 21
156.4242309571635
 72
     2
 10
306.2182119205297
 20
156.4242309571635
 40
2.5
 50
180.0
 51
252.7408371750944
 73
     1
 72
     1
 10
305.4764761721047
 20
154.0367996849573
 11
307.4682119205298
 21
153.4180000473629
 72
     1
 10
307.4682119205298
 20
153.4180000473629
 11
307.7182119205297
 21
153.8510127492551
 72
     1
 10
307.7182119205297
 20
153.8510127492551
 11
306.2182119205297
 21
154.7170381530395
 72
     2
 10
306.7182119205297
 20
155.5830635568239
 40
0.9999999999999943
 50
120.0000000000006
 51
180.0
 73
     0
 97
        0
 75
     0
 76
     1
 52
90.0
 41
1.0
 77
     0
 78
     4
 53
135.0000000000002
 43
0.0
 44
0.0
 45
-13.47038418160369
 46
-13.47038418160378
 79
     0
 53
135.0000000000002
 43
-0.0000000000000157
 44
4.49013
 45
-13.47038418160369
 46
-13.47038418160378
 79
     0
 53
135.0000000000002
 43
-0.0000000000000314
 44
8.98026
 45
-13.47038418160369
 46
-13.47038418160378
 79
     0
 53
135.0000000000002
 43
-0.000000000000047
 44
13.4704
 45
-13.47038418160369
 46
-13.47038418160378
 79
     0
 98
        1
 10
0.0
 20
0.0
  0
HATCH
  5
25D
330
1F
100
AcDbEntity
  8
0
  6
Continuous
 62
     7
370
     0
100
AcDbHatch
 10
0.0
 20
0.0
 30
0.0
210
0.0
220
0.0
230
1.0
  2
ANSI34
 70
     0
 71
     0
 91
        1
 92
        0
 93
       13
 72
     1
 10
231.7182119205297
 20
160.583063556824
 11
231.7182119205297
 21
155.5830635568239
 72
     2
 10
230.7182119205297
 20
155.5830635568239
 40
0.9999999999999943
 50
0.0
 51
59.99999999999946
 73
     0
 72
     1
 10
231.2182119205297
 20
154.7170381530395
 11
229.7182119205297
 21
153.8510127492551
 72
     1
 10
229.7182119205297
 20
153.8510127492551
 11
229.9682119205297
 21
153.4180000473629
 72
     1
 10
229.9682119205297
 20
153.4180000473629
 11
231.9599476689547
 21
154.0367996849573
 72
     2
 10
231.2182119205297
 20
156.4242309571635
 40
2.5
 50
287.2591628249072
 51
360.0000000000008
 73
     1
 72
     1
 10
233.7182119205297
 20
156.4242309571635
 11
233.7182119205297
 21
158.0830635568239
 72
     1
 10
233.7182119205297
 20
158.0830635568239
 11
238.7182119205297
 21
158.0830635568239
 72
     1
 10
238.7182119205297
 20
158.0830635568239
 11
238.7182119205297
 21
160.083063556824
 72
     1
 10
238.7182119205297
 20
160.083063556824
 11
233.7182119205297
 21
160.083063556824
 72
     1
 10
233.7182119205297
 20
160.083063556824
 11
233.7182119205297
 21
161.583063556824
 72
     1
 10
233.7182119205297
 20
161.583063556824
 11
232.7182119205297
 21
161.583063556824
 72
     2
 10
232.7182119205297
 20
160.583063556824
 40
1.0
 50
90.0
 51
180.0
 73
     1
 97
        0
 75
     0
 76
     1
 52
90.0
 41
1.0
 77
     0
 78
     4
 53
135.0000000000002
 43
0.0
 44
0.0
 45
-13.47038418160369
 46
-13.47038418160378
 79
     0
 53
135.0000000000002
 43
-0.0000000000000157
 44
4.49013
 45
-13.47038418160369
 46
-13.47038418160378
 79
     0
 53
135.0000000000002
 43
-0.0000000000000314
 44
8.98026
 45
-13.47038418160369
 46
-13.47038418160378
 79
     0
 53
135.0000000000002
 43
-0.000000000000047
 44
13.4704
 45
-13.47038418160369
 46
-13.47038418160378
 79
     0
 98
        1
 10
0.0
 20
0.0
  0
HATCH
  5
25E
330
1F
100
AcDbEntity
  8
0
  6
Continuous
 62
     7
370
     0
100
AcDbHatch
 10
0.0
 20
0.0
 30
0.0
210
0.0
220
0.0
230
1.0
  2
ANSI33
 70
     0
 71
     0
 91
        1
 92
        0
 93
        4
 72
     1
 10
303.7182119205297
 20
156.5830635568239
 11
303.7182119205297
 21
158.0830635568239
 72
     1
 10
303.7182119205297
 20
158.0830635568239
 11
278.4682119205297
 21
158.0830635568239
 72
     1
 10
278.4682119205297
 20
158.0830635568239
 11
278.4682119205297
 21
156.5830635568239
 72
     1
 10
278.4682119205297
 20
156.5830635568239
 11
303.7182119205297
 21
156.5830635568239
 97
        0
 75
     0
 76
     1
 52
0.0
 41
1.0
 77
     0
 78
     2
 53
45.0
 43
0.0
 44
0.0
 45
-4.490128060534576
 46
4.490128060534577
 79
     0
 53
45.0
 43
4.49013
 44
0.0
 45
-4.490128060534576
 46
4.490128060534577
 79
     2
 49
3.175
 49
-1.5875
 98
        1
 10
0.0
 20
0.0
  0
HATCH
  5
25F
330
1F
100
AcDbEntity
  8
0
  6
Continuous
 62
     7
370
     0
100
AcDbHatch
 10
0.0
 20
0.0
 30
0.0
210
0.0
220
0.0
230
1.0
  2
ANSI33
 70
     0
 71
     0
 91
        1
 92
        0
 93
        4
 72
     1
 10
233.7182119205297
 20
158.0830635568239
 11
233.7182119205297
 21
156.5830635568239
 72
     1
 10
233.7182119205297
 20
156.5830635568239
 11
258.9682119205297
 21
156.5830635568239
 72
     1
 10
258.9682119205297
 20
156.5830635568239
 11
258.9682119205297
 21
158.0830635568239
 72
     1
 10
258.9682119205297
 20
158.0830635568239
 11
233.7182119205297
 21
158.0830635568239
 97
        0
 75
     0
 76
     1
 52
0.0
 41
1.0
 77
     0
 78
     2
 53
45.0
 43
0.0
 44
0.0
 45
-4.490128060534576
 46
4.490128060534577
 79
     0
 53
45.0
 43
4.49013
 44
0.0
 45
-4.490128060534576
 46
4.490128060534577
 79
     2
 49
3.175
 49
-1.5875
 98
        1
 10
0.0
 20
0.0
  0
HATCH
  5
260
330
1F
100
AcDbEntity
  8
0
  6
Continuous
 62
     7
370
     0
100
AcDbHatch
 10
0.0
 20
0.0
 30
0.0
210
0.0
220
0.0
230
1.0
  2
NET
 70
     0
 71
     0
 91
        1
 92
        0
 93
        4
 72
     1
 10
277.7182119205297
 20
156.0830635568239
 11
277.7182119205297
 21
171.083063556824
 72
     1
 10
277.7182119205297
 20
171.083063556824
 11
276.7682119205297
 21
171.083063556824
 72
     1
 10
276.7682119205297
 20
171.083063556824
 11
276.7682119205297
 21
156.0830635568239
 72
     1
 10
276.7682119205297
 20
156.0830635568239
 11
277.7182119205297
 21
156.0830635568239
 97
        0
 75
     0
 76
     1
 52
44.999991007
 41
1.0
 77
     0
 78
     2
 53
44.99999100695533
 43
0.0
 44
0.0
 45
-2.245063677885963
 46
2.245064382648558
 79
     0
 53
134.9999910069553
 43
0.0
 44
0.0
 45
-2.245064382648558
 46
-2.245063677885963
 79
     0
 98
        1
 10
0.0
 20
0.0
  0
HATCH
  5
261
330
1F
100
AcDbEntity
  8
0
  6
Continuous
 62
     7
370
     0
100
AcDbHatch
 10
0.0
 20
0.0
 30
0.0
210
0.0
220
0.0
230
1.0
  2
NET
 70
     0
 71
     0
 91
        1
 92
        0
 93
        4
 72
     1
 10
259.7182119205298
 20
171.083063556824
 11
259.7182119205298
 21
156.0830635568239
 72
     1
 10
259.7182119205298
 20
156.0830635568239
 11
260.6682119205297
 21
156.0830635568239
 72
     1
 10
260.6682119205297
 20
156.0830635568239
 11
260.6682119205297
 21
171.083063556824
 72
     1
 10
260.6682119205297
 20
171.083063556824
 11
259.7182119205298
 21
171.083063556824
 97
        0
 75
     0
 76
     1
 52
44.999991007
 41
1.0
 77
     0
 78
     2
 53
44.99999100695533
 43
0.0
 44
0.0
 45
-2.245063677885963
 46
2.245064382648558
 79
     0
 53
134.9999910069553
 43
0.0
 44
0.0
 45
-2.245064382648558
 46
-2.245063677885963
 79
     0
 98
        1
 10
0.0
 20
0.0
  0
HATCH
  5
262
330
1F
100
AcDbEntity
  8
0
  6
Continuous
 62
     7
370
     0
100
AcDbHatch
 10
0.0
 20
0.0
 30
0.0
210
0.0
220
0.0
230
1.0
  2
NET
 70
     0
 71
     0
 91
        1
 92
        0
 93
        4
 72
     1
 10
277.7182119205297
 20
241.583063556824
 11
277.7182119205297
 21
256.583063556824
 72
     1
 10
277.7182119205297
 20
256.583063556824
 11
276.7682119205297
 21
256.583063556824
 72
     1
 10
276.7682119205297
 20
256.583063556824
 11
276.7682119205297
 21
241.583063556824
 72
     1
 10
276.7682119205297
 20
241.583063556824
 11
277.7182119205297
 21
241.583063556824
 97
        0
 75
     0
 76
     1
 52
44.999991007
 41
1.0
 77
     0
 78
     2
 53
44.99999100695533
 43
0.0
 44
0.0
 45
-2.245063677885963
 46
2.245064382648558
 79
     0
 53
134.9999910069553
 43
0.0
 44
0.0
 45
-2.245064382648558
 46
-2.245063677885963
 79
     0
 98
        1
 10
0.0
 20
0.0
  0
HATCH
  5
263
330
1F
100
AcDbEntity
  8
0
  6
Continuous
 62
     7
370
     0
100
AcDbHatch
 10
0.0
 20
0.0
 30
0.0
210
0.0
220
0.0
230
1.0
  2
NET
 70
     0
 71
     0
 91
        1
 92
        0
 93
        4
 72
     1
 10
259.7182119205298
 20
256.583063556824
 11
259.7182119205298
 21
241.583063556824
 72
     1
 10
259.7182119205298
 20
241.583063556824
 11
260.6682119205297
 21
241.583063556824
 72
     1
 10
260.6682119205297
 20
241.583063556824
 11
260.6682119205297
 21
256.583063556824
 72
     1
 10
260.6682119205297
 20
256.583063556824
 11
259.7182119205298
 21
256.583063556824
 97
        0
 75
     0
 76
     1
 52
44.999991007
 41
1.0
 77
     0
 78
     2
 53
44.99999100695533
 43
0.0
 44
0.0
 45
-2.245063677885963
 46
2.245064382648558
 79
     0
 53
134.9999910069553
 43
0.0
 44
0.0
 45
-2.245064382648558
 46
-2.245063677885963
 79
     0
 98
        1
 10
0.0
 20
0.0
  0
HATCH
  5
264
330
1F
100
AcDbEntity
  8
0
  6
Continuous
 62
     7
370
     0
100
AcDbHatch
 10
0.0
 20
0.0
 30
0.0
210
0.0
220
0.0
230
1.0
  2
ANSI34
 70
     0
 71
     0
 91
        1
 92
        0
 93
        1
 72
     2
 10
276.6082119205298
 20
402.0830635568239
 40
0.8899999999999999
 50
0.0
 51
360.0
 73
     1
 97
        0
 75
     0
 76
     1
 52
90.0
 41
1.0
 77
     0
 78
     4
 53
135.0000000000002
 43
0.0
 44
0.0
 45
-13.47038418160369
 46
-13.47038418160378
 79
     0
 53
135.0000000000002
 43
-0.0000000000000157
 44
4.49013
 45
-13.47038418160369
 46
-13.47038418160378
 79
     0
 53
135.0000000000002
 43
-0.0000000000000314
 44
8.98026
 45
-13.47038418160369
 46
-13.47038418160378
 79
     0
 53
135.0000000000002
 43
-0.000000000000047
 44
13.4704
 45
-13.47038418160369
 46
-13.47038418160378
 79
     0
 98
        1
 10
0.0
 20
0.0
  0
HATCH
  5
265
330
1F
100
AcDbEntity
  8
0
  6
Continuous
 62
     7
370
     0
100
AcDbHatch
 10
0.0
 20
0.0
 30
0.0
210
0.0
220
0.0
230
1.0
  2
ANSI34
 70
     0
 71
     0
 91
        1
 92
        0
 93
        1
 72
     2
 10
260.8282119205297
 20
402.0830635568239
 40
0.8899999999999999
 50
0.0
 51
360.0
 73
     1
 97
        0
 75
     0
 76
     1
 52
90.0
 41
1.0
 77
     0
 78
     4
 53
135.0000000000002
 43
0.0
 44
0.0
 45
-13.47038418160369
 46
-13.47038418160378
 79
     0
 53
135.0000000000002
 43
-0.0000000000000157
 44
4.49013
 45
-13.47038418160369
 46
-13.47038418160378
 79
     0
 53
135.0000000000002
 43
-0.0000000000000314
 44
8.98026
 45
-13.47038418160369
 46
-13.47038418160378
 79
     0
 53
135.0000000000002
 43
-0.000000000000047
 44
13.4704
 45
-13.47038418160369
 46
-13.47038418160378
 79
     0
 98
        1
 10
0.0
 20
0.0
  0
MTEXT
  5
266
330
1F
100
AcDbEntity
  8
0
  6
Continuous
 62
     7
370
     0
100
AcDbMText
 10
264.55371647
 20
11.6003752961
 30
0.0
 40
5.0
 41
0.0
 71
     2
 72
     1
  1
A-A
  7
SLDTEXTSTYLE0
 73
     1
 44
1.0
  0
LINE
  5
267
330
1F
100
AcDbEntity
  8
0
  6
CENTERX2
 62
     7
370
     0
100
AcDbLine
 10
235.9682119205
 20
15.0830635568
 30
0.0
 11
235.9682119205
 21
9.1830635568
 31
0.0
  0
LINE
  5
268
330
1F
100
AcDbEntity
  8
0
  6
CENTERX2
 62
     7
370
     0
100
AcDbLine
 10
301.9682119205
 20
15.0830635568
 30
0.0
 11
301.9682119205
 21
9.1830635568
 31
0.0
  0
LINE
  5
269
330
1F
100
AcDbEntity
  8
0
  6
CENTERX2
 62
     7
370
     0
100
AcDbLine
 10
206.4682119205
 20
128.0830635568
 30
0.0
 11
223.1682119205
 21
128.0830635568
 31
0.0
  0
LINE
  5
26A
330
1F
100
AcDbEntity
  8
0
  6
CENTERX2
 62
     7
370
     0
100
AcDbLine
 10
297.7182119205
 20
156.0830635568
 30
0.0
 11
297.7182119205
 21
162.0830635568
 31
0.0
  0
LINE
  5
26B
330
1F
100
AcDbEntity
  8
0
  6
CENTERX2
 62
     7
370
     0
100
AcDbLine
 10
239.7182119205
 20
156.0830635568
 30
0.0
 11
239.7182119205
 21
162.0830635568
 31
0.0
  0
LINE
  5
26C
330
1F
100
AcDbEntity
  8
0
  6
Continuous
 62
     7
370
    30
100
AcDbLine
 10
405.545404834
 20
361.7985436927
 30
0.0
 11
328.4438985412
 21
361.7985436927
 31
0.0
  0
LINE
  5
26D
330
1F
100
AcDbEntity
  8
0
  6
Continuous
 62
     7
370
    30
100
AcDbLine
 10
412.537182403
 20
277.7052570369
 30
0.0
 11
412.537182403
 21
354.806767055
 31
0.0
  0
LINE
  5
26E
330
1F
100
AcDbEntity
  8
0
  6
Continuous
 62
     7
370
    30
100
AcDbLine
 10
321.4521209721
 20
354.806767055
 30
0.0
 11
321.4521209721
 21
277.7052570369
 31
0.0
  0
LINE
  5
26F
330
1F
100
AcDbEntity
  8
0
  6
Continuous
 62
     7
370
    30
100
AcDbLine
 10
328.4438985412
 20
270.7134831931
 30
0.0
 11
405.545404834
 21
270.7134831931
 31
0.0
  0
ARC
  5
270
330
1F
100
AcDbEntity
  8
0
  6
Continuous
 62
     7
370
    30
100
AcDbCircle
 10
332.9946516876
 20
350.2560124185
 30
0.0
 40
3.0
100
AcDbArc
 50
90.0
 51
180.0
  0
ARC
  5
271
330
1F
100
AcDbEntity
  8
0
  6
Continuous
 62
     7
370
    30
100
AcDbCircle
 10
400.9946516876
 20
350.2560124185
 30
0.0
 40
3.000000000000057
100
AcDbArc
 50
0.0
 51
90.0
  0
LINE
  5
272
330
1F
100
AcDbEntity
  8
0
  6
Continuous
 62
     7
370
    30
100
AcDbLine
 10
332.9946498398
 20
353.2560125228
 30
0.0
 11
400.9946535353
 21
353.2560125228
 31
0.0
  0
LINE
  5
273
330
1F
100
AcDbEntity
  8
0
  6
Continuous
 62
     7
370
    30
100
AcDbLine
 10
329.9946512107
 20
282.2560120608
 30
0.0
 11
329.9946512107
 21
350.256012031
 31
0.0
  0
LINE
  5
274
330
1F
100
AcDbEntity
  8
0
  6
Continuous
 62
     7
370
    30
100
AcDbLine
 10
403.9946521644
 20
350.256012031
 30
0.0
 11
403.9946521644
 21
282.2560120608
 31
0.0
  0
ARC
  5
275
330
1F
100
AcDbEntity
  8
0
  6
Continuous
 62
     7
370
    30
100
AcDbCircle
 10
332.9946516876
 20
282.2560124185
 30
0.0
 40
1.000000000000057
100
AcDbArc
 50
180.0
 51
270.0
  0
LINE
  5
276
330
1F
100
AcDbEntity
  8
0
  6
Continuous
 62
     7
370
    30
100
AcDbLine
 10
400.9946535353
 20
281.2560100343
 30
0.0
 11
332.9946498398
 21
281.2560100343
 31
0.0
  0
ARC
  5
277
330
1F
100
AcDbEntity
  8
0
  6
Continuous
 62
     7
370
    30
100
AcDbCircle
 10
400.9946516876
 20
282.2560124185
 30
0.0
 40
1.000000000000057
100
AcDbArc
 50
270.0
 51
0.0
  0
LINE
  5
278
330
1F
100
AcDbEntity
  8
0
  6
Continuous
 62
     7
370
    30
100
AcDbLine
 10
401.9946518366
 20
350.256012031
 30
0.0
 11
401.9946518366
 21
282.2560120608
 31
0.0
  0
ARC
  5
279
330
1F
100
AcDbEntity
  8
0
  6
Continuous
 62
     7
370
    30
100
AcDbCircle
 10
332.9946516876
 20
350.2560124185
 30
0.0
 40
1.0
100
AcDbArc
 50
90.0
 51
180.0
  0
LINE
  5
27A
330
1F
100
AcDbEntity
  8
0
  6
Continuous
 62
     7
370
    30
100
AcDbLine
 10
332.9946498398
 20
351.2560121949
 30
0.0
 11
400.9946535353
 21
351.2560121949
 31
0.0
  0
LINE
  5
27B
330
1F
100
AcDbEntity
  8
0
  6
Continuous
 62
     7
370
    30
100
AcDbLine
 10
331.9946515386
 20
350.256012031
 30
0.0
 11
331.9946515386
 21
282.2560120608
 31
0.0
  0
ARC
  5
27C
330
1F
100
AcDbEntity
  8
0
  6
Continuous
 62
     7
370
    30
100
AcDbCircle
 10
400.9946516876
 20
350.2560124185
 30
0.0
 40
1.000000000000057
100
AcDbArc
 50
0.0
 51
90.0
  0
ARC
  5
27D
330
1F
100
AcDbEntity
  8
0
  6
Continuous
 62
     7
370
    30
100
AcDbCircle
 10
400.9946516876
 20
282.2560124185
 30
0.0
 40
3.000000000000057
100
AcDbArc
 50
270.0
 51
0.0
  0
ARC
  5
27E
330
1F
100
AcDbEntity
  8
0
  6
Continuous
 62
     7
370
    30
100
AcDbCircle
 10
332.9946516876
 20
282.2560124185
 30
0.0
 40
3.000000000000057
100
AcDbArc
 50
180.0
 51
270.0
  0
LINE
  5
27F
330
1F
100
AcDbEntity
  8
0
  6
Continuous
 62
     7
370
    30
100
AcDbLine
 10
400.9946535353
 20
279.2560134317
 30
0.0
 11
332.9946498398
 21
279.2560134317
 31
0.0
  0
ARC
  5
280
330
1F
100
AcDbEntity
  8
0
  6
Continuous
 62
     7
370
    30
100
AcDbCircle
 10
332.9946516876
 20
350.2560124185
 30
0.0
 40
5.0
100
AcDbArc
 50
90.0
 51
180.0
  0
LINE
  5
281
330
1F
100
AcDbEntity
  8
0
  6
Continuous
 62
     7
370
    30
100
AcDbLine
 10
332.9946498398
 20
355.2560128506
 30
0.0
 11
400.9946535353
 21
355.2560128506
 31
0.0
  0
ARC
  5
282
330
1F
100
AcDbEntity
  8
0
  6
Continuous
 62
     7
370
    30
100
AcDbCircle
 10
400.9946516876
 20
350.2560124185
 30
0.0
 40
5.000000000000057
100
AcDbArc
 50
0.0
 51
90.0
  0
LINE
  5
283
330
1F
100
AcDbEntity
  8
0
  6
Continuous
 62
     7
370
    30
100
AcDbLine
 10
405.9946524922
 20
350.256012031
 30
0.0
 11
405.9946524922
 21
282.2560120608
 31
0.0
  0
LINE
  5
284
330
1F
100
AcDbEntity
  8
0
  6
Continuous
 62
     7
370
    30
100
AcDbLine
 10
327.9946508829
 20
350.256012031
 30
0.0
 11
327.9946508829
 21
282.2560120608
 31
0.0
  0
ARC
  5
285
330
1F
100
AcDbEntity
  8
0
  6
Continuous
 62
     7
370
    30
100
AcDbCircle
 10
400.9946516876
 20
282.2560124185
 30
0.0
 40
5.000000000000057
100
AcDbArc
 50
270.0
 51
0.0
  0
ARC
  5
286
330
1F
100
AcDbEntity
  8
0
  6
Continuous
 62
     7
370
    30
100
AcDbCircle
 10
332.9946516876
 20
282.2560124185
 30
0.0
 40
5.000000000000057
100
AcDbArc
 50
180.0
 51
270.0
  0
LINE
  5
287
330
1F
100
AcDbEntity
  8
0
  6
Continuous
 62
     7
370
    30
100
AcDbLine
 10
400.9946535353
 20
277.2560093786
 30
0.0
 11
332.9946498398
 21
277.2560093786
 31
0.0
  0
CIRCLE
  5
288
330
1F
100
AcDbEntity
  8
0
  6
Continuous
 62
     7
370
    30
100
AcDbCircle
 10
366.9946516876
 20
316.2560124185
 30
0.0
 40
10.0
  0
CIRCLE
  5
289
330
1F
100
AcDbEntity
  8
0
  6
Continuous
 62
     7
370
    30
100
AcDbCircle
 10
366.9946516876
 20
316.2560124185
 30
0.0
 40
8.999999999999966
  0
ELLIPSE
  5
28A
330
1F
100
AcDbEntity
  8
0
  6
Continuous
 62
     7
370
    30
100
AcDbEllipse
 10
405.5289486576
 20
354.7903093885
 30
0.0
 11
4.959450084581648
 21
4.95945008458142
 31
0.0
210
0.0
220
0.0
230
1.0
 40
0.9980436105
 41
5.499156671652581
 42
7.067213942706651
  0
ELLIPSE
  5
28B
330
1F
100
AcDbEntity
  8
0
  6
Continuous
 62
     7
370
    30
100
AcDbEllipse
 10
328.4603547175
 20
354.7903093885
 30
0.0
 11
4.959450084581648
 21
-4.95945008458142
 31
0.0
210
0.0
220
0.0
230
1.0
 40
0.9980436105
 41
2.357564018062717
 42
3.925621289116829
  0
ELLIPSE
  5
28C
330
1F
100
AcDbEntity
  8
0
  6
Continuous
 62
     7
370
    30
100
AcDbEllipse
 10
405.5289486576
 20
277.7217154484
 30
0.0
 11
4.959450084581476
 21
-4.959450084581703
 31
0.0
210
0.0
220
0.0
230
1.0
 40
0.9980436105
 41
5.499156671652567
 42
7.067213942706656
  0
ELLIPSE
  5
28D
330
1F
100
AcDbEntity
  8
0
  6
Continuous
 62
     7
370
    30
100
AcDbEllipse
 10
328.4603547175
 20
277.7217154484
 30
0.0
 11
4.95945008458142
 21
4.959450084581705
 31
0.0
210
0.0
220
0.0
230
1.0
 40
0.9980436105
 41
2.357564018062714
 42
3.925621289116829
  0
LINE
  5
28E
330
1F
100
AcDbEntity
  8
0
  6
Continuous
 62
     7
370
    30
100
AcDbLine
 10
350.8408057515
 20
364.2367815833
 30
0.0
 11
350.8408057515
 21
364.0060119565
 31
0.0
  0
LINE
  5
28F
330
1F
100
AcDbEntity
  8
0
  6
Continuous
 62
     7
370
    30
100
AcDbLine
 10
349.6236584161
 20
364.2367815833
 30
0.0
 11
350.8408057515
 21
364.2367815833
 31
0.0
  0
LINE
  5
290
330
1F
100
AcDbEntity
  8
0
  6
Continuous
 62
     7
370
    30
100
AcDbLine
 10
349.7210132901
 20
364.3653869863
 30
0.0
 11
349.6236584161
 21
364.2367815833
 31
0.0
  0
LINE
  5
291
330
1F
100
AcDbEntity
  8
0
  6
Continuous
 62
     7
370
    30
100
AcDbLine
 10
350.7895234053
 20
365.7752431232
 30
0.0
 11
349.7210132901
 21
364.3653869863
 31
0.0
  0
LINE
  5
292
330
1F
100
AcDbEntity
  8
0
  6
Continuous
 62
     7
370
    30
100
AcDbLine
 10
350.7895234053
 20
366.0060122843
 30
0.0
 11
350.7895234053
 21
365.7752431232
 31
0.0
  0
LINE
  5
293
330
1F
100
AcDbEntity
  8
0
  6
Continuous
 62
     7
370
    30
100
AcDbLine
 10
349.4049075071
 20
366.0060122843
 30
0.0
 11
350.7895234053
 21
366.0060122843
 31
0.0
  0
LINE
  5
294
330
1F
100
AcDbEntity
  8
0
  6
Continuous
 62
     7
370
    30
100
AcDbLine
 10
349.4049075071
 20
365.7752431232
 30
0.0
 11
349.4049075071
 21
366.0060122843
 31
0.0
  0
LINE
  5
295
330
1F
100
AcDbEntity
  8
0
  6
Continuous
 62
     7
370
    30
100
AcDbLine
 10
350.4357568
 20
365.7752431232
 30
0.0
 11
349.4049075071
 21
365.7752431232
 31
0.0
  0
SPLINE
  5
296
330
1F
100
AcDbEntity
  8
0
  6
Continuous
 62
     7
370
    30
100
AcDbSpline
210
0.0
220
0.0
230
1.0
 70
     8
 71
     3
 72
     9
 73
     5
 74
     0
 42
0.00000001
 43
0.00000001
 40
0.0
 40
0.0
 40
0.0
 40
0.0
 40
0.5600021562363802
 40
1.0
 40
1.0
 40
1.0
 40
1.0
 10
350.2614784066101
 20
365.5456758338585
 30
0.0
 10
350.2939936313989
 20
365.5885413653499
 30
0.0
 10
350.3520563092416
 20
365.6650866625671
 30
0.0
 10
350.4101817370808
 20
365.7415843192275
 30
0.0
 10
350.4357567999979
 20
365.7752431232109
 30
0.0
  0
LINE
  5
297
330
1F
100
AcDbEntity
  8
0
  6
Continuous
 62
     7
370
    30
100
AcDbLine
 10
349.2767035041
 20
364.2463974889
 30
0.0
 11
350.2614784066
 21
365.5456758339
 31
0.0
  0
LINE
  5
298
330
1F
100
AcDbEntity
  8
0
  6
Continuous
 62
     7
370
    30
100
AcDbLine
 10
349.2767035041
 20
364.0060119565
 30
0.0
 11
349.2767035041
 21
364.2463974889
 31
0.0
  0
LINE
  5
299
330
1F
100
AcDbEntity
  8
0
  6
Continuous
 62
     7
370
    30
100
AcDbLine
 10
350.8408057515
 20
364.0060119565
 30
0.0
 11
349.2767035041
 21
364.0060119565
 31
0.0
  0
LINE
  5
29A
330
1F
100
AcDbEntity
  8
0
  6
Continuous
 62
     7
370
    30
100
AcDbLine
 10
346.1709345703
 20
364.6213973175
 30
0.0
 11
345.9433696244
 21
364.0060119565
 31
0.0
  0
LINE
  5
29B
330
1F
100
AcDbEntity
  8
0
  6
Continuous
 62
     7
370
    30
100
AcDbLine
 10
347.0234970574
 20
364.6213973175
 30
0.0
 11
346.1709345703
 21
364.6213973175
 31
0.0
  0
LINE
  5
29C
330
1F
100
AcDbEntity
  8
0
  6
Continuous
 62
     7
370
    30
100
AcDbLine
 10
347.2510620032
 20
364.0060119565
 30
0.0
 11
347.0234970574
 21
364.6213973175
 31
0.0
  0
LINE
  5
29D
330
1F
100
AcDbEntity
  8
0
  6
Continuous
 62
     7
370
    30
100
AcDbLine
 10
347.5503406499
 20
364.0060119565
 30
0.0
 11
347.2510620032
 21
364.0060119565
 31
0.0
  0
LINE
  5
29E
330
1F
100
AcDbEntity
  8
0
  6
Continuous
 62
     7
370
    30
100
AcDbLine
 10
346.7562708084
 20
366.0060122843
 30
0.0
 11
347.5503406499
 21
364.0060119565
 31
0.0
  0
LINE
  5
29F
330
1F
100
AcDbEntity
  8
0
  6
Continuous
 62
     7
370
    30
100
AcDbLine
 10
346.4381608192
 20
366.0060122843
 30
0.0
 11
346.7562708084
 21
366.0060122843
 31
0.0
  0
LINE
  5
2A0
330
1F
100
AcDbEntity
  8
0
  6
Continuous
 62
     7
370
    30
100
AcDbLine
 10
345.6440909777
 20
364.0060119565
 30
0.0
 11
346.4381608192
 21
366.0060122843
 31
0.0
  0
LINE
  5
2A1
330
1F
100
AcDbEntity
  8
0
  6
Continuous
 62
     7
370
    30
100
AcDbLine
 10
345.9433696244
 20
364.0060119565
 30
0.0
 11
345.6440909777
 21
364.0060119565
 31
0.0
  0
SPLINE
  5
2A2
330
1F
100
AcDbEntity
  8
0
  6
Continuous
 62
     7
370
    30
100
AcDbSpline
210
0.0
220
0.0
230
1.0
 70
     8
 71
     3
 72
    11
 73
     7
 74
     0
 42
0.00000001
 43
0.00000001
 40
0.0
 40
0.0
 40
0.0
 40
0.0
 40
0.2812184530359683
 40
0.5607102472918163
 40
0.7801356897102253
 40
1.0
 40
1.0
 40
1.0
 40
1.0
 10
342.0972160075327
 20
365.0220378536358
 30
0.0
 10
342.1027613341216
 20
364.9146294616979
 30
0.0
 10
342.113817939438
 20
364.7004721567468
 30
0.0
 10
342.2305039981349
 20
364.4131407927849
 30
0.0
 10
342.4625090256986
 20
364.2405872214516
 30
0.0
 10
342.6313174928019
 20
364.2209625492205
 30
0.0
 10
342.7158060495278
 20
364.2111404101923
 30
0.0
  0
SPLINE
  5
2A3
330
1F
100
AcDbEntity
  8
0
  6
Continuous
 62
     7
370
    30
100
AcDbSpline
210
0.0
220
0.0
230
1.0
 70
     8
 71
     3
 72
    11
 73
     7
 74
     0
 42
0.00000001
 43
0.00000001
 40
0.0
 40
0.0
 40
0.0
 40
0.0
 40
0.187200254222505
 40
0.373883072415794
 40
0.5607568258827657
 40
1.0
 40
1.0
 40
1.0
 40
1.0
 10
342.7230163489004
 20
365.8008842963353
 30
0.0
 10
342.652339456513
 20
365.7959991016287
 30
0.0
 10
342.5111810281531
 20
365.7862422152728
 30
0.0
 10
342.3220805992833
 20
365.679318657542
 30
0.0
 10
342.1281862749649
 20
365.4330790132383
 30
0.0
 10
342.1099849093796
 20
365.1915082734013
 30
0.0
 10
342.0972160075327
 20
365.0220378536358
 30
0.0
  0
SPLINE
  5
2A4
330
1F
100
AcDbEntity
  8
0
  6
Continuous
 62
     7
370
    30
100
AcDbSpline
210
0.0
220
0.0
230
1.0
 70
     8
 71
     3
 72
    11
 73
     7
 74
     0
 42
0.00000001
 43
0.00000001
 40
0.0
 40
0.0
 40
0.0
 40
0.0
 40
0.2805701508973598
 40
0.5596948251795825
 40
0.7796343710857173
 40
0.9999999999999999
 40
0.9999999999999999
 40
0.9999999999999999
 40
0.9999999999999999
 10
343.2254201744219
 20
365.3898264515772
 30
0.0
 10
343.2033154489021
 20
365.452044922527
 30
0.0
 10
343.1592198797693
 20
365.5761613194771
 30
0.0
 10
343.0355073033573
 20
365.718844010354
 30
0.0
 10
342.8784267401033
 20
365.7915497116211
 30
0.0
 10
342.7748532219749
 20
365.7977707613954
 30
0.0
 10
342.7230163489004
 20
365.8008842963353
 30
0.0
  0
LINE
  5
2A5
330
1F
100
AcDbEntity
  8
0
  6
Continuous
 62
     7
370
    30
100
AcDbLine
 10
343.5074730788
 20
365.4503233034
 30
0.0
 11
343.2254201744
 21
365.3898264516
 31
0.0
  0
SPLINE
  5
2A6
330
1F
100
AcDbEntity
  8
0
  6
Continuous
 62
     7
370
    30
100
AcDbSpline
210
0.0
220
0.0
230
1.0
 70
     8
 71
     3
 72
    11
 73
     7
 74
     0
 42
0.00000001
 43
0.00000001
 40
0.0
 40
0.0
 40
0.0
 40
0.0
 40
0.2800584010911126
 40
0.5593788726111092
 40
0.7795539608508296
 40
1.0
 40
1.0
 40
1.0
 40
1.0
 10
342.7366397355219
 20
366.0316534574702
 30
0.0
 10
342.8346186658733
 20
366.0244134310572
 30
0.0
 10
343.0303183606015
 20
366.0099524550719
 30
0.0
 10
343.2710459982094
 20
365.8658078686084
 30
0.0
 10
343.4312019816966
 20
365.6681878398854
 30
0.0
 10
343.4820389593735
 20
365.5229745808513
 30
0.0
 10
343.5074730787894
 20
365.4503233033791
 30
0.0
  0
SPLINE
  5
2A7
330
1F
100
AcDbEntity
  8
0
  6
Continuous
 62
     7
370
    30
100
AcDbSpline
210
0.0
220
0.0
230
1.0
 70
     8
 71
     3
 72
    11
 73
     7
 74
     0
 42
0.00000001
 43
0.00000001
 40
0.0
 40
0.0
 40
0.0
 40
0.0
 40
0.280509888547135
 40
0.5595574818971873
 40
0.779615240122951
 40
1.0
 40
1.0
 40
1.0
 40
1.0
 10
341.8151649658104
 20
365.0208359818533
 30
0.0
 10
341.8258437768883
 20
365.1651552981211
 30
0.0
 10
341.8471457305105
 20
365.4530415955282
 30
0.0
 10
342.0705690090155
 20
365.8062241946062
 30
0.0
 10
342.3974931486269
 20
366.0002250405192
 30
0.0
 10
342.6235349324871
 20
366.0211721345075
 30
0.0
 10
342.7366397355219
 20
366.0316534574702
 30
0.0
  0
SPLINE
  5
2A8
330
1F
100
AcDbEntity
  8
0
  6
Continuous
 62
     7
370
    30
100
AcDbSpline
210
0.0
220
0.0
230
1.0
 70
     8
 71
     3
 72
    11
 73
     7
 74
     0
 42
0.00000001
 43
0.00000001
 40
0.0
 40
0.0
 40
0.0
 40
0.0
 40
0.279942263998841
 40
0.5580816176165379
 40
0.7789086692729265
 40
1.0
 40
1.0
 40
1.0
 40
1.0
 10
342.7422481600663
 20
363.9803717147186
 30
0.0
 10
342.5923744620232
 20
363.9913614484236
 30
0.0
 10
342.2935922965606
 20
364.0132701387216
 30
0.0
 10
341.9777285150336
 20
364.3171486010958
 30
0.0
 10
341.8397787033238
 20
364.6734278760005
 30
0.0
 10
341.8233728153689
 20
364.9049871203517
 30
0.0
 10
341.8151649658104
 20
365.0208359818533
 30
0.0
  0
SPLINE
  5
2A9
330
1F
100
AcDbEntity
  8
0
  6
Continuous
 62
     7
370
    30
100
AcDbSpline
210
0.0
220
0.0
230
1.0
 70
     8
 71
     3
 72
    11
 73
     7
 74
     0
 42
0.00000001
 43
0.00000001
 40
0.0
 40
0.0
 40
0.0
 40
0.0
 40
0.2802627481715218
 40
0.5595516133043358
 40
0.779590431436582
 40
1.0
 40
1.0
 40
1.0
 40
1.0
 10
343.5587535623928
 20
364.6462366219237
 30
0.0
 10
343.5256607977049
 20
364.5438137765161
 30
0.0
 10
343.4595902621425
 20
364.3393239941207
 30
0.0
 10
343.2479630985256
 20
364.1165079765855
 30
0.0
 10
342.9949510111302
 20
363.9968188602824
 30
0.0
 10
342.8265297003496
 20
363.9858571722651
 30
0.0
 10
342.7422481600663
 20
363.9803717147186
 30
0.0
  0
LINE
  5
2AA
330
1F
100
AcDbEntity
  8
0
  6
Continuous
 62
     7
370
    30
100
AcDbLine
 10
343.2767025207
 20
364.7119418952
 30
0.0
 11
343.5587535624
 21
364.6462366219
 31
0.0
  0
SPLINE
  5
2AB
330
1F
100
AcDbEntity
  8
0
  6
Continuous
 62
     7
370
    30
100
AcDbSpline
210
0.0
220
0.0
230
1.0
 70
     8
 71
     3
 72
    10
 73
     6
 74
     0
 42
0.00000001
 43
0.00000001
 40
0.0
 40
0.0
 40
0.0
 40
0.0
 40
0.2807487570285284
 40
0.5609032571776403
 40
1.0
 40
1.0
 40
1.0
 40
1.0
 10
342.7158060495278
 20
364.2111404101923
 30
0.0
 10
342.7926936442559
 20
364.2185814388092
 30
0.0
 10
342.9463060868399
 20
364.2334477457242
 30
0.0
 10
343.180073816819
 20
364.4032246179659
 30
0.0
 10
343.2400733300951
 20
364.5949159647097
 30
0.0
 10
343.2767025206705
 20
364.7119418952241
 30
0.0
  0
LINE
  5
2AC
330
1F
100
AcDbEntity
  8
0
  6
Continuous
 62
     7
370
    30
100
AcDbLine
 10
338.3536252205
 20
365.4984000373
 30
0.0
 11
338.3536252205
 21
364.0060119565
 31
0.0
  0
LINE
  5
2AD
330
1F
100
AcDbEntity
  8
0
  6
Continuous
 62
     7
370
    30
100
AcDbLine
 10
339.311959875
 20
364.0060119565
 30
0.0
 11
338.3536252205
 21
365.4984000373
 31
0.0
  0
LINE
  5
2AE
330
1F
100
AcDbEntity
  8
0
  6
Continuous
 62
     7
370
    30
100
AcDbLine
 10
339.6100371156
 20
364.0060119565
 30
0.0
 11
339.311959875
 21
364.0060119565
 31
0.0
  0
LINE
  5
2AF
330
1F
100
AcDbEntity
  8
0
  6
Continuous
 62
     7
370
    30
100
AcDbLine
 10
339.6100371156
 20
366.0060122843
 30
0.0
 11
339.6100371156
 21
364.0060119565
 31
0.0
  0
LINE
  5
2B0
330
1F
100
AcDbEntity
  8
0
  6
Continuous
 62
     7
370
    30
100
AcDbLine
 10
339.3279842113
 20
366.0060122843
 30
0.0
 11
339.6100371156
 21
366.0060122843
 31
0.0
  0
LINE
  5
2B1
330
1F
100
AcDbEntity
  8
0
  6
Continuous
 62
     7
370
    30
100
AcDbLine
 10
339.3279842113
 20
364.5136246692
 30
0.0
 11
339.3279842113
 21
366.0060122843
 31
0.0
  0
LINE
  5
2B2
330
1F
100
AcDbEntity
  8
0
  6
Continuous
 62
     7
370
    30
100
AcDbLine
 10
338.3696514193
 20
366.0060122843
 30
0.0
 11
339.3279842113
 21
364.5136246692
 31
0.0
  0
LINE
  5
2B3
330
1F
100
AcDbEntity
  8
0
  6
Continuous
 62
     7
370
    30
100
AcDbLine
 10
338.0715741788
 20
366.0060122843
 30
0.0
 11
338.3696514193
 21
366.0060122843
 31
0.0
  0
LINE
  5
2B4
330
1F
100
AcDbEntity
  8
0
  6
Continuous
 62
     7
370
    30
100
AcDbLine
 10
338.0715741788
 20
364.0060119565
 30
0.0
 11
338.0715741788
 21
366.0060122843
 31
0.0
  0
LINE
  5
2B5
330
1F
100
AcDbEntity
  8
0
  6
Continuous
 62
     7
370
    30
100
AcDbLine
 10
338.3536252205
 20
364.0060119565
 30
0.0
 11
338.0715741788
 21
364.0060119565
 31
0.0
  0
SPLINE
  5
2B6
330
1F
100
AcDbEntity
  8
0
  6
Continuous
 62
     7
370
    30
100
AcDbSpline
210
0.0
220
0.0
230
1.0
 70
     8
 71
     3
 72
    11
 73
     7
 74
     0
 42
0.00000001
 43
0.00000001
 40
0.0
 40
0.0
 40
0.0
 40
0.0
 40
0.2808298659945959
 40
0.5599574523598887
 40
0.7790660689029288
 40
1.0
 40
1.0
 40
1.0
 40
1.0
 10
335.8664463285824
 20
365.0168298977986
 30
0.0
 10
335.8563480370444
 20
364.8707816388484
 30
0.0
 10
335.8362126658196
 20
364.5795704077575
 30
0.0
 10
335.6323785212566
 20
364.2036134534162
 30
0.0
 10
335.287254503065
 20
364.0199897463353
 30
0.0
 10
335.0572468258305
 20
364.010684086545
 30
0.0
 10
334.9417659465691
 20
364.0060119565204
 30
0.0
  0
SPLINE
  5
2B7
330
1F
100
AcDbEntity
  8
0
  6
Continuous
 62
     7
370
    30
100
AcDbSpline
210
0.0
220
0.0
230
1.0
 70
     8
 71
     3
 72
    10
 73
     6
 74
     0
 42
0.00000001
 43
0.00000001
 40
0.0
 40
0.0
 40
0.0
 40
0.0
 40
0.2797705144047614
 40
0.55991717484991
 40
1.0
 40
1.0
 40
1.0
 40
1.0
 10
335.5535442952534
 20
365.8341376345232
 30
0.0
 10
335.6123355626451
 20
365.7732301972499
 30
0.0
 10
335.7299971411493
 20
365.651333433833
 30
0.0
 10
335.8444422992621
 20
365.3660273194271
 30
0.0
 10
335.8581006484596
 20
365.1492733670459
 30
0.0
 10
335.8664463285824
 20
365.0168298977986
 30
0.0
  0
SPLINE
  5
2B8
330
1F
100
AcDbEntity
  8
0
  6
Continuous
 62
     7
370
    30
100
AcDbSpline
210
0.0
220
0.0
230
1.0
 70
     8
 71
     3
 72
     9
 73
     5
 74
     0
 42
0.00000001
 43
0.00000001
 40
0.0
 40
0.0
 40
0.0
 40
0.0
 40
0.559865879896401
 40
1.0
 40
1.0
 40
1.0
 40
1.0
 10
335.2626810793301
 20
365.9771664302423
 30
0.0
 10
335.3218845571012
 20
365.9601183562062
 30
0.0
 10
335.4276303792649
 20
365.9296680740076
 30
0.0
 10
335.5150624553686
 20
365.8633336693499
 30
0.0
 10
335.5535442952534
 20
365.8341376345232
 30
0.0
  0
SPLINE
  5
2B9
330
1F
100
AcDbEntity
  8
0
  6
Continuous
 62
     7
370
    30
100
AcDbSpline
210
0.0
220
0.0
230
1.0
 70
     8
 71
     3
 72
     9
 73
     5
 74
     0
 42
0.00000001
 43
0.00000001
 40
0.0
 40
0.0
 40
0.0
 40
0.0
 40
0.5601594162869774
 40
1.0
 40
1.0
 40
1.0
 40
1.0
 10
334.9093149427792
 20
366.0060122843459
 30
0.0
 10
334.9757456325409
 20
366.0057337416555
 30
0.0
 10
335.094338104309
 20
366.005236485549
 30
0.0
 10
335.2112558915456
 20
365.9857412333495
 30
0.0
 10
335.2626810793301
 20
365.9771664302423
 30
0.0
  0
LINE
  5
2BA
330
1F
100
AcDbEntity
  8
0
  6
Continuous
 62
     7
370
    30
100
AcDbLine
 10
334.2254224245
 20
366.0060122843
 30
0.0
 11
334.9093149428
 21
366.0060122843
 31
0.0
  0
LINE
  5
2BB
330
1F
100
AcDbEntity
  8
0
  6
Continuous
 62
     7
370
    30
100
AcDbLine
 10
334.2254224245
 20
364.0060119565
 30
0.0
 11
334.2254224245
 21
366.0060122843
 31
0.0
  0
LINE
  5
2BC
330
1F
100
AcDbEntity
  8
0
  6
Continuous
 62
     7
370
    30
100
AcDbLine
 10
334.9417659466
 20
364.0060119565
 30
0.0
 11
334.2254224245
 21
364.0060119565
 31
0.0
  0
SPLINE
  5
2BD
330
1F
100
AcDbEntity
  8
0
  6
Continuous
 62
     7
370
    30
100
AcDbSpline
210
0.0
220
0.0
230
1.0
 70
     8
 71
     3
 72
    11
 73
     7
 74
     0
 42
0.00000001
 43
0.00000001
 40
0.0
 40
0.0
 40
0.0
 40
0.0
 40
0.187144117774639
 40
0.3743187680053711
 40
0.5607853530557798
 40
1.0
 40
1.0
 40
1.0
 40
1.0
 10
331.7125986341854
 20
364.5789290081337
 30
0.0
 10
331.7062874274891
 20
364.5129699952391
 30
0.0
 10
331.6936639844267
 20
364.3810412082744
 30
0.0
 10
331.5964364027633
 20
364.2025821295243
 30
0.0
 10
331.3636591567547
 20
364.0209325543805
 30
0.0
 10
331.1360189711562
 20
364.0121659338725
 30
0.0
 10
330.9762205008885
 20
364.0060119565204
 30
0.0
  0
SPLINE
  5
2BE
330
1F
100
AcDbEntity
  8
0
  6
Continuous
 62
     7
370
    30
100
AcDbSpline
210
0.0
220
0.0
230
1.0
 70
     8
 71
     3
 72
    11
 73
     7
 74
     0
 42
0.00000001
 43
0.00000001
 40
0.0
 40
0.0
 40
0.0
 40
0.0
 40
0.2801999741164028
 40
0.5596454599464147
 40
0.7797227203958191
 40
1.0
 40
1.0
 40
1.0
 40
1.0
 10
331.3355955306908
 20
365.0572944666818
 30
0.0
 10
331.393708765425
 20
365.0361637541717
 30
0.0
 10
331.5097787546688
 20
364.9939592273548
 30
0.0
 10
331.6332925586971
 20
364.8687375909832
 30
0.0
 10
331.7026501625513
 20
364.72406504127
 30
0.0
 10
331.7092814729428
 20
364.6273223334331
 30
0.0
 10
331.7125986341854
 20
364.5789290081337
 30
0.0
  0
SPLINE
  5
2BF
330
1F
100
AcDbEntity
  8
0
  6
Continuous
 62
     7
370
    30
100
AcDbSpline
210
0.0
220
0.0
230
1.0
 70
     8
 71
     3
 72
    10
 73
     6
 74
     0
 42
0.00000001
 43
0.00000001
 40
0.0
 40
0.0
 40
0.0
 40
0.0
 40
0.2803064163518621
 40
0.5607828246631061
 40
1.0
 40
1.0
 40
1.0
 40
1.0
 10
331.6356788401028
 20
365.4875827256217
 30
0.0
 10
331.6300135217696
 20
365.4359613338945
 30
0.0
 10
331.6186794493681
 20
365.3326872446222
 30
0.0
 10
331.5224876718017
 20
365.1673254589672
 30
0.0
 10
331.4064260391445
 20
365.0989952631033
 30
0.0
 10
331.3355955306908
 20
365.0572944666818
 30
0.0
  0
SPLINE
  5
2C0
330
1F
100
AcDbEntity
  8
0
  6
Continuous
 62
     7
370
    30
100
AcDbSpline
210
0.0
220
0.0
230
1.0
 70
     8
 71
     3
 72
    11
 73
     7
 74
     0
 42
0.00000001
 43
0.00000001
 40
0.0
 40
0.0
 40
0.0
 40
0.0
 40
0.2811887922393417
 40
0.5600177891093565
 40
0.7800659230199465
 40
1.0
 40
1.0
 40
1.0
 40
1.0
 10
330.9742200199982
 20
366.0060122843459
 30
0.0
 10
331.0630090678307
 20
366.0031177880069
 30
0.0
 10
331.2398420271683
 20
365.9973530865496
 30
0.0
 10
331.4711249383454
 20
365.8875652591638
 30
0.0
 10
331.6079858911808
 20
365.6954352162929
 30
0.0
 10
331.6264494525699
 20
365.556854914419
 30
0.0
 10
331.6356788401028
 20
365.4875827256217
 30
0.0
  0
LINE
  5
2C1
330
1F
100
AcDbEntity
  8
0
  6
Continuous
 62
     7
370
    30
100
AcDbLine
 10
330.2254217688
 20
366.0060122843
 30
0.0
 11
330.97422002
 21
366.0060122843
 31
0.0
  0
LINE
  5
2C2
330
1F
100
AcDbEntity
  8
0
  6
Continuous
 62
     7
370
    30
100
AcDbLine
 10
330.2254217688
 20
364.0060119565
 30
0.0
 11
330.2254217688
 21
366.0060122843
 31
0.0
  0
LINE
  5
2C3
330
1F
100
AcDbEntity
  8
0
  6
Continuous
 62
     7
370
    30
100
AcDbLine
 10
330.9762205009
 20
364.0060119565
 30
0.0
 11
330.2254217688
 21
364.0060119565
 31
0.0
  0
LINE
  5
2C4
330
1F
100
AcDbEntity
  8
0
  6
Continuous
 62
     7
370
    30
100
AcDbLine
 10
326.744652075
 20
267.5060156967
 30
0.0
 11
407.2446513001
 21
267.5060156967
 31
0.0
  0
ARC
  5
2C5
330
1F
100
AcDbEntity
  8
0
  6
Continuous
 62
     7
370
    30
100
AcDbCircle
 10
326.7446516876
 20
276.0060124185
 30
0.0
 40
8.5
100
AcDbArc
 50
180.0
 51
270.0
  0
LINE
  5
2C6
330
1F
100
AcDbEntity
  8
0
  6
Continuous
 62
     7
370
    30
100
AcDbLine
 10
318.2446534757
 20
360.5060123141
 30
0.0
 11
318.2446534757
 21
276.0060105707
 31
0.0
  0
ARC
  5
2C7
330
1F
100
AcDbEntity
  8
0
  6
Continuous
 62
     7
370
    30
100
AcDbCircle
 10
326.7446516876
 20
360.5060124185
 30
0.0
 40
8.5
100
AcDbArc
 50
90.0
 51
180.0
  0
LINE
  5
2C8
330
1F
100
AcDbEntity
  8
0
  6
Continuous
 62
     7
370
    30
100
AcDbLine
 10
407.2446513001
 20
369.0060123104
 30
0.0
 11
326.744652075
 21
369.0060123104
 31
0.0
  0
ARC
  5
2C9
330
1F
100
AcDbEntity
  8
0
  6
Continuous
 62
     7
370
    30
100
AcDbCircle
 10
407.2446516876
 20
360.5060124185
 30
0.0
 40
8.500000000000057
100
AcDbArc
 50
0.0
 51
90.0
  0
LINE
  5
2CA
330
1F
100
AcDbEntity
  8
0
  6
Continuous
 62
     7
370
    30
100
AcDbLine
 10
415.7446498994
 20
276.0060105707
 30
0.0
 11
415.7446498994
 21
360.5060123141
 31
0.0
  0
ARC
  5
2CB
330
1F
100
AcDbEntity
  8
0
  6
Continuous
 62
     7
370
    30
100
AcDbCircle
 10
407.2446516876
 20
276.0060124185
 30
0.0
 40
8.500000000000057
100
AcDbArc
 50
270.0
 51
0.0
  0
SPLINE
  5
2CC
330
1F
100
AcDbEntity
  8
0
  6
Continuous
 62
     7
370
    30
100
AcDbSpline
210
0.0
220
0.0
230
1.0
 70
     8
 71
     3
 72
    11
 73
     7
 74
     0
 42
0.00000001
 43
0.00000001
 40
0.0
 40
0.0
 40
0.0
 40
0.0
 40
0.2803569737191572
 40
0.5595107075788994
 40
0.7796390538656381
 40
1.0
 40
1.0
 40
1.0
 40
1.0
 10
333.8664460007569
 20
365.0028074394539
 30
0.0
 10
333.8538110230115
 20
364.8562281255958
 30
0.0
 10
333.8285952944896
 20
364.5636985889653
 30
0.0
 10
333.5956852635133
 20
364.2082777007463
 30
0.0
 10
333.2622348711681
 20
364.0140540026088
 30
0.0
 10
333.03260540607
 20
363.9916030957403
 30
0.0
 10
332.9177300457379
 20
363.9803717147186
 30
0.0
  0
SPLINE
  5
2CD
330
1F
100
AcDbEntity
  8
0
  6
Continuous
 62
     7
370
    30
100
AcDbSpline
210
0.0
220
0.0
230
1.0
 70
     8
 71
     3
 72
    11
 73
     7
 74
     0
 42
0.00000001
 43
0.00000001
 40
0.0
 40
0.0
 40
0.0
 40
0.0
 40
0.2796153260430645
 40
0.5585720091142982
 40
0.779077989971755
 40
1.0
 40
1.0
 40
1.0
 40
1.0
 10
332.918929589214
 20
366.0316534574702
 30
0.0
 10
333.0662277907521
 20
366.0145359584169
 30
0.0
 10
333.3604772281359
 20
365.9803412811345
 30
0.0
 10
333.6840874453011
 20
365.6971210077207
 30
0.0
 10
333.843231266974
 20
365.3490152578621
 30
0.0
 10
333.8587028956878
 20
365.1182825312101
 30
0.0
 10
333.8664460007569
 20
365.0028074394539
 30
0.0
  0
SPLINE
  5
2CE
330
1F
100
AcDbEntity
  8
0
  6
Continuous
 62
     7
370
    30
100
AcDbSpline
210
0.0
220
0.0
230
1.0
 70
     8
 71
     3
 72
    11
 73
     7
 74
     0
 42
0.00000001
 43
0.00000001
 40
0.0
 40
0.0
 40
0.0
 40
0.0
 40
0.2805804940517659
 40
0.5596078342638693
 40
0.7795790330955209
 40
1.0
 40
1.0
 40
1.0
 40
1.0
 10
331.9690103654286
 20
364.9795700098946
 30
0.0
 10
331.9786681368421
 20
365.1297192917722
 30
0.0
 10
331.9979302190577
 20
365.4291867039021
 30
0.0
 10
332.2321209786115
 20
365.7925162074781
 30
0.0
 10
332.5657733593292
 20
366.0029819499975
 30
0.0
 10
332.8011307232192
 20
366.0220897834336
 30
0.0
 10
332.918929589214
 20
366.0316534574702
 30
0.0
  0
SPLINE
  5
2CF
330
1F
100
AcDbEntity
  8
0
  6
Continuous
 62
     7
370
    30
100
AcDbSpline
210
0.0
220
0.0
230
1.0
 70
     8
 71
     3
 72
    11
 73
     7
 74
     0
 42
0.00000001
 43
0.00000001
 40
0.0
 40
0.0
 40
0.0
 40
0.0
 40
0.2795871292786677
 40
0.5587733947260105
 40
0.7793006023196342
 40
1.0
 40
1.0
 40
1.0
 40
1.0
 10
332.9177300457379
 20
363.9803717147186
 30
0.0
 10
332.7732732500486
 20
363.9970537377325
 30
0.0
 10
332.4845667765898
 20
364.0303938655643
 30
0.0
 10
332.1647820452498
 20
364.3036756789253
 30
0.0
 10
331.9985726386628
 20
364.6403951650699
 30
0.0
 10
331.9788670199001
 20
364.8664823178761
 30
0.0
 10
331.9690103654286
 20
364.9795700098946
 30
0.0
  0
LINE
  5
2D0
330
1F
100
AcDbEntity
  8
0
  6
Continuous
 62
     7
370
    30
100
AcDbLine
 10
337.6869603072
 20
364.2367815833
 30
0.0
 11
337.6869603072
 21
364.0060119565
 31
0.0
  0
LINE
  5
2D1
330
1F
100
AcDbEntity
  8
0
  6
Continuous
 62
     7
370
    30
100
AcDbLine
 10
336.5074719314
 20
364.2367815833
 30
0.0
 11
337.6869603072
 21
364.2367815833
 31
0.0
  0
LINE
  5
2D2
330
1F
100
AcDbEntity
  8
0
  6
Continuous
 62
     7
370
    30
100
AcDbLine
 10
336.5074719314
 20
364.9290895324
 30
0.0
 11
336.5074719314
 21
364.2367815833
 31
0.0
  0
LINE
  5
2D3
330
1F
100
AcDbEntity
  8
0
  6
Continuous
 62
     7
370
    30
100
AcDbLine
 10
337.5587544416
 20
364.9290895324
 30
0.0
 11
336.5074719314
 21
364.9290895324
 31
0.0
  0
LINE
  5
2D4
330
1F
100
AcDbEntity
  8
0
  6
Continuous
 62
     7
370
    30
100
AcDbLine
 10
337.5587544416
 20
365.1598586935
 30
0.0
 11
337.5587544416
 21
364.9290895324
 31
0.0
  0
LINE
  5
2D5
330
1F
100
AcDbEntity
  8
0
  6
Continuous
 62
     7
370
    30
100
AcDbLine
 10
336.5074719314
 20
365.1598586935
 30
0.0
 11
337.5587544416
 21
365.1598586935
 31
0.0
  0
LINE
  5
2D6
330
1F
100
AcDbEntity
  8
0
  6
Continuous
 62
     7
370
    30
100
AcDbLine
 10
336.5074719314
 20
365.7752431232
 30
0.0
 11
336.5074719314
 21
365.1598586935
 31
0.0
  0
LINE
  5
2D7
330
1F
100
AcDbEntity
  8
0
  6
Continuous
 62
     7
370
    30
100
AcDbLine
 10
337.6356779609
 20
365.7752431232
 30
0.0
 11
336.5074719314
 21
365.7752431232
 31
0.0
  0
LINE
  5
2D8
330
1F
100
AcDbEntity
  8
0
  6
Continuous
 62
     7
370
    30
100
AcDbLine
 10
337.6356779609
 20
366.0060122843
 30
0.0
 11
337.6356779609
 21
365.7752431232
 31
0.0
  0
LINE
  5
2D9
330
1F
100
AcDbEntity
  8
0
  6
Continuous
 62
     7
370
    30
100
AcDbLine
 10
336.2254208897
 20
366.0060122843
 30
0.0
 11
337.6356779609
 21
366.0060122843
 31
0.0
  0
LINE
  5
2DA
330
1F
100
AcDbEntity
  8
0
  6
Continuous
 62
     7
370
    30
100
AcDbLine
 10
336.2254208897
 20
364.0060119565
 30
0.0
 11
336.2254208897
 21
366.0060122843
 31
0.0
  0
LINE
  5
2DB
330
1F
100
AcDbEntity
  8
0
  6
Continuous
 62
     7
370
    30
100
AcDbLine
 10
337.6869603072
 20
364.0060119565
 30
0.0
 11
336.2254208897
 21
364.0060119565
 31
0.0
  0
SPLINE
  5
2DC
330
1F
100
AcDbEntity
  8
0
  6
Continuous
 62
     7
370
    30
100
AcDbSpline
210
0.0
220
0.0
230
1.0
 70
     8
 71
     3
 72
    10
 73
     6
 74
     0
 42
0.00000001
 43
0.00000001
 40
0.0
 40
0.0
 40
0.0
 40
0.0
 40
0.2799422052279785
 40
0.5600943941879044
 40
1.0
 40
1.0
 40
1.0
 40
1.0
 10
341.5331139240881
 20
364.5737210522964
 30
0.0
 10
341.5170961893116
 20
364.4763135604049
 30
0.0
 10
341.485048704908
 20
364.2814255115809
 30
0.0
 10
341.2138529452923
 20
364.0271786815615
 30
0.0
 10
340.961140867905
 20
363.9981228326374
 30
0.0
 10
340.8067512337586
 20
363.9803717147186
 30
0.0
  0
SPLINE
  5
2DD
330
1F
100
AcDbEntity
  8
0
  6
Continuous
 62
     7
370
    30
100
AcDbSpline
210
0.0
220
0.0
230
1.0
 70
     8
 71
     3
 72
    11
 73
     7
 74
     0
 42
0.00000001
 43
0.00000001
 40
0.0
 40
0.0
 40
0.0
 40
0.0
 40
0.2802405765943498
 40
0.5596433732404364
 40
0.7797886199284612
 40
1.0
 40
1.0
 40
1.0
 40
1.0
 10
341.1861590121409
 20
365.0572944666818
 30
0.0
 10
341.2389545707576
 20
365.0302998047004
 30
0.0
 10
341.3443878555284
 20
364.9763911813514
 30
0.0
 10
341.4600866570058
 20
364.8544354780399
 30
0.0
 10
341.52357200928
 20
364.7133762887294
 30
0.0
 10
341.5299329673862
 20
364.6202774583456
 30
0.0
 10
341.5331139240881
 20
364.5737210522964
 30
0.0
  0
SPLINE
  5
2DE
330
1F
100
AcDbEntity
  8
0
  6
Continuous
 62
     7
370
    30
100
AcDbSpline
210
0.0
220
0.0
230
1.0
 70
     8
 71
     3
 72
    10
 73
     6
 74
     0
 42
0.00000001
 43
0.00000001
 40
0.0
 40
0.0
 40
0.0
 40
0.0
 40
0.2787308044081919
 40
0.5593569119305377
 40
1.0
 40
1.0
 40
1.0
 40
1.0
 10
340.3996999387165
 20
365.3257239844277
 30
0.0
 10
340.4684648445214
 20
365.2892489097633
 30
0.0
 10
340.6064622411201
 20
365.2160507386101
 30
0.0
 10
340.8808941691836
 20
365.1617637367823
 30
0.0
 10
341.0703905113933
 20
365.0969133453465
 30
0.0
 10
341.1861590121409
 20
365.0572944666818
 30
0.0
  0
SPLINE
  5
2DF
330
1F
100
AcDbEntity
  8
0
  6
Continuous
 62
     7
370
    30
100
AcDbSpline
210
0.0
220
0.0
230
1.0
 70
     8
 71
     3
 72
     9
 73
     5
 74
     0
 42
0.00000001
 43
0.00000001
 40
0.0
 40
0.0
 40
0.0
 40
0.0
 40
0.5596140891954047
 40
1.0
 40
1.0
 40
1.0
 40
1.0
 10
340.3279843751808
 20
365.5024065870419
 30
0.0
 10
340.3314274094279
 20
365.4651211714562
 30
0.0
 10
340.3375799247299
 20
365.3984941577596
 30
0.0
 10
340.3807072654798
 20
365.3479728545547
 30
0.0
 10
340.3996999387165
 20
365.3257239844277
 30
0.0
  0
SPLINE
  5
2E0
330
1F
100
AcDbEntity
  8
0
  6
Continuous
 62
     7
370
    30
100
AcDbSpline
210
0.0
220
0.0
230
1.0
 70
     8
 71
     3
 72
    11
 73
     7
 74
     0
 42
0.00000001
 43
0.00000001
 40
0.0
 40
0.0
 40
0.0
 40
0.0
 40
0.4988019954811744
 40
0.7486140061047137
 40
0.8742761636139755
 40
1.0
 40
1.0
 40
1.0
 40
1.0
 10
340.751462337794
 20
365.8008842963353
 30
0.0
 10
340.6514190967706
 20
365.7957280110715
 30
0.0
 10
340.5012717995971
 20
365.7879893343964
 30
0.0
 10
340.3737965796757
 20
365.6645740046073
 30
0.0
 10
340.333510489985
 20
365.5753012223464
 30
0.0
 10
340.3298267147268
 20
365.5267087729479
 30
0.0
 10
340.3279843751808
 20
365.5024065870419
 30
0.0
  0
SPLINE
  5
2E1
330
1F
100
AcDbEntity
  8
0
  6
Continuous
 62
     7
370
    30
100
AcDbSpline
210
0.0
220
0.0
230
1.0
 70
     8
 71
     3
 72
    10
 73
     6
 74
     0
 42
0.00000001
 43
0.00000001
 40
0.0
 40
0.0
 40
0.0
 40
0.0
 40
0.2811275879380198
 40
0.5602800872315599
 40
1.0
 40
1.0
 40
1.0
 40
1.0
 10
341.1997805361172
 20
365.44190973524
 30
0.0
 10
341.1889948767363
 20
365.5016835877329
 30
0.0
 10
341.1674993336516
 20
365.6208113458248
 30
0.0
 10
341.0065613099534
 20
365.7848427930254
 30
0.0
 10
340.8482799114834
 20
365.7947960733384
 30
0.0
 10
340.751462337794
 20
365.8008842963353
 30
0.0
  0
LINE
  5
2E2
330
1F
100
AcDbEntity
  8
0
  6
Continuous
 62
     7
370
    30
100
AcDbLine
 10
341.4818315778
 20
365.4419097352
 30
0.0
 11
341.1997805361
 21
365.4419097352
 31
0.0
  0
SPLINE
  5
2E3
330
1F
100
AcDbEntity
  8
0
  6
Continuous
 62
     7
370
    30
100
AcDbSpline
210
0.0
220
0.0
230
1.0
 70
     8
 71
     3
 72
    11
 73
     7
 74
     0
 42
0.00000001
 43
0.00000001
 40
0.0
 40
0.0
 40
0.0
 40
0.0
 40
0.280839337452937
 40
0.5601825668362309
 40
0.7798617016240165
 40
1.0
 40
1.0
 40
1.0
 40
1.0
 10
340.7402454887053
 20
366.0316534574702
 30
0.0
 10
340.8394172884238
 20
366.0255911939257
 30
0.0
 10
341.0372325725214
 20
366.0134989621748
 30
0.0
 10
341.2930984951545
 20
365.8873794259487
 30
0.0
 10
341.4493460750596
 20
365.6747191196462
 30
0.0
 10
341.4709955429934
 20
365.5195668556799
 30
0.0
 10
341.4818315778395
 20
365.44190973524
 30
0.0
  0
SPLINE
  5
2E4
330
1F
100
AcDbEntity
  8
0
  6
Continuous
 62
     7
370
    30
100
AcDbSpline
210
0.0
220
0.0
230
1.0
 70
     8
 71
     3
 72
    10
 73
     6
 74
     0
 42
0.00000001
 43
0.00000001
 40
0.0
 40
0.0
 40
0.0
 40
0.0
 40
0.2797765232056161
 40
0.5593807873016113
 40
1.0
 40
1.0
 40
1.0
 40
1.0
 10
340.0459333334585
 20
365.4839771102741
 30
0.0
 10
340.0607057121779
 20
365.5764776570887
 30
0.0
 10
340.0902413742259
 20
365.7614217978982
 30
0.0
 10
340.3543219417981
 20
365.9956846753003
 30
0.0
 10
340.5937611020273
 20
366.0180008440499
 30
0.0
 10
340.7402454887053
 20
366.0316534574702
 30
0.0
  0
SPLINE
  5
2E5
330
1F
100
AcDbEntity
  8
0
  6
Continuous
 62
     7
370
    30
100
AcDbSpline
210
0.0
220
0.0
230
1.0
 70
     8
 71
     3
 72
    10
 73
     6
 74
     0
 42
0.00000001
 43
0.00000001
 40
0.0
 40
0.0
 40
0.0
 40
0.0
 40
0.2814501067120821
 40
0.5623532254572088
 40
1.0
 40
1.0
 40
1.0
 40
1.0
 10
340.3412054304501
 20
365.0516855764761
 30
0.0
 10
340.2962495141123
 20
365.0771252578373
 30
0.0
 10
340.2064250516122
 20
365.127955179471
 30
0.0
 10
340.0786766868105
 20
365.2690576707454
 30
0.0
 10
340.0583274385281
 20
365.4026252069922
 30
0.0
 10
340.0459333334585
 20
365.4839771102741
 30
0.0
  0
SPLINE
  5
2E6
330
1F
100
AcDbEntity
  8
0
  6
Continuous
 62
     7
370
    30
100
AcDbSpline
210
0.0
220
0.0
230
1.0
 70
     8
 71
     3
 72
    11
 73
     7
 74
     0
 42
0.00000001
 43
0.00000001
 40
0.0
 40
0.0
 40
0.0
 40
0.0
 40
0.3399490948482475
 40
0.560031143395145
 40
0.7800853778999759
 40
1.0
 40
1.0
 40
1.0
 40
1.0
 10
341.0379203979393
 20
364.8301309208944
 30
0.0
 10
340.9589851832372
 20
364.8556564752951
 30
0.0
 10
340.8289475416794
 20
364.8977071988692
 30
0.0
 10
340.6445119702903
 20
364.9443861501911
 30
0.0
 10
340.4892501517475
 20
364.9880668377119
 30
0.0
 10
340.3905432302112
 20
365.0304838168545
 30
0.0
 10
340.3412054304501
 20
365.0516855764761
 30
0.0
  0
SPLINE
  5
2E7
330
1F
100
AcDbEntity
  8
0
  6
Continuous
 62
     7
370
    30
100
AcDbSpline
210
0.0
220
0.0
230
1.0
 70
     8
 71
     3
 72
    10
 73
     6
 74
     0
 42
0.00000001
 43
0.00000001
 40
0.0
 40
0.0
 40
0.0
 40
0.0
 40
0.2801581070137524
 40
0.559831746505738
 40
0.9999999999999999
 40
0.9999999999999999
 40
0.9999999999999999
 40
0.9999999999999999
 10
341.2510610197207
 20
364.5600985969975
 30
0.0
 10
341.247710728167
 20
364.594564238921
 30
0.0
 10
341.2410159386004
 20
364.6634359225503
 30
0.0
 10
341.1685284540717
 20
364.7691893834754
 30
0.0
 10
341.0874798954442
 20
364.8070065282567
 30
0.0
 10
341.0379203979393
 20
364.8301309208944
 30
0.0
  0
SPLINE
  5
2E8
330
1F
100
AcDbEntity
  8
0
  6
Continuous
 62
     7
370
    30
100
AcDbSpline
210
0.0
220
0.0
230
1.0
 70
     8
 71
     3
 72
    11
 73
     7
 74
     0
 42
0.00000001
 43
0.00000001
 40
0.0
 40
0.0
 40
0.0
 40
0.0
 40
0.2807863475808357
 40
0.5607441412074567
 40
0.7804625156775751
 40
1.0
 40
1.0
 40
1.0
 40
1.0
 10
340.7943311159035
 20
364.2111404101923
 30
0.0
 10
340.8542452807887
 20
364.2150907011993
 30
0.0
 10
340.9738968137928
 20
364.2229796265595
 30
0.0
 10
341.1287843335686
 20
364.295904134646
 30
0.0
 10
341.2307740098309
 20
364.4191450634438
 30
0.0
 10
341.2443005398795
 20
364.5131269867254
 30
0.0
 10
341.2510610197207
 20
364.5600985969975
 30
0.0
  0
SPLINE
  5
2E9
330
1F
100
AcDbEntity
  8
0
  6
Continuous
 62
     7
370
    30
100
AcDbSpline
210
0.0
220
0.0
230
1.0
 70
     8
 71
     3
 72
    11
 73
     7
 74
     0
 42
0.00000001
 43
0.00000001
 40
0.0
 40
0.0
 40
0.0
 40
0.0
 40
0.2805524551862059
 40
0.5586193299515952
 40
0.7791970552406507
 40
1.0
 40
1.0
 40
1.0
 40
1.0
 10
340.2510627184531
 20
364.6983199055865
 30
0.0
 10
340.2625072893364
 20
364.6220752425093
 30
0.0
 10
340.2852950368689
 20
364.470261412998
 30
0.0
 10
340.4332952561856
 20
364.3038262377571
 30
0.0
 10
340.6148021671955
 20
364.2235618557339
 30
0.0
 10
340.7344677794243
 20
364.215282300285
 30
0.0
 10
340.7943311159035
 20
364.2111404101923
 30
0.0
  0
LINE
  5
2EA
330
1F
100
AcDbEntity
  8
0
  6
Continuous
 62
     7
370
    30
100
AcDbLine
 10
339.9690098141
 20
364.6983199056
 30
0.0
 11
340.2510627185
 21
364.6983199056
 31
0.0
  0
SPLINE
  5
2EB
330
1F
100
AcDbEntity
  8
0
  6
Continuous
 62
     7
370
    30
100
AcDbSpline
210
0.0
220
0.0
230
1.0
 70
     8
 71
     3
 72
    11
 73
     7
 74
     0
 42
0.00000001
 43
0.00000001
 40
0.0
 40
0.0
 40
0.0
 40
0.0
 40
0.2808097885057396
 40
0.5596265434238837
 40
0.7796546035328582
 40
1.0
 40
1.0
 40
1.0
 40
1.0
 10
340.8067512337586
 20
363.9803717147186
 30
0.0
 10
340.6901133069048
 20
363.9862478792627
 30
0.0
 10
340.4576652851154
 20
363.9979585025638
 30
0.0
 10
340.1651729746179
 20
364.1655326624835
 30
0.0
 10
340.0003516033685
 20
364.4251359664428
 30
0.0
 10
339.9794620948912
 20
364.6072148567419
 30
0.0
 10
339.9690098140856
 20
364.6983199055865
 30
0.0
  0
LINE
  5
2EC
330
1F
100
AcDbEntity
  8
0
  6
Continuous
 62
     7
370
    30
100
AcDbLine
 10
344.1997791652
 20
364.9547302398
 30
0.0
 11
344.1997791652
 21
364.0060119565
 31
0.0
  0
LINE
  5
2ED
330
1F
100
AcDbEntity
  8
0
  6
Continuous
 62
     7
370
    30
100
AcDbLine
 10
345.174138156
 20
364.9547302398
 30
0.0
 11
344.1997791652
 21
364.9547302398
 31
0.0
  0
LINE
  5
2EE
330
1F
100
AcDbEntity
  8
0
  6
Continuous
 62
     7
370
    30
100
AcDbLine
 10
345.174138156
 20
364.0060119565
 30
0.0
 11
345.174138156
 21
364.9547302398
 31
0.0
  0
LINE
  5
2EF
330
1F
100
AcDbEntity
  8
0
  6
Continuous
 62
     7
370
    30
100
AcDbLine
 10
345.4561910604
 20
364.0060119565
 30
0.0
 11
345.174138156
 21
364.0060119565
 31
0.0
  0
LINE
  5
2F0
330
1F
100
AcDbEntity
  8
0
  6
Continuous
 62
     7
370
    30
100
AcDbLine
 10
345.4561910604
 20
366.0060122843
 30
0.0
 11
345.4561910604
 21
364.0060119565
 31
0.0
  0
LINE
  5
2F1
330
1F
100
AcDbEntity
  8
0
  6
Continuous
 62
     7
370
    30
100
AcDbLine
 10
345.174138156
 20
366.0060122843
 30
0.0
 11
345.4561910604
 21
366.0060122843
 31
0.0
  0
LINE
  5
2F2
330
1F
100
AcDbEntity
  8
0
  6
Continuous
 62
     7
370
    30
100
AcDbLine
 10
345.174138156
 20
365.185499401
 30
0.0
 11
345.174138156
 21
366.0060122843
 31
0.0
  0
LINE
  5
2F3
330
1F
100
AcDbEntity
  8
0
  6
Continuous
 62
     7
370
    30
100
AcDbLine
 10
344.1997791652
 20
365.185499401
 30
0.0
 11
345.174138156
 21
365.185499401
 31
0.0
  0
LINE
  5
2F4
330
1F
100
AcDbEntity
  8
0
  6
Continuous
 62
     7
370
    30
100
AcDbLine
 10
344.1997791652
 20
366.0060122843
 30
0.0
 11
344.1997791652
 21
365.185499401
 31
0.0
  0
LINE
  5
2F5
330
1F
100
AcDbEntity
  8
0
  6
Continuous
 62
     7
370
    30
100
AcDbLine
 10
343.9177281235
 20
366.0060122843
 30
0.0
 11
344.1997791652
 21
366.0060122843
 31
0.0
  0
LINE
  5
2F6
330
1F
100
AcDbEntity
  8
0
  6
Continuous
 62
     7
370
    30
100
AcDbLine
 10
343.9177281235
 20
364.0060119565
 30
0.0
 11
343.9177281235
 21
366.0060122843
 31
0.0
  0
LINE
  5
2F7
330
1F
100
AcDbEntity
  8
0
  6
Continuous
 62
     7
370
    30
100
AcDbLine
 10
344.1997791652
 20
364.0060119565
 30
0.0
 11
343.9177281235
 21
364.0060119565
 31
0.0
  0
LINE
  5
2F8
330
1F
100
AcDbEntity
  8
0
  6
Continuous
 62
     7
370
    30
100
AcDbLine
 10
348.5331132088
 20
365.7752431232
 30
0.0
 11
348.5331132088
 21
364.0060119565
 31
0.0
  0
LINE
  5
2F9
330
1F
100
AcDbEntity
  8
0
  6
Continuous
 62
     7
370
    30
100
AcDbLine
 10
349.1741388116
 20
365.7752431232
 30
0.0
 11
348.5331132088
 21
365.7752431232
 31
0.0
  0
LINE
  5
2FA
330
1F
100
AcDbEntity
  8
0
  6
Continuous
 62
     7
370
    30
100
AcDbLine
 10
349.1741388116
 20
366.0060122843
 30
0.0
 11
349.1741388116
 21
365.7752431232
 31
0.0
  0
LINE
  5
2FB
330
1F
100
AcDbEntity
  8
0
  6
Continuous
 62
     7
370
    30
100
AcDbLine
 10
347.6100365643
 20
366.0060122843
 30
0.0
 11
349.1741388116
 21
366.0060122843
 31
0.0
  0
LINE
  5
2FC
330
1F
100
AcDbEntity
  8
0
  6
Continuous
 62
     7
370
    30
100
AcDbLine
 10
347.6100365643
 20
365.7752431232
 30
0.0
 11
347.6100365643
 21
366.0060122843
 31
0.0
  0
LINE
  5
2FD
330
1F
100
AcDbEntity
  8
0
  6
Continuous
 62
     7
370
    30
100
AcDbLine
 10
348.2510621671
 20
365.7752431232
 30
0.0
 11
347.6100365643
 21
365.7752431232
 31
0.0
  0
LINE
  5
2FE
330
1F
100
AcDbEntity
  8
0
  6
Continuous
 62
     7
370
    30
100
AcDbLine
 10
348.2510621671
 20
364.0060119565
 30
0.0
 11
348.2510621671
 21
365.7752431232
 31
0.0
  0
LINE
  5
2FF
330
1F
100
AcDbEntity
  8
0
  6
Continuous
 62
     7
370
    30
100
AcDbLine
 10
348.5331132088
 20
364.0060119565
 30
0.0
 11
348.2510621671
 21
364.0060119565
 31
0.0
  0
LINE
  5
300
330
1F
100
AcDbEntity
  8
0
  6
Continuous
 62
     7
370
    30
100
AcDbLine
 10
334.9129210238
 20
365.7752431232
 30
0.0
 11
334.5074716036
 21
365.7752431232
 31
0.0
  0
SPLINE
  5
301
330
1F
100
AcDbEntity
  8
0
  6
Continuous
 62
     7
370
    30
100
AcDbSpline
210
0.0
220
0.0
230
1.0
 70
     8
 71
     3
 72
     9
 73
     5
 74
     0
 42
0.00000001
 43
0.00000001
 40
0.0
 40
0.0
 40
0.0
 40
0.0
 40
0.5592605558013339
 40
1.0
 40
1.0
 40
1.0
 40
1.0
 10
335.2434511308094
 20
365.7339771512523
 30
0.0
 10
335.1826575710387
 20
365.7488239396789
 30
0.0
 10
335.0739541069019
 20
365.775371115718
 30
0.0
 10
334.9621829717656
 20
365.7752822776512
 30
0.0
 10
334.9129210237881
 20
365.7752431232109
 30
0.0
  0
SPLINE
  5
302
330
1F
100
AcDbEntity
  8
0
  6
Continuous
 62
     7
370
    30
100
AcDbSpline
210
0.0
220
0.0
230
1.0
 70
     8
 71
     3
 72
    10
 73
     6
 74
     0
 42
0.00000001
 43
0.00000001
 40
0.0
 40
0.0
 40
0.0
 40
0.0
 40
0.5591880410011074
 40
0.7800631463784307
 40
0.9999999999999999
 40
0.9999999999999999
 40
0.9999999999999999
 40
0.9999999999999999
 10
335.584393424215
 20
365.0212369162217
 30
0.0
 10
335.5755182766841
 20
365.1799320839891
 30
0.0
 10
335.5631375120756
 20
365.4013106593644
 30
0.0
 10
335.4030717706621
 20
365.6399395301913
 30
0.0
 10
335.2965824579215
 20
365.7026757881576
 30
0.0
 10
335.2434511308094
 20
365.7339771512523
 30
0.0
  0
SPLINE
  5
303
330
1F
100
AcDbEntity
  8
0
  6
Continuous
 62
     7
370
    30
100
AcDbSpline
210
0.0
220
0.0
230
1.0
 70
     8
 71
     3
 72
     9
 73
     5
 74
     0
 42
0.00000001
 43
0.00000001
 40
0.0
 40
0.0
 40
0.0
 40
0.0
 40
0.5574373089273339
 40
1.0
 40
1.0
 40
1.0
 40
1.0
 10
335.3920864884278
 20
364.3782075728848
 30
0.0
 10
335.458973912045
 20
364.4890696700222
 30
0.0
 10
335.5789648465339
 20
364.6879478135586
 30
0.0
 10
335.5827279950713
 20
364.9189874104687
 30
0.0
 10
335.584393424215
 20
365.0212369162217
 30
0.0
  0
SPLINE
  5
304
330
1F
100
AcDbEntity
  8
0
  6
Continuous
 62
     7
370
    30
100
AcDbSpline
210
0.0
220
0.0
230
1.0
 70
     8
 71
     3
 72
     9
 73
     5
 74
     0
 42
0.00000001
 43
0.00000001
 40
0.0
 40
0.0
 40
0.0
 40
0.0
 40
0.5617894680514364
 40
1.0
 40
1.0
 40
1.0
 40
1.0
 10
334.9197308544537
 20
364.2367815833166
 30
0.0
 10
335.0167824347924
 20
364.2370262412896
 30
0.0
 10
335.1895367953811
 20
364.2374617389038
 30
0.0
 10
335.330371317551
 20
364.3353235128615
 30
0.0
 10
335.3920864884278
 20
364.3782075728848
 30
0.0
  0
LINE
  5
305
330
1F
100
AcDbEntity
  8
0
  6
Continuous
 62
     7
370
    30
100
AcDbLine
 10
334.5074716036
 20
364.2367815833
 30
0.0
 11
334.9197308545
 21
364.2367815833
 31
0.0
  0
LINE
  5
306
330
1F
100
AcDbEntity
  8
0
  6
Continuous
 62
     7
370
    30
100
AcDbLine
 10
334.5074716036
 20
365.7752431232
 30
0.0
 11
334.5074716036
 21
364.2367815833
 31
0.0
  0
SPLINE
  5
307
330
1F
100
AcDbEntity
  8
0
  6
Continuous
 62
     7
370
    30
100
AcDbSpline
210
0.0
220
0.0
230
1.0
 70
     8
 71
     3
 72
    11
 73
     7
 74
     0
 42
0.00000001
 43
0.00000001
 40
0.0
 40
0.0
 40
0.0
 40
0.0
 40
0.2807840794861069
 40
0.5600939440892226
 40
0.7799482674104515
 40
1.0
 40
1.0
 40
1.0
 40
1.0
 10
333.5843968216797
 20
365.0048107143119
 30
0.0
 10
333.5775313947398
 20
365.1139413581688
 30
0.0
 10
333.5638365867589
 20
365.3316296717324
 30
0.0
 10
333.4142656962255
 20
365.6072475794742
 30
0.0
 10
333.1776634279242
 20
365.7742572628287
 30
0.0
 10
333.0062677567906
 20
365.7920059635708
 30
0.0
 10
332.9205314640423
 20
365.8008842963353
 30
0.0
  0
SPLINE
  5
308
330
1F
100
AcDbEntity
  8
0
  6
Continuous
 62
     7
370
    30
100
AcDbSpline
210
0.0
220
0.0
230
1.0
 70
     8
 71
     3
 72
    11
 73
     7
 74
     0
 42
0.00000001
 43
0.00000001
 40
0.0
 40
0.0
 40
0.0
 40
0.0
 40
0.2790924035920292
 40
0.558169389612811
 40
0.7788100832064297
 40
1.0
 40
1.0
 40
1.0
 40
1.0
 10
332.9165267769715
 20
364.2111404101923
 30
0.0
 10
333.0262148344163
 20
364.2251479018518
 30
0.0
 10
333.2455848899384
 20
364.2531621113714
 30
0.0
 10
333.4728648733114
 20
364.4819761320717
 30
0.0
 10
333.5724396403166
 20
364.7472200848372
 30
0.0
 10
333.5804077929207
 20
364.9188760447738
 30
0.0
 10
333.5843968216797
 20
365.0048107143119
 30
0.0
  0
SPLINE
  5
309
330
1F
100
AcDbEntity
  8
0
  6
Continuous
 62
     7
370
    30
100
AcDbSpline
210
0.0
220
0.0
230
1.0
 70
     8
 71
     3
 72
    11
 73
     7
 74
     0
 42
0.00000001
 43
0.00000001
 40
0.0
 40
0.0
 40
0.0
 40
0.0
 40
0.2806416744752809
 40
0.5598849928379611
 40
0.7798536533130661
 40
1.0
 40
1.0
 40
1.0
 40
1.0
 10
332.251063269796
 20
364.9763648632541
 30
0.0
 10
332.2578228195815
 20
364.8693182395834
 30
0.0
 10
332.2713082382753
 20
364.6557583745376
 30
0.0
 10
332.4330569771741
 20
364.3951425423434
 30
0.0
 10
332.6646991931542
 20
364.2349436436774
 30
0.0
 10
332.8325616588418
 20
364.2190769566228
 30
0.0
 10
332.9165267769715
 20
364.2111404101923
 30
0.0
  0
SPLINE
  5
30A
330
1F
100
AcDbEntity
  8
0
  6
Continuous
 62
     7
370
    30
100
AcDbSpline
210
0.0
220
0.0
230
1.0
 70
     8
 71
     3
 72
    10
 73
     6
 74
     0
 42
0.00000001
 43
0.00000001
 40
0.0
 40
0.0
 40
0.0
 40
0.0
 40
0.2801551607450997
 40
0.5596722331263168
 40
1.0
 40
1.0
 40
1.0
 40
1.0
 10
332.9205314640423
 20
365.8008842963353
 30
0.0
 10
332.8081901477496
 20
365.7858295685487
 30
0.0
 10
332.583763386541
 20
365.755754401998
 30
0.0
 10
332.2758788195905
 20
365.4533178249164
 30
0.0
 10
332.2604816749256
 20
365.1573858866805
 30
0.0
 10
332.251063269796
 20
364.9763648632541
 30
0.0
  0
LINE
  5
30B
330
1F
100
AcDbEntity
  8
0
  6
Continuous
 62
     7
370
    30
100
AcDbLine
 10
330.9481765155
 20
364.9290895324
 30
0.0
 11
330.5074709479
 21
364.9290895324
 31
0.0
  0
SPLINE
  5
30C
330
1F
100
AcDbEntity
  8
0
  6
Continuous
 62
     7
370
    30
100
AcDbSpline
210
0.0
220
0.0
230
1.0
 70
     8
 71
     3
 72
    11
 73
     7
 74
     0
 42
0.00000001
 43
0.00000001
 40
0.0
 40
0.0
 40
0.0
 40
0.0
 40
0.2498567315549141
 40
0.3755135152629182
 40
0.5011621025427982
 40
1.0
 40
1.0
 40
1.0
 40
1.0
 10
331.4305494551083
 20
364.5829355578497
 30
0.0
 10
331.4243941746337
 20
364.6400885981209
 30
0.0
 10
331.4151433091714
 20
364.7259847792108
 30
0.0
 10
331.3500033074074
 20
364.8212255968695
 30
0.0
 10
331.2142390415172
 20
364.9275935783311
 30
0.0
 10
331.06632766862
 20
364.9284252197535
 30
0.0
 10
330.9481765155217
 20
364.9290895323828
 30
0.0
  0
SPLINE
  5
30D
330
1F
100
AcDbEntity
  8
0
  6
Continuous
 62
     7
370
    30
100
AcDbSpline
210
0.0
220
0.0
230
1.0
 70
     8
 71
     3
 72
    11
 73
     7
 74
     0
 42
0.00000001
 43
0.00000001
 40
0.0
 40
0.0
 40
0.0
 40
0.0
 40
0.2803227954753263
 40
0.5590784727115248
 40
0.7793952412198687
 40
0.9999999999999999
 40
0.9999999999999999
 40
0.9999999999999999
 40
0.9999999999999999
 10
331.1517040256878
 20
364.2463974888995
 30
0.0
 10
331.1957892081222
 20
364.2571567163628
 30
0.0
 10
331.2837131189224
 20
364.2786150228393
 30
0.0
 10
331.3762892861932
 20
364.3701507224953
 30
0.0
 10
331.4236152049761
 20
364.476999908177
 30
0.0
 10
331.4282370321405
 20
364.5476083018746
 30
0.0
 10
331.4305494551083
 20
364.5829355578497
 30
0.0
  0
SPLINE
  5
30E
330
1F
100
AcDbEntity
  8
0
  6
Continuous
 62
     7
370
    30
100
AcDbSpline
210
0.0
220
0.0
230
1.0
 70
     8
 71
     3
 72
     9
 73
     5
 74
     0
 42
0.00000001
 43
0.00000001
 40
0.0
 40
0.0
 40
0.0
 40
0.0
 40
0.5601262055777478
 40
1.0
 40
1.0
 40
1.0
 40
1.0
 10
330.9806275193116
 20
364.2367815833166
 30
0.0
 10
331.0126814374371
 20
364.236734957263
 30
0.0
 10
331.0699076800346
 20
364.236651715213
 30
0.0
 10
331.1267156766591
 20
364.2434202068157
 30
0.0
 10
331.1517040256878
 20
364.2463974888995
 30
0.0
  0
LINE
  5
30F
330
1F
100
AcDbEntity
  8
0
  6
Continuous
 62
     7
370
    30
100
AcDbLine
 10
330.5074709479
 20
364.9290895324
 30
0.0
 11
330.5074709479
 21
364.2367815833
 31
0.0
  0
LINE
  5
310
330
1F
100
AcDbEntity
  8
0
  6
Continuous
 62
     7
370
    30
100
AcDbLine
 10
330.5074709479
 20
364.2367815833
 30
0.0
 11
330.9806275193
 21
364.2367815833
 31
0.0
  0
SPLINE
  5
311
330
1F
100
AcDbEntity
  8
0
  6
Continuous
 62
     7
370
    30
100
AcDbSpline
210
0.0
220
0.0
230
1.0
 70
     8
 71
     3
 72
     9
 73
     5
 74
     0
 42
0.00000001
 43
0.00000001
 40
0.0
 40
0.0
 40
0.0
 40
0.0
 40
0.5599075502757332
 40
0.9999999999999999
 40
0.9999999999999999
 40
0.9999999999999999
 40
0.9999999999999999
 10
346.5972158138176
 20
365.7752431232109
 30
0.0
 10
346.5782094952053
 20
365.7038423917103
 30
0.0
 10
346.5442640365256
 20
365.5763200329467
 30
0.0
 10
346.4861652273245
 20
365.4579471825096
 30
0.0
 10
346.460596380057
 20
365.4058521847799
 30
0.0
  0
SPLINE
  5
312
330
1F
100
AcDbEntity
  8
0
  6
Continuous
 62
     7
370
    30
100
AcDbSpline
210
0.0
220
0.0
230
1.0
 70
     8
 71
     3
 72
     9
 73
     5
 74
     0
 42
0.00000001
 43
0.00000001
 40
0.0
 40
0.0
 40
0.0
 40
0.0
 40
0.5600023783756973
 40
1.0
 40
1.0
 40
1.0
 40
1.0
 10
346.7442511592528
 20
365.3778072680905
 30
0.0
 10
346.7167201457178
 20
365.451964431229
 30
0.0
 10
346.6675578303452
 20
365.5843873744198
 30
0.0
 10
346.6187091270757
 20
365.716926307766
 30
0.0
 10
346.5972158138176
 20
365.7752431232109
 30
0.0
  0
LINE
  5
313
330
1F
100
AcDbEntity
  8
0
  6
Continuous
 62
     7
370
    30
100
AcDbLine
 10
346.4605963801
 20
365.4058521848
 30
0.0
 11
346.2558693264
 21
364.8521664787
 31
0.0
  0
LINE
  5
314
330
1F
100
AcDbEntity
  8
0
  6
Continuous
 62
     7
370
    30
100
AcDbLine
 10
346.2558693264
 20
364.8521664787
 30
0.0
 11
346.9385623012
 21
364.8521664787
 31
0.0
  0
LINE
  5
315
330
1F
100
AcDbEntity
  8
0
  6
Continuous
 62
     7
370
    30
100
AcDbLine
 10
346.9385623012
 20
364.8521664787
 30
0.0
 11
346.7442511593
 21
365.3778072681
 31
0.0
  0
LINE
  5
316
330
1F
100
AcDbEntity
  8
0
  6
Continuous
 62
     7
370
    30
100
AcDbLine
 10
330.8884824638
 20
365.7752431232
 30
0.0
 11
330.5074709479
 21
365.7752431232
 31
0.0
  0
LINE
  5
317
330
1F
100
AcDbEntity
  8
0
  6
Continuous
 62
     7
370
    30
100
AcDbLine
 10
330.5074709479
 20
365.1598586935
 30
0.0
 11
330.9197301988
 21
365.1598586935
 31
0.0
  0
SPLINE
  5
318
330
1F
100
AcDbEntity
  8
0
  6
Continuous
 62
     7
370
    30
100
AcDbSpline
210
0.0
220
0.0
230
1.0
 70
     8
 71
     3
 72
     9
 73
     5
 74
     0
 42
0.00000001
 43
0.00000001
 40
0.0
 40
0.0
 40
0.0
 40
0.0
 40
0.5603966049574405
 40
1.0
 40
1.0
 40
1.0
 40
1.0
 10
330.9197301988026
 20
365.1598586935177
 30
0.0
 10
330.9651030715714
 20
365.159875328153
 30
0.0
 10
331.046068716915
 20
365.1599050118363
 30
0.0
 10
331.1252898514716
 20
365.1762925669289
 30
0.0
 10
331.1601157311817
 20
365.183496591784
 30
0.0
  0
SPLINE
  5
319
330
1F
100
AcDbEntity
  8
0
  6
Continuous
 62
     7
370
    30
100
AcDbSpline
210
0.0
220
0.0
230
1.0
 70
     8
 71
     3
 72
    11
 73
     7
 74
     0
 42
0.00000001
 43
0.00000001
 40
0.0
 40
0.0
 40
0.0
 40
0.0
 40
0.2496000697275191
 40
0.3750294894565664
 40
0.5002764663236863
 40
1.0
 40
1.0
 40
1.0
 40
1.0
 10
331.3536259357354
 20
365.4627429555729
 30
0.0
 10
331.3478466421748
 20
365.5171647289573
 30
0.0
 10
331.3391631289218
 20
365.5989346175231
 30
0.0
 10
331.2775337194536
 20
365.6905625601759
 30
0.0
 10
331.1417470183515
 20
365.7846980641957
 30
0.0
 10
331.0010128526581
 20
365.7794441381838
 30
0.0
 10
330.8884824637791
 20
365.7752431232109
 30
0.0
  0
LINE
  5
31A
330
1F
100
AcDbEntity
  8
0
  6
Continuous
 62
     7
370
    30
100
AcDbLine
 10
330.5074709479
 20
365.7752431232
 30
0.0
 11
330.5074709479
 21
365.1598586935
 31
0.0
  0
SPLINE
  5
31B
330
1F
100
AcDbEntity
  8
0
  6
Continuous
 62
     7
370
    30
100
AcDbSpline
210
0.0
220
0.0
230
1.0
 70
     8
 71
     3
 72
    10
 73
     6
 74
     0
 42
0.00000001
 43
0.00000001
 40
0.0
 40
0.0
 40
0.0
 40
0.0
 40
0.2808939469046771
 40
0.5610111146024328
 40
1.0
 40
1.0
 40
1.0
 40
1.0
 10
331.1601157311817
 20
365.183496591784
 30
0.0
 10
331.1920329365843
 20
365.1963942455876
 30
0.0
 10
331.2557790841079
 20
365.2221538862485
 30
0.0
 10
331.339577591658
 20
365.3190511808028
 30
0.0
 10
331.3483007532282
 20
365.4082749754872
 30
0.0
 10
331.3536259357354
 20
365.4627429555729
 30
0.0
  0
LINE
  5
31C
330
1F
100
AcDbEntity
  8
0
  6
Continuous
 62
     7
370
    30
100
AcDbLine
 10
369.9946517136
 20
371.0060124054
 30
0.0
 11
409.7446526412
 21
371.0060124054
 31
0.0
  0
LINE
  5
31D
330
1F
100
AcDbEntity
  8
0
  6
Continuous
 62
     7
370
    30
100
AcDbLine
 10
368.4946517006
 20
371.0060124054
 30
0.0
 11
369.9946517136
 21
371.0060124054
 31
0.0
  0
ARC
  5
31E
330
1F
100
AcDbEntity
  8
0
  6
Continuous
 62
     7
370
    30
100
AcDbCircle
 10
368.4946516876
 20
370.5060124185
 30
0.0
 40
0.5
100
AcDbArc
 50
90.0
 51
180.0
  0
LINE
  5
31F
330
1F
100
AcDbEntity
  8
0
  6
Continuous
 62
     7
370
    30
100
AcDbLine
 10
367.9946517351
 20
369.0060123104
 30
0.0
 11
367.9946517351
 21
370.5060123235
 31
0.0
  0
ARC
  5
320
330
1F
100
AcDbEntity
  8
0
  6
Continuous
 62
     7
370
    30
100
AcDbCircle
 10
409.7446516876
 20
363.0060124185
 30
0.0
 40
8.0
100
AcDbArc
 50
0.0
 51
90.0
  0
LINE
  5
321
330
1F
100
AcDbEntity
  8
0
  6
Continuous
 62
     7
370
    30
100
AcDbLine
 10
417.7446502273
 20
363.0060127239
 30
0.0
 11
417.7446502273
 21
273.5060129549
 31
0.0
  0
LINE
  5
322
330
1F
100
AcDbEntity
  8
0
  6
Continuous
 62
     7
370
    30
100
AcDbLine
 10
363.9946516615
 20
371.0060124054
 30
0.0
 11
365.4946516745
 21
371.0060124054
 31
0.0
  0
ARC
  5
323
330
1F
100
AcDbEntity
  8
0
  6
Continuous
 62
     7
370
    30
100
AcDbCircle
 10
365.4946516876
 20
370.5060124185
 30
0.0
 40
0.5
100
AcDbArc
 50
0.0
 51
90.0
  0
LINE
  5
324
330
1F
100
AcDbEntity
  8
0
  6
Continuous
 62
     7
370
    30
100
AcDbLine
 10
324.2446507339
 20
371.0060124054
 30
0.0
 11
363.9946516615
 21
371.0060124054
 31
0.0
  0
ARC
  5
325
330
1F
100
AcDbEntity
  8
0
  6
Continuous
 62
     7
370
    30
100
AcDbCircle
 10
324.2446516876
 20
363.0060124185
 30
0.0
 40
8.0
100
AcDbArc
 50
90.0
 51
180.0
  0
LINE
  5
326
330
1F
100
AcDbEntity
  8
0
  6
Continuous
 62
     7
370
    30
100
AcDbLine
 10
365.9946516401
 20
369.0060123104
 30
0.0
 11
365.9946516401
 21
370.5060123235
 31
0.0
  0
LINE
  5
327
330
1F
100
AcDbEntity
  8
0
  6
Continuous
 62
     7
370
    30
100
AcDbLine
 10
316.2446531479
 20
273.5060129549
 30
0.0
 11
316.2446531479
 21
363.0060127239
 31
0.0
  0
ARC
  5
328
330
1F
100
AcDbEntity
  8
0
  6
Continuous
 62
     7
370
    30
100
AcDbCircle
 10
409.7446516876
 20
273.5060124185
 30
0.0
 40
8.000000000000057
100
AcDbArc
 50
270.0
 51
0.0
  0
ARC
  5
329
330
1F
100
AcDbEntity
  8
0
  6
Continuous
 62
     7
370
    30
100
AcDbCircle
 10
324.2446516876
 20
273.5060124185
 30
0.0
 40
8.0
100
AcDbArc
 50
180.0
 51
270.0
  0
LINE
  5
32A
330
1F
100
AcDbEntity
  8
0
  6
Continuous
 62
     7
370
    30
100
AcDbLine
 10
409.7446526412
 20
265.5060116436
 30
0.0
 11
324.2446507339
 21
265.5060116436
 31
0.0
  0
LINE
  5
32B
330
1F
100
AcDbEntity
  8
0
  6
Continuous
 62
     7
370
    30
100
AcDbLine
 10
392.694650871
 20
372.5060124185
 30
0.0
 11
392.994652224
 21
372.5060124185
 31
0.0
  0
LINE
  5
32C
330
1F
100
AcDbEntity
  8
0
  6
Continuous
 62
     7
370
    30
100
AcDbLine
 10
392.994652224
 20
372.5060124185
 30
0.0
 11
392.994652224
 21
371.0060124054
 31
0.0
  0
LINE
  5
32D
330
1F
100
AcDbEntity
  8
0
  6
Continuous
 62
     7
370
    30
100
AcDbLine
 10
392.694650871
 20
372.5060124185
 30
0.0
 11
341.2946525041
 21
372.5060124185
 31
0.0
  0
LINE
  5
32E
330
1F
100
AcDbEntity
  8
0
  6
Continuous
 62
     7
370
    30
100
AcDbLine
 10
368.4946517006
 20
371.0060124054
 30
0.0
 11
365.4946516745
 21
371.0060124054
 31
0.0
  0
LINE
  5
32F
330
1F
100
AcDbEntity
  8
0
  6
Continuous
 62
     7
370
    30
100
AcDbLine
 10
340.9946511511
 20
371.0060124054
 30
0.0
 11
340.9946511511
 21
372.5060124185
 31
0.0
  0
LINE
  5
330
330
1F
100
AcDbEntity
  8
0
  6
Continuous
 62
     7
370
    30
100
AcDbLine
 10
340.9946511511
 20
372.5060124185
 30
0.0
 11
341.2946525041
 21
372.5060124185
 31
0.0
  0
LINE
  5
331
330
1F
100
AcDbEntity
  8
0
  6
Continuous
 62
     7
370
    30
100
AcDbLine
 10
340.9946511511
 20
372.5060124185
 30
0.0
 11
340.9946511511
 21
376.5060126084
 31
0.0
  0
LINE
  5
332
330
1F
100
AcDbEntity
  8
0
  6
Continuous
 62
     7
370
    30
100
AcDbLine
 10
340.9946511511
 20
376.5060126084
 30
0.0
 11
341.2946525041
 21
376.5060126084
 31
0.0
  0
LINE
  5
333
330
1F
100
AcDbEntity
  8
0
  6
Continuous
 62
     7
370
    30
100
AcDbLine
 10
392.694650871
 20
376.5060126084
 30
0.0
 11
392.994652224
 21
376.5060126084
 31
0.0
  0
LINE
  5
334
330
1F
100
AcDbEntity
  8
0
  6
Continuous
 62
     7
370
    30
100
AcDbLine
 10
392.994652224
 20
376.5060126084
 30
0.0
 11
392.994652224
 21
372.5060124185
 31
0.0
  0
LINE
  5
335
330
1F
100
AcDbEntity
  8
0
  6
Continuous
 62
     7
370
    30
100
AcDbLine
 10
392.694650871
 20
376.5060126084
 30
0.0
 11
341.2946525041
 21
376.5060126084
 31
0.0
  0
LINE
  5
336
330
1F
100
AcDbEntity
  8
0
  6
Continuous
 62
     8
370
     0
100
AcDbLine
 10
332.9946498398
 20
352.2560123589
 30
0.0
 11
332.9946498398
 21
353.2560125228
 31
0.0
  0
ARC
  5
337
330
1F
100
AcDbEntity
  8
0
  6
Continuous
 62
     8
370
     0
100
AcDbCircle
 10
332.9946516876
 20
350.2560124185
 30
0.0
 40
2.0
100
AcDbArc
 50
90.0
 51
180.0
  0
LINE
  5
338
330
1F
100
AcDbEntity
  8
0
  6
Continuous
 62
     8
370
     0
100
AcDbLine
 10
329.9946512107
 20
350.256012031
 30
0.0
 11
330.9946532373
 21
350.256012031
 31
0.0
  0
ARC
  5
339
330
1F
100
AcDbEntity
  8
0
  6
Continuous
 62
     8
370
     0
100
AcDbCircle
 10
400.9946516876
 20
350.2560124185
 30
0.0
 40
2.000000000000057
100
AcDbArc
 50
0.0
 51
90.0
  0
LINE
  5
33A
330
1F
100
AcDbEntity
  8
0
  6
Continuous
 62
     8
370
     0
100
AcDbLine
 10
400.9946535353
 20
352.2560123589
 30
0.0
 11
400.9946535353
 21
353.2560125228
 31
0.0
  0
LINE
  5
33B
330
1F
100
AcDbEntity
  8
0
  6
Continuous
 62
     8
370
     0
100
AcDbLine
 10
402.9946501378
 20
350.256012031
 30
0.0
 11
403.9946521644
 21
350.256012031
 31
0.0
  0
LINE
  5
33C
330
1F
100
AcDbEntity
  8
0
  6
Continuous
 62
     8
370
     0
100
AcDbLine
 10
400.9946535353
 20
352.2560123589
 30
0.0
 11
332.9946498398
 21
352.2560123589
 31
0.0
  0
LINE
  5
33D
330
1F
100
AcDbEntity
  8
0
  6
Continuous
 62
     8
370
     0
100
AcDbLine
 10
330.9946532373
 20
350.256012031
 30
0.0
 11
330.9946532373
 21
282.2560120608
 31
0.0
  0
LINE
  5
33E
330
1F
100
AcDbEntity
  8
0
  6
Continuous
 62
     8
370
     0
100
AcDbLine
 10
329.9946512107
 20
282.2560120608
 30
0.0
 11
330.9946532373
 21
282.2560120608
 31
0.0
  0
LINE
  5
33F
330
1F
100
AcDbEntity
  8
0
  6
Continuous
 62
     8
370
     0
100
AcDbLine
 10
402.9946501378
 20
282.2560120608
 30
0.0
 11
402.9946501378
 21
350.256012031
 31
0.0
  0
LINE
  5
340
330
1F
100
AcDbEntity
  8
0
  6
Continuous
 62
     8
370
     0
100
AcDbLine
 10
402.9946501378
 20
282.2560120608
 30
0.0
 11
403.9946521644
 21
282.2560120608
 31
0.0
  0
ARC
  5
341
330
1F
100
AcDbEntity
  8
0
  6
Continuous
 62
     8
370
     0
100
AcDbCircle
 10
400.9946516876
 20
282.2560124185
 30
0.0
 40
2.000000000000057
100
AcDbArc
 50
270.0
 51
0.0
  0
LINE
  5
342
330
1F
100
AcDbEntity
  8
0
  6
Continuous
 62
     8
370
     0
100
AcDbLine
 10
332.9946498398
 20
280.2560154583
 30
0.0
 11
400.9946535353
 21
280.2560154583
 31
0.0
  0
ARC
  5
343
330
1F
100
AcDbEntity
  8
0
  6
Continuous
 62
     8
370
     0
100
AcDbCircle
 10
332.9946516876
 20
282.2560124185
 30
0.0
 40
2.000000000000057
100
AcDbArc
 50
180.0
 51
270.0
  0
LINE
  5
344
330
1F
100
AcDbEntity
  8
0
  6
Continuous
 62
     8
370
     0
100
AcDbLine
 10
400.9946535353
 20
279.2560134317
 30
0.0
 11
400.9946535353
 21
280.2560154583
 31
0.0
  0
LINE
  5
345
330
1F
100
AcDbEntity
  8
0
  6
Continuous
 62
     8
370
     0
100
AcDbLine
 10
332.9946498398
 20
279.2560134317
 30
0.0
 11
332.9946498398
 21
280.2560154583
 31
0.0
  0
ARC
  5
346
330
1F
100
AcDbEntity
  8
0
  6
Continuous
 62
     8
370
     0
100
AcDbCircle
 10
400.9946516876
 20
350.2560124185
 30
0.0
 40
3.500000000000057
100
AcDbArc
 50
0.0
 51
90.0
  0
LINE
  5
347
330
1F
100
AcDbEntity
  8
0
  6
Continuous
 62
     8
370
     0
100
AcDbLine
 10
403.9946521644
 20
350.256012031
 30
0.0
 11
404.4946531777
 21
350.256012031
 31
0.0
  0
LINE
  5
348
330
1F
100
AcDbEntity
  8
0
  6
Continuous
 62
     8
370
     0
100
AcDbLine
 10
400.9946535353
 20
353.2560125228
 30
0.0
 11
400.9946535353
 21
353.7560116734
 31
0.0
  0
ARC
  5
349
330
1F
100
AcDbEntity
  8
0
  6
Continuous
 62
     8
370
     0
100
AcDbCircle
 10
332.9946516876
 20
350.2560124185
 30
0.0
 40
3.5
100
AcDbArc
 50
90.0
 51
180.0
  0
LINE
  5
34A
330
1F
100
AcDbEntity
  8
0
  6
Continuous
 62
     8
370
     0
100
AcDbLine
 10
332.9946498398
 20
353.2560125228
 30
0.0
 11
332.9946498398
 21
353.7560116734
 31
0.0
  0
LINE
  5
34B
330
1F
100
AcDbEntity
  8
0
  6
Continuous
 62
     8
370
     0
100
AcDbLine
 10
329.9946512107
 20
350.256012031
 30
0.0
 11
329.4946501974
 21
350.256012031
 31
0.0
  0
LINE
  5
34C
330
1F
100
AcDbEntity
  8
0
  6
Continuous
 62
     8
370
     0
100
AcDbLine
 10
332.9946498398
 20
353.7560116734
 30
0.0
 11
400.9946535353
 21
353.7560116734
 31
0.0
  0
LINE
  5
34D
330
1F
100
AcDbEntity
  8
0
  6
Continuous
 62
     8
370
     0
100
AcDbLine
 10
329.9946512107
 20
282.2560120608
 30
0.0
 11
329.4946501974
 21
282.2560120608
 31
0.0
  0
LINE
  5
34E
330
1F
100
AcDbEntity
  8
0
  6
Continuous
 62
     8
370
     0
100
AcDbLine
 10
329.4946501974
 20
350.256012031
 30
0.0
 11
329.4946501974
 21
282.2560120608
 31
0.0
  0
LINE
  5
34F
330
1F
100
AcDbEntity
  8
0
  6
Continuous
 62
     8
370
     0
100
AcDbLine
 10
404.4946531777
 20
350.256012031
 30
0.0
 11
404.4946531777
 21
282.2560120608
 31
0.0
  0
LINE
  5
350
330
1F
100
AcDbEntity
  8
0
  6
Continuous
 62
     8
370
     0
100
AcDbLine
 10
403.9946521644
 20
282.2560120608
 30
0.0
 11
404.4946531777
 21
282.2560120608
 31
0.0
  0
ARC
  5
351
330
1F
100
AcDbEntity
  8
0
  6
Continuous
 62
     8
370
     0
100
AcDbCircle
 10
400.9946516876
 20
282.2560124185
 30
0.0
 40
3.500000000000057
100
AcDbArc
 50
270.0
 51
0.0
  0
LINE
  5
352
330
1F
100
AcDbEntity
  8
0
  6
Continuous
 62
     8
370
     0
100
AcDbLine
 10
400.9946535353
 20
279.2560134317
 30
0.0
 11
400.9946535353
 21
278.7560124185
 31
0.0
  0
ARC
  5
353
330
1F
100
AcDbEntity
  8
0
  6
Continuous
 62
     8
370
     0
100
AcDbCircle
 10
332.9946516876
 20
282.2560124185
 30
0.0
 40
3.500000000000057
100
AcDbArc
 50
180.0
 51
270.0
  0
LINE
  5
354
330
1F
100
AcDbEntity
  8
0
  6
Continuous
 62
     8
370
     0
100
AcDbLine
 10
332.9946498398
 20
279.2560134317
 30
0.0
 11
332.9946498398
 21
278.7560124185
 31
0.0
  0
LINE
  5
355
330
1F
100
AcDbEntity
  8
0
  6
Continuous
 62
     8
370
     0
100
AcDbLine
 10
400.9946535353
 20
278.7560124185
 30
0.0
 11
332.9946498398
 21
278.7560124185
 31
0.0
  0
LINE
  5
356
330
1F
100
AcDbEntity
  8
0
  6
Continuous
 62
     8
370
     0
100
AcDbLine
 10
332.9946498398
 20
353.7560116734
 30
0.0
 11
332.9946498398
 21
355.2560128506
 31
0.0
  0
LINE
  5
357
330
1F
100
AcDbEntity
  8
0
  6
Continuous
 62
     8
370
     0
100
AcDbLine
 10
329.4946501974
 20
350.256012031
 30
0.0
 11
327.9946508829
 21
350.256012031
 31
0.0
  0
LINE
  5
358
330
1F
100
AcDbEntity
  8
0
  6
Continuous
 62
     8
370
     0
100
AcDbLine
 10
400.9946535353
 20
353.7560116734
 30
0.0
 11
400.9946535353
 21
355.2560128506
 31
0.0
  0
LINE
  5
359
330
1F
100
AcDbEntity
  8
0
  6
Continuous
 62
     8
370
     0
100
AcDbLine
 10
404.4946531777
 20
350.256012031
 30
0.0
 11
405.9946524922
 21
350.256012031
 31
0.0
  0
LINE
  5
35A
330
1F
100
AcDbEntity
  8
0
  6
Continuous
 62
     8
370
     0
100
AcDbLine
 10
404.4946531777
 20
282.2560120608
 30
0.0
 11
405.9946524922
 21
282.2560120608
 31
0.0
  0
LINE
  5
35B
330
1F
100
AcDbEntity
  8
0
  6
Continuous
 62
     8
370
     0
100
AcDbLine
 10
329.4946501974
 20
282.2560120608
 30
0.0
 11
327.9946508829
 21
282.2560120608
 31
0.0
  0
LINE
  5
35C
330
1F
100
AcDbEntity
  8
0
  6
Continuous
 62
     8
370
     0
100
AcDbLine
 10
400.9946535353
 20
278.7560124185
 30
0.0
 11
400.9946535353
 21
277.2560093786
 31
0.0
  0
LINE
  5
35D
330
1F
100
AcDbEntity
  8
0
  6
Continuous
 62
     8
370
     0
100
AcDbLine
 10
332.9946498398
 20
278.7560124185
 30
0.0
 11
332.9946498398
 21
277.2560093786
 31
0.0
  0
LINE
  5
35E
330
1F
100
AcDbEntity
  8
0
  6
Continuous
 62
     8
370
     0
100
AcDbLine
 10
405.545404834
 20
360.7985435288
 30
0.0
 11
328.4438985412
 21
360.7985435288
 31
0.0
  0
LINE
  5
35F
330
1F
100
AcDbEntity
  8
0
  6
Continuous
 62
     8
370
     0
100
AcDbLine
 10
328.4438985412
 20
360.7985435288
 30
0.0
 11
328.4438985412
 21
361.7985436927
 31
0.0
  0
LINE
  5
360
330
1F
100
AcDbEntity
  8
0
  6
Continuous
 62
     8
370
     0
100
AcDbLine
 10
405.545404834
 20
360.7985435288
 30
0.0
 11
405.545404834
 21
361.7985436927
 31
0.0
  0
ELLIPSE
  5
361
330
1F
100
AcDbEntity
  8
0
  6
Continuous
 62
     8
370
     0
100
AcDbEllipse
 10
405.5289486576
 20
354.7903093885
 30
0.0
 11
-4.25427746061041
 21
-4.25427746061041
 31
0.0
210
0.0
220
0.0
230
0.9999999999999998
 40
0.9972646886
 41
2.357564018062745
 42
3.925621289116855
  0
LINE
  5
362
330
1F
100
AcDbEntity
  8
0
  6
Continuous
 62
     8
370
     0
100
AcDbLine
 10
412.537182403
 20
354.806767055
 30
0.0
 11
411.5371841018
 21
354.806767055
 31
0.0
  0
ELLIPSE
  5
363
330
1F
100
AcDbEntity
  8
0
  6
Continuous
 62
     8
370
     0
100
AcDbEllipse
 10
328.4603547175
 20
354.7903093885
 30
0.0
 11
4.25427746061041
 21
-4.25427746061041
 31
0.0
210
0.0
220
0.0
230
0.9999999999999998
 40
0.9972646886
 41
2.357564018062735
 42
3.925621289116855
  0
LINE
  5
364
330
1F
100
AcDbEntity
  8
0
  6
Continuous
 62
     8
370
     0
100
AcDbLine
 10
322.4521192734
 20
354.806767055
 30
0.0
 11
321.4521209721
 21
354.806767055
 31
0.0
  0
ELLIPSE
  5
365
330
1F
100
AcDbEntity
  8
0
  6
Continuous
 62
     8
370
     0
100
AcDbEllipse
 10
329.9857221883
 20
279.2470829192
 30
0.0
 11
3.557365453032276
 21
3.557365453032276
 31
0.0
210
0.0
220
0.0
230
0.9999999999999998
 40
0.9938630013
 41
2.359272424483104
 42
3.923912882696497
  0
LINE
  5
366
330
1F
100
AcDbEntity
  8
0
  6
Continuous
 62
     8
370
     0
100
AcDbLine
 10
404.0344568912
 20
274.2316249992
 30
0.0
 11
329.9548464839
 21
274.2316249992
 31
0.0
  0
ELLIPSE
  5
367
330
1F
100
AcDbEntity
  8
0
  6
Continuous
 62
     8
370
     0
100
AcDbEllipse
 10
404.0035811868
 20
279.2470829192
 30
0.0
 11
-3.557365453032276
 21
3.557365453032276
 31
0.0
210
0.0
220
0.0
230
0.9999999999999998
 40
0.9938630013
 41
2.359272424483115
 42
3.923912882696497
  0
LINE
  5
368
330
1F
100
AcDbEntity
  8
0
  6
Continuous
 62
     8
370
     0
100
AcDbLine
 10
409.0190405969
 20
353.295815387
 30
0.0
 11
409.0190405969
 21
279.2162049796
 31
0.0
  0
ELLIPSE
  5
369
330
1F
100
AcDbEntity
  8
0
  6
Continuous
 62
     8
370
     0
100
AcDbEllipse
 10
404.0035811868
 20
353.2649419177
 30
0.0
 11
-3.557365453032333
 21
-3.557365453032333
 31
0.0
210
0.0
220
0.0
230
0.9999999999999998
 40
0.9938630013
 41
2.3592724244831
 42
3.923912882696501
  0
LINE
  5
36A
330
1F
100
AcDbEntity
  8
0
  6
Continuous
 62
     8
370
     0
100
AcDbLine
 10
329.9548464839
 20
358.2804028179
 30
0.0
 11
404.0344568912
 21
358.2804028179
 31
0.0
  0
ELLIPSE
  5
36B
330
1F
100
AcDbEntity
  8
0
  6
Continuous
 62
     8
370
     0
100
AcDbEllipse
 10
329.9857221883
 20
353.2649419177
 30
0.0
 11
3.557365453032333
 21
-3.557365453032333
 31
0.0
210
0.0
220
0.0
230
0.9999999999999998
 40
0.9938630013
 41
2.359272424483096
 42
3.923912882696505
  0
LINE
  5
36C
330
1F
100
AcDbEntity
  8
0
  6
Continuous
 62
     8
370
     0
100
AcDbLine
 10
324.9702627782
 20
279.2162049796
 30
0.0
 11
324.9702627782
 21
353.295815387
 31
0.0
  0
LINE
  5
36D
330
1F
100
AcDbEntity
  8
0
  6
Continuous
 62
     8
370
     0
100
AcDbLine
 10
411.5371841018
 20
277.7052570369
 30
0.0
 11
411.5371841018
 21
354.806767055
 31
0.0
  0
ELLIPSE
  5
36E
330
1F
100
AcDbEntity
  8
0
  6
Continuous
 62
     8
370
     0
100
AcDbEllipse
 10
405.5289486576
 20
277.7217154484
 30
0.0
 11
-4.25427746061041
 21
4.254277460610354
 31
0.0
210
0.0
220
0.0
230
1.0
 40
0.9972646886
 41
2.357564018062735
 42
3.925621289116842
  0
LINE
  5
36F
330
1F
100
AcDbEntity
  8
0
  6
Continuous
 62
     8
370
     0
100
AcDbLine
 10
328.4438985412
 20
271.7134777691
 30
0.0
 11
405.545404834
 21
271.7134777691
 31
0.0
  0
ELLIPSE
  5
370
330
1F
100
AcDbEntity
  8
0
  6
Continuous
 62
     8
370
     0
100
AcDbEllipse
 10
328.4603547175
 20
277.7217154484
 30
0.0
 11
4.25427746061041
 21
4.25427746061041
 31
0.0
210
0.0
220
0.0
230
0.9999999999999998
 40
0.9972646886
 41
2.357564018062735
 42
3.925621289116865
  0
LINE
  5
371
330
1F
100
AcDbEntity
  8
0
  6
Continuous
 62
     8
370
     0
100
AcDbLine
 10
322.4521192734
 20
354.806767055
 30
0.0
 11
322.4521192734
 21
277.7052570369
 31
0.0
  0
LINE
  5
372
330
1F
100
AcDbEntity
  8
0
  6
Continuous
 62
     8
370
     0
100
AcDbLine
 10
324.9702627782
 20
353.295815387
 30
0.0
 11
325.9671802644
 21
353.295815387
 31
0.0
  0
LINE
  5
373
330
1F
100
AcDbEntity
  8
0
  6
Continuous
 62
     8
370
     0
100
AcDbLine
 10
325.9671802644
 20
353.295815387
 30
0.0
 11
325.9671802644
 21
279.2162049796
 31
0.0
  0
LINE
  5
374
330
1F
100
AcDbEntity
  8
0
  6
Continuous
 62
     8
370
     0
100
AcDbLine
 10
324.9702627782
 20
279.2162049796
 30
0.0
 11
325.9671802644
 21
279.2162049796
 31
0.0
  0
ELLIPSE
  5
375
330
1F
100
AcDbEntity
  8
0
  6
Continuous
 62
     8
370
     0
100
AcDbEllipse
 10
404.0035811868
 20
353.2649419177
 30
0.0
 11
2.854598185230486
 21
2.854598185230486
 31
0.0
210
0.0
220
0.0
230
0.9999999999999998
 40
0.9908319635
 41
5.500865078072904
 42
7.065505536286282
  0
LINE
  5
376
330
1F
100
AcDbEntity
  8
0
  6
Continuous
 62
     8
370
     0
100
AcDbLine
 10
404.0344568912
 20
357.2834853317
 30
0.0
 11
404.0344568912
 21
358.2804028179
 31
0.0
  0
LINE
  5
377
330
1F
100
AcDbEntity
  8
0
  6
Continuous
 62
     8
370
     0
100
AcDbLine
 10
408.0221231107
 20
353.295815387
 30
0.0
 11
409.0190405969
 21
353.295815387
 31
0.0
  0
LINE
  5
378
330
1F
100
AcDbEntity
  8
0
  6
Continuous
 62
     8
370
     0
100
AcDbLine
 10
404.0344568912
 20
357.2834853317
 30
0.0
 11
329.9548464839
 21
357.2834853317
 31
0.0
  0
LINE
  5
379
330
1F
100
AcDbEntity
  8
0
  6
Continuous
 62
     8
370
     0
100
AcDbLine
 10
329.9548464839
 20
357.2834853317
 30
0.0
 11
329.9548464839
 21
358.2804028179
 31
0.0
  0
LINE
  5
37A
330
1F
100
AcDbEntity
  8
0
  6
Continuous
 62
     8
370
     0
100
AcDbLine
 10
408.0221231107
 20
279.2162049796
 30
0.0
 11
408.0221231107
 21
353.295815387
 31
0.0
  0
LINE
  5
37B
330
1F
100
AcDbEntity
  8
0
  6
Continuous
 62
     8
370
     0
100
AcDbLine
 10
408.0221231107
 20
279.2162049796
 30
0.0
 11
409.0190405969
 21
279.2162049796
 31
0.0
  0
LINE
  5
37C
330
1F
100
AcDbEntity
  8
0
  6
Continuous
 62
     8
370
     0
100
AcDbLine
 10
412.537182403
 20
277.7052570369
 30
0.0
 11
411.5371841018
 21
277.7052570369
 31
0.0
  0
ELLIPSE
  5
37D
330
1F
100
AcDbEntity
  8
0
  6
Continuous
 62
     8
370
     0
100
AcDbEllipse
 10
329.9857221883
 20
353.2649419177
 30
0.0
 11
2.854598185230543
 21
-2.854598185230543
 31
0.0
210
0.0
220
0.0
230
0.9999999999999998
 40
0.9908319635
 41
2.359272424483092
 42
3.923912882696508
  0
LINE
  5
37E
330
1F
100
AcDbEntity
  8
0
  6
Continuous
 62
     8
370
     0
100
AcDbLine
 10
322.4521192734
 20
277.7052570369
 30
0.0
 11
321.4521209721
 21
277.7052570369
 31
0.0
  0
ELLIPSE
  5
37F
330
1F
100
AcDbEntity
  8
0
  6
Continuous
 62
     8
370
     0
100
AcDbEllipse
 10
329.9857221883
 20
279.2470829192
 30
0.0
 11
2.854598185230486
 21
2.854598185230486
 31
0.0
210
0.0
220
0.0
230
0.9999999999999998
 40
0.9908319635
 41
2.359272424483108
 42
3.923912882696492
  0
LINE
  5
380
330
1F
100
AcDbEntity
  8
0
  6
Continuous
 62
     8
370
     0
100
AcDbLine
 10
329.9548464839
 20
274.2316249992
 30
0.0
 11
329.9548464839
 21
275.2285424854
 31
0.0
  0
LINE
  5
381
330
1F
100
AcDbEntity
  8
0
  6
Continuous
 62
     8
370
     0
100
AcDbLine
 10
404.0344568912
 20
274.2316249992
 30
0.0
 11
404.0344568912
 21
275.2285424854
 31
0.0
  0
ELLIPSE
  5
382
330
1F
100
AcDbEntity
  8
0
  6
Continuous
 62
     8
370
     0
100
AcDbEllipse
 10
404.0035811868
 20
279.2470829192
 30
0.0
 11
2.854598185230543
 21
-2.854598185230543
 31
0.0
210
0.0
220
0.0
230
0.9999999999999998
 40
0.9908319635
 41
5.500865078072923
 42
7.065505536286277
  0
LINE
  5
383
330
1F
100
AcDbEntity
  8
0
  6
Continuous
 62
     8
370
     0
100
AcDbLine
 10
329.9548464839
 20
275.2285424854
 30
0.0
 11
404.0344568912
 21
275.2285424854
 31
0.0
  0
LINE
  5
384
330
1F
100
AcDbEntity
  8
0
  6
Continuous
 62
     8
370
     0
100
AcDbLine
 10
405.545404834
 20
270.7134831931
 30
0.0
 11
405.545404834
 21
271.7134777691
 31
0.0
  0
LINE
  5
385
330
1F
100
AcDbEntity
  8
0
  6
Continuous
 62
     8
370
     0
100
AcDbLine
 10
328.4438985412
 20
270.7134831931
 30
0.0
 11
328.4438985412
 21
271.7134777691
 31
0.0
  0
LINE
  5
386
330
1F
100
AcDbEntity
  8
0
  6
Continuous
 62
     8
370
     0
100
AcDbLine
 10
408.0221231107
 20
353.295815387
 30
0.0
 11
407.3697353725
 21
352.6434257861
 31
0.0
  0
SPLINE
  5
387
330
1F
100
AcDbEntity
  8
0
  6
Continuous
 62
     8
370
     0
100
AcDbSpline
210
0.0
220
0.0
230
1.0
 70
     8
 71
     3
 72
    12
 73
     8
 74
     0
 42
0.00000001
 43
0.00000001
 40
0.0
 40
0.0
 40
0.0
 40
0.0
 40
0.2031707516321418
 40
0.4098775300581063
 40
0.6138368605482293
 40
0.815632219801794
 40
1.0
 40
1.0
 40
1.0
 40
1.0
 10
403.3820654277226
 20
356.6310957308486
 30
0.0
 10
403.8068508600294
 20
356.5943227327494
 30
0.0
 10
404.663814780278
 20
356.5201367315033
 30
0.0
 10
405.8230458799738
 20
355.8975667386844
 30
0.0
 10
406.7182972892898
 20
354.9676798735363
 30
0.0
 10
407.2765805484306
 20
353.8350630817023
 30
0.0
 10
407.3396322745917
 20
353.028504868441
 30
0.0
 10
407.3697353724858
 20
352.6434257860854
 30
0.0
  0
LINE
  5
388
330
1F
100
AcDbEntity
  8
0
  6
Continuous
 62
     8
370
     0
100
AcDbLine
 10
403.3820654277
 20
356.6310957308
 30
0.0
 11
404.0344568912
 21
357.2834853317
 31
0.0
  0
LINE
  5
389
330
1F
100
AcDbEntity
  8
0
  6
Continuous
 62
     8
370
     0
100
AcDbLine
 10
329.9548464839
 20
357.2834853317
 30
0.0
 11
330.6072379474
 21
356.6310957308
 31
0.0
  0
SPLINE
  5
38A
330
1F
100
AcDbEntity
  8
0
  6
Continuous
 62
     8
370
     0
100
AcDbSpline
210
0.0
220
0.0
230
1.0
 70
     8
 71
     3
 72
    12
 73
     8
 74
     0
 42
0.00000001
 43
0.00000001
 40
0.0
 40
0.0
 40
0.0
 40
0.0
 40
0.203170763382776
 40
0.4098772893954346
 40
0.6138368382140018
 40
0.8156322091386532
 40
1.0
 40
1.0
 40
1.0
 40
1.0
 10
326.6195680026432
 20
352.6434257860854
 30
0.0
 10
326.6563408664826
 20
353.0682112999992
 30
0.0
 10
326.7305265490229
 20
353.9251748321458
 30
0.0
 10
327.3530982026541
 20
355.0844046570417
 30
0.0
 10
328.2829830978778
 20
355.9796577964659
 30
0.0
 10
329.415600733689
 20
356.5379408297047
 30
0.0
 10
330.2221588915168
 20
356.6009926080432
 30
0.0
 10
330.6072379474064
 20
356.6310957308486
 30
0.0
  0
LINE
  5
38B
330
1F
100
AcDbEntity
  8
0
  6
Continuous
 62
     8
370
     0
100
AcDbLine
 10
326.6195680026
 20
352.6434257861
 30
0.0
 11
325.9671802644
 21
353.295815387
 31
0.0
  0
LINE
  5
38C
330
1F
100
AcDbEntity
  8
0
  6
Continuous
 62
     8
370
     0
100
AcDbLine
 10
325.9671802644
 20
279.2162049796
 30
0.0
 11
326.6195680026
 21
279.8686001684
 31
0.0
  0
SPLINE
  5
38D
330
1F
100
AcDbEntity
  8
0
  6
Continuous
 62
     8
370
     0
100
AcDbSpline
210
0.0
220
0.0
230
1.0
 70
     8
 71
     3
 72
    12
 73
     8
 74
     0
 42
0.00000001
 43
0.00000001
 40
0.0
 40
0.0
 40
0.0
 40
0.0
 40
0.2031705815086012
 40
0.4098772794662501
 40
0.6138369596331779
 40
0.8156317026204852
 40
1.0
 40
1.0
 40
1.0
 40
1.0
 10
330.6072379474064
 20
275.8809302236512
 30
0.0
 10
330.1824525307021
 20
275.9177017288839
 30
0.0
 10
329.3254884482895
 20
275.9918847351769
 30
0.0
 10
328.1662559806965
 20
276.6144555465306
 30
0.0
 10
327.2710084396122
 20
277.5443452633968
 30
0.0
 10
326.7127214488494
 20
278.6769610203191
 30
0.0
 10
326.6496707176666
 20
279.4835196894123
 30
0.0
 10
326.6195680026432
 20
279.8686001684144
 30
0.0
  0
LINE
  5
38E
330
1F
100
AcDbEntity
  8
0
  6
Continuous
 62
     8
370
     0
100
AcDbLine
 10
330.6072379474
 20
275.8809302237
 30
0.0
 11
329.9548464839
 21
275.2285424854
 31
0.0
  0
LINE
  5
38F
330
1F
100
AcDbEntity
  8
0
  6
Continuous
 62
     8
370
     0
100
AcDbLine
 10
404.0344568912
 20
275.2285424854
 30
0.0
 11
403.3820654277
 21
275.8809302237
 31
0.0
  0
SPLINE
  5
390
330
1F
100
AcDbEntity
  8
0
  6
Continuous
 62
     8
370
     0
100
AcDbSpline
210
0.0
220
0.0
230
1.0
 70
     8
 71
     3
 72
    12
 73
     8
 74
     0
 42
0.00000001
 43
0.00000001
 40
0.0
 40
0.0
 40
0.0
 40
0.0
 40
0.2031707281306847
 40
0.4098780113832499
 40
0.6138369052170431
 40
0.8156322411282471
 40
1.0
 40
1.0
 40
1.0
 40
1.0
 10
407.3697353724858
 20
279.8686001684144
 30
0.0
 10
407.3329621058674
 20
279.4438148993215
 30
0.0
 10
407.2587754672098
 20
278.5868502028681
 30
0.0
 10
406.6362087960151
 20
277.4276165535684
 30
0.0
 10
405.7063179910196
 20
276.5323686044767
 30
0.0
 10
404.5737028871387
 20
275.9740848935282
 30
0.0
 10
403.76714456301
 20
275.9110332717224
 30
0.0
 10
403.3820654277226
 20
275.8809302236512
 30
0.0
  0
LINE
  5
391
330
1F
100
AcDbEntity
  8
0
  6
Continuous
 62
     8
370
     0
100
AcDbLine
 10
407.3697353725
 20
279.8686001684
 30
0.0
 11
408.0221231107
 21
279.2162049796
 31
0.0
  0
SPLINE
  5
392
330
1F
100
AcDbEntity
  8
0
  6
Continuous
 62
     8
370
     0
100
AcDbSpline
210
0.0
220
0.0
230
1.0
 70
     8
 71
     3
 72
    18
 73
    14
 74
     0
 42
0.00000001
 43
0.00000001
 40
0.0
 40
0.0
 40
0.0
 40
0.0
 40
0.0236928155790256
 40
0.0476361067546619
 40
0.0715890071594834
 40
0.1951108261283956
 40
0.6891980764249844
 40
0.8443793284413391
 40
0.8755529385531665
 40
0.9068905399901076
 40
0.9381364125642007
 40
0.9691225167973943
 40
1.0
 40
1.0
 40
1.0
 40
1.0
 10
330.6072379474064
 20
356.6310957308486
 30
0.0
 10
331.177924622782
 20
356.6245167237471
 30
0.0
 10
332.3253311562512
 20
356.6112891576279
 30
0.0
 10
334.0660149068099
 20
356.620539470993
 30
0.0
 10
338.221571031188
 20
356.6314589433603
 30
0.0
 10
353.8032697689733
 20
356.6137116161947
 30
0.0
 10
372.5541653026879
 20
356.6173100662645
 30
0.0
 10
389.0722821287215
 20
356.6311063927583
 30
0.0
 10
394.3556441594547
 20
356.6205946353163
 30
0.0
 10
396.6260114995636
 20
356.6074790934704
 30
0.0
 10
398.8937521111176
 20
356.5991654683612
 30
0.0
 10
401.1610300347184
 20
356.6006079369015
 30
0.0
 10
402.642587410402
 20
356.6209450355956
 30
0.0
 10
403.3820654277226
 20
356.6310957308486
 30
0.0
  0
SPLINE
  5
393
330
1F
100
AcDbEntity
  8
0
  6
Continuous
 62
     8
370
     0
100
AcDbSpline
210
0.0
220
0.0
230
1.0
 70
     8
 71
     3
 72
    18
 73
    14
 74
     0
 42
0.00000001
 43
0.00000001
 40
0.0
 40
0.0
 40
0.0
 40
0.0
 40
0.0236928161615569
 40
0.04763608230288
 40
0.071589009005461
 40
0.1951108054323229
 40
0.6891980934560139
 40
0.844379400445906
 40
0.8755529858206184
 40
0.9068905369650185
 40
0.9381364614204465
 40
0.969122566362311
 40
1.0
 40
1.0
 40
1.0
 40
1.0
 10
407.3697353724858
 20
352.6434257860854
 30
0.0
 10
407.3631566595021
 20
352.0727391115633
 30
0.0
 10
407.3499296918422
 20
350.9253331969888
 30
0.0
 10
407.3591755179121
 20
349.1846494401502
 30
0.0
 10
407.3701091121856
 20
345.0290939654134
 30
0.0
 10
407.3523382369868
 20
329.4473945517555
 30
0.0
 10
407.3559484107558
 20
310.6964978219706
 30
0.0
 10
407.3697514752111
 20
294.178379734644
 30
0.0
 10
407.3592337832368
 20
288.895018329536
 30
0.0
 10
407.3461186430457
 20
286.6246516249436
 30
0.0
 10
407.3378058922157
 20
284.3569110106732
 30
0.0
 10
407.339244577043
 20
282.0896330280225
 30
0.0
 10
407.3595836834282
 20
280.6080769400082
 30
0.0
 10
407.3697353724858
 20
279.8686001684144
 30
0.0
  0
SPLINE
  5
394
330
1F
100
AcDbEntity
  8
0
  6
Continuous
 62
     8
370
     0
100
AcDbSpline
210
0.0
220
0.0
230
1.0
 70
     8
 71
     3
 72
    18
 73
    14
 74
     0
 42
0.00000001
 43
0.00000001
 40
0.0
 40
0.0
 40
0.0
 40
0.0
 40
0.023692765323913
 40
0.0476361081837585
 40
0.0715890348942819
 40
0.1951108313621012
 40
0.6891980683915003
 40
0.8443793498537867
 40
0.8755529352388357
 40
0.9068905629881767
 40
0.9381364107843185
 40
0.9691225157364574
 40
1.0
 40
1.0
 40
1.0
 40
1.0
 10
326.6195680026432
 20
279.8686001684144
 30
0.0
 10
326.6261467098718
 20
280.4392856007741
 30
0.0
 10
326.6393737015279
 20
281.5866921032705
 30
0.0
 10
326.630127861461
 20
283.3273765224964
 30
0.0
 10
326.6191942640103
 20
287.4829338435364
 30
0.0
 10
326.6369651326249
 20
303.0646320391327
 30
0.0
 10
326.6333549899658
 20
321.815526871537
 30
0.0
 10
326.6195518822624
 20
338.333643128028
 30
0.0
 10
326.6300696078653
 20
343.617005750362
 30
0.0
 10
326.6431846981138
 20
345.8873724875333
 30
0.0
 10
326.6514974974675
 20
348.1551130848678
 30
0.0
 10
326.65005877889
 20
350.422390409058
 30
0.0
 10
326.6297196908697
 20
351.9039477713275
 30
0.0
 10
326.6195680026432
 20
352.6434257860854
 30
0.0
  0
SPLINE
  5
395
330
1F
100
AcDbEntity
  8
0
  6
Continuous
 62
     8
370
     0
100
AcDbSpline
210
0.0
220
0.0
230
1.0
 70
     8
 71
     3
 72
    18
 73
    14
 74
     0
 42
0.00000001
 43
0.00000001
 40
0.0
 40
0.0
 40
0.0
 40
0.0
 40
0.0236928151491048
 40
0.0476361062851576
 40
0.0715890067032094
 40
0.1951108257403488
 40
0.6891980763098461
 40
0.8443793284119149
 40
0.8755529384780689
 40
0.9068905401769759
 40
0.9381364127683276
 40
0.9691225170718369
 40
1.0
 40
1.0
 40
1.0
 40
1.0
 10
403.3820654277226
 20
275.8809302236512
 30
0.0
 10
402.8113787499059
 20
275.8875074539071
 30
0.0
 10
401.663972202017
 20
275.9007314476602
 30
0.0
 10
399.9232884679465
 20
275.8914855170584
 30
0.0
 10
395.7677323424601
 20
275.8805637124004
 30
0.0
 10
380.1860336111696
 20
275.8983157291482
 30
0.0
 10
361.4351380457858
 20
275.8947058859924
 30
0.0
 10
344.9170212667667
 20
275.8809233002256
 30
0.0
 10
339.6336592004833
 20
275.8914257992212
 30
0.0
 10
337.3632918890568
 20
275.9045481353214
 30
0.0
 10
335.0955512580104
 20
275.9128609027446
 30
0.0
 10
332.8282733561563
 20
275.9114151223018
 30
0.0
 10
331.3467159672128
 20
275.8910799548979
 30
0.0
 10
330.6072379474064
 20
275.8809302236512
 30
0.0
  0
SPLINE
  5
396
330
1F
100
AcDbEntity
  8
0
  6
Continuous
 62
     8
370
     0
100
AcDbSpline
210
0.0
220
0.0
230
1.0
 70
     8
 71
     3
 72
     9
 73
     5
 74
     0
 42
0.00000001
 43
0.00000001
 40
0.0
 40
0.0
 40
0.0
 40
0.0
 40
0.0000554179499474
 40
1.0
 40
1.0
 40
1.0
 40
1.0
 10
406.8172152165791
 20
352.0258080448583
 30
0.0
 10
406.8172114912857
 20
352.025825429547
 30
0.0
 10
406.7499897068677
 20
352.3395268342354
 30
0.0
 10
406.6858788701686
 20
352.6525609485849
 30
0.0
 10
406.6217715863606
 20
352.9655777152255
 30
0.0
  0
ARC
  5
397
330
1F
100
AcDbEntity
  8
0
  6
Continuous
 62
     8
370
     0
100
AcDbCircle
 10
406.5910144373
 20
351.8647894008
 30
0.0
 40
1.10121792365452
100
AcDbArc
 50
44.9968893761
 51
88.399513853
  0
ARC
  5
398
330
1F
100
AcDbEntity
  8
0
  6
Continuous
 62
     8
370
     0
100
AcDbCircle
 10
406.5909939619
 20
280.6472713633
 30
0.0
 40
1.101257015604837
100
AcDbArc
 50
271.6014950231
 51
315.0025831713
  0
SPLINE
  5
399
330
1F
100
AcDbEntity
  8
0
  6
Continuous
 62
     8
370
     0
100
AcDbSpline
210
0.0
220
0.0
230
1.0
 70
     8
 71
     3
 72
     9
 73
     5
 74
     0
 42
0.00000001
 43
0.00000001
 40
0.0
 40
0.0
 40
0.0
 40
0.0
 40
0.9999445821547721
 40
0.9999999999999999
 40
0.9999999999999999
 40
0.9999999999999999
 40
0.9999999999999999
 10
406.6217715863606
 20
279.546444513984
 30
0.0
 10
406.6858788066772
 20
279.8594619155478
 30
0.0
 10
406.7499895798747
 20
280.1724966648229
 30
0.0
 10
406.8172114912857
 20
280.4861986623077
 30
0.0
 10
406.8172152165791
 20
280.4862160469964
 30
0.0
  0
LINE
  5
39A
330
1F
100
AcDbEntity
  8
0
  6
Continuous
 62
     8
370
     0
100
AcDbLine
 10
406.8172152166
 20
280.486216047
 30
0.0
 11
406.8172152166
 21
352.0258080449
 31
0.0
  0
SPLINE
  5
39B
330
1F
100
AcDbEntity
  8
0
  6
Continuous
 62
     8
370
     0
100
AcDbSpline
210
0.0
220
0.0
230
1.0
 70
     8
 71
     3
 72
     9
 73
     5
 74
     0
 42
0.00000001
 43
0.00000001
 40
0.0
 40
0.0
 40
0.0
 40
0.0
 40
0.9999407918557196
 40
1.0
 40
1.0
 40
1.0
 40
1.0
 10
327.3675317887684
 20
352.9655777152255
 30
0.0
 10
327.3012730375064
 20
352.6530078297623
 30
0.0
 10
327.2350103629543
 20
352.3404194365204
 30
0.0
 10
327.1720918838363
 20
352.0258266713121
 30
0.0
 10
327.1720881585499
 20
352.0258080448583
 30
0.0
  0
LINE
  5
39C
330
1F
100
AcDbEntity
  8
0
  6
Continuous
 62
     8
370
     0
100
AcDbLine
 10
327.1720881585
 20
352.0258080449
 30
0.0
 11
327.1720881585
 21
280.486216047
 31
0.0
  0
SPLINE
  5
39D
330
1F
100
AcDbEntity
  8
0
  6
Continuous
 62
     8
370
     0
100
AcDbSpline
210
0.0
220
0.0
230
1.0
 70
     8
 71
     3
 72
     9
 73
     5
 74
     0
 42
0.00000001
 43
0.00000001
 40
0.0
 40
0.0
 40
0.0
 40
0.0
 40
0.0000554178452278
 40
0.9999999999999999
 40
0.9999999999999999
 40
0.9999999999999999
 40
0.9999999999999999
 10
327.1720881585499
 20
280.4862160469964
 30
0.0
 10
327.1720918838434
 20
280.4861986623077
 30
0.0
 10
327.2393137952754
 20
280.1724966648711
 30
0.0
 10
327.3034245684624
 20
279.8594619155719
 30
0.0
 10
327.3675317887684
 20
279.546444513984
 30
0.0
  0
ARC
  5
39E
330
1F
100
AcDbEntity
  8
0
  6
Continuous
 62
     8
370
     0
100
AcDbCircle
 10
327.3983094133
 20
280.6472713633
 30
0.0
 40
1.101257015604837
100
AcDbArc
 50
224.9974168287
 51
268.3985049769
  0
ARC
  5
39F
330
1F
100
AcDbEntity
  8
0
  6
Continuous
 62
     8
370
     0
100
AcDbCircle
 10
327.3982889378
 20
351.8647894008
 30
0.0
 40
1.101217923654514
100
AcDbArc
 50
91.600486147
 51
135.0031106239
  0
SPLINE
  5
3A0
330
1F
100
AcDbEntity
  8
0
  6
Continuous
 62
     8
370
     0
100
AcDbSpline
210
0.0
220
0.0
230
1.0
 70
     8
 71
     3
 72
     9
 73
     5
 74
     0
 42
0.00000001
 43
0.00000001
 40
0.0
 40
0.0
 40
0.0
 40
0.0
 40
0.9999403822664006
 40
1.0
 40
1.0
 40
1.0
 40
1.0
 10
403.7042173568627
 20
355.8831300820783
 30
0.0
 10
403.3905659373656
 20
355.9443993156781
 30
0.0
 10
403.0768958175669
 20
356.0056722022284
 30
0.0
 10
402.7644644503004
 20
356.0785730914013
 30
0.0
 10
402.7644458238503
 20
356.0785774375871
 30
0.0
  0
LINE
  5
3A1
330
1F
100
AcDbEntity
  8
0
  6
Continuous
 62
     8
370
     0
100
AcDbLine
 10
402.7644458239
 20
356.0785774376
 30
0.0
 11
331.2248575513
 21
356.0785774376
 31
0.0
  0
SPLINE
  5
3A2
330
1F
100
AcDbEntity
  8
0
  6
Continuous
 62
     8
370
     0
100
AcDbSpline
210
0.0
220
0.0
230
1.0
 70
     8
 71
     3
 72
     9
 73
     5
 74
     0
 42
0.00000001
 43
0.00000001
 40
0.0
 40
0.0
 40
0.0
 40
0.0
 40
0.0000596177335994
 40
1.0
 40
1.0
 40
1.0
 40
1.0
 10
331.2248575512787
 20
356.0785774375871
 30
0.0
 10
331.2248389248288
 20
356.0785730914013
 30
0.0
 10
330.9124075575234
 20
356.0056722022092
 30
0.0
 10
330.598737437744
 20
355.9443993156684
 30
0.0
 10
330.2850860182663
 20
355.8831300820783
 30
0.0
  0
ARC
  5
3A3
330
1F
100
AcDbEntity
  8
0
  6
Continuous
 62
     8
370
     0
100
AcDbCircle
 10
331.385888578
 20
355.8523687367
 30
0.0
 40
1.101232280666393
100
AcDbArc
 50
134.9971905941
 51
178.3993163108
  0
ARC
  5
3A4
330
1F
100
AcDbEntity
  8
0
  6
Continuous
 62
     8
370
     0
100
AcDbCircle
 10
402.6034147971
 20
355.8523687367
 30
0.0
 40
1.101232280666474
100
AcDbArc
 50
1.6006836892
 51
45.0028094059
  0
SPLINE
  5
3A5
330
1F
100
AcDbEntity
  8
0
  6
Continuous
 62
     8
370
     0
100
AcDbSpline
210
0.0
220
0.0
230
1.0
 70
     8
 71
     3
 72
     9
 73
     5
 74
     0
 42
0.00000001
 43
0.00000001
 40
0.0
 40
0.0
 40
0.0
 40
0.0
 40
0.99994142795651
 40
1.0
 40
1.0
 40
1.0
 40
1.0
 10
330.2850860182663
 20
276.6288940097764
 30
0.0
 10
330.5959486735358
 20
276.5523759607922
 30
0.0
 10
330.9068295377327
 20
276.475853429727
 30
0.0
 10
331.2248389248192
 20
276.4334528630458
 30
0.0
 10
331.2248575512787
 20
276.4334503795579
 30
0.0
  0
LINE
  5
3A6
330
1F
100
AcDbEntity
  8
0
  6
Continuous
 62
     8
370
     0
100
AcDbLine
 10
331.2248575513
 20
276.4334503796
 30
0.0
 11
402.7644458239
 21
276.4334503796
 31
0.0
  0
SPLINE
  5
3A7
330
1F
100
AcDbEntity
  8
0
  6
Continuous
 62
     8
370
     0
100
AcDbSpline
210
0.0
220
0.0
230
1.0
 70
     8
 71
     3
 72
     9
 73
     5
 74
     0
 42
0.00000001
 43
0.00000001
 40
0.0
 40
0.0
 40
0.0
 40
0.0
 40
0.00005857204349
 40
1.0
 40
1.0
 40
1.0
 40
1.0
 10
402.7644458238503
 20
276.4334503795579
 30
0.0
 10
402.76446445031
 20
276.4334528630458
 30
0.0
 10
403.0824738373572
 20
276.4758534297629
 30
0.0
 10
403.3933547015737
 20
276.5523759608102
 30
0.0
 10
403.7042173568627
 20
276.6288940097764
 30
0.0
  0
ARC
  5
3A8
330
1F
100
AcDbEntity
  8
0
  6
Continuous
 62
     8
370
     0
100
AcDbCircle
 10
402.6034086031
 20
276.6596599622
 30
0.0
 40
1.101238600896637
100
AcDbArc
 50
314.997317519
 51
358.39908571
  0
ARC
  5
3A9
330
1F
100
AcDbEntity
  8
0
  6
Continuous
 62
     8
370
     0
100
AcDbCircle
 10
331.385894772
 20
276.6596599622
 30
0.0
 40
1.101238600896632
100
AcDbArc
 50
181.60091429
 51
225.002682481
  0
SPLINE
  5
3AA
330
1F
100
AcDbEntity
  8
0
  6
Continuous
 62
     8
370
     0
100
AcDbSpline
210
0.0
220
0.0
230
1.0
 70
     8
 71
     3
 72
    12
 73
     8
 74
     0
 42
0.00000001
 43
0.00000001
 40
0.0
 40
0.0
 40
0.0
 40
0.0
 40
0.1838629603295849
 40
0.3855720347720774
 40
0.5905404855385793
 40
0.7973726378587073
 40
1.0
 40
1.0
 40
1.0
 40
1.0
 10
330.2850860182663
 20
355.8831300820783
 30
0.0
 10
330.0229187675973
 20
355.8198917420303
 30
0.0
 10
329.4731377779415
 20
355.6872770196077
 30
0.0
 10
328.7157030417139
 20
355.2435307022484
 30
0.0
 10
328.0673099194885
 20
354.6139716651189
 30
0.0
 10
327.5836358325639
 20
353.8379452228975
 30
0.0
 10
327.4390716208024
 20
353.2543692800414
 30
0.0
 10
327.3675317887684
 20
352.9655777152255
 30
0.0
  0
SPLINE
  5
3AB
330
1F
100
AcDbEntity
  8
0
  6
Continuous
 62
     8
370
     0
100
AcDbSpline
210
0.0
220
0.0
230
1.0
 70
     8
 71
     3
 72
    12
 73
     8
 74
     0
 42
0.00000001
 43
0.00000001
 40
0.0
 40
0.0
 40
0.0
 40
0.0
 40
0.183863119392327
 40
0.3855720804859434
 40
0.5905408809062701
 40
0.7973727162703682
 40
1.0
 40
1.0
 40
1.0
 40
1.0
 10
406.6217715863606
 20
352.9655777152255
 30
0.0
 10
406.5585327351237
 20
353.2277450714287
 30
0.0
 10
406.4259170397109
 20
353.7775258719549
 30
0.0
 10
405.9821671304499
 20
354.5349587296833
 30
0.0
 10
405.3526105041402
 20
355.1833532229099
 30
0.0
 10
404.576584714345
 20
355.6670286279636
 30
0.0
 10
403.9930089837403
 20
355.811591079651
 30
0.0
 10
403.7042173568627
 20
355.8831300820783
 30
0.0
  0
SPLINE
  5
3AC
330
1F
100
AcDbEntity
  8
0
  6
Continuous
 62
     8
370
     0
100
AcDbSpline
210
0.0
220
0.0
230
1.0
 70
     8
 71
     3
 72
    12
 73
     8
 74
     0
 42
0.00000001
 43
0.00000001
 40
0.0
 40
0.0
 40
0.0
 40
0.0
 40
0.1838629073592917
 40
0.3855722641051065
 40
0.5905407879158965
 40
0.7973733765374537
 40
0.9999999999999999
 40
0.9999999999999999
 40
0.9999999999999999
 40
0.9999999999999999
 10
403.7042173568627
 20
276.6288940097764
 30
0.0
 10
403.9663847279808
 20
276.6921314592029
 30
0.0
 10
404.5161664556184
 20
276.8247444310186
 30
0.0
 10
405.2735996762199
 20
277.2684939058068
 30
0.0
 10
405.9219942440563
 20
277.8980524444077
 30
0.0
 10
406.4056662484437
 20
278.6740794749739
 30
0.0
 10
406.5502314650389
 20
279.257654328007
 30
0.0
 10
406.6217715863606
 20
279.546444513984
 30
0.0
  0
SPLINE
  5
3AD
330
1F
100
AcDbEntity
  8
0
  6
Continuous
 62
     8
370
     0
100
AcDbSpline
210
0.0
220
0.0
230
1.0
 70
     8
 71
     3
 72
    12
 73
     8
 74
     0
 42
0.00000001
 43
0.00000001
 40
0.0
 40
0.0
 40
0.0
 40
0.0
 40
0.183862354354053
 40
0.3855717369729565
 40
0.5905408959322328
 40
0.7973727858982196
 40
1.0
 40
1.0
 40
1.0
 40
1.0
 10
327.3675317887684
 20
279.546444513984
 30
0.0
 10
327.4307708699682
 20
279.2842784808004
 30
0.0
 10
327.5633874812829
 20
278.7344986569474
 30
0.0
 10
328.0071361270013
 20
277.977065512457
 30
0.0
 10
328.6366922924765
 20
277.3286691107711
 30
0.0
 10
329.4127184153881
 20
276.844993280617
 30
0.0
 10
329.9962943694471
 20
276.7004322747565
 30
0.0
 10
330.2850860182663
 20
276.6288940097764
 30
0.0
  0
LINE
  5
3AE
330
1F
100
AcDbEntity
  8
0
  6
Continuous
 62
     8
370
     0
100
AcDbLine
 10
409.7446526412
 20
371.0060124054
 30
0.0
 11
409.7446526412
 21
370.5060123235
 31
0.0
  0
LINE
  5
3AF
330
1F
100
AcDbEntity
  8
0
  6
Continuous
 62
     8
370
     0
100
AcDbLine
 10
409.7446526412
 20
370.5060123235
 30
0.0
 11
369.9946517136
 21
370.5060123235
 31
0.0
  0
LINE
  5
3B0
330
1F
100
AcDbEntity
  8
0
  6
Continuous
 62
     8
370
     0
100
AcDbLine
 10
369.9946517136
 20
371.0060124054
 30
0.0
 11
369.9946517136
 21
370.5060123235
 31
0.0
  0
LINE
  5
3B1
330
1F
100
AcDbEntity
  8
0
  6
Continuous
 62
     8
370
     0
100
AcDbLine
 10
369.9946517136
 20
370.5060123235
 30
0.0
 11
367.9946517351
 21
370.5060123235
 31
0.0
  0
LINE
  5
3B2
330
1F
100
AcDbEntity
  8
0
  6
Continuous
 62
     8
370
     0
100
AcDbLine
 10
369.9946517136
 20
369.0060123104
 30
0.0
 11
369.9946517136
 21
370.5060123235
 31
0.0
  0
LINE
  5
3B3
330
1F
100
AcDbEntity
  8
0
  6
Continuous
 62
     8
370
     0
100
AcDbLine
 10
409.7446526412
 20
368.6300508912
 30
0.0
 11
409.7446526412
 21
370.5060123235
 31
0.0
  0
LINE
  5
3B4
330
1F
100
AcDbEntity
  8
0
  6
Continuous
 62
     8
370
     0
100
AcDbLine
 10
417.7446502273
 20
363.0060127239
 30
0.0
 11
417.2446529393
 21
363.0060127239
 31
0.0
  0
ARC
  5
3B5
330
1F
100
AcDbEntity
  8
0
  6
Continuous
 62
     8
370
     0
100
AcDbCircle
 10
409.7446516876
 20
363.0060124185
 30
0.0
 40
7.5
100
AcDbArc
 50
0.0
 51
90.0
  0
LINE
  5
3B6
330
1F
100
AcDbEntity
  8
0
  6
Continuous
 62
     8
370
     0
100
AcDbLine
 10
415.3686898772
 20
363.0060127239
 30
0.0
 11
417.2446529393
 21
363.0060127239
 31
0.0
  0
LINE
  5
3B7
330
1F
100
AcDbEntity
  8
0
  6
Continuous
 62
     8
370
     0
100
AcDbLine
 10
417.7446502273
 20
273.5060129549
 30
0.0
 11
417.2446529393
 21
273.5060129549
 31
0.0
  0
LINE
  5
3B8
330
1F
100
AcDbEntity
  8
0
  6
Continuous
 62
     8
370
     0
100
AcDbLine
 10
417.2446529393
 20
273.5060129549
 30
0.0
 11
417.2446529393
 21
363.0060127239
 31
0.0
  0
LINE
  5
3B9
330
1F
100
AcDbEntity
  8
0
  6
Continuous
 62
     8
370
     0
100
AcDbLine
 10
415.3686898772
 20
273.5060129549
 30
0.0
 11
417.2446529393
 21
273.5060129549
 31
0.0
  0
LINE
  5
3BA
330
1F
100
AcDbEntity
  8
0
  6
Continuous
 62
     8
370
     0
100
AcDbLine
 10
365.9946516401
 20
370.5060123235
 30
0.0
 11
363.9946516615
 21
370.5060123235
 31
0.0
  0
LINE
  5
3BB
330
1F
100
AcDbEntity
  8
0
  6
Continuous
 62
     8
370
     0
100
AcDbLine
 10
363.9946516615
 20
370.5060123235
 30
0.0
 11
363.9946516615
 21
371.0060124054
 31
0.0
  0
LINE
  5
3BC
330
1F
100
AcDbEntity
  8
0
  6
Continuous
 62
     8
370
     0
100
AcDbLine
 10
363.9946516615
 20
370.5060123235
 30
0.0
 11
324.2446507339
 21
370.5060123235
 31
0.0
  0
LINE
  5
3BD
330
1F
100
AcDbEntity
  8
0
  6
Continuous
 62
     8
370
     0
100
AcDbLine
 10
324.2446507339
 20
370.5060123235
 30
0.0
 11
324.2446507339
 21
371.0060124054
 31
0.0
  0
ARC
  5
3BE
330
1F
100
AcDbEntity
  8
0
  6
Continuous
 62
     8
370
     0
100
AcDbCircle
 10
324.2446516876
 20
363.0060124185
 30
0.0
 40
7.5
100
AcDbArc
 50
90.0
 51
180.0
  0
LINE
  5
3BF
330
1F
100
AcDbEntity
  8
0
  6
Continuous
 62
     8
370
     0
100
AcDbLine
 10
316.2446531479
 20
363.0060127239
 30
0.0
 11
316.7446504359
 21
363.0060127239
 31
0.0
  0
LINE
  5
3C0
330
1F
100
AcDbEntity
  8
0
  6
Continuous
 62
     8
370
     0
100
AcDbLine
 10
363.9946516615
 20
369.0060123104
 30
0.0
 11
363.9946516615
 21
370.5060123235
 31
0.0
  0
LINE
  5
3C1
330
1F
100
AcDbEntity
  8
0
  6
Continuous
 62
     8
370
     0
100
AcDbLine
 10
316.7446504359
 20
363.0060127239
 30
0.0
 11
316.7446504359
 21
273.5060129549
 31
0.0
  0
LINE
  5
3C2
330
1F
100
AcDbEntity
  8
0
  6
Continuous
 62
     8
370
     0
100
AcDbLine
 10
316.2446531479
 20
273.5060129549
 30
0.0
 11
316.7446504359
 21
273.5060129549
 31
0.0
  0
LINE
  5
3C3
330
1F
100
AcDbEntity
  8
0
  6
Continuous
 62
     8
370
     0
100
AcDbLine
 10
324.2446507339
 20
368.6300508912
 30
0.0
 11
324.2446507339
 21
370.5060123235
 31
0.0
  0
LINE
  5
3C4
330
1F
100
AcDbEntity
  8
0
  6
Continuous
 62
     8
370
     0
100
AcDbLine
 10
318.6206134979
 20
363.0060127239
 30
0.0
 11
316.7446504359
 21
363.0060127239
 31
0.0
  0
LINE
  5
3C5
330
1F
100
AcDbEntity
  8
0
  6
Continuous
 62
     8
370
     0
100
AcDbLine
 10
318.6206134979
 20
273.5060129549
 30
0.0
 11
316.7446504359
 21
273.5060129549
 31
0.0
  0
LINE
  5
3C6
330
1F
100
AcDbEntity
  8
0
  6
Continuous
 62
     8
370
     0
100
AcDbLine
 10
409.7446526412
 20
265.5060116436
 30
0.0
 11
409.7446526412
 21
266.0060126569
 31
0.0
  0
ARC
  5
3C7
330
1F
100
AcDbEntity
  8
0
  6
Continuous
 62
     8
370
     0
100
AcDbCircle
 10
409.7446516876
 20
273.5060124185
 30
0.0
 40
7.5
100
AcDbArc
 50
270.0
 51
0.0
  0
LINE
  5
3C8
330
1F
100
AcDbEntity
  8
0
  6
Continuous
 62
     8
370
     0
100
AcDbLine
 10
409.7446526412
 20
267.8819719936
 30
0.0
 11
409.7446526412
 21
266.0060126569
 31
0.0
  0
LINE
  5
3C9
330
1F
100
AcDbEntity
  8
0
  6
Continuous
 62
     8
370
     0
100
AcDbLine
 10
324.2446507339
 20
266.0060126569
 30
0.0
 11
409.7446526412
 21
266.0060126569
 31
0.0
  0
LINE
  5
3CA
330
1F
100
AcDbEntity
  8
0
  6
Continuous
 62
     8
370
     0
100
AcDbLine
 10
324.2446507339
 20
267.8819719936
 30
0.0
 11
324.2446507339
 21
266.0060126569
 31
0.0
  0
ARC
  5
3CB
330
1F
100
AcDbEntity
  8
0
  6
Continuous
 62
     8
370
     0
100
AcDbCircle
 10
324.2446516876
 20
273.5060124185
 30
0.0
 40
7.5
100
AcDbArc
 50
180.0
 51
270.0
  0
LINE
  5
3CC
330
1F
100
AcDbEntity
  8
0
  6
Continuous
 62
     8
370
     0
100
AcDbLine
 10
324.2446507339
 20
265.5060116436
 30
0.0
 11
324.2446507339
 21
266.0060126569
 31
0.0
  0
LINE
  5
3CD
330
1F
100
AcDbEntity
  8
0
  6
Continuous
 62
     8
370
     0
100
AcDbLine
 10
392.694650871
 20
371.0060124054
 30
0.0
 11
392.694650871
 21
372.5060124185
 31
0.0
  0
LINE
  5
3CE
330
1F
100
AcDbEntity
  8
0
  6
Continuous
 62
     8
370
     0
100
AcDbLine
 10
341.2946525041
 20
372.5060124185
 30
0.0
 11
341.2946525041
 21
371.0060124054
 31
0.0
  0
LINE
  5
3CF
330
1F
100
AcDbEntity
  8
0
  6
Continuous
 62
     8
370
     0
100
AcDbLine
 10
341.2946525041
 20
376.5060126084
 30
0.0
 11
341.2946525041
 21
372.5060124185
 31
0.0
  0
LINE
  5
3D0
330
1F
100
AcDbEntity
  8
0
  6
Continuous
 62
     8
370
     0
100
AcDbLine
 10
392.694650871
 20
372.5060124185
 30
0.0
 11
392.694650871
 21
376.5060126084
 31
0.0
  0
DIMENSION
  5
3D1
330
1F
100
AcDbEntity
  8
0
  6
Continuous
 62
     7
370
     0
100
AcDbDimension
  2
*D2
 10
303.946161471
 20
265.5060124185
 30
0.0
 11
303.946161471
 21
318.1528238778
 31
0.0
 70
   160
  1
(<>)
 71
     2
 42
-1.0
  3
SLDDIMSTYLE0
100
AcDbAlignedDimension
 13
341.2946516876
 23
376.5060124185
 33
0.0
 14
324.2446516876
 24
265.5060124185
 34
0.0
 50
90.0
100
AcDbRotatedDimension
  0
DIMENSION
  5
3DD
330
1F
100
AcDbEntity
  8
0
  6
Continuous
 62
     7
370
     0
100
AcDbDimension
  2
*D3
 10
417.7446516876
 20
253.0703997249
 30
0.0
 11
366.2912739011
 21
253.0703997249
 31
0.0
 70
   160
  1
(<>)
 71
     2
 42
-1.0
  3
SLDDIMSTYLE0
100
AcDbAlignedDimension
 13
316.2446516876
 23
273.5060124185
 33
0.0
 14
417.7446516876
 24
273.5060124185
 34
0.0
100
AcDbRotatedDimension
  0
INSERT
  5
3F4
330
1F
100
AcDbEntity
  8
0
  6
Continuous
 62
     7
370
     0
100
AcDbBlockReference
  2
SW_CENTERMARKSYMBOL_0
 10
366.9946516876
 20
316.2560124185
 30
0.0
  0
ENDSEC
  0
SECTION
  2
OBJECTS
  0
DICTIONARY
  5
C
330
0
100
AcDbDictionary
281
     1
  3
ACAD_GROUP
350
D
  3
ACAD_LAYOUT
350
1A
  3
ACAD_MLINESTYLE
350
17
  3
ACAD_PLOTSETTINGS
350
19
  3
ACAD_PLOTSTYLENAME
350
E
  0
DICTIONARY
  5
D
102
{ACAD_REACTORS
330
C
102
}
330
C
100
AcDbDictionary
281
     1
  0
DICTIONARY
  5
1A
102
{ACAD_REACTORS
330
C
102
}
330
C
100
AcDbDictionary
281
     1
  3
Layout1
350
1E
  3
Layout2
350
26
  3
Model
350
22
  0
DICTIONARY
  5
17
102
{ACAD_REACTORS
330
C
102
}
330
C
100
AcDbDictionary
281
     1
  3
Standard
350
18
  0
DICTIONARY
  5
19
102
{ACAD_REACTORS
330
C
102
}
330
C
100
AcDbDictionary
281
     1
  0
ACDBDICTIONARYWDFLT
  5
E
102
{ACAD_REACTORS
330
C
102
}
330
C
100
AcDbDictionary
281
     1
  3
Normal
350
F
100
AcDbDictionaryWithDefault
340
F
  0
LAYOUT
  5
1E
102
{ACAD_REACTORS
330
1A
102
}
330
1A
100
AcDbPlotSettings
  1

  2
none_device
  4

  6

 40
0.0
 41
0.0
 42
0.0
 43
0.0
 44
0.0
 45
0.0
 46
0.0
 47
0.0
 48
0.0
 49
0.0
140
0.0
141
0.0
142
1.0
143
1.0
 70
   688
 72
     0
 73
     0
 74
     5
  7

 75
    16
147
1.0
148
0.0
149
0.0
100
AcDbLayout
  1
Layout1
 70
     1
 71
     1
 10
0.0
 20
0.0
 11
420.0
 21
297.0
 12
0.0
 22
0.0
 32
0.0
 14
1.0000000000E+20
 24
1.0000000000E+20
 34
1.0000000000E+20
 15
-1.0000000000E+20
 25
-1.0000000000E+20
 35
-1.0000000000E+20
146
0.0
 13
0.0
 23
0.0
 33
0.0
 16
1.0
 26
0.0
 36
0.0
 17
0.0
 27
1.0
 37
0.0
 76
     0
330
1B
  0
LAYOUT
  5
26
102
{ACAD_REACTORS
330
1A
102
}
330
1A
100
AcDbPlotSettings
  1

  2
none_device
  4

  6

 40
0.0
 41
0.0
 42
0.0
 43
0.0
 44
0.0
 45
0.0
 46
0.0
 47
0.0
 48
0.0
 49
0.0
140
0.0
141
0.0
142
1.0
143
1.0
 70
   688
 72
     0
 73
     0
 74
     5
  7

 75
    16
147
1.0
148
0.0
149
0.0
100
AcDbLayout
  1
Layout2
 70
     1
 71
     2
 10
0.0
 20
0.0
 11
0.0
 21
0.0
 12
0.0
 22
0.0
 32
0.0
 14
0.0
 24
0.0
 34
0.0
 15
0.0
 25
0.0
 35
0.0
146
0.0
 13
0.0
 23
0.0
 33
0.0
 16
1.0
 26
0.0
 36
0.0
 17
0.0
 27
1.0
 37
0.0
 76
     0
330
23
  0
LAYOUT
  5
22
102
{ACAD_REACTORS
330
1A
102
}
330
1A
100
AcDbPlotSettings
  1

  2
none_device
  4

  6

 40
0.0
 41
0.0
 42
0.0
 43
0.0
 44
0.0
 45
0.0
 46
0.0
 47
0.0
 48
0.0
 49
0.0
140
0.0
141
0.0
142
1.0
143
1.0
 70
  1712
 72
     0
 73
     0
 74
     0
  7

 75
     0
147
1.0
148
0.0
149
0.0
100
AcDbLayout
  1
Model
 70
     1
 71
     0
 10
0.0
 20
0.0
 11
594.0
 21
420.0
 12
0.0
 22
0.0
 32
0.0
 14
0.0
 24
0.0
 34
0.0
 15
594.0
 25
420.0
 35
0.0
146
0.0
 13
0.0
 23
0.0
 33
0.0
 16
1.0
 26
0.0
 36
0.0
 17
0.0
 27
1.0
 37
0.0
 76
     0
330
1F
331
29
  0
MLINESTYLE
  5
18
102
{ACAD_REACTORS
330
17
102
}
330
17
100
AcDbMlineStyle
  2
Standard
 70
     0
  3

 62
   256
 51
90.0
 52
90.0
 71
     2
 49
0.5
 62
   256
  6
BYLAYER
 49
-0.5
 62
   256
  6
BYLAYER
  0
ACDBPLACEHOLDER
  5
F
102
{ACAD_REACTORS
330
E
102
}
330
E
  0
ENDSEC
  0
EOF
