  0
SECTION
  2
HEADER
  9
$ACADVER
  1
AC1009
  9
$DWGCODEPAGE
  3
ansi_1252
  9
$INSBASE
 10
0.0
 20
0.0
 30
0.0
  9
$EXTMIN
 10
0.0
 20
0.0
 30
0.0
  9
$EXTMAX
 10
210.0
 20
297.0
 30
0.0
  9
$LIMMIN
 10
0.0
 20
0.0
  9
$LIMMAX
 10
210.0
 20
297.0
  9
$ORTHOMODE
 70
     0
  9
$REGENMODE
 70
     1
  9
$FILLMODE
 70
     1
  9
$QTEXTMODE
 70
     0
  9
$MIRRTEXT
 70
     1
  9
$DRAGMODE
 70
     2
  9
$LTSCALE
 40
1.0
  9
$OSMODE
 70
    37
  9
$ATTMODE
 70
     1
  9
$TEXTSIZE
 40
3.5
  9
$TRACEWID
 40
1.0
  9
$TEXTSTYLE
  7
STANDARD
  9
$CLAYER
  8
0
  9
$CELTYPE
  6
BYLAYER
  9
$CECOLOR
 62
   256
  9
$DIMSCALE
 40
1.0
  9
$DIMASZ
 40
3.302
  9
$DIMEXO
 40
1.0
  9
$DIMDLI
 40
3.75
  9
$DIMRND
 40
0.0
  9
$DIMDLE
 40
0.0
  9
$DIMEXE
 40
1.0
  9
$DIMTP
 40
0.0
  9
$DIMTM
 40
0.0
  9
$DIMTXT
 40
3.5
  9
$DIMCEN
 40
2.5
  9
$DIMTSZ
 40
0.0
  9
$DIMTOL
 70
     0
  9
$DIMLIM
 70
     0
  9
$DIMTIH
 70
     1
  9
$DIMTOH
 70
     1
  9
$DIMSE1
 70
     0
  9
$DIMSE2
 70
     0
  9
$DIMTAD
 70
     1
  9
$DIMZIN
 70
     0
  9
$DIMBLK
  1

  9
$DIMASO
 70
     1
  9
$DIMSHO
 70
     1
  9
$DIMPOST
  1

  9
$DIMAPOST
  1

  9
$DIMALT
 70
     0
  9
$DIMALTD
 70
     3
  9
$DIMALTF
 40
0.0393700787
  9
$DIMLFAC
 40
1.0
  9
$DIMTOFL
 70
     1
  9
$DIMTVP
 40
0.0
  9
$DIMTIX
 70
     0
  9
$DIMSOXD
 70
     0
  9
$DIMSAH
 70
     0
  9
$DIMBLK1
  1

  9
$DIMBLK2
  1

  9
$DIMSTYLE
  2
ISO-25
  9
$DIMCLRD
 70
     0
  9
$DIMCLRE
 70
     0
  9
$DIMCLRT
 70
     0
  9
$DIMTFAC
 40
1.0
  9
$DIMGAP
 40
1.524
  9
$LUNITS
 70
     2
  9
$LUPREC
 70
     2
  9
$SKETCHINC
 40
1.0
  9
$FILLETRAD
 40
10.0
  9
$AUNITS
 70
     0
  9
$AUPREC
 70
     2
  9
$MENU
  1
.
  9
$ELEVATION
 40
0.0
  9
$PELEVATION
 40
0.0
  9
$THICKNESS
 40
0.0
  9
$LIMCHECK
 70
     0
  9
$CHAMFERA
 40
0.0
  9
$CHAMFERB
 40
0.0
  9
$SKPOLY
 70
     0
  9
$TDCREATE
 40
2458290.557103518
  9
$TDUPDATE
 40
2458290.557104062
  9
$TDINDWG
 40
0.0000000116
  9
$TDUSRTIMER
 40
0.0000000116
  9
$USRTIMER
 70
     1
  9
$ANGBASE
 50
0.0
  9
$ANGDIR
 70
     0
  9
$PDMODE
 70
     0
  9
$PDSIZE
 40
-1.0
  9
$PLINEWID
 40
0.0
  9
$COORDS
 70
     1
  9
$SPLFRAME
 70
     0
  9
$SPLINETYPE
 70
     6
  9
$SPLINESEGS
 70
     8
  9
$ATTDIA
 70
     0
  9
$ATTREQ
 70
     1
  9
$HANDLING
 70
     1
  9
$HANDSEED
  5
BBD
  9
$SURFTAB1
 70
     6
  9
$SURFTAB2
 70
     6
  9
$SURFTYPE
 70
     6
  9
$SURFU
 70
     6
  9
$SURFV
 70
     6
  9
$UCSNAME
  2

  9
$UCSORG
 10
0.0
 20
0.0
 30
0.0
  9
$UCSXDIR
 10
1.0
 20
0.0
 30
0.0
  9
$UCSYDIR
 10
0.0
 20
1.0
 30
0.0
  9
$PUCSNAME
  2

  9
$PUCSORG
 10
0.0
 20
0.0
 30
0.0
  9
$PUCSXDIR
 10
1.0
 20
0.0
 30
0.0
  9
$PUCSYDIR
 10
0.0
 20
1.0
 30
0.0
  9
$USERI1
 70
     0
  9
$USERI2
 70
     0
  9
$USERI3
 70
     0
  9
$USERI4
 70
     0
  9
$USERI5
 70
     0
  9
$USERR1
 40
0.0
  9
$USERR2
 40
0.0
  9
$USERR3
 40
0.0
  9
$USERR4
 40
0.0
  9
$USERR5
 40
0.0
  9
$WORLDVIEW
 70
     1
  9
$SHADEDGE
 70
     3
  9
$SHADEDIF
 70
    70
  9
$TILEMODE
 70
     1
  9
$MAXACTVP
 70
    64
  9
$PLIMCHECK
 70
     0
  9
$PEXTMIN
 10
1.0000000000E+20
 20
1.0000000000E+20
 30
1.0000000000E+20
  9
$PEXTMAX
 10
-1.0000000000E+20
 20
-1.0000000000E+20
 30
-1.0000000000E+20
  9
$PLIMMIN
 10
0.0
 20
0.0
  9
$PLIMMAX
 10
420.0
 20
297.0
  9
$UNITMODE
 70
     0
  9
$VISRETAIN
 70
     1
  9
$PLINEGEN
 70
     0
  9
$PSLTSCALE
 70
     1
  0
ENDSEC
  0
SECTION
  2
TABLES
  0
TABLE
  2
VPORT
 70
     1
  0
VPORT
  2
*ACTIVE
 70
     0
 10
0.0
 20
0.0
 11
1.0
 21
1.0
 12
105.0
 22
148.5
 13
0.0
 23
0.0
 14
10.0
 24
10.0
 15
10.0
 25
10.0
 16
0.0
 26
0.0
 36
1.0
 17
0.0
 27
0.0
 37
0.0
 40
297.0
 41
0.7070707071
 42
50.0
 43
0.0
 44
0.0
 50
0.0
 51
0.0
 71
     0
 72
  2000
 73
     1
 74
     3
 75
     0
 76
     0
 77
     0
 78
     0
  0
ENDTAB
  0
TABLE
  2
LTYPE
 70
     6
  0
LTYPE
  2
CONTINUOUS
 70
     0
  3
Solid line
 72
    65
 73
     0
 40
0.0
  0
LTYPE
  2
HIDDEN
 70
     0
  3
Hidden __ __ __ __ __ __ __ __ __ __ __ __ __ __
 72
    65
 73
     2
 40
1.905
 49
1.27
 49
-0.635
  0
LTYPE
  2
PHANTOM
 70
     0
  3
Phantom ______  __  __  ______  __  __  ______
 72
    65
 73
     6
 40
12.7
 49
6.35
 49
-1.27
 49
1.27
 49
-1.27
 49
1.27
 49
-1.27
  0
LTYPE
  2
CENTER
 70
     0
  3
Center ____ _ ____ _ ____ _ ____ _ ____ _ ____
 72
    65
 73
     4
 40
10.16
 49
6.35
 49
-1.27
 49
1.27
 49
-1.27
  0
LTYPE
  2
CENTERX2
 70
     0
  3
Center (2x) ________  __  ________  __  _____
 72
    65
 73
     4
 40
20.32
 49
12.7
 49
-2.54
 49
2.54
 49
-2.54
  0
LTYPE
  2
DOT2
 70
     0
  3
Dot (.5x) ........................................
 72
    65
 73
     2
 40
0.635
 49
0.0
 49
-0.635
  0
ENDTAB
  0
TABLE
  2
LAYER
 70
     4
  0
LAYER
  2
0
 70
     0
 62
     7
  6
CONTINUOUS
  0
LAYER
  2
RAHMEN
 70
     0
 62
   179
  6
CONTINUOUS
  0
LAYER
  2
KOPF
 70
     0
 62
     7
  6
CONTINUOUS
  0
LAYER
  2
ZEICHNUNG
 70
     0
 62
     7
  6
CONTINUOUS
  0
ENDTAB
  0
TABLE
  2
STYLE
 70
     1
  0
STYLE
  2
STANDARD
 70
     0
 40
0.0
 41
1.0
 50
0.0
 71
     0
 42
3.5
  3
txt
  4

  0
ENDTAB
  0
TABLE
  2
VIEW
 70
     0
  0
ENDTAB
  0
TABLE
  2
UCS
 70
     0
  0
ENDTAB
  0
TABLE
  2
APPID
 70
     1
  0
APPID
  2
ACAD
 70
     0
  0
ENDTAB
  0
TABLE
  2
DIMSTYLE
 70
     6
  0
DIMSTYLE
  2
ISO-25
 70
     0
  3

  4

  5

  6

  7

 40
1.0
 41
2.5
 42
0.625
 43
3.75
 44
1.25
 45
0.0
 46
0.0
 47
0.0
 48
0.0
140
2.5
141
2.5
142
0.0
143
0.0393700787
144
1.0
145
0.0
146
1.0
147
0.625
 71
     0
 72
     0
 73
     0
 74
     0
 75
     0
 76
     0
 77
     1
 78
     8
170
     0
171
     3
172
     1
173
     0
174
     0
175
     0
176
     0
177
     0
178
     0
  0
DIMSTYLE
  2
SLDDIMSTYLE0
 70
     0
  3

  4

  5

  6

  7

 40
1.0
 41
3.302
 42
0.0625
 43
0.38
 44
0.0
 45
0.000000001
 46
0.0
 47
0.0
 48
0.0
140
3.5
141
0.09
142
0.0
143
25.4
144
1.0
145
0.0
146
1.0
147
0.875
 71
     0
 72
     0
 73
     0
 74
     0
 75
     0
 76
     0
 77
     1
 78
    12
170
     0
171
     2
172
     0
173
     1
174
     0
175
     0
176
     0
177
     0
178
     0
  0
DIMSTYLE
  2
SLDDIMSTYLE1
 70
     0
  3

  4

  5

  6

  7

 40
1.0
 41
3.302
 42
0.0625
 43
0.38
 44
0.0
 45
0.000000001
 46
0.0
 47
0.0
 48
0.0
140
3.5
141
0.09
142
0.0
143
25.4
144
1.0
145
0.0
146
1.0
147
0.875
 71
     0
 72
     0
 73
     0
 74
     0
 75
     0
 76
     0
 77
     1
 78
    12
170
     0
171
     2
172
     0
173
     1
174
     0
175
     0
176
     0
177
     0
178
     0
  0
DIMSTYLE
  2
SLDDIMSTYLE2
 70
     0
  3

  4

  5

  6

  7

 40
1.0
 41
3.302
 42
0.0625
 43
0.38
 44
0.0
 45
0.000000001
 46
0.0
 47
0.0
 48
0.0
140
3.5
141
0.09
142
0.0
143
25.4
144
1.0
145
0.0
146
1.0
147
0.875
 71
     0
 72
     0
 73
     0
 74
     0
 75
     0
 76
     0
 77
     1
 78
     4
170
     0
171
     2
172
     0
173
     1
174
     0
175
     0
176
     0
177
     0
178
     0
  0
DIMSTYLE
  2
SLDDIMSTYLE3
 70
     0
  3

  4

  5

  6

  7

 40
1.0
 41
3.302
 42
0.0625
 43
0.38
 44
0.0
 45
0.000000001
 46
0.0
 47
0.0
 48
0.0
140
3.5
141
0.09
142
0.0
143
25.4
144
1.0
145
0.0
146
1.0
147
0.875
 71
     0
 72
     0
 73
     0
 74
     0
 75
     0
 76
     0
 77
     1
 78
    12
170
     0
171
     2
172
     0
173
     1
174
     0
175
     0
176
     0
177
     0
178
     0
  0
DIMSTYLE
  2
SLDDIMSTYLE4
 70
     0
  3

  4

  5

  6

  7

 40
1.0
 41
3.302
 42
0.0625
 43
0.38
 44
0.0
 45
0.000000001
 46
0.0
 47
0.0
 48
0.0
140
3.5
141
0.09
142
0.0
143
25.4
144
1.0
145
0.0
146
1.0
147
0.875
 71
     0
 72
     0
 73
     0
 74
     0
 75
     0
 76
     0
 77
     1
 78
    12
170
     0
171
     2
172
     1
173
     1
174
     0
175
     0
176
     0
177
     0
178
     0
  0
ENDTAB
  0
ENDSEC
  0
SECTION
  2
BLOCKS
  0
BLOCK
  8
0
  2
$MODEL_SPACE
 70
     0
 10
0.0
 20
0.0
 30
0.0
  3
$MODEL_SPACE
  1

  0
ENDBLK
  5
21
  8
0
  0
BLOCK
 67
     1
  8
0
  2
$PAPER_SPACE
 70
     0
 10
0.0
 20
0.0
 30
0.0
  3
$PAPER_SPACE
  1

  0
ENDBLK
  5
1D
 67
     1
  8
0
  0
BLOCK
  8
0
  2
LOGO_BOAG
 70
     0
 10
0.0
 20
0.0
 30
0.0
  3
LOGO_BOAG
  1

  0
LINE
  5
79
  8
0
  6
CONTINUOUS
 62
     7
 10
0.0
 20
2.3429474284
 30
0.0
 11
0.0006046143
 21
2.3429474284
 31
0.0
  0
LINE
  5
7A
  8
0
  6
CONTINUOUS
 62
     7
 10
38.4424493815
 20
0.0213630371
 30
0.0
 11
38.4435242513
 21
0.0213630371
 31
0.0
  0
LINE
  5
7B
  8
0
  6
CONTINUOUS
 62
     7
 10
20.5614529622
 20
0.1305966797
 30
0.0
 11
20.5614529622
 21
2.7389025879
 31
0.0
  0
LINE
  5
7C
  8
0
  6
CONTINUOUS
 62
     7
 10
32.2645008952
 20
5.8065809733
 30
0.0
 11
32.2645008952
 21
0.1305966797
 31
0.0
  0
LINE
  5
7D
  8
0
  6
CONTINUOUS
 62
     7
 10
19.8989300944
 20
0.1305966797
 30
0.0
 11
20.5614529622
 21
0.1305966797
 31
0.0
  0
LINE
  5
7E
  8
0
  6
CONTINUOUS
 62
     7
 10
17.1837418213
 20
0.0213630371
 30
0.0
 11
17.1885787354
 21
0.0213630371
 31
0.0
  0
LINE
  5
7F
  8
0
  6
CONTINUOUS
 62
     7
 10
27.2947060547
 20
3.6284916992
 30
0.0
 11
27.2586979167
 21
3.7098459066
 31
0.0
  0
LINE
  5
80
  8
0
  6
CONTINUOUS
 62
     7
 10
35.1241919759
 20
0.1305966797
 30
0.0
 11
35.7875209961
 21
0.1305966797
 31
0.0
  0
LINE
  5
81
  8
0
  6
CONTINUOUS
 62
     7
 10
39.800681722
 20
4.6189842122
 30
0.0
 11
39.800681722
 21
4.2021362712
 31
0.0
  0
LINE
  5
82
  8
0
  6
CONTINUOUS
 62
     7
 10
32.9268894043
 20
0.1305966797
 30
0.0
 11
32.9268894043
 21
2.7394400228
 31
0.0
  0
LINE
  5
83
  8
0
  6
CONTINUOUS
 62
     7
 10
19.0864628906
 20
1.4555080566
 30
0.0
 11
19.1096397705
 21
1.5300771484
 31
0.0
  0
LINE
  5
84
  8
0
  6
CONTINUOUS
 62
     7
 10
26.6360795898
 20
3.6284916992
 30
0.0
 11
27.2947060547
 21
3.6284916992
 31
0.0
  0
LINE
  5
85
  8
0
  6
CONTINUOUS
 62
     7
 10
43.4954122721
 20
0.5801609701
 30
0.0
 11
43.4954122721
 21
0.1305966797
 31
0.0
  0
LINE
  5
86
  8
0
  6
CONTINUOUS
 62
     7
 10
37.0703780924
 20
2.3749248047
 30
0.0
 11
37.070109375
 21
2.3749248047
 31
0.0
  0
LINE
  5
87
  8
0
  6
CONTINUOUS
 62
     7
 10
41.7684995931
 20
4.0474222005
 30
0.0
 11
41.7684995931
 21
0.8538496908
 31
0.0
  0
LINE
  5
88
  8
0
  6
CONTINUOUS
 62
     7
 10
35.1241919759
 20
2.9854508464
 30
0.0
 11
35.1241919759
 21
0.1305966797
 31
0.0
  0
LINE
  5
89
  8
0
  6
CONTINUOUS
 62
     7
 10
0.7260745443
 20
5.8257270915
 30
0.0
 11
0.0
 21
5.8257270915
 31
0.0
  0
LINE
  5
8A
  8
0
  6
CONTINUOUS
 62
     7
 10
22.7592257894
 20
0.1305966797
 30
0.0
 11
23.4218158366
 21
0.1305966797
 31
0.0
  0
LINE
  5
8B
  8
0
  6
CONTINUOUS
 62
     7
 10
7.5973140462
 20
0.0213630371
 30
0.0
 11
7.5991950684
 21
0.0213630371
 31
0.0
  0
LINE
  5
8C
  8
0
  6
CONTINUOUS
 62
     7
 10
14.3718824463
 20
2.3015649414
 30
0.0
 11
14.3730916748
 21
2.3015649414
 31
0.0
  0
LINE
  5
8D
  8
0
  6
CONTINUOUS
 62
     7
 10
20.5614529622
 20
4.6189842122
 30
0.0
 11
19.8989300944
 21
4.6189842122
 31
0.0
  0
LINE
  5
8E
  8
0
  6
CONTINUOUS
 62
     7
 10
25.7210966797
 20
4.7150506999
 30
0.0
 11
25.6641285807
 21
4.714513265
 31
0.0
  0
LINE
  5
8F
  8
0
  6
CONTINUOUS
 62
     7
 10
46.7638225911
 20
4.2426454264
 30
0.0
 11
46.7638225911
 21
4.6189842122
 31
0.0
  0
LINE
  5
90
  8
0
  6
CONTINUOUS
 62
     7
 10
31.0650805664
 20
3.5541241455
 30
0.0
 11
31.7829592285
 21
3.5494215902
 31
0.0
  0
LINE
  5
91
  8
0
  6
CONTINUOUS
 62
     7
 10
39.9248291829
 20
0.1305966797
 30
0.0
 11
40.4770435384
 21
0.1305966797
 31
0.0
  0
LINE
  5
92
  8
0
  6
CONTINUOUS
 62
     7
 10
12.3384303385
 20
0.0213630371
 30
0.0
 11
12.3455513509
 21
0.0213630371
 31
0.0
  0
LINE
  5
93
  8
0
  6
CONTINUOUS
 62
     7
 10
42.4311568197
 20
5.8068496908
 30
0.0
 11
41.7684995931
 21
5.8068496908
 31
0.0
  0
LINE
  5
94
  8
0
  6
CONTINUOUS
 62
     7
 10
45.8313730469
 20
4.047690918
 30
0.0
 11
43.4954122721
 21
0.5801609701
 31
0.0
  0
LINE
  5
95
  8
0
  6
CONTINUOUS
 62
     7
 10
31.7829592285
 20
3.5494215902
 30
0.0
 11
31.7470854492
 21
3.6313132324
 31
0.0
  0
LINE
  5
96
  8
0
  6
CONTINUOUS
 62
     7
 10
46.7999650879
 20
0.7024274089
 30
0.0
 11
44.382314209
 21
0.7024274089
 31
0.0
  0
LINE
  5
97
  8
0
  6
CONTINUOUS
 62
     7
 10
42.4311568197
 20
4.0474222005
 30
0.0
 11
45.8313730469
 21
4.047690918
 31
0.0
  0
LINE
  5
98
  8
0
  6
CONTINUOUS
 62
     7
 10
20.5614529622
 20
4.1084210612
 30
0.0
 11
20.5614529622
 21
4.6189842122
 31
0.0
  0
LINE
  5
99
  8
0
  6
CONTINUOUS
 62
     7
 10
42.4311568197
 20
1.2182305501
 30
0.0
 11
42.4311568197
 21
4.0474222005
 31
0.0
  0
LINE
  5
9A
  8
0
  6
CONTINUOUS
 62
     7
 10
32.2645008952
 20
0.1305966797
 30
0.0
 11
32.9268894043
 21
0.1305966797
 31
0.0
  0
LINE
  5
9B
  8
0
  6
CONTINUOUS
 62
     7
 10
31.8158771159
 20
1.2786919759
 30
0.0
 11
31.8470483398
 21
1.3576949056
 31
0.0
  0
LINE
  5
9C
  8
0
  6
CONTINUOUS
 62
     7
 10
43.158171875
 20
0.1096367188
 30
0.0
 11
43.158171875
 21
0.6738090007
 31
0.0
  0
LINE
  5
9D
  8
0
  6
CONTINUOUS
 62
     7
 10
26.6192847493
 20
3.6569757487
 30
0.0
 11
26.6360795898
 21
3.6284916992
 31
0.0
  0
LINE
  5
9E
  8
0
  6
CONTINUOUS
 62
     7
 10
19.1506863607
 20
2.3348859049
 30
0.0
 11
19.1486038005
 21
2.3953473307
 31
0.0
  0
LINE
  5
9F
  8
0
  6
CONTINUOUS
 62
     7
 10
23.4218158366
 20
0.1305966797
 30
0.0
 11
23.4218158366
 21
3.1490325928
 31
0.0
  0
LINE
  5
A0
  8
0
  6
CONTINUOUS
 62
     7
 10
46.7638225911
 20
4.6189842122
 30
0.0
 11
42.4311568197
 21
4.6189842122
 31
0.0
  0
LINE
  5
A1
  8
0
  6
CONTINUOUS
 62
     7
 10
41.7684995931
 20
5.8068496908
 30
0.0
 11
41.7684995931
 21
4.6189842122
 31
0.0
  0
LINE
  5
A2
  8
0
  6
CONTINUOUS
 62
     7
 10
46.7999650879
 20
0.1305966797
 30
0.0
 11
46.7999650879
 21
0.7024274089
 31
0.0
  0
LINE
  5
A3
  8
0
  6
CONTINUOUS
 62
     7
 10
17.161236735
 20
0.6476090495
 30
0.0
 11
17.1482711182
 21
0.6478777669
 31
0.0
  0
LINE
  5
A4
  8
0
  6
CONTINUOUS
 62
     7
 10
24.0082916667
 20
1.3783861491
 30
0.0
 11
24.0318044434
 21
1.3032796224
 31
0.0
  0
LINE
  5
A5
  8
0
  6
CONTINUOUS
 62
     7
 10
14.3730916748
 20
2.3015649414
 30
0.0
 11
14.3730916748
 21
5.8065809733
 31
0.0
  0
LINE
  5
A6
  8
0
  6
CONTINUOUS
 62
     7
 10
22.7592257894
 20
2.9849134115
 30
0.0
 11
22.7592257894
 21
0.1305966797
 31
0.0
  0
LINE
  5
A7
  8
0
  6
CONTINUOUS
 62
     7
 10
31.1213768717
 20
1.357963623
 30
0.0
 11
31.1061943359
 21
1.324911377
 31
0.0
  0
LINE
  5
A8
  8
0
  6
CONTINUOUS
 62
     7
 10
32.9268894043
 20
4.1010985107
 30
0.0
 11
32.9268894043
 21
5.8065809733
 31
0.0
  0
LINE
  5
A9
  8
0
  6
CONTINUOUS
 62
     7
 10
39.8376303711
 20
0.5832512207
 30
0.0
 11
39.9248291829
 21
0.1305966797
 31
0.0
  0
LINE
  5
AA
  8
0
  6
CONTINUOUS
 62
     7
 10
18.4000241699
 20
2.9064479167
 30
0.0
 11
15.823695638
 21
2.9064479167
 31
0.0
  0
LINE
  5
AB
  8
0
  6
CONTINUOUS
 62
     7
 10
32.9268894043
 20
5.8065809733
 30
0.0
 11
32.2645008952
 21
5.8065809733
 31
0.0
  0
LINE
  5
AC
  8
0
  6
CONTINUOUS
 62
     7
 10
31.8470483398
 20
1.3576949056
 30
0.0
 11
31.1213768717
 21
1.357963623
 31
0.0
  0
LINE
  5
AD
  8
0
  6
CONTINUOUS
 62
     7
 10
44.382314209
 20
0.7024274089
 30
0.0
 11
46.7638225911
 21
4.2426454264
 31
0.0
  0
LINE
  5
AE
  8
0
  6
CONTINUOUS
 62
     7
 10
41.7684995931
 20
4.6189842122
 30
0.0
 11
39.800681722
 21
4.6189842122
 31
0.0
  0
LINE
  5
AF
  8
0
  6
CONTINUOUS
 62
     7
 10
0.7272837728
 20
2.2849044596
 30
0.0
 11
0.7260745443
 21
2.2849044596
 31
0.0
  0
LINE
  5
B0
  8
0
  6
CONTINUOUS
 62
     7
 10
0.7260745443
 20
2.2849044596
 30
0.0
 11
0.7260745443
 21
5.8257270915
 31
0.0
  0
LINE
  5
B1
  8
0
  6
CONTINUOUS
 62
     7
 10
13.7147339274
 20
5.8065809733
 30
0.0
 11
13.7147339274
 21
4.1168184814
 31
0.0
  0
LINE
  5
B2
  8
0
  6
CONTINUOUS
 62
     7
 10
15.8146936035
 20
2.3348859049
 30
0.0
 11
19.1506863607
 21
2.3348859049
 31
0.0
  0
LINE
  5
B3
  8
0
  6
CONTINUOUS
 62
     7
 10
40.4770435384
 20
0.1305966797
 30
0.0
 11
40.4770435384
 21
4.0474222005
 31
0.0
  0
LINE
  5
B4
  8
0
  6
CONTINUOUS
 62
     7
 10
42.4311568197
 20
4.6189842122
 30
0.0
 11
42.4311568197
 21
5.8068496908
 31
0.0
  0
LINE
  5
B5
  8
0
  6
CONTINUOUS
 62
     7
 10
18.3769816488
 20
1.5300771484
 30
0.0
 11
18.3634114176
 21
1.4916505534
 31
0.0
  0
LINE
  5
B6
  8
0
  6
CONTINUOUS
 62
     7
 10
40.4770435384
 20
4.0474222005
 30
0.0
 11
41.7684995931
 21
4.0474222005
 31
0.0
  0
LINE
  5
B7
  8
0
  6
CONTINUOUS
 62
     7
 10
19.8989300944
 20
4.6189842122
 30
0.0
 11
19.8989300944
 21
0.1305966797
 31
0.0
  0
LINE
  5
B8
  8
0
  6
CONTINUOUS
 62
     7
 10
35.7875209961
 20
0.1305966797
 30
0.0
 11
35.7875209961
 21
3.1490325928
 31
0.0
  0
LINE
  5
B9
  8
0
  6
CONTINUOUS
 62
     7
 10
43.4954122721
 20
0.1305966797
 30
0.0
 11
46.7999650879
 21
0.1305966797
 31
0.0
  0
LINE
  5
BA
  8
0
  6
CONTINUOUS
 62
     7
 10
31.0498980306
 20
3.5879153646
 30
0.0
 11
31.0650805664
 21
3.5541241455
 31
0.0
  0
LINE
  5
BB
  8
0
  6
CONTINUOUS
 62
     7
 10
25.6641285807
 20
4.714513265
 30
0.0
 11
25.6641285807
 21
4.7132368571
 31
0.0
  0
LINE
  5
BC
  8
0
  6
CONTINUOUS
 62
     7
 10
24.6819663086
 20
1.3783861491
 30
0.0
 11
24.0082916667
 21
1.3783861491
 31
0.0
  0
LINE
  5
BD
  8
0
  6
CONTINUOUS
 62
     7
 10
24.6936555176
 20
1.3361975098
 30
0.0
 11
24.6819663086
 21
1.3783861491
 31
0.0
  0
LINE
  5
BE
  8
0
  6
CONTINUOUS
 62
     7
 10
0.0
 20
5.8257270915
 30
0.0
 11
0.0
 21
2.3429474284
 31
0.0
  0
LINE
  5
BF
  8
0
  6
CONTINUOUS
 62
     7
 10
29.9199411621
 20
0.0213630371
 30
0.0
 11
29.9324365234
 21
0.0213630371
 31
0.0
  0
LINE
  5
C0
  8
0
  6
CONTINUOUS
 62
     7
 10
14.3730916748
 20
5.8065809733
 30
0.0
 11
13.7147339274
 21
5.8065809733
 31
0.0
  0
LINE
  5
C1
  8
0
  6
CONTINUOUS
 62
     7
 10
25.7447438151
 20
0.0114204915
 30
0.0
 11
25.7947252604
 21
0.0119579264
 31
0.0
  0
LINE
  5
C2
  8
0
  6
CONTINUOUS
 62
     7
 10
15.8148279622
 20
2.2746931966
 30
0.0
 11
15.8146936035
 21
2.3348859049
 31
0.0
  0
LINE
  5
C3
  8
0
  6
CONTINUOUS
 62
     7
 10
19.1096397705
 20
1.5300771484
 30
0.0
 11
18.3769816488
 21
1.5300771484
 31
0.0
  0
POLYLINE
  5
C4
  8
0
  6
CONTINUOUS
 62
     8
 66
     1
 10
0.0
 20
0.0
 30
0.0
  0
VERTEX
  5
255
  8
0
  6
CONTINUOUS
 62
     8
 10
27.4410227051
 20
1.3961215007
 30
0.0
  0
VERTEX
  5
256
  8
0
  6
CONTINUOUS
 62
     8
 10
27.4377128774
 20
1.5074131527
 30
0.0
  0
VERTEX
  5
257
  8
0
  6
CONTINUOUS
 62
     8
 10
27.4274621154
 20
1.6119991147
 30
0.0
  0
VERTEX
  5
258
  8
0
  6
CONTINUOUS
 62
     8
 10
27.4105946528
 20
1.7101225621
 30
0.0
  0
VERTEX
  5
259
  8
0
  6
CONTINUOUS
 62
     8
 10
27.3874347233
 20
1.8020266701
 30
0.0
  0
VERTEX
  5
25A
  8
0
  6
CONTINUOUS
 62
     8
 10
27.3583065606
 20
1.887954614
 30
0.0
  0
VERTEX
  5
25B
  8
0
  6
CONTINUOUS
 62
     8
 10
27.3235343984
 20
1.9681495692
 30
0.0
  0
VERTEX
  5
25C
  8
0
  6
CONTINUOUS
 62
     8
 10
27.2834424705
 20
2.0428547109
 30
0.0
  0
VERTEX
  5
25D
  8
0
  6
CONTINUOUS
 62
     8
 10
27.2383550106
 20
2.1123132143
 30
0.0
  0
VERTEX
  5
25E
  8
0
  6
CONTINUOUS
 62
     8
 10
27.1885962524
 20
2.1767682549
 30
0.0
  0
VERTEX
  5
25F
  8
0
  6
CONTINUOUS
 62
     8
 10
27.1344904297
 20
2.2364630079
 30
0.0
  0
VERTEX
  5
260
  8
0
  6
CONTINUOUS
 62
     8
 10
27.0763617762
 20
2.2916406486
 30
0.0
  0
VERTEX
  5
261
  8
0
  6
CONTINUOUS
 62
     8
 10
27.0145345256
 20
2.3425443522
 30
0.0
  0
VERTEX
  5
262
  8
0
  6
CONTINUOUS
 62
     8
 10
26.9493329116
 20
2.3894172941
 30
0.0
  0
VERTEX
  5
263
  8
0
  6
CONTINUOUS
 62
     8
 10
26.8810811679
 20
2.4325026497
 30
0.0
  0
VERTEX
  5
264
  8
0
  6
CONTINUOUS
 62
     8
 10
26.8101035283
 20
2.472043594
 30
0.0
  0
VERTEX
  5
265
  8
0
  6
CONTINUOUS
 62
     8
 10
26.7367242266
 20
2.5082833026
 30
0.0
  0
VERTEX
  5
266
  8
0
  6
CONTINUOUS
 62
     8
 10
26.6612674964
 20
2.5414649506
 30
0.0
  0
VERTEX
  5
267
  8
0
  6
CONTINUOUS
 62
     8
 10
26.5840575714
 20
2.5718317134
 30
0.0
  0
VERTEX
  5
268
  8
0
  6
CONTINUOUS
 62
     8
 10
26.5054186854
 20
2.5996267662
 30
0.0
  0
VERTEX
  5
269
  8
0
  6
CONTINUOUS
 62
     8
 10
26.4256750722
 20
2.6250932843
 30
0.0
  0
VERTEX
  5
26A
  8
0
  6
CONTINUOUS
 62
     8
 10
26.3451509654
 20
2.6484744431
 30
0.0
  0
VERTEX
  5
26B
  8
0
  6
CONTINUOUS
 62
     8
 10
26.2641705987
 20
2.6700134178
 30
0.0
  0
VERTEX
  5
26C
  8
0
  6
CONTINUOUS
 62
     8
 10
26.183058206
 20
2.6899533838
 30
0.0
  0
VERTEX
  5
26D
  8
0
  6
CONTINUOUS
 62
     8
 10
26.1021380208
 20
2.7085375163
 30
0.0
  0
SEQEND
  5
B61
  8
0
  6
CONTINUOUS
 62
     8
  0
POLYLINE
  5
C5
  8
0
  6
CONTINUOUS
 62
     8
 66
     1
 10
0.0
 20
0.0
 30
0.0
  0
VERTEX
  5
26E
  8
0
  6
CONTINUOUS
 62
     8
 10
13.7103000895
 20
2.3749248047
 30
0.0
  0
VERTEX
  5
26F
  8
0
  6
CONTINUOUS
 62
     8
 10
13.7080162828
 20
2.2276005125
 30
0.0
  0
VERTEX
  5
270
  8
0
  6
CONTINUOUS
 62
     8
 10
13.6995621216
 20
2.0873807293
 30
0.0
  0
VERTEX
  5
271
  8
0
  6
CONTINUOUS
 62
     8
 10
13.6851282975
 20
1.9541901701
 30
0.0
  0
VERTEX
  5
272
  8
0
  6
CONTINUOUS
 62
     8
 10
13.6649055018
 20
1.8279535496
 30
0.0
  0
VERTEX
  5
273
  8
0
  6
CONTINUOUS
 62
     8
 10
13.6390844259
 20
1.7085955826
 30
0.0
  0
VERTEX
  5
274
  8
0
  6
CONTINUOUS
 62
     8
 10
13.6078557612
 20
1.5960409838
 30
0.0
  0
VERTEX
  5
275
  8
0
  6
CONTINUOUS
 62
     8
 10
13.5714101992
 20
1.4902144682
 30
0.0
  0
VERTEX
  5
276
  8
0
  6
CONTINUOUS
 62
     8
 10
13.5299384314
 20
1.3910407504
 30
0.0
  0
VERTEX
  5
277
  8
0
  6
CONTINUOUS
 62
     8
 10
13.483631149
 20
1.2984445453
 30
0.0
  0
VERTEX
  5
278
  8
0
  6
CONTINUOUS
 62
     8
 10
13.4326790435
 20
1.2123505676
 30
0.0
  0
VERTEX
  5
279
  8
0
  6
CONTINUOUS
 62
     8
 10
13.3772728064
 20
1.1326835322
 30
0.0
  0
VERTEX
  5
27A
  8
0
  6
CONTINUOUS
 62
     8
 10
13.3176031291
 20
1.0593681539
 30
0.0
  0
VERTEX
  5
27B
  8
0
  6
CONTINUOUS
 62
     8
 10
13.2538607029
 20
0.9923291474
 30
0.0
  0
VERTEX
  5
27C
  8
0
  6
CONTINUOUS
 62
     8
 10
13.1862362193
 20
0.9314912276
 30
0.0
  0
VERTEX
  5
27D
  8
0
  6
CONTINUOUS
 62
     8
 10
13.1149203698
 20
0.8767791092
 30
0.0
  0
VERTEX
  5
27E
  8
0
  6
CONTINUOUS
 62
     8
 10
13.0401038457
 20
0.828117507
 30
0.0
  0
VERTEX
  5
27F
  8
0
  6
CONTINUOUS
 62
     8
 10
12.9619773384
 20
0.7854311359
 30
0.0
  0
VERTEX
  5
280
  8
0
  6
CONTINUOUS
 62
     8
 10
12.8807315394
 20
0.7486447105
 30
0.0
  0
VERTEX
  5
281
  8
0
  6
CONTINUOUS
 62
     8
 10
12.7965571401
 20
0.7176829458
 30
0.0
  0
VERTEX
  5
282
  8
0
  6
CONTINUOUS
 62
     8
 10
12.7096448319
 20
0.6924705566
 30
0.0
  0
VERTEX
  5
283
  8
0
  6
CONTINUOUS
 62
     8
 10
12.6201853062
 20
0.6729322575
 30
0.0
  0
VERTEX
  5
284
  8
0
  6
CONTINUOUS
 62
     8
 10
12.5283692545
 20
0.6589927634
 30
0.0
  0
VERTEX
  5
285
  8
0
  6
CONTINUOUS
 62
     8
 10
12.4343873681
 20
0.6505767892
 30
0.0
  0
VERTEX
  5
286
  8
0
  6
CONTINUOUS
 62
     8
 10
12.3384303385
 20
0.6476090495
 30
0.0
  0
SEQEND
  5
B62
  8
0
  6
CONTINUOUS
 62
     8
  0
POLYLINE
  5
C6
  8
0
  6
CONTINUOUS
 62
     8
 66
     1
 10
0.0
 20
0.0
 30
0.0
  0
VERTEX
  5
287
  8
0
  6
CONTINUOUS
 62
     8
 10
17.1136065674
 20
4.728620931
 30
0.0
  0
VERTEX
  5
288
  8
0
  6
CONTINUOUS
 62
     8
 10
17.0438181396
 20
4.7275466298
 30
0.0
  0
VERTEX
  5
289
  8
0
  6
CONTINUOUS
 62
     8
 10
16.9745823378
 20
4.7243274
 30
0.0
  0
VERTEX
  5
28A
  8
0
  6
CONTINUOUS
 62
     8
 10
16.9059395456
 20
4.7189687525
 30
0.0
  0
VERTEX
  5
28B
  8
0
  6
CONTINUOUS
 62
     8
 10
16.8379301462
 20
4.711476198
 30
0.0
  0
VERTEX
  5
28C
  8
0
  6
CONTINUOUS
 62
     8
 10
16.7705945232
 20
4.7018552474
 30
0.0
  0
VERTEX
  5
28D
  8
0
  6
CONTINUOUS
 62
     8
 10
16.70397306
 20
4.6901114114
 30
0.0
  0
VERTEX
  5
28E
  8
0
  6
CONTINUOUS
 62
     8
 10
16.6381061399
 20
4.6762502009
 30
0.0
  0
VERTEX
  5
28F
  8
0
  6
CONTINUOUS
 62
     8
 10
16.5730341465
 20
4.6602771267
 30
0.0
  0
VERTEX
  5
290
  8
0
  6
CONTINUOUS
 62
     8
 10
16.5087974632
 20
4.6421976996
 30
0.0
  0
VERTEX
  5
291
  8
0
  6
CONTINUOUS
 62
     8
 10
16.4454364733
 20
4.6220174304
 30
0.0
  0
VERTEX
  5
292
  8
0
  6
CONTINUOUS
 62
     8
 10
16.3829915603
 20
4.5997418299
 30
0.0
  0
VERTEX
  5
293
  8
0
  6
CONTINUOUS
 62
     8
 10
16.3215031077
 20
4.5753764089
 30
0.0
  0
VERTEX
  5
294
  8
0
  6
CONTINUOUS
 62
     8
 10
16.2610114988
 20
4.5489266782
 30
0.0
  0
VERTEX
  5
295
  8
0
  6
CONTINUOUS
 62
     8
 10
16.2015571172
 20
4.5203981486
 30
0.0
  0
VERTEX
  5
296
  8
0
  6
CONTINUOUS
 62
     8
 10
16.1431803461
 20
4.489796331
 30
0.0
  0
VERTEX
  5
297
  8
0
  6
CONTINUOUS
 62
     8
 10
16.0859215691
 20
4.4571267361
 30
0.0
  0
VERTEX
  5
298
  8
0
  6
CONTINUOUS
 62
     8
 10
16.0298211695
 20
4.4223948748
 30
0.0
  0
VERTEX
  5
299
  8
0
  6
CONTINUOUS
 62
     8
 10
15.9749195309
 20
4.3856062578
 30
0.0
  0
VERTEX
  5
29A
  8
0
  6
CONTINUOUS
 62
     8
 10
15.9212570365
 20
4.3467663959
 30
0.0
  0
VERTEX
  5
29B
  8
0
  6
CONTINUOUS
 62
     8
 10
15.86887407
 20
4.3058808
 30
0.0
  0
VERTEX
  5
29C
  8
0
  6
CONTINUOUS
 62
     8
 10
15.8178110146
 20
4.2629549809
 30
0.0
  0
VERTEX
  5
29D
  8
0
  6
CONTINUOUS
 62
     8
 10
15.7681082538
 20
4.2179944494
 30
0.0
  0
VERTEX
  5
29E
  8
0
  6
CONTINUOUS
 62
     8
 10
15.719806171
 20
4.1710047163
 30
0.0
  0
VERTEX
  5
29F
  8
0
  6
CONTINUOUS
 62
     8
 10
15.6729451497
 20
4.1219912923
 30
0.0
  0
SEQEND
  5
B63
  8
0
  6
CONTINUOUS
 62
     8
  0
POLYLINE
  5
C7
  8
0
  6
CONTINUOUS
 62
     8
 66
     1
 10
0.0
 20
0.0
 30
0.0
  0
VERTEX
  5
2A0
  8
0
  6
CONTINUOUS
 62
     8
 10
37.0013177083
 20
0.6274552409
 30
0.0
  0
VERTEX
  5
2A1
  8
0
  6
CONTINUOUS
 62
     8
 10
37.048172728
 20
0.5785434559
 30
0.0
  0
VERTEX
  5
2A2
  8
0
  6
CONTINUOUS
 62
     8
 10
37.0964733869
 20
0.5316409869
 30
0.0
  0
VERTEX
  5
2A3
  8
0
  6
CONTINUOUS
 62
     8
 10
37.1461789808
 20
0.4867543653
 30
0.0
  0
VERTEX
  5
2A4
  8
0
  6
CONTINUOUS
 62
     8
 10
37.1972488057
 20
0.4438901224
 30
0.0
  0
VERTEX
  5
2A5
  8
0
  6
CONTINUOUS
 62
     8
 10
37.2496421572
 20
0.4030547896
 30
0.0
  0
VERTEX
  5
2A6
  8
0
  6
CONTINUOUS
 62
     8
 10
37.3033183314
 20
0.3642548981
 30
0.0
  0
VERTEX
  5
2A7
  8
0
  6
CONTINUOUS
 62
     8
 10
37.358236624
 20
0.3274969793
 30
0.0
  0
VERTEX
  5
2A8
  8
0
  6
CONTINUOUS
 62
     8
 10
37.4143563308
 20
0.2927875645
 30
0.0
  0
VERTEX
  5
2A9
  8
0
  6
CONTINUOUS
 62
     8
 10
37.4716367477
 20
0.2601331851
 30
0.0
  0
VERTEX
  5
2AA
  8
0
  6
CONTINUOUS
 62
     8
 10
37.5300371705
 20
0.2295403723
 30
0.0
  0
VERTEX
  5
2AB
  8
0
  6
CONTINUOUS
 62
     8
 10
37.5895168951
 20
0.2010156575
 30
0.0
  0
VERTEX
  5
2AC
  8
0
  6
CONTINUOUS
 62
     8
 10
37.6500352173
 20
0.1745655721
 30
0.0
  0
VERTEX
  5
2AD
  8
0
  6
CONTINUOUS
 62
     8
 10
37.7115514329
 20
0.1501966473
 30
0.0
  0
VERTEX
  5
2AE
  8
0
  6
CONTINUOUS
 62
     8
 10
37.7740248378
 20
0.1279154145
 30
0.0
  0
VERTEX
  5
2AF
  8
0
  6
CONTINUOUS
 62
     8
 10
37.8374147278
 20
0.107728405
 30
0.0
  0
VERTEX
  5
2B0
  8
0
  6
CONTINUOUS
 62
     8
 10
37.9016803988
 20
0.0896421501
 30
0.0
  0
VERTEX
  5
2B1
  8
0
  6
CONTINUOUS
 62
     8
 10
37.9667811466
 20
0.0736631812
 30
0.0
  0
VERTEX
  5
2B2
  8
0
  6
CONTINUOUS
 62
     8
 10
38.032676267
 20
0.0597980296
 30
0.0
  0
VERTEX
  5
2B3
  8
0
  6
CONTINUOUS
 62
     8
 10
38.0993250559
 20
0.0480532266
 30
0.0
  0
VERTEX
  5
2B4
  8
0
  6
CONTINUOUS
 62
     8
 10
38.166686809
 20
0.0384353035
 30
0.0
  0
VERTEX
  5
2B5
  8
0
  6
CONTINUOUS
 62
     8
 10
38.2347208223
 20
0.0309507917
 30
0.0
  0
VERTEX
  5
2B6
  8
0
  6
CONTINUOUS
 62
     8
 10
38.3033863916
 20
0.0256062225
 30
0.0
  0
VERTEX
  5
2B7
  8
0
  6
CONTINUOUS
 62
     8
 10
38.3726428127
 20
0.0224081272
 30
0.0
  0
VERTEX
  5
2B8
  8
0
  6
CONTINUOUS
 62
     8
 10
38.4424493815
 20
0.0213630371
 30
0.0
  0
SEQEND
  5
B64
  8
0
  6
CONTINUOUS
 62
     8
  0
POLYLINE
  5
C8
  8
0
  6
CONTINUOUS
 62
     8
 66
     1
 10
0.0
 20
0.0
 30
0.0
  0
VERTEX
  5
2B9
  8
0
  6
CONTINUOUS
 62
     8
 10
35.4048673503
 20
4.2873868815
 30
0.0
  0
VERTEX
  5
2BA
  8
0
  6
CONTINUOUS
 62
     8
 10
35.3712004791
 20
4.3219815899
 30
0.0
  0
VERTEX
  5
2BB
  8
0
  6
CONTINUOUS
 62
     8
 10
35.3360683747
 20
4.3552839119
 30
0.0
  0
VERTEX
  5
2BC
  8
0
  6
CONTINUOUS
 62
     8
 10
35.2994697542
 20
4.3872778692
 30
0.0
  0
VERTEX
  5
2BD
  8
0
  6
CONTINUOUS
 62
     8
 10
35.2614033346
 20
4.4179474834
 30
0.0
  0
VERTEX
  5
2BE
  8
0
  6
CONTINUOUS
 62
     8
 10
35.221867833
 20
4.447276776
 30
0.0
  0
VERTEX
  5
2BF
  8
0
  6
CONTINUOUS
 62
     8
 10
35.1808619665
 20
4.4752497686
 30
0.0
  0
VERTEX
  5
2C0
  8
0
  6
CONTINUOUS
 62
     8
 10
35.138384452
 20
4.5018504827
 30
0.0
  0
VERTEX
  5
2C1
  8
0
  6
CONTINUOUS
 62
     8
 10
35.0944340067
 20
4.5270629401
 30
0.0
  0
VERTEX
  5
2C2
  8
0
  6
CONTINUOUS
 62
     8
 10
35.0490093476
 20
4.5508711621
 30
0.0
  0
VERTEX
  5
2C3
  8
0
  6
CONTINUOUS
 62
     8
 10
35.0021091918
 20
4.5732591704
 30
0.0
  0
VERTEX
  5
2C4
  8
0
  6
CONTINUOUS
 62
     8
 10
34.9537322563
 20
4.5942109867
 30
0.0
  0
VERTEX
  5
2C5
  8
0
  6
CONTINUOUS
 62
     8
 10
34.9038772583
 20
4.6137106323
 30
0.0
  0
VERTEX
  5
2C6
  8
0
  6
CONTINUOUS
 62
     8
 10
34.8525429147
 20
4.631742129
 30
0.0
  0
VERTEX
  5
2C7
  8
0
  6
CONTINUOUS
 62
     8
 10
34.7997279427
 20
4.6482894983
 30
0.0
  0
VERTEX
  5
2C8
  8
0
  6
CONTINUOUS
 62
     8
 10
34.7454310592
 20
4.6633367618
 30
0.0
  0
VERTEX
  5
2C9
  8
0
  6
CONTINUOUS
 62
     8
 10
34.6896509814
 20
4.676867941
 30
0.0
  0
VERTEX
  5
2CA
  8
0
  6
CONTINUOUS
 62
     8
 10
34.6323864263
 20
4.6888670576
 30
0.0
  0
VERTEX
  5
2CB
  8
0
  6
CONTINUOUS
 62
     8
 10
34.5736361109
 20
4.699318133
 30
0.0
  0
VERTEX
  5
2CC
  8
0
  6
CONTINUOUS
 62
     8
 10
34.5133987524
 20
4.708205189
 30
0.0
  0
VERTEX
  5
2CD
  8
0
  6
CONTINUOUS
 62
     8
 10
34.4516730678
 20
4.715512247
 30
0.0
  0
VERTEX
  5
2CE
  8
0
  6
CONTINUOUS
 62
     8
 10
34.3884577742
 20
4.7212233286
 30
0.0
  0
VERTEX
  5
2CF
  8
0
  6
CONTINUOUS
 62
     8
 10
34.3237515885
 20
4.7253224554
 30
0.0
  0
VERTEX
  5
2D0
  8
0
  6
CONTINUOUS
 62
     8
 10
34.2575532279
 20
4.727793649
 30
0.0
  0
VERTEX
  5
2D1
  8
0
  6
CONTINUOUS
 62
     8
 10
34.1898614095
 20
4.728620931
 30
0.0
  0
SEQEND
  5
B65
  8
0
  6
CONTINUOUS
 62
     8
  0
POLYLINE
  5
C9
  8
0
  6
CONTINUOUS
 62
     8
 66
     1
 10
0.0
 20
0.0
 30
0.0
  0
VERTEX
  5
2D2
  8
0
  6
CONTINUOUS
 62
     8
 10
27.8852126465
 20
2.3754622396
 30
0.0
  0
VERTEX
  5
2D3
  8
0
  6
CONTINUOUS
 62
     8
 10
27.8916851914
 20
2.2027683786
 30
0.0
  0
VERTEX
  5
2D4
  8
0
  6
CONTINUOUS
 62
     8
 10
27.9069890233
 20
2.0349395397
 30
0.0
  0
VERTEX
  5
2D5
  8
0
  6
CONTINUOUS
 62
     8
 10
27.9308484268
 20
1.8721969716
 30
0.0
  0
VERTEX
  5
2D6
  8
0
  6
CONTINUOUS
 62
     8
 10
27.9629876867
 20
1.714761923
 30
0.0
  0
VERTEX
  5
2D7
  8
0
  6
CONTINUOUS
 62
     8
 10
28.0031310877
 20
1.5628556425
 30
0.0
  0
VERTEX
  5
2D8
  8
0
  6
CONTINUOUS
 62
     8
 10
28.0510029144
 20
1.416699379
 30
0.0
  0
VERTEX
  5
2D9
  8
0
  6
CONTINUOUS
 62
     8
 10
28.1063274516
 20
1.276514381
 30
0.0
  0
VERTEX
  5
2DA
  8
0
  6
CONTINUOUS
 62
     8
 10
28.168828984
 20
1.1425218973
 30
0.0
  0
VERTEX
  5
2DB
  8
0
  6
CONTINUOUS
 62
     8
 10
28.2382317963
 20
1.0149431766
 30
0.0
  0
VERTEX
  5
2DC
  8
0
  6
CONTINUOUS
 62
     8
 10
28.3142601731
 20
0.8939994675
 30
0.0
  0
VERTEX
  5
2DD
  8
0
  6
CONTINUOUS
 62
     8
 10
28.3966383992
 20
0.7799120189
 30
0.0
  0
VERTEX
  5
2DE
  8
0
  6
CONTINUOUS
 62
     8
 10
28.4850907593
 20
0.6729020793
 30
0.0
  0
VERTEX
  5
2DF
  8
0
  6
CONTINUOUS
 62
     8
 10
28.579341538
 20
0.5731908974
 30
0.0
  0
VERTEX
  5
2E0
  8
0
  6
CONTINUOUS
 62
     8
 10
28.6791150202
 20
0.480999722
 30
0.0
  0
VERTEX
  5
2E1
  8
0
  6
CONTINUOUS
 62
     8
 10
28.7841354904
 20
0.3965498018
 30
0.0
  0
VERTEX
  5
2E2
  8
0
  6
CONTINUOUS
 62
     8
 10
28.8941272334
 20
0.3200623855
 30
0.0
  0
VERTEX
  5
2E3
  8
0
  6
CONTINUOUS
 62
     8
 10
29.0088145339
 20
0.2517587217
 30
0.0
  0
VERTEX
  5
2E4
  8
0
  6
CONTINUOUS
 62
     8
 10
29.1279216766
 20
0.1918600591
 30
0.0
  0
VERTEX
  5
2E5
  8
0
  6
CONTINUOUS
 62
     8
 10
29.2511729462
 20
0.1405876465
 30
0.0
  0
VERTEX
  5
2E6
  8
0
  6
CONTINUOUS
 62
     8
 10
29.3782926274
 20
0.0981627325
 30
0.0
  0
VERTEX
  5
2E7
  8
0
  6
CONTINUOUS
 62
     8
 10
29.5090050049
 20
0.0648065659
 30
0.0
  0
VERTEX
  5
2E8
  8
0
  6
CONTINUOUS
 62
     8
 10
29.6430343634
 20
0.0407403953
 30
0.0
  0
VERTEX
  5
2E9
  8
0
  6
CONTINUOUS
 62
     8
 10
29.7801049875
 20
0.0261854695
 30
0.0
  0
VERTEX
  5
2EA
  8
0
  6
CONTINUOUS
 62
     8
 10
29.9199411621
 20
0.0213630371
 30
0.0
  0
SEQEND
  5
B66
  8
0
  6
CONTINUOUS
 62
     8
  0
POLYLINE
  5
CA
  8
0
  6
CONTINUOUS
 62
     8
 66
     1
 10
0.0
 20
0.0
 30
0.0
  0
VERTEX
  5
2EB
  8
0
  6
CONTINUOUS
 62
     8
 10
10.3034331055
 20
2.3749248047
 30
0.0
  0
VERTEX
  5
2EC
  8
0
  6
CONTINUOUS
 62
     8
 10
10.3045976984
 20
2.2810312856
 30
0.0
  0
VERTEX
  5
2ED
  8
0
  6
CONTINUOUS
 62
     8
 10
10.3080682871
 20
2.1889034408
 30
0.0
  0
VERTEX
  5
2EE
  8
0
  6
CONTINUOUS
 62
     8
 10
10.3138100863
 20
2.098550484
 30
0.0
  0
VERTEX
  5
2EF
  8
0
  6
CONTINUOUS
 62
     8
 10
10.3217883111
 20
2.0099816292
 30
0.0
  0
VERTEX
  5
2F0
  8
0
  6
CONTINUOUS
 62
     8
 10
10.3319681761
 20
1.9232060901
 30
0.0
  0
VERTEX
  5
2F1
  8
0
  6
CONTINUOUS
 62
     8
 10
10.3443148963
 20
1.8382330805
 30
0.0
  0
VERTEX
  5
2F2
  8
0
  6
CONTINUOUS
 62
     8
 10
10.3587936865
 20
1.7550718144
 30
0.0
  0
VERTEX
  5
2F3
  8
0
  6
CONTINUOUS
 62
     8
 10
10.3753697615
 20
1.6737315056
 30
0.0
  0
VERTEX
  5
2F4
  8
0
  6
CONTINUOUS
 62
     8
 10
10.3940083363
 20
1.5942213678
 30
0.0
  0
VERTEX
  5
2F5
  8
0
  6
CONTINUOUS
 62
     8
 10
10.4146746257
 20
1.516550615
 30
0.0
  0
VERTEX
  5
2F6
  8
0
  6
CONTINUOUS
 62
     8
 10
10.4373338444
 20
1.4407284609
 30
0.0
  0
VERTEX
  5
2F7
  8
0
  6
CONTINUOUS
 62
     8
 10
10.4619512075
 20
1.3667641195
 30
0.0
  0
VERTEX
  5
2F8
  8
0
  6
CONTINUOUS
 62
     8
 10
10.4884919297
 20
1.2946668044
 30
0.0
  0
VERTEX
  5
2F9
  8
0
  6
CONTINUOUS
 62
     8
 10
10.5169212258
 20
1.2244457297
 30
0.0
  0
VERTEX
  5
2FA
  8
0
  6
CONTINUOUS
 62
     8
 10
10.5472043108
 20
1.156110109
 30
0.0
  0
VERTEX
  5
2FB
  8
0
  6
CONTINUOUS
 62
     8
 10
10.5793063995
 20
1.0896691563
 30
0.0
  0
VERTEX
  5
2FC
  8
0
  6
CONTINUOUS
 62
     8
 10
10.6131927067
 20
1.0251320854
 30
0.0
  0
VERTEX
  5
2FD
  8
0
  6
CONTINUOUS
 62
     8
 10
10.6488284473
 20
0.96250811
 30
0.0
  0
VERTEX
  5
2FE
  8
0
  6
CONTINUOUS
 62
     8
 10
10.6861788362
 20
0.9018064442
 30
0.0
  0
VERTEX
  5
2FF
  8
0
  6
CONTINUOUS
 62
     8
 10
10.7252090882
 20
0.8430363016
 30
0.0
  0
VERTEX
  5
300
  8
0
  6
CONTINUOUS
 62
     8
 10
10.7658844181
 20
0.7862068961
 30
0.0
  0
VERTEX
  5
301
  8
0
  6
CONTINUOUS
 62
     8
 10
10.8081700408
 20
0.7313274417
 30
0.0
  0
VERTEX
  5
302
  8
0
  6
CONTINUOUS
 62
     8
 10
10.8520311712
 20
0.678407152
 30
0.0
  0
VERTEX
  5
303
  8
0
  6
CONTINUOUS
 62
     8
 10
10.8974330241
 20
0.6274552409
 30
0.0
  0
SEQEND
  5
B67
  8
0
  6
CONTINUOUS
 62
     8
  0
POLYLINE
  5
CB
  8
0
  6
CONTINUOUS
 62
     8
 66
     1
 10
0.0
 20
0.0
 30
0.0
  0
VERTEX
  5
304
  8
0
  6
CONTINUOUS
 62
     8
 10
13.7147339274
 20
4.1168184814
 30
0.0
  0
VERTEX
  5
305
  8
0
  6
CONTINUOUS
 62
     8
 10
13.6735892944
 20
4.1647089788
 30
0.0
  0
VERTEX
  5
306
  8
0
  6
CONTINUOUS
 62
     8
 10
13.6303924544
 20
4.210820681
 30
0.0
  0
VERTEX
  5
307
  8
0
  6
CONTINUOUS
 62
     8
 10
13.5852311429
 20
4.2551305534
 30
0.0
  0
VERTEX
  5
308
  8
0
  6
CONTINUOUS
 62
     8
 10
13.5381930955
 20
4.2976155614
 30
0.0
  0
VERTEX
  5
309
  8
0
  6
CONTINUOUS
 62
     8
 10
13.4893660476
 20
4.3382526704
 30
0.0
  0
VERTEX
  5
30A
  8
0
  6
CONTINUOUS
 62
     8
 10
13.4388377349
 20
4.3770188459
 30
0.0
  0
VERTEX
  5
30B
  8
0
  6
CONTINUOUS
 62
     8
 10
13.3866958928
 20
4.4138910532
 30
0.0
  0
VERTEX
  5
30C
  8
0
  6
CONTINUOUS
 62
     8
 10
13.333028257
 20
4.4488462577
 30
0.0
  0
VERTEX
  5
30D
  8
0
  6
CONTINUOUS
 62
     8
 10
13.277922563
 20
4.4818614249
 30
0.0
  0
VERTEX
  5
30E
  8
0
  6
CONTINUOUS
 62
     8
 10
13.2214665463
 20
4.5129135202
 30
0.0
  0
VERTEX
  5
30F
  8
0
  6
CONTINUOUS
 62
     8
 10
13.1637479425
 20
4.541979509
 30
0.0
  0
VERTEX
  5
310
  8
0
  6
CONTINUOUS
 62
     8
 10
13.1048544871
 20
4.5690363566
 30
0.0
  0
VERTEX
  5
311
  8
0
  6
CONTINUOUS
 62
     8
 10
13.0448739157
 20
4.5940610286
 30
0.0
  0
VERTEX
  5
312
  8
0
  6
CONTINUOUS
 62
     8
 10
12.9838939638
 20
4.6170304902
 30
0.0
  0
VERTEX
  5
313
  8
0
  6
CONTINUOUS
 62
     8
 10
12.9220023669
 20
4.637921707
 30
0.0
  0
VERTEX
  5
314
  8
0
  6
CONTINUOUS
 62
     8
 10
12.8592868607
 20
4.6567116443
 30
0.0
  0
VERTEX
  5
315
  8
0
  6
CONTINUOUS
 62
     8
 10
12.7958351806
 20
4.6733772675
 30
0.0
  0
VERTEX
  5
316
  8
0
  6
CONTINUOUS
 62
     8
 10
12.7317350623
 20
4.6878955421
 30
0.0
  0
VERTEX
  5
317
  8
0
  6
CONTINUOUS
 62
     8
 10
12.6670742412
 20
4.7002434335
 30
0.0
  0
VERTEX
  5
318
  8
0
  6
CONTINUOUS
 62
     8
 10
12.6019404529
 20
4.710397907
 30
0.0
  0
VERTEX
  5
319
  8
0
  6
CONTINUOUS
 62
     8
 10
12.5364214329
 20
4.7183359281
 30
0.0
  0
VERTEX
  5
31A
  8
0
  6
CONTINUOUS
 62
     8
 10
12.4706049168
 20
4.7240344622
 30
0.0
  0
VERTEX
  5
31B
  8
0
  6
CONTINUOUS
 62
     8
 10
12.4045786402
 20
4.7274704747
 30
0.0
  0
VERTEX
  5
31C
  8
0
  6
CONTINUOUS
 62
     8
 10
12.3384303385
 20
4.728620931
 30
0.0
  0
SEQEND
  5
B68
  8
0
  6
CONTINUOUS
 62
     8
  0
POLYLINE
  5
CC
  8
0
  6
CONTINUOUS
 62
     8
 66
     1
 10
0.0
 20
0.0
 30
0.0
  0
VERTEX
  5
31D
  8
0
  6
CONTINUOUS
 62
     8
 10
37.070109375
 20
2.3749248047
 30
0.0
  0
VERTEX
  5
31E
  8
0
  6
CONTINUOUS
 62
     8
 10
37.0736395766
 20
2.509995385
 30
0.0
  0
VERTEX
  5
31F
  8
0
  6
CONTINUOUS
 62
     8
 10
37.0831376615
 20
2.6400481567
 30
0.0
  0
VERTEX
  5
320
  8
0
  6
CONTINUOUS
 62
     8
 10
37.0984260009
 20
2.7650190897
 30
0.0
  0
VERTEX
  5
321
  8
0
  6
CONTINUOUS
 62
     8
 10
37.1193269661
 20
2.8848441535
 30
0.0
  0
VERTEX
  5
322
  8
0
  6
CONTINUOUS
 62
     8
 10
37.1456629283
 20
2.9994593178
 30
0.0
  0
VERTEX
  5
323
  8
0
  6
CONTINUOUS
 62
     8
 10
37.1772562586
 20
3.1088005524
 30
0.0
  0
VERTEX
  5
324
  8
0
  6
CONTINUOUS
 62
     8
 10
37.2139293285
 20
3.2128038268
 30
0.0
  0
VERTEX
  5
325
  8
0
  6
CONTINUOUS
 62
     8
 10
37.2555045091
 20
3.3114051107
 30
0.0
  0
VERTEX
  5
326
  8
0
  6
CONTINUOUS
 62
     8
 10
37.3018041716
 20
3.4045403738
 30
0.0
  0
VERTEX
  5
327
  8
0
  6
CONTINUOUS
 62
     8
 10
37.3526506872
 20
3.4921455858
 30
0.0
  0
VERTEX
  5
328
  8
0
  6
CONTINUOUS
 62
     8
 10
37.4078664273
 20
3.5741567163
 30
0.0
  0
VERTEX
  5
329
  8
0
  6
CONTINUOUS
 62
     8
 10
37.467273763
 20
3.6505097351
 30
0.0
  0
VERTEX
  5
32A
  8
0
  6
CONTINUOUS
 62
     8
 10
37.5306950656
 20
3.7211406118
 30
0.0
  0
VERTEX
  5
32B
  8
0
  6
CONTINUOUS
 62
     8
 10
37.5979527063
 20
3.785985316
 30
0.0
  0
VERTEX
  5
32C
  8
0
  6
CONTINUOUS
 62
     8
 10
37.6688690564
 20
3.8449798174
 30
0.0
  0
VERTEX
  5
32D
  8
0
  6
CONTINUOUS
 62
     8
 10
37.743266487
 20
3.8980600857
 30
0.0
  0
VERTEX
  5
32E
  8
0
  6
CONTINUOUS
 62
     8
 10
37.8209673695
 20
3.9451620906
 30
0.0
  0
VERTEX
  5
32F
  8
0
  6
CONTINUOUS
 62
     8
 10
37.901794075
 20
3.9862218018
 30
0.0
  0
VERTEX
  5
330
  8
0
  6
CONTINUOUS
 62
     8
 10
37.9855689748
 20
4.0211751888
 30
0.0
  0
VERTEX
  5
331
  8
0
  6
CONTINUOUS
 62
     8
 10
38.0721144402
 20
4.0499582214
 30
0.0
  0
VERTEX
  5
332
  8
0
  6
CONTINUOUS
 62
     8
 10
38.1612528423
 20
4.0725068693
 30
0.0
  0
VERTEX
  5
333
  8
0
  6
CONTINUOUS
 62
     8
 10
38.2528065524
 20
4.0887571021
 30
0.0
  0
VERTEX
  5
334
  8
0
  6
CONTINUOUS
 62
     8
 10
38.3465979417
 20
4.0986448895
 30
0.0
  0
VERTEX
  5
335
  8
0
  6
CONTINUOUS
 62
     8
 10
38.4424493815
 20
4.1021062012
 30
0.0
  0
SEQEND
  5
B69
  8
0
  6
CONTINUOUS
 62
     8
  0
POLYLINE
  5
CD
  8
0
  6
CONTINUOUS
 62
     8
 66
     1
 10
0.0
 20
0.0
 30
0.0
  0
VERTEX
  5
336
  8
0
  6
CONTINUOUS
 62
     8
 10
17.1136065674
 20
4.1021062012
 30
0.0
  0
VERTEX
  5
337
  8
0
  6
CONTINUOUS
 62
     8
 10
17.2162750893
 20
4.0988701085
 30
0.0
  0
VERTEX
  5
338
  8
0
  6
CONTINUOUS
 62
     8
 10
17.3135722364
 20
4.0897792936
 30
0.0
  0
VERTEX
  5
339
  8
0
  6
CONTINUOUS
 62
     8
 10
17.4056486373
 20
4.0750797602
 30
0.0
  0
VERTEX
  5
33A
  8
0
  6
CONTINUOUS
 62
     8
 10
17.4926549208
 20
4.0550175116
 30
0.0
  0
VERTEX
  5
33B
  8
0
  6
CONTINUOUS
 62
     8
 10
17.5747417156
 20
4.0298385517
 30
0.0
  0
VERTEX
  5
33C
  8
0
  6
CONTINUOUS
 62
     8
 10
17.6520596504
 20
3.9997888838
 30
0.0
  0
VERTEX
  5
33D
  8
0
  6
CONTINUOUS
 62
     8
 10
17.724759354
 20
3.9651145118
 30
0.0
  0
VERTEX
  5
33E
  8
0
  6
CONTINUOUS
 62
     8
 10
17.7929914551
 20
3.926061439
 30
0.0
  0
VERTEX
  5
33F
  8
0
  6
CONTINUOUS
 62
     8
 10
17.8569065824
 20
3.8828756692
 30
0.0
  0
VERTEX
  5
340
  8
0
  6
CONTINUOUS
 62
     8
 10
17.9166553646
 20
3.835803206
 30
0.0
  0
VERTEX
  5
341
  8
0
  6
CONTINUOUS
 62
     8
 10
17.9723884304
 20
3.7850900528
 30
0.0
  0
VERTEX
  5
342
  8
0
  6
CONTINUOUS
 62
     8
 10
18.0242564087
 20
3.7309822133
 30
0.0
  0
VERTEX
  5
343
  8
0
  6
CONTINUOUS
 62
     8
 10
18.0724099281
 20
3.6737256912
 30
0.0
  0
VERTEX
  5
344
  8
0
  6
CONTINUOUS
 62
     8
 10
18.1169996173
 20
3.6135664899
 30
0.0
  0
VERTEX
  5
345
  8
0
  6
CONTINUOUS
 62
     8
 10
18.158176105
 20
3.5507506131
 30
0.0
  0
VERTEX
  5
346
  8
0
  6
CONTINUOUS
 62
     8
 10
18.1960900201
 20
3.4855240644
 30
0.0
  0
VERTEX
  5
347
  8
0
  6
CONTINUOUS
 62
     8
 10
18.2308919911
 20
3.4181328474
 30
0.0
  0
VERTEX
  5
348
  8
0
  6
CONTINUOUS
 62
     8
 10
18.2627326469
 20
3.3488229656
 30
0.0
  0
VERTEX
  5
349
  8
0
  6
CONTINUOUS
 62
     8
 10
18.2917626162
 20
3.2778404227
 30
0.0
  0
VERTEX
  5
34A
  8
0
  6
CONTINUOUS
 62
     8
 10
18.3181325277
 20
3.2054312222
 30
0.0
  0
VERTEX
  5
34B
  8
0
  6
CONTINUOUS
 62
     8
 10
18.34199301
 20
3.1318413678
 30
0.0
  0
VERTEX
  5
34C
  8
0
  6
CONTINUOUS
 62
     8
 10
18.3634946921
 20
3.057316863
 30
0.0
  0
VERTEX
  5
34D
  8
0
  6
CONTINUOUS
 62
     8
 10
18.3827882024
 20
2.9821037114
 30
0.0
  0
VERTEX
  5
34E
  8
0
  6
CONTINUOUS
 62
     8
 10
18.4000241699
 20
2.9064479167
 30
0.0
  0
SEQEND
  5
B6A
  8
0
  6
CONTINUOUS
 62
     8
  0
POLYLINE
  5
CE
  8
0
  6
CONTINUOUS
 62
     8
 66
     1
 10
0.0
 20
0.0
 30
0.0
  0
VERTEX
  5
34F
  8
0
  6
CONTINUOUS
 62
     8
 10
0.0006046143
 20
2.3429474284
 30
0.0
  0
VERTEX
  5
350
  8
0
  6
CONTINUOUS
 62
     8
 10
0.0060249789
 20
2.1560471345
 30
0.0
  0
VERTEX
  5
351
  8
0
  6
CONTINUOUS
 62
     8
 10
0.0205093383
 20
1.9765542983
 30
0.0
  0
VERTEX
  5
352
  8
0
  6
CONTINUOUS
 62
     8
 10
0.0437606626
 20
1.8045174383
 30
0.0
  0
VERTEX
  5
353
  8
0
  6
CONTINUOUS
 62
     8
 10
0.0754819225
 20
1.6399850728
 30
0.0
  0
VERTEX
  5
354
  8
0
  6
CONTINUOUS
 62
     8
 10
0.1153760882
 20
1.4830057203
 30
0.0
  0
VERTEX
  5
355
  8
0
  6
CONTINUOUS
 62
     8
 10
0.1631461302
 20
1.3336278992
 30
0.0
  0
VERTEX
  5
356
  8
0
  6
CONTINUOUS
 62
     8
 10
0.218495019
 20
1.1919001279
 30
0.0
  0
VERTEX
  5
357
  8
0
  6
CONTINUOUS
 62
     8
 10
0.2811257249
 20
1.057870925
 30
0.0
  0
VERTEX
  5
358
  8
0
  6
CONTINUOUS
 62
     8
 10
0.3507412183
 20
0.9315888087
 30
0.0
  0
VERTEX
  5
359
  8
0
  6
CONTINUOUS
 62
     8
 10
0.4270444697
 20
0.8131022976
 30
0.0
  0
VERTEX
  5
35A
  8
0
  6
CONTINUOUS
 62
     8
 10
0.5097384495
 20
0.70245991
 30
0.0
  0
VERTEX
  5
35B
  8
0
  6
CONTINUOUS
 62
     8
 10
0.5985261281
 20
0.5997101644
 30
0.0
  0
VERTEX
  5
35C
  8
0
  6
CONTINUOUS
 62
     8
 10
0.6931104759
 20
0.5049015792
 30
0.0
  0
VERTEX
  5
35D
  8
0
  6
CONTINUOUS
 62
     8
 10
0.7931944634
 20
0.4180826729
 30
0.0
  0
VERTEX
  5
35E
  8
0
  6
CONTINUOUS
 62
     8
 10
0.8984810609
 20
0.3393019638
 30
0.0
  0
VERTEX
  5
35F
  8
0
  6
CONTINUOUS
 62
     8
 10
1.0086732389
 20
0.2686079704
 30
0.0
  0
VERTEX
  5
360
  8
0
  6
CONTINUOUS
 62
     8
 10
1.1234739677
 20
0.2060492112
 30
0.0
  0
VERTEX
  5
361
  8
0
  6
CONTINUOUS
 62
     8
 10
1.2425862179
 20
0.1516742045
 30
0.0
  0
VERTEX
  5
362
  8
0
  6
CONTINUOUS
 62
     8
 10
1.3657129598
 20
0.1055314688
 30
0.0
  0
VERTEX
  5
363
  8
0
  6
CONTINUOUS
 62
     8
 10
1.4925571638
 20
0.0676695225
 30
0.0
  0
VERTEX
  5
364
  8
0
  6
CONTINUOUS
 62
     8
 10
1.6228218003
 20
0.0381368841
 30
0.0
  0
VERTEX
  5
365
  8
0
  6
CONTINUOUS
 62
     8
 10
1.7562098398
 20
0.0169820719
 30
0.0
  0
VERTEX
  5
366
  8
0
  6
CONTINUOUS
 62
     8
 10
1.8924242527
 20
0.0042536044
 30
0.0
  0
VERTEX
  5
367
  8
0
  6
CONTINUOUS
 62
     8
 10
2.0311680094
 20
0.0
 30
0.0
  0
SEQEND
  5
B6B
  8
0
  6
CONTINUOUS
 62
     8
  0
POLYLINE
  5
CF
  8
0
  6
CONTINUOUS
 62
     8
 66
     1
 10
0.0
 20
0.0
 30
0.0
  0
VERTEX
  5
368
  8
0
  6
CONTINUOUS
 62
     8
 10
9.03837854
 20
0.6274552409
 30
0.0
  0
VERTEX
  5
369
  8
0
  6
CONTINUOUS
 62
     8
 10
9.0837646283
 20
0.678407152
 30
0.0
  0
VERTEX
  5
36A
  8
0
  6
CONTINUOUS
 62
     8
 10
9.1276119768
 20
0.7313274417
 30
0.0
  0
VERTEX
  5
36B
  8
0
  6
CONTINUOUS
 62
     8
 10
9.1698856838
 20
0.7862068961
 30
0.0
  0
VERTEX
  5
36C
  8
0
  6
CONTINUOUS
 62
     8
 10
9.2105508474
 20
0.8430363016
 30
0.0
  0
VERTEX
  5
36D
  8
0
  6
CONTINUOUS
 62
     8
 10
9.2495725658
 20
0.9018064442
 30
0.0
  0
VERTEX
  5
36E
  8
0
  6
CONTINUOUS
 62
     8
 10
9.2869159374
 20
0.96250811
 30
0.0
  0
VERTEX
  5
36F
  8
0
  6
CONTINUOUS
 62
     8
 10
9.3225460603
 20
1.0251320854
 30
0.0
  0
VERTEX
  5
370
  8
0
  6
CONTINUOUS
 62
     8
 10
9.3564280328
 20
1.0896691563
 30
0.0
  0
VERTEX
  5
371
  8
0
  6
CONTINUOUS
 62
     8
 10
9.388526953
 20
1.156110109
 30
0.0
  0
VERTEX
  5
372
  8
0
  6
CONTINUOUS
 62
     8
 10
9.4188079192
 20
1.2244457297
 30
0.0
  0
VERTEX
  5
373
  8
0
  6
CONTINUOUS
 62
     8
 10
9.4472360296
 20
1.2946668044
 30
0.0
  0
VERTEX
  5
374
  8
0
  6
CONTINUOUS
 62
     8
 10
9.4737763824
 20
1.3667641195
 30
0.0
  0
VERTEX
  5
375
  8
0
  6
CONTINUOUS
 62
     8
 10
9.498394076
 20
1.4407284609
 30
0.0
  0
VERTEX
  5
376
  8
0
  6
CONTINUOUS
 62
     8
 10
9.5210542083
 20
1.516550615
 30
0.0
  0
VERTEX
  5
377
  8
0
  6
CONTINUOUS
 62
     8
 10
9.5417218778
 20
1.5942213678
 30
0.0
  0
VERTEX
  5
378
  8
0
  6
CONTINUOUS
 62
     8
 10
9.5603621826
 20
1.6737315056
 30
0.0
  0
VERTEX
  5
379
  8
0
  6
CONTINUOUS
 62
     8
 10
9.576940221
 20
1.7550718144
 30
0.0
  0
VERTEX
  5
37A
  8
0
  6
CONTINUOUS
 62
     8
 10
9.5914210911
 20
1.8382330805
 30
0.0
  0
VERTEX
  5
37B
  8
0
  6
CONTINUOUS
 62
     8
 10
9.6037698912
 20
1.9232060901
 30
0.0
  0
VERTEX
  5
37C
  8
0
  6
CONTINUOUS
 62
     8
 10
9.6139517195
 20
2.0099816292
 30
0.0
  0
VERTEX
  5
37D
  8
0
  6
CONTINUOUS
 62
     8
 10
9.6219316742
 20
2.098550484
 30
0.0
  0
VERTEX
  5
37E
  8
0
  6
CONTINUOUS
 62
     8
 10
9.6276748536
 20
2.1889034408
 30
0.0
  0
VERTEX
  5
37F
  8
0
  6
CONTINUOUS
 62
     8
 10
9.6311463559
 20
2.2810312856
 30
0.0
  0
VERTEX
  5
380
  8
0
  6
CONTINUOUS
 62
     8
 10
9.6323112793
 20
2.3749248047
 30
0.0
  0
SEQEND
  5
B6C
  8
0
  6
CONTINUOUS
 62
     8
  0
POLYLINE
  5
D0
  8
0
  6
CONTINUOUS
 62
     8
 66
     1
 10
0.0
 20
0.0
 30
0.0
  0
VERTEX
  5
381
  8
0
  6
CONTINUOUS
 62
     8
 10
2.780688151
 20
4.1042559408
 30
0.0
  0
VERTEX
  5
382
  8
0
  6
CONTINUOUS
 62
     8
 10
2.8520797572
 20
4.0748762539
 30
0.0
  0
VERTEX
  5
383
  8
0
  6
CONTINUOUS
 62
     8
 10
2.921503597
 20
4.0414005504
 30
0.0
  0
VERTEX
  5
384
  8
0
  6
CONTINUOUS
 62
     8
 10
2.9888645289
 20
4.0038734415
 30
0.0
  0
VERTEX
  5
385
  8
0
  6
CONTINUOUS
 62
     8
 10
3.0540674113
 20
3.9623395386
 30
0.0
  0
VERTEX
  5
386
  8
0
  6
CONTINUOUS
 62
     8
 10
3.1170171025
 20
3.9168434528
 30
0.0
  0
VERTEX
  5
387
  8
0
  6
CONTINUOUS
 62
     8
 10
3.177618461
 20
3.8674297956
 30
0.0
  0
VERTEX
  5
388
  8
0
  6
CONTINUOUS
 62
     8
 10
3.2357763451
 20
3.8141431781
 30
0.0
  0
VERTEX
  5
389
  8
0
  6
CONTINUOUS
 62
     8
 10
3.2913956133
 20
3.7570282118
 30
0.0
  0
VERTEX
  5
38A
  8
0
  6
CONTINUOUS
 62
     8
 10
3.3443811239
 20
3.6961295079
 30
0.0
  0
VERTEX
  5
38B
  8
0
  6
CONTINUOUS
 62
     8
 10
3.3946377354
 20
3.6314916776
 30
0.0
  0
VERTEX
  5
38C
  8
0
  6
CONTINUOUS
 62
     8
 10
3.4420703061
 20
3.5631593323
 30
0.0
  0
VERTEX
  5
38D
  8
0
  6
CONTINUOUS
 62
     8
 10
3.4865836945
 20
3.4911770833
 30
0.0
  0
VERTEX
  5
38E
  8
0
  6
CONTINUOUS
 62
     8
 10
3.5280827588
 20
3.4155895419
 30
0.0
  0
VERTEX
  5
38F
  8
0
  6
CONTINUOUS
 62
     8
 10
3.5664723576
 20
3.3364413194
 30
0.0
  0
VERTEX
  5
390
  8
0
  6
CONTINUOUS
 62
     8
 10
3.6016573492
 20
3.253777027
 30
0.0
  0
VERTEX
  5
391
  8
0
  6
CONTINUOUS
 62
     8
 10
3.633542592
 20
3.167641276
 30
0.0
  0
VERTEX
  5
392
  8
0
  6
CONTINUOUS
 62
     8
 10
3.6620329444
 20
3.0780786779
 30
0.0
  0
VERTEX
  5
393
  8
0
  6
CONTINUOUS
 62
     8
 10
3.6870332648
 20
2.9851338437
 30
0.0
  0
VERTEX
  5
394
  8
0
  6
CONTINUOUS
 62
     8
 10
3.7084484116
 20
2.888851385
 30
0.0
  0
VERTEX
  5
395
  8
0
  6
CONTINUOUS
 62
     8
 10
3.7261832432
 20
2.7892759128
 30
0.0
  0
VERTEX
  5
396
  8
0
  6
CONTINUOUS
 62
     8
 10
3.7401426179
 20
2.6864520386
 30
0.0
  0
VERTEX
  5
397
  8
0
  6
CONTINUOUS
 62
     8
 10
3.7502313943
 20
2.5804243736
 30
0.0
  0
VERTEX
  5
398
  8
0
  6
CONTINUOUS
 62
     8
 10
3.7563544306
 20
2.4712375292
 30
0.0
  0
VERTEX
  5
399
  8
0
  6
CONTINUOUS
 62
     8
 10
3.7584165853
 20
2.3589361165
 30
0.0
  0
VERTEX
  5
39A
  8
0
  6
CONTINUOUS
 62
     8
 10
3.7563578809
 20
2.2458439565
 30
0.0
  0
VERTEX
  5
39B
  8
0
  6
CONTINUOUS
 62
     8
 10
3.7502450012
 20
2.1359769891
 30
0.0
  0
VERTEX
  5
39C
  8
0
  6
CONTINUOUS
 62
     8
 10
3.7401727962
 20
2.0293735857
 30
0.0
  0
VERTEX
  5
39D
  8
0
  6
CONTINUOUS
 62
     8
 10
3.7262361158
 20
1.9260721179
 30
0.0
  0
VERTEX
  5
39E
  8
0
  6
CONTINUOUS
 62
     8
 10
3.7085298102
 20
1.8261109573
 30
0.0
  0
VERTEX
  5
39F
  8
0
  6
CONTINUOUS
 62
     8
 10
3.6871487293
 20
1.7295284754
 30
0.0
  0
VERTEX
  5
3A0
  8
0
  6
CONTINUOUS
 62
     8
 10
3.6621877232
 20
1.6363630438
 30
0.0
  0
VERTEX
  5
3A1
  8
0
  6
CONTINUOUS
 62
     8
 10
3.633741642
 20
1.546653034
 30
0.0
  0
VERTEX
  5
3A2
  8
0
  6
CONTINUOUS
 62
     8
 10
3.6019053355
 20
1.4604368175
 30
0.0
  0
VERTEX
  5
3A3
  8
0
  6
CONTINUOUS
 62
     8
 10
3.5667736539
 20
1.3777527659
 30
0.0
  0
VERTEX
  5
3A4
  8
0
  6
CONTINUOUS
 62
     8
 10
3.5284414472
 20
1.2986392507
 30
0.0
  0
VERTEX
  5
3A5
  8
0
  6
CONTINUOUS
 62
     8
 10
3.4870035655
 20
1.2231346436
 30
0.0
  0
VERTEX
  5
3A6
  8
0
  6
CONTINUOUS
 62
     8
 10
3.4425548587
 20
1.1512773159
 30
0.0
  0
VERTEX
  5
3A7
  8
0
  6
CONTINUOUS
 62
     8
 10
3.3951901768
 20
1.0831056393
 30
0.0
  0
VERTEX
  5
3A8
  8
0
  6
CONTINUOUS
 62
     8
 10
3.34500437
 20
1.0186579854
 30
0.0
  0
VERTEX
  5
3A9
  8
0
  6
CONTINUOUS
 62
     8
 10
3.2920922882
 20
0.9579727256
 30
0.0
  0
VERTEX
  5
3AA
  8
0
  6
CONTINUOUS
 62
     8
 10
3.2365487814
 20
0.9010882315
 30
0.0
  0
VERTEX
  5
3AB
  8
0
  6
CONTINUOUS
 62
     8
 10
3.1784686998
 20
0.8480428747
 30
0.0
  0
VERTEX
  5
3AC
  8
0
  6
CONTINUOUS
 62
     8
 10
3.1179468932
 20
0.7988750266
 30
0.0
  0
VERTEX
  5
3AD
  8
0
  6
CONTINUOUS
 62
     8
 10
3.0550782118
 20
0.7536230589
 30
0.0
  0
VERTEX
  5
3AE
  8
0
  6
CONTINUOUS
 62
     8
 10
2.9899575056
 20
0.7123253431
 30
0.0
  0
VERTEX
  5
3AF
  8
0
  6
CONTINUOUS
 62
     8
 10
2.9226796246
 20
0.6750202508
 30
0.0
  0
VERTEX
  5
3B0
  8
0
  6
CONTINUOUS
 62
     8
 10
2.8533394188
 20
0.6417461534
 30
0.0
  0
VERTEX
  5
3B1
  8
0
  6
CONTINUOUS
 62
     8
 10
2.7820317383
 20
0.6125414225
 30
0.0
  0
SEQEND
  5
B6D
  8
0
  6
CONTINUOUS
 62
     8
  0
POLYLINE
  5
D1
  8
0
  6
CONTINUOUS
 62
     8
 66
     1
 10
0.0
 20
0.0
 30
0.0
  0
VERTEX
  5
3B2
  8
0
  6
CONTINUOUS
 62
     8
 10
38.4424493815
 20
0.6476090495
 30
0.0
  0
VERTEX
  5
3B3
  8
0
  6
CONTINUOUS
 62
     8
 10
38.3465362634
 20
0.6510650058
 30
0.0
  0
VERTEX
  5
3B4
  8
0
  6
CONTINUOUS
 62
     8
 10
38.2526938092
 20
0.6608607229
 30
0.0
  0
VERTEX
  5
3B5
  8
0
  6
CONTINUOUS
 62
     8
 10
38.1610990645
 20
0.676944125
 30
0.0
  0
VERTEX
  5
3B6
  8
0
  6
CONTINUOUS
 62
     8
 10
38.0719290749
 20
0.6992631365
 30
0.0
  0
VERTEX
  5
3B7
  8
0
  6
CONTINUOUS
 62
     8
 10
37.985360886
 20
0.7277656817
 30
0.0
  0
VERTEX
  5
3B8
  8
0
  6
CONTINUOUS
 62
     8
 10
37.9015715434
 20
0.7623996849
 30
0.0
  0
VERTEX
  5
3B9
  8
0
  6
CONTINUOUS
 62
     8
 10
37.8207380927
 20
0.8031130705
 30
0.0
  0
VERTEX
  5
3BA
  8
0
  6
CONTINUOUS
 62
     8
 10
37.7430375796
 20
0.8498537628
 30
0.0
  0
VERTEX
  5
3BB
  8
0
  6
CONTINUOUS
 62
     8
 10
37.6686470496
 20
0.9025696861
 30
0.0
  0
VERTEX
  5
3BC
  8
0
  6
CONTINUOUS
 62
     8
 10
37.5977435484
 20
0.9612087648
 30
0.0
  0
VERTEX
  5
3BD
  8
0
  6
CONTINUOUS
 62
     8
 10
37.5305041215
 20
1.0257189231
 30
0.0
  0
VERTEX
  5
3BE
  8
0
  6
CONTINUOUS
 62
     8
 10
37.4671058146
 20
1.0960480855
 30
0.0
  0
VERTEX
  5
3BF
  8
0
  6
CONTINUOUS
 62
     8
 10
37.4077256733
 20
1.1721441763
 30
0.0
  0
VERTEX
  5
3C0
  8
0
  6
CONTINUOUS
 62
     8
 10
37.3525407432
 20
1.2539551197
 30
0.0
  0
VERTEX
  5
3C1
  8
0
  6
CONTINUOUS
 62
     8
 10
37.3017280699
 20
1.3414288402
 30
0.0
  0
VERTEX
  5
3C2
  8
0
  6
CONTINUOUS
 62
     8
 10
37.2554646991
 20
1.434513262
 30
0.0
  0
VERTEX
  5
3C3
  8
0
  6
CONTINUOUS
 62
     8
 10
37.2139276762
 20
1.5331563094
 30
0.0
  0
VERTEX
  5
3C4
  8
0
  6
CONTINUOUS
 62
     8
 10
37.177294047
 20
1.6373059069
 30
0.0
  0
VERTEX
  5
3C5
  8
0
  6
CONTINUOUS
 62
     8
 10
37.1457408571
 20
1.7469099788
 30
0.0
  0
VERTEX
  5
3C6
  8
0
  6
CONTINUOUS
 62
     8
 10
37.119445152
 20
1.8619164493
 30
0.0
  0
VERTEX
  5
3C7
  8
0
  6
CONTINUOUS
 62
     8
 10
37.0985839774
 20
1.9822732428
 30
0.0
  0
VERTEX
  5
3C8
  8
0
  6
CONTINUOUS
 62
     8
 10
37.0833343788
 20
2.1079282836
 30
0.0
  0
VERTEX
  5
3C9
  8
0
  6
CONTINUOUS
 62
     8
 10
37.073873402
 20
2.2388294962
 30
0.0
  0
VERTEX
  5
3CA
  8
0
  6
CONTINUOUS
 62
     8
 10
37.0703780924
 20
2.3749248047
 30
0.0
  0
SEQEND
  5
B6E
  8
0
  6
CONTINUOUS
 62
     8
  0
POLYLINE
  5
D2
  8
0
  6
CONTINUOUS
 62
     8
 66
     1
 10
0.0
 20
0.0
 30
0.0
  0
VERTEX
  5
3CB
  8
0
  6
CONTINUOUS
 62
     8
 10
25.7329202474
 20
4.1403312581
 30
0.0
  0
VERTEX
  5
3CC
  8
0
  6
CONTINUOUS
 62
     8
 10
25.7852691529
 20
4.1390016472
 30
0.0
  0
VERTEX
  5
3CD
  8
0
  6
CONTINUOUS
 62
     8
 10
25.8361504343
 20
4.1358678738
 30
0.0
  0
VERTEX
  5
3CE
  8
0
  6
CONTINUOUS
 62
     8
 10
25.8855814112
 20
4.1309529142
 30
0.0
  0
VERTEX
  5
3CF
  8
0
  6
CONTINUOUS
 62
     8
 10
25.9335794033
 20
4.1242797448
 30
0.0
  0
VERTEX
  5
3D0
  8
0
  6
CONTINUOUS
 62
     8
 10
25.9801617304
 20
4.1158713419
 30
0.0
  0
VERTEX
  5
3D1
  8
0
  6
CONTINUOUS
 62
     8
 10
26.025345712
 20
4.1057506816
 30
0.0
  0
VERTEX
  5
3D2
  8
0
  6
CONTINUOUS
 62
     8
 10
26.0691486679
 20
4.0939407402
 30
0.0
  0
VERTEX
  5
3D3
  8
0
  6
CONTINUOUS
 62
     8
 10
26.1115879178
 20
4.0804644941
 30
0.0
  0
VERTEX
  5
3D4
  8
0
  6
CONTINUOUS
 62
     8
 10
26.1526807812
 20
4.0653449195
 30
0.0
  0
VERTEX
  5
3D5
  8
0
  6
CONTINUOUS
 62
     8
 10
26.192444578
 20
4.0486049927
 30
0.0
  0
VERTEX
  5
3D6
  8
0
  6
CONTINUOUS
 62
     8
 10
26.2308966277
 20
4.03026769
 30
0.0
  0
VERTEX
  5
3D7
  8
0
  6
CONTINUOUS
 62
     8
 10
26.2680542501
 20
4.0103559875
 30
0.0
  0
VERTEX
  5
3D8
  8
0
  6
CONTINUOUS
 62
     8
 10
26.3039347648
 20
3.9888928617
 30
0.0
  0
VERTEX
  5
3D9
  8
0
  6
CONTINUOUS
 62
     8
 10
26.3385554916
 20
3.9659012888
 30
0.0
  0
VERTEX
  5
3DA
  8
0
  6
CONTINUOUS
 62
     8
 10
26.37193375
 20
3.9414042451
 30
0.0
  0
VERTEX
  5
3DB
  8
0
  6
CONTINUOUS
 62
     8
 10
26.4040868598
 20
3.9154247067
 30
0.0
  0
VERTEX
  5
3DC
  8
0
  6
CONTINUOUS
 62
     8
 10
26.4350321407
 20
3.8879856501
 30
0.0
  0
VERTEX
  5
3DD
  8
0
  6
CONTINUOUS
 62
     8
 10
26.4647869123
 20
3.8591100515
 30
0.0
  0
VERTEX
  5
3DE
  8
0
  6
CONTINUOUS
 62
     8
 10
26.4933684943
 20
3.8288208871
 30
0.0
  0
VERTEX
  5
3DF
  8
0
  6
CONTINUOUS
 62
     8
 10
26.5207942064
 20
3.7971411332
 30
0.0
  0
VERTEX
  5
3E0
  8
0
  6
CONTINUOUS
 62
     8
 10
26.5470813683
 20
3.7640937662
 30
0.0
  0
VERTEX
  5
3E1
  8
0
  6
CONTINUOUS
 62
     8
 10
26.5722472996
 20
3.7297017623
 30
0.0
  0
VERTEX
  5
3E2
  8
0
  6
CONTINUOUS
 62
     8
 10
26.5963093201
 20
3.6939880977
 30
0.0
  0
VERTEX
  5
3E3
  8
0
  6
CONTINUOUS
 62
     8
 10
26.6192847493
 20
3.6569757487
 30
0.0
  0
SEQEND
  5
B6F
  8
0
  6
CONTINUOUS
 62
     8
  0
POLYLINE
  5
D3
  8
0
  6
CONTINUOUS
 62
     8
 66
     1
 10
0.0
 20
0.0
 30
0.0
  0
VERTEX
  5
3E4
  8
0
  6
CONTINUOUS
 62
     8
 10
21.8244249674
 20
4.7281506755
 30
0.0
  0
VERTEX
  5
3E5
  8
0
  6
CONTINUOUS
 62
     8
 10
21.7653291333
 20
4.7274083931
 30
0.0
  0
VERTEX
  5
3E6
  8
0
  6
CONTINUOUS
 62
     8
 10
21.7061357957
 20
4.7248310119
 30
0.0
  0
VERTEX
  5
3E7
  8
0
  6
CONTINUOUS
 62
     8
 10
21.6469349937
 20
4.7203713841
 30
0.0
  0
VERTEX
  5
3E8
  8
0
  6
CONTINUOUS
 62
     8
 10
21.5878167664
 20
4.7139823614
 30
0.0
  0
VERTEX
  5
3E9
  8
0
  6
CONTINUOUS
 62
     8
 10
21.5288711528
 20
4.705616796
 30
0.0
  0
VERTEX
  5
3EA
  8
0
  6
CONTINUOUS
 62
     8
 10
21.4701881917
 20
4.6952275397
 30
0.0
  0
VERTEX
  5
3EB
  8
0
  6
CONTINUOUS
 62
     8
 10
21.4118579224
 20
4.6827674446
 30
0.0
  0
VERTEX
  5
3EC
  8
0
  6
CONTINUOUS
 62
     8
 10
21.3539703836
 20
4.6681893627
 30
0.0
  0
VERTEX
  5
3ED
  8
0
  6
CONTINUOUS
 62
     8
 10
21.2966156146
 20
4.6514461459
 30
0.0
  0
VERTEX
  5
3EE
  8
0
  6
CONTINUOUS
 62
     8
 10
21.2398836542
 20
4.6324906463
 30
0.0
  0
VERTEX
  5
3EF
  8
0
  6
CONTINUOUS
 62
     8
 10
21.1838645415
 20
4.6112757158
 30
0.0
  0
VERTEX
  5
3F0
  8
0
  6
CONTINUOUS
 62
     8
 10
21.1286483154
 20
4.5877542063
 30
0.0
  0
VERTEX
  5
3F1
  8
0
  6
CONTINUOUS
 62
     8
 10
21.0743250151
 20
4.56187897
 30
0.0
  0
VERTEX
  5
3F2
  8
0
  6
CONTINUOUS
 62
     8
 10
21.0209846794
 20
4.5336028587
 30
0.0
  0
VERTEX
  5
3F3
  8
0
  6
CONTINUOUS
 62
     8
 10
20.9687173475
 20
4.5028787245
 30
0.0
  0
VERTEX
  5
3F4
  8
0
  6
CONTINUOUS
 62
     8
 10
20.9176130582
 20
4.4696594193
 30
0.0
  0
VERTEX
  5
3F5
  8
0
  6
CONTINUOUS
 62
     8
 10
20.8677618507
 20
4.4338977951
 30
0.0
  0
VERTEX
  5
3F6
  8
0
  6
CONTINUOUS
 62
     8
 10
20.8192537638
 20
4.395546704
 30
0.0
  0
VERTEX
  5
3F7
  8
0
  6
CONTINUOUS
 62
     8
 10
20.7721788367
 20
4.3545589978
 30
0.0
  0
VERTEX
  5
3F8
  8
0
  6
CONTINUOUS
 62
     8
 10
20.7266271084
 20
4.3108875286
 30
0.0
  0
VERTEX
  5
3F9
  8
0
  6
CONTINUOUS
 62
     8
 10
20.6826886177
 20
4.2644851484
 30
0.0
  0
VERTEX
  5
3FA
  8
0
  6
CONTINUOUS
 62
     8
 10
20.6404534038
 20
4.215304709
 30
0.0
  0
VERTEX
  5
3FB
  8
0
  6
CONTINUOUS
 62
     8
 10
20.6000115056
 20
4.1632990627
 30
0.0
  0
VERTEX
  5
3FC
  8
0
  6
CONTINUOUS
 62
     8
 10
20.5614529622
 20
4.1084210612
 30
0.0
  0
SEQEND
  5
B70
  8
0
  6
CONTINUOUS
 62
     8
  0
POLYLINE
  5
D4
  8
0
  6
CONTINUOUS
 62
     8
 66
     1
 10
0.0
 20
0.0
 30
0.0
  0
VERTEX
  5
3FD
  8
0
  6
CONTINUOUS
 62
     8
 10
42.019212972
 20
0.2488323568
 30
0.0
  0
VERTEX
  5
3FE
  8
0
  6
CONTINUOUS
 62
     8
 10
42.0387696793
 20
0.2353587932
 30
0.0
  0
VERTEX
  5
3FF
  8
0
  6
CONTINUOUS
 62
     8
 10
42.0587661432
 20
0.2227339522
 30
0.0
  0
VERTEX
  5
400
  8
0
  6
CONTINUOUS
 62
     8
 10
42.0791844608
 20
0.2109332247
 30
0.0
  0
VERTEX
  5
401
  8
0
  6
CONTINUOUS
 62
     8
 10
42.1000067293
 20
0.1999320016
 30
0.0
  0
VERTEX
  5
402
  8
0
  6
CONTINUOUS
 62
     8
 10
42.1212150459
 20
0.1897056737
 30
0.0
  0
VERTEX
  5
403
  8
0
  6
CONTINUOUS
 62
     8
 10
42.1427915077
 20
0.1802296321
 30
0.0
  0
VERTEX
  5
404
  8
0
  6
CONTINUOUS
 62
     8
 10
42.1647182119
 20
0.1714792675
 30
0.0
  0
VERTEX
  5
405
  8
0
  6
CONTINUOUS
 62
     8
 10
42.1869772557
 20
0.1634299708
 30
0.0
  0
VERTEX
  5
406
  8
0
  6
CONTINUOUS
 62
     8
 10
42.2095507363
 20
0.156057133
 30
0.0
  0
VERTEX
  5
407
  8
0
  6
CONTINUOUS
 62
     8
 10
42.2324207507
 20
0.149336145
 30
0.0
  0
VERTEX
  5
408
  8
0
  6
CONTINUOUS
 62
     8
 10
42.2555693962
 20
0.1432423976
 30
0.0
  0
VERTEX
  5
409
  8
0
  6
CONTINUOUS
 62
     8
 10
42.2789787699
 20
0.1377512817
 30
0.0
  0
VERTEX
  5
40A
  8
0
  6
CONTINUOUS
 62
     8
 10
42.3026309691
 20
0.1328381883
 30
0.0
  0
VERTEX
  5
40B
  8
0
  6
CONTINUOUS
 62
     8
 10
42.3265080908
 20
0.1284785082
 30
0.0
  0
VERTEX
  5
40C
  8
0
  6
CONTINUOUS
 62
     8
 10
42.3505922322
 20
0.1246476323
 30
0.0
  0
VERTEX
  5
40D
  8
0
  6
CONTINUOUS
 62
     8
 10
42.3748654906
 20
0.1213209515
 30
0.0
  0
VERTEX
  5
40E
  8
0
  6
CONTINUOUS
 62
     8
 10
42.399309963
 20
0.1184738567
 30
0.0
  0
VERTEX
  5
40F
  8
0
  6
CONTINUOUS
 62
     8
 10
42.4239077466
 20
0.1160817388
 30
0.0
  0
VERTEX
  5
410
  8
0
  6
CONTINUOUS
 62
     8
 10
42.4486409387
 20
0.1141199887
 30
0.0
  0
VERTEX
  5
411
  8
0
  6
CONTINUOUS
 62
     8
 10
42.4734916363
 20
0.1125639972
 30
0.0
  0
VERTEX
  5
412
  8
0
  6
CONTINUOUS
 62
     8
 10
42.4984419367
 20
0.1113891554
 30
0.0
  0
VERTEX
  5
413
  8
0
  6
CONTINUOUS
 62
     8
 10
42.5234739369
 20
0.110570854
 30
0.0
  0
VERTEX
  5
414
  8
0
  6
CONTINUOUS
 62
     8
 10
42.5485697342
 20
0.110084484
 30
0.0
  0
VERTEX
  5
415
  8
0
  6
CONTINUOUS
 62
     8
 10
42.5737114258
 20
0.1099054362
 30
0.0
  0
SEQEND
  5
B71
  8
0
  6
CONTINUOUS
 62
     8
  0
POLYLINE
  5
D5
  8
0
  6
CONTINUOUS
 62
     8
 66
     1
 10
0.0
 20
0.0
 30
0.0
  0
VERTEX
  5
416
  8
0
  6
CONTINUOUS
 62
     8
 10
25.5313821615
 20
2.2139630534
 30
0.0
  0
VERTEX
  5
417
  8
0
  6
CONTINUOUS
 62
     8
 10
25.5719158384
 20
2.2058802351
 30
0.0
  0
VERTEX
  5
418
  8
0
  6
CONTINUOUS
 62
     8
 10
25.6123727139
 20
2.1979019764
 30
0.0
  0
VERTEX
  5
419
  8
0
  6
CONTINUOUS
 62
     8
 10
25.6527151745
 20
2.1899970784
 30
0.0
  0
VERTEX
  5
41A
  8
0
  6
CONTINUOUS
 62
     8
 10
25.6929056069
 20
2.1821343425
 30
0.0
  0
VERTEX
  5
41B
  8
0
  6
CONTINUOUS
 62
     8
 10
25.7329063975
 20
2.1742825699
 30
0.0
  0
VERTEX
  5
41C
  8
0
  6
CONTINUOUS
 62
     8
 10
25.7726799329
 20
2.1664105619
 30
0.0
  0
VERTEX
  5
41D
  8
0
  6
CONTINUOUS
 62
     8
 10
25.8121885997
 20
2.1584871196
 30
0.0
  0
VERTEX
  5
41E
  8
0
  6
CONTINUOUS
 62
     8
 10
25.8513947844
 20
2.1504810444
 30
0.0
  0
VERTEX
  5
41F
  8
0
  6
CONTINUOUS
 62
     8
 10
25.8902608736
 20
2.1423611375
 30
0.0
  0
VERTEX
  5
420
  8
0
  6
CONTINUOUS
 62
     8
 10
25.9287492539
 20
2.1340962002
 30
0.0
  0
VERTEX
  5
421
  8
0
  6
CONTINUOUS
 62
     8
 10
25.9668223117
 20
2.1256550337
 30
0.0
  0
VERTEX
  5
422
  8
0
  6
CONTINUOUS
 62
     8
 10
26.0044424337
 20
2.1170064392
 30
0.0
  0
VERTEX
  5
423
  8
0
  6
CONTINUOUS
 62
     8
 10
26.0415720063
 20
2.108119218
 30
0.0
  0
VERTEX
  5
424
  8
0
  6
CONTINUOUS
 62
     8
 10
26.0781734163
 20
2.0989621714
 30
0.0
  0
VERTEX
  5
425
  8
0
  6
CONTINUOUS
 62
     8
 10
26.11420905
 20
2.0895041006
 30
0.0
  0
VERTEX
  5
426
  8
0
  6
CONTINUOUS
 62
     8
 10
26.1496412941
 20
2.0797138069
 30
0.0
  0
VERTEX
  5
427
  8
0
  6
CONTINUOUS
 62
     8
 10
26.1844325352
 20
2.0695600915
 30
0.0
  0
VERTEX
  5
428
  8
0
  6
CONTINUOUS
 62
     8
 10
26.2185451597
 20
2.0590117556
 30
0.0
  0
VERTEX
  5
429
  8
0
  6
CONTINUOUS
 62
     8
 10
26.2519415542
 20
2.0480376006
 30
0.0
  0
VERTEX
  5
42A
  8
0
  6
CONTINUOUS
 62
     8
 10
26.2845841053
 20
2.0366064276
 30
0.0
  0
VERTEX
  5
42B
  8
0
  6
CONTINUOUS
 62
     8
 10
26.3164351996
 20
2.0246870379
 30
0.0
  0
VERTEX
  5
42C
  8
0
  6
CONTINUOUS
 62
     8
 10
26.3474572235
 20
2.0122482329
 30
0.0
  0
VERTEX
  5
42D
  8
0
  6
CONTINUOUS
 62
     8
 10
26.3776125638
 20
1.9992588136
 30
0.0
  0
VERTEX
  5
42E
  8
0
  6
CONTINUOUS
 62
     8
 10
26.4068636068
 20
1.9856875814
 30
0.0
  0
SEQEND
  5
B72
  8
0
  6
CONTINUOUS
 62
     8
  0
POLYLINE
  5
D6
  8
0
  6
CONTINUOUS
 62
     8
 66
     1
 10
0.0
 20
0.0
 30
0.0
  0
VERTEX
  5
42F
  8
0
  6
CONTINUOUS
 62
     8
 10
23.4218158366
 20
3.1490325928
 30
0.0
  0
VERTEX
  5
430
  8
0
  6
CONTINUOUS
 62
     8
 10
23.421195346
 20
3.2062369615
 30
0.0
  0
VERTEX
  5
431
  8
0
  6
CONTINUOUS
 62
     8
 10
23.4193263514
 20
3.2627567947
 30
0.0
  0
VERTEX
  5
432
  8
0
  6
CONTINUOUS
 62
     8
 10
23.4161975688
 20
3.3185695535
 30
0.0
  0
VERTEX
  5
433
  8
0
  6
CONTINUOUS
 62
     8
 10
23.4117977142
 20
3.3736526988
 30
0.0
  0
VERTEX
  5
434
  8
0
  6
CONTINUOUS
 62
     8
 10
23.4061155036
 20
3.427983692
 30
0.0
  0
VERTEX
  5
435
  8
0
  6
CONTINUOUS
 62
     8
 10
23.3991396529
 20
3.4815399939
 30
0.0
  0
VERTEX
  5
436
  8
0
  6
CONTINUOUS
 62
     8
 10
23.3908588781
 20
3.5342990658
 30
0.0
  0
VERTEX
  5
437
  8
0
  6
CONTINUOUS
 62
     8
 10
23.3812618951
 20
3.5862383687
 30
0.0
  0
VERTEX
  5
438
  8
0
  6
CONTINUOUS
 62
     8
 10
23.3703374199
 20
3.6373353636
 30
0.0
  0
VERTEX
  5
439
  8
0
  6
CONTINUOUS
 62
     8
 10
23.3580741685
 20
3.6875675118
 30
0.0
  0
VERTEX
  5
43A
  8
0
  6
CONTINUOUS
 62
     8
 10
23.3444608569
 20
3.7369122742
 30
0.0
  0
VERTEX
  5
43B
  8
0
  6
CONTINUOUS
 62
     8
 10
23.329486201
 20
3.785347112
 30
0.0
  0
VERTEX
  5
43C
  8
0
  6
CONTINUOUS
 62
     8
 10
23.3131389167
 20
3.8328494863
 30
0.0
  0
VERTEX
  5
43D
  8
0
  6
CONTINUOUS
 62
     8
 10
23.2954077201
 20
3.8793968581
 30
0.0
  0
VERTEX
  5
43E
  8
0
  6
CONTINUOUS
 62
     8
 10
23.2762813272
 20
3.9249666886
 30
0.0
  0
VERTEX
  5
43F
  8
0
  6
CONTINUOUS
 62
     8
 10
23.2557484538
 20
3.9695364387
 30
0.0
  0
VERTEX
  5
440
  8
0
  6
CONTINUOUS
 62
     8
 10
23.2337978159
 20
4.0130835698
 30
0.0
  0
VERTEX
  5
441
  8
0
  6
CONTINUOUS
 62
     8
 10
23.2104181296
 20
4.0555855427
 30
0.0
  0
VERTEX
  5
442
  8
0
  6
CONTINUOUS
 62
     8
 10
23.1855981108
 20
4.0970198186
 30
0.0
  0
VERTEX
  5
443
  8
0
  6
CONTINUOUS
 62
     8
 10
23.1593264754
 20
4.1373638586
 30
0.0
  0
VERTEX
  5
444
  8
0
  6
CONTINUOUS
 62
     8
 10
23.1315919394
 20
4.1765951238
 30
0.0
  0
VERTEX
  5
445
  8
0
  6
CONTINUOUS
 62
     8
 10
23.1023832188
 20
4.2146910753
 30
0.0
  0
VERTEX
  5
446
  8
0
  6
CONTINUOUS
 62
     8
 10
23.0716890295
 20
4.2516291742
 30
0.0
  0
VERTEX
  5
447
  8
0
  6
CONTINUOUS
 62
     8
 10
23.0394980876
 20
4.2873868815
 30
0.0
  0
SEQEND
  5
B73
  8
0
  6
CONTINUOUS
 62
     8
  0
POLYLINE
  5
D7
  8
0
  6
CONTINUOUS
 62
     8
 66
     1
 10
0.0
 20
0.0
 30
0.0
  0
VERTEX
  5
448
  8
0
  6
CONTINUOUS
 62
     8
 10
15.823695638
 20
2.9064479167
 30
0.0
  0
VERTEX
  5
449
  8
0
  6
CONTINUOUS
 62
     8
 10
15.8393515249
 20
2.9901901355
 30
0.0
  0
VERTEX
  5
44A
  8
0
  6
CONTINUOUS
 62
     8
 10
15.8586144829
 20
3.0721219814
 30
0.0
  0
VERTEX
  5
44B
  8
0
  6
CONTINUOUS
 62
     8
 10
15.8814443034
 20
3.1520880729
 30
0.0
  0
VERTEX
  5
44C
  8
0
  6
CONTINUOUS
 62
     8
 10
15.907800778
 20
3.2299330284
 30
0.0
  0
VERTEX
  5
44D
  8
0
  6
CONTINUOUS
 62
     8
 10
15.9376436983
 20
3.3055014667
 30
0.0
  0
VERTEX
  5
44E
  8
0
  6
CONTINUOUS
 62
     8
 10
15.9709328556
 20
3.3786380062
 30
0.0
  0
VERTEX
  5
44F
  8
0
  6
CONTINUOUS
 62
     8
 10
16.0076280416
 20
3.4491872656
 30
0.0
  0
VERTEX
  5
450
  8
0
  6
CONTINUOUS
 62
     8
 10
16.0476890477
 20
3.5169938633
 30
0.0
  0
VERTEX
  5
451
  8
0
  6
CONTINUOUS
 62
     8
 10
16.0910756656
 20
3.5819024181
 30
0.0
  0
VERTEX
  5
452
  8
0
  6
CONTINUOUS
 62
     8
 10
16.1377476866
 20
3.6437575483
 30
0.0
  0
VERTEX
  5
453
  8
0
  6
CONTINUOUS
 62
     8
 10
16.1876649023
 20
3.7024038727
 30
0.0
  0
VERTEX
  5
454
  8
0
  6
CONTINUOUS
 62
     8
 10
16.2407871043
 20
3.7576860097
 30
0.0
  0
VERTEX
  5
455
  8
0
  6
CONTINUOUS
 62
     8
 10
16.297074084
 20
3.809448578
 30
0.0
  0
VERTEX
  5
456
  8
0
  6
CONTINUOUS
 62
     8
 10
16.356485633
 20
3.8575361961
 30
0.0
  0
VERTEX
  5
457
  8
0
  6
CONTINUOUS
 62
     8
 10
16.4189815428
 20
3.9017934825
 30
0.0
  0
VERTEX
  5
458
  8
0
  6
CONTINUOUS
 62
     8
 10
16.4845216049
 20
3.9420650559
 30
0.0
  0
VERTEX
  5
459
  8
0
  6
CONTINUOUS
 62
     8
 10
16.5530656109
 20
3.9781955349
 30
0.0
  0
VERTEX
  5
45A
  8
0
  6
CONTINUOUS
 62
     8
 10
16.6245733522
 20
4.0100295378
 30
0.0
  0
VERTEX
  5
45B
  8
0
  6
CONTINUOUS
 62
     8
 10
16.6990046203
 20
4.0374116835
 30
0.0
  0
VERTEX
  5
45C
  8
0
  6
CONTINUOUS
 62
     8
 10
16.7763192069
 20
4.0601865903
 30
0.0
  0
VERTEX
  5
45D
  8
0
  6
CONTINUOUS
 62
     8
 10
16.8564769034
 20
4.0781988769
 30
0.0
  0
VERTEX
  5
45E
  8
0
  6
CONTINUOUS
 62
     8
 10
16.9394375012
 20
4.0912931619
 30
0.0
  0
VERTEX
  5
45F
  8
0
  6
CONTINUOUS
 62
     8
 10
17.0251607921
 20
4.0993140638
 30
0.0
  0
VERTEX
  5
460
  8
0
  6
CONTINUOUS
 62
     8
 10
17.1136065674
 20
4.1021062012
 30
0.0
  0
SEQEND
  5
B74
  8
0
  6
CONTINUOUS
 62
     8
  0
POLYLINE
  5
D8
  8
0
  6
CONTINUOUS
 62
     8
 66
     1
 10
0.0
 20
0.0
 30
0.0
  0
VERTEX
  5
461
  8
0
  6
CONTINUOUS
 62
     8
 10
26.4068636068
 20
1.9856875814
 30
0.0
  0
VERTEX
  5
462
  8
0
  6
CONTINUOUS
 62
     8
 10
26.4351667813
 20
1.9712512399
 30
0.0
  0
VERTEX
  5
463
  8
0
  6
CONTINUOUS
 62
     8
 10
26.4624910731
 20
1.9563599799
 30
0.0
  0
VERTEX
  5
464
  8
0
  6
CONTINUOUS
 62
     8
 10
26.4888177048
 20
1.9409647581
 30
0.0
  0
VERTEX
  5
465
  8
0
  6
CONTINUOUS
 62
     8
 10
26.5141278988
 20
1.9250165311
 30
0.0
  0
VERTEX
  5
466
  8
0
  6
CONTINUOUS
 62
     8
 10
26.5384028774
 20
1.9084662558
 30
0.0
  0
VERTEX
  5
467
  8
0
  6
CONTINUOUS
 62
     8
 10
26.5616238632
 20
1.8912648888
 30
0.0
  0
VERTEX
  5
468
  8
0
  6
CONTINUOUS
 62
     8
 10
26.5837720786
 20
1.8733633869
 30
0.0
  0
VERTEX
  5
469
  8
0
  6
CONTINUOUS
 62
     8
 10
26.6048287459
 20
1.8547127068
 30
0.0
  0
VERTEX
  5
46A
  8
0
  6
CONTINUOUS
 62
     8
 10
26.6247750877
 20
1.8352638052
 30
0.0
  0
VERTEX
  5
46B
  8
0
  6
CONTINUOUS
 62
     8
 10
26.6435923263
 20
1.814967639
 30
0.0
  0
VERTEX
  5
46C
  8
0
  6
CONTINUOUS
 62
     8
 10
26.6612616843
 20
1.7937751648
 30
0.0
  0
VERTEX
  5
46D
  8
0
  6
CONTINUOUS
 62
     8
 10
26.677764384
 20
1.7716373393
 30
0.0
  0
VERTEX
  5
46E
  8
0
  6
CONTINUOUS
 62
     8
 10
26.6930816478
 20
1.7485051193
 30
0.0
  0
VERTEX
  5
46F
  8
0
  6
CONTINUOUS
 62
     8
 10
26.7071946983
 20
1.7243294615
 30
0.0
  0
VERTEX
  5
470
  8
0
  6
CONTINUOUS
 62
     8
 10
26.7200847578
 20
1.6990613227
 30
0.0
  0
VERTEX
  5
471
  8
0
  6
CONTINUOUS
 62
     8
 10
26.7317330488
 20
1.6726516596
 30
0.0
  0
VERTEX
  5
472
  8
0
  6
CONTINUOUS
 62
     8
 10
26.7421207937
 20
1.6450514288
 30
0.0
  0
VERTEX
  5
473
  8
0
  6
CONTINUOUS
 62
     8
 10
26.751229215
 20
1.6162115873
 30
0.0
  0
VERTEX
  5
474
  8
0
  6
CONTINUOUS
 62
     8
 10
26.759039535
 20
1.5860830916
 30
0.0
  0
VERTEX
  5
475
  8
0
  6
CONTINUOUS
 62
     8
 10
26.7655329763
 20
1.5546168985
 30
0.0
  0
VERTEX
  5
476
  8
0
  6
CONTINUOUS
 62
     8
 10
26.7706907612
 20
1.5217639648
 30
0.0
  0
VERTEX
  5
477
  8
0
  6
CONTINUOUS
 62
     8
 10
26.7744941123
 20
1.4874752472
 30
0.0
  0
VERTEX
  5
478
  8
0
  6
CONTINUOUS
 62
     8
 10
26.7769242518
 20
1.4517017024
 30
0.0
  0
VERTEX
  5
479
  8
0
  6
CONTINUOUS
 62
     8
 10
26.7779624023
 20
1.4143942871
 30
0.0
  0
SEQEND
  5
B75
  8
0
  6
CONTINUOUS
 62
     8
  0
POLYLINE
  5
D9
  8
0
  6
CONTINUOUS
 62
     8
 66
     1
 10
0.0
 20
0.0
 30
0.0
  0
VERTEX
  5
47A
  8
0
  6
CONTINUOUS
 62
     8
 10
37.0013177083
 20
4.1219912923
 30
0.0
  0
VERTEX
  5
47B
  8
0
  6
CONTINUOUS
 62
     8
 10
36.9560013701
 20
4.071086019
 30
0.0
  0
VERTEX
  5
47C
  8
0
  6
CONTINUOUS
 62
     8
 10
36.9122126043
 20
4.0182052817
 30
0.0
  0
VERTEX
  5
47D
  8
0
  6
CONTINUOUS
 62
     8
 10
36.8699870416
 20
3.9633589067
 30
0.0
  0
VERTEX
  5
47E
  8
0
  6
CONTINUOUS
 62
     8
 10
36.8293603128
 20
3.9065567199
 30
0.0
  0
VERTEX
  5
47F
  8
0
  6
CONTINUOUS
 62
     8
 10
36.7903680484
 20
3.8478085477
 30
0.0
  0
VERTEX
  5
480
  8
0
  6
CONTINUOUS
 62
     8
 10
36.7530458794
 20
3.7871242161
 30
0.0
  0
VERTEX
  5
481
  8
0
  6
CONTINUOUS
 62
     8
 10
36.7174294363
 20
3.7245135513
 30
0.0
  0
VERTEX
  5
482
  8
0
  6
CONTINUOUS
 62
     8
 10
36.6835543499
 20
3.6599863794
 30
0.0
  0
VERTEX
  5
483
  8
0
  6
CONTINUOUS
 62
     8
 10
36.651456251
 20
3.5935525266
 30
0.0
  0
VERTEX
  5
484
  8
0
  6
CONTINUOUS
 62
     8
 10
36.6211707702
 20
3.525221819
 30
0.0
  0
VERTEX
  5
485
  8
0
  6
CONTINUOUS
 62
     8
 10
36.5927335383
 20
3.4550040828
 30
0.0
  0
VERTEX
  5
486
  8
0
  6
CONTINUOUS
 62
     8
 10
36.566180186
 20
3.3829091441
 30
0.0
  0
VERTEX
  5
487
  8
0
  6
CONTINUOUS
 62
     8
 10
36.5415463439
 20
3.3089468291
 30
0.0
  0
VERTEX
  5
488
  8
0
  6
CONTINUOUS
 62
     8
 10
36.518867643
 20
3.2331269639
 30
0.0
  0
VERTEX
  5
489
  8
0
  6
CONTINUOUS
 62
     8
 10
36.4981797137
 20
3.1554593747
 30
0.0
  0
VERTEX
  5
48A
  8
0
  6
CONTINUOUS
 62
     8
 10
36.479518187
 20
3.0759538876
 30
0.0
  0
VERTEX
  5
48B
  8
0
  6
CONTINUOUS
 62
     8
 10
36.4629186934
 20
2.9946203287
 30
0.0
  0
VERTEX
  5
48C
  8
0
  6
CONTINUOUS
 62
     8
 10
36.4484168638
 20
2.9114685243
 30
0.0
  0
VERTEX
  5
48D
  8
0
  6
CONTINUOUS
 62
     8
 10
36.4360483287
 20
2.8265083004
 30
0.0
  0
VERTEX
  5
48E
  8
0
  6
CONTINUOUS
 62
     8
 10
36.4258487191
 20
2.7397494833
 30
0.0
  0
VERTEX
  5
48F
  8
0
  6
CONTINUOUS
 62
     8
 10
36.4178536655
 20
2.651201899
 30
0.0
  0
VERTEX
  5
490
  8
0
  6
CONTINUOUS
 62
     8
 10
36.4120987987
 20
2.5608753737
 30
0.0
  0
VERTEX
  5
491
  8
0
  6
CONTINUOUS
 62
     8
 10
36.4086197495
 20
2.4687797335
 30
0.0
  0
VERTEX
  5
492
  8
0
  6
CONTINUOUS
 62
     8
 10
36.4074521484
 20
2.3749248047
 30
0.0
  0
SEQEND
  5
B76
  8
0
  6
CONTINUOUS
 62
     8
  0
POLYLINE
  5
DA
  8
0
  6
CONTINUOUS
 62
     8
 66
     1
 10
0.0
 20
0.0
 30
0.0
  0
VERTEX
  5
493
  8
0
  6
CONTINUOUS
 62
     8
 10
9.6323112793
 20
2.3749248047
 30
0.0
  0
VERTEX
  5
494
  8
0
  6
CONTINUOUS
 62
     8
 10
9.6311463559
 20
2.4687797335
 30
0.0
  0
VERTEX
  5
495
  8
0
  6
CONTINUOUS
 62
     8
 10
9.6276748536
 20
2.5608753737
 30
0.0
  0
VERTEX
  5
496
  8
0
  6
CONTINUOUS
 62
     8
 10
9.6219316742
 20
2.651201899
 30
0.0
  0
VERTEX
  5
497
  8
0
  6
CONTINUOUS
 62
     8
 10
9.6139517195
 20
2.7397494833
 30
0.0
  0
VERTEX
  5
498
  8
0
  6
CONTINUOUS
 62
     8
 10
9.6037698912
 20
2.8265083004
 30
0.0
  0
VERTEX
  5
499
  8
0
  6
CONTINUOUS
 62
     8
 10
9.5914210911
 20
2.9114685243
 30
0.0
  0
VERTEX
  5
49A
  8
0
  6
CONTINUOUS
 62
     8
 10
9.576940221
 20
2.9946203287
 30
0.0
  0
VERTEX
  5
49B
  8
0
  6
CONTINUOUS
 62
     8
 10
9.5603621826
 20
3.0759538876
 30
0.0
  0
VERTEX
  5
49C
  8
0
  6
CONTINUOUS
 62
     8
 10
9.5417218778
 20
3.1554593747
 30
0.0
  0
VERTEX
  5
49D
  8
0
  6
CONTINUOUS
 62
     8
 10
9.5210542083
 20
3.2331269639
 30
0.0
  0
VERTEX
  5
49E
  8
0
  6
CONTINUOUS
 62
     8
 10
9.498394076
 20
3.3089468291
 30
0.0
  0
VERTEX
  5
49F
  8
0
  6
CONTINUOUS
 62
     8
 10
9.4737763824
 20
3.3829091441
 30
0.0
  0
VERTEX
  5
4A0
  8
0
  6
CONTINUOUS
 62
     8
 10
9.4472360296
 20
3.4550040828
 30
0.0
  0
VERTEX
  5
4A1
  8
0
  6
CONTINUOUS
 62
     8
 10
9.4188079192
 20
3.525221819
 30
0.0
  0
VERTEX
  5
4A2
  8
0
  6
CONTINUOUS
 62
     8
 10
9.388526953
 20
3.5935525266
 30
0.0
  0
VERTEX
  5
4A3
  8
0
  6
CONTINUOUS
 62
     8
 10
9.3564280328
 20
3.6599863794
 30
0.0
  0
VERTEX
  5
4A4
  8
0
  6
CONTINUOUS
 62
     8
 10
9.3225460603
 20
3.7245135513
 30
0.0
  0
VERTEX
  5
4A5
  8
0
  6
CONTINUOUS
 62
     8
 10
9.2869159374
 20
3.7871242161
 30
0.0
  0
VERTEX
  5
4A6
  8
0
  6
CONTINUOUS
 62
     8
 10
9.2495725658
 20
3.8478085477
 30
0.0
  0
VERTEX
  5
4A7
  8
0
  6
CONTINUOUS
 62
     8
 10
9.2105508474
 20
3.9065567199
 30
0.0
  0
VERTEX
  5
4A8
  8
0
  6
CONTINUOUS
 62
     8
 10
9.1698856838
 20
3.9633589067
 30
0.0
  0
VERTEX
  5
4A9
  8
0
  6
CONTINUOUS
 62
     8
 10
9.1276119768
 20
4.0182052817
 30
0.0
  0
VERTEX
  5
4AA
  8
0
  6
CONTINUOUS
 62
     8
 10
9.0837646283
 20
4.071086019
 30
0.0
  0
VERTEX
  5
4AB
  8
0
  6
CONTINUOUS
 62
     8
 10
9.03837854
 20
4.1219912923
 30
0.0
  0
SEQEND
  5
B77
  8
0
  6
CONTINUOUS
 62
     8
  0
POLYLINE
  5
DB
  8
0
  6
CONTINUOUS
 62
     8
 66
     1
 10
0.0
 20
0.0
 30
0.0
  0
VERTEX
  5
4AC
  8
0
  6
CONTINUOUS
 62
     8
 10
2.0311680094
 20
0.0
 30
0.0
  0
VERTEX
  5
4AD
  8
0
  6
CONTINUOUS
 62
     8
 10
2.0415388234
 20
0.0000160659
 30
0.0
  0
VERTEX
  5
4AE
  8
0
  6
CONTINUOUS
 62
     8
 10
2.0519096375
 20
0.000064147
 30
0.0
  0
VERTEX
  5
4AF
  8
0
  6
CONTINUOUS
 62
     8
 10
2.0622804515
 20
0.0001440682
 30
0.0
  0
VERTEX
  5
4B0
  8
0
  6
CONTINUOUS
 62
     8
 10
2.0726512655
 20
0.0002556548
 30
0.0
  0
VERTEX
  5
4B1
  8
0
  6
CONTINUOUS
 62
     8
 10
2.0830220795
 20
0.0003987317
 30
0.0
  0
VERTEX
  5
4B2
  8
0
  6
CONTINUOUS
 62
     8
 10
2.0933928935
 20
0.0005731239
 30
0.0
  0
VERTEX
  5
4B3
  8
0
  6
CONTINUOUS
 62
     8
 10
2.1037637075
 20
0.0007786566
 30
0.0
  0
VERTEX
  5
4B4
  8
0
  6
CONTINUOUS
 62
     8
 10
2.1141345215
 20
0.0010151548
 30
0.0
  0
VERTEX
  5
4B5
  8
0
  6
CONTINUOUS
 62
     8
 10
2.1245053355
 20
0.0012824435
 30
0.0
  0
VERTEX
  5
4B6
  8
0
  6
CONTINUOUS
 62
     8
 10
2.1348761495
 20
0.0015803478
 30
0.0
  0
VERTEX
  5
4B7
  8
0
  6
CONTINUOUS
 62
     8
 10
2.1452469635
 20
0.0019086928
 30
0.0
  0
VERTEX
  5
4B8
  8
0
  6
CONTINUOUS
 62
     8
 10
2.1556177775
 20
0.0022673035
 30
0.0
  0
VERTEX
  5
4B9
  8
0
  6
CONTINUOUS
 62
     8
 10
2.1659885915
 20
0.0026560049
 30
0.0
  0
VERTEX
  5
4BA
  8
0
  6
CONTINUOUS
 62
     8
 10
2.1763594055
 20
0.0030746221
 30
0.0
  0
VERTEX
  5
4BB
  8
0
  6
CONTINUOUS
 62
     8
 10
2.1867302195
 20
0.0035229802
 30
0.0
  0
VERTEX
  5
4BC
  8
0
  6
CONTINUOUS
 62
     8
 10
2.1971010335
 20
0.0040009042
 30
0.0
  0
VERTEX
  5
4BD
  8
0
  6
CONTINUOUS
 62
     8
 10
2.2074718475
 20
0.0045082192
 30
0.0
  0
VERTEX
  5
4BE
  8
0
  6
CONTINUOUS
 62
     8
 10
2.2178426615
 20
0.0050447502
 30
0.0
  0
VERTEX
  5
4BF
  8
0
  6
CONTINUOUS
 62
     8
 10
2.2282134755
 20
0.0056103223
 30
0.0
  0
VERTEX
  5
4C0
  8
0
  6
CONTINUOUS
 62
     8
 10
2.2385842896
 20
0.0062047605
 30
0.0
  0
VERTEX
  5
4C1
  8
0
  6
CONTINUOUS
 62
     8
 10
2.2489551036
 20
0.0068278899
 30
0.0
  0
VERTEX
  5
4C2
  8
0
  6
CONTINUOUS
 62
     8
 10
2.2593259176
 20
0.0074795356
 30
0.0
  0
VERTEX
  5
4C3
  8
0
  6
CONTINUOUS
 62
     8
 10
2.2696967316
 20
0.0081595225
 30
0.0
  0
VERTEX
  5
4C4
  8
0
  6
CONTINUOUS
 62
     8
 10
2.2800675456
 20
0.0088676758
 30
0.0
  0
SEQEND
  5
B78
  8
0
  6
CONTINUOUS
 62
     8
  0
POLYLINE
  5
DC
  8
0
  6
CONTINUOUS
 62
     8
 66
     1
 10
0.0
 20
0.0
 30
0.0
  0
VERTEX
  5
4C5
  8
0
  6
CONTINUOUS
 62
     8
 10
18.3634114176
 20
1.4916505534
 30
0.0
  0
VERTEX
  5
4C6
  8
0
  6
CONTINUOUS
 62
     8
 10
18.3395523932
 20
1.4285397998
 30
0.0
  0
VERTEX
  5
4C7
  8
0
  6
CONTINUOUS
 62
     8
 10
18.3136522707
 20
1.3674867641
 30
0.0
  0
VERTEX
  5
4C8
  8
0
  6
CONTINUOUS
 62
     8
 10
18.2856783353
 20
1.3085421807
 30
0.0
  0
VERTEX
  5
4C9
  8
0
  6
CONTINUOUS
 62
     8
 10
18.2555978721
 20
1.2517567839
 30
0.0
  0
VERTEX
  5
4CA
  8
0
  6
CONTINUOUS
 62
     8
 10
18.2233781661
 20
1.1971813083
 30
0.0
  0
VERTEX
  5
4CB
  8
0
  6
CONTINUOUS
 62
     8
 10
18.1889865023
 20
1.1448664881
 30
0.0
  0
VERTEX
  5
4CC
  8
0
  6
CONTINUOUS
 62
     8
 10
18.1523901658
 20
1.0948630579
 30
0.0
  0
VERTEX
  5
4CD
  8
0
  6
CONTINUOUS
 62
     8
 10
18.1135564417
 20
1.047221752
 30
0.0
  0
VERTEX
  5
4CE
  8
0
  6
CONTINUOUS
 62
     8
 10
18.0724526149
 20
1.0019933049
 30
0.0
  0
VERTEX
  5
4CF
  8
0
  6
CONTINUOUS
 62
     8
 10
18.0290459706
 20
0.9592284509
 30
0.0
  0
VERTEX
  5
4D0
  8
0
  6
CONTINUOUS
 62
     8
 10
17.9833037938
 20
0.9189779245
 30
0.0
  0
VERTEX
  5
4D1
  8
0
  6
CONTINUOUS
 62
     8
 10
17.9351933695
 20
0.8812924601
 30
0.0
  0
VERTEX
  5
4D2
  8
0
  6
CONTINUOUS
 62
     8
 10
17.8846819829
 20
0.8462227921
 30
0.0
  0
VERTEX
  5
4D3
  8
0
  6
CONTINUOUS
 62
     8
 10
17.8317369188
 20
0.813819655
 30
0.0
  0
VERTEX
  5
4D4
  8
0
  6
CONTINUOUS
 62
     8
 10
17.7763254625
 20
0.784133783
 30
0.0
  0
VERTEX
  5
4D5
  8
0
  6
CONTINUOUS
 62
     8
 10
17.7184148989
 20
0.7572159107
 30
0.0
  0
VERTEX
  5
4D6
  8
0
  6
CONTINUOUS
 62
     8
 10
17.6579725131
 20
0.7331167725
 30
0.0
  0
VERTEX
  5
4D7
  8
0
  6
CONTINUOUS
 62
     8
 10
17.5949655902
 20
0.7118871028
 30
0.0
  0
VERTEX
  5
4D8
  8
0
  6
CONTINUOUS
 62
     8
 10
17.5293614151
 20
0.6935776359
 30
0.0
  0
VERTEX
  5
4D9
  8
0
  6
CONTINUOUS
 62
     8
 10
17.461127273
 20
0.6782391064
 30
0.0
  0
VERTEX
  5
4DA
  8
0
  6
CONTINUOUS
 62
     8
 10
17.3902304489
 20
0.6659222485
 30
0.0
  0
VERTEX
  5
4DB
  8
0
  6
CONTINUOUS
 62
     8
 10
17.3166382278
 20
0.6566777968
 30
0.0
  0
VERTEX
  5
4DC
  8
0
  6
CONTINUOUS
 62
     8
 10
17.2403178948
 20
0.6505564857
 30
0.0
  0
VERTEX
  5
4DD
  8
0
  6
CONTINUOUS
 62
     8
 10
17.161236735
 20
0.6476090495
 30
0.0
  0
SEQEND
  5
B79
  8
0
  6
CONTINUOUS
 62
     8
  0
POLYLINE
  5
DD
  8
0
  6
CONTINUOUS
 62
     8
 66
     1
 10
0.0
 20
0.0
 30
0.0
  0
VERTEX
  5
4DE
  8
0
  6
CONTINUOUS
 62
     8
 10
4.4842224121
 20
2.3589361165
 30
0.0
  0
VERTEX
  5
4DF
  8
0
  6
CONTINUOUS
 62
     8
 10
4.4806229998
 20
2.4978036429
 30
0.0
  0
VERTEX
  5
4E0
  8
0
  6
CONTINUOUS
 62
     8
 10
4.4708867645
 20
2.6315198767
 30
0.0
  0
VERTEX
  5
4E1
  8
0
  6
CONTINUOUS
 62
     8
 10
4.4551959418
 20
2.7600181635
 30
0.0
  0
VERTEX
  5
4E2
  8
0
  6
CONTINUOUS
 62
     8
 10
4.4337327674
 20
2.8832318488
 30
0.0
  0
VERTEX
  5
4E3
  8
0
  6
CONTINUOUS
 62
     8
 10
4.406679477
 20
3.0010942781
 30
0.0
  0
VERTEX
  5
4E4
  8
0
  6
CONTINUOUS
 62
     8
 10
4.3742183062
 20
3.1135387967
 30
0.0
  0
VERTEX
  5
4E5
  8
0
  6
CONTINUOUS
 62
     8
 10
4.3365314908
 20
3.2204987503
 30
0.0
  0
VERTEX
  5
4E6
  8
0
  6
CONTINUOUS
 62
     8
 10
4.2938012665
 20
3.3219074843
 30
0.0
  0
VERTEX
  5
4E7
  8
0
  6
CONTINUOUS
 62
     8
 10
4.2462098689
 20
3.4176983441
 30
0.0
  0
VERTEX
  5
4E8
  8
0
  6
CONTINUOUS
 62
     8
 10
4.1939395337
 20
3.5078046752
 30
0.0
  0
VERTEX
  5
4E9
  8
0
  6
CONTINUOUS
 62
     8
 10
4.1371724966
 20
3.5921598232
 30
0.0
  0
VERTEX
  5
4EA
  8
0
  6
CONTINUOUS
 62
     8
 10
4.0760909932
 20
3.6706971334
 30
0.0
  0
VERTEX
  5
4EB
  8
0
  6
CONTINUOUS
 62
     8
 10
4.0108772594
 20
3.7433499514
 30
0.0
  0
VERTEX
  5
4EC
  8
0
  6
CONTINUOUS
 62
     8
 10
3.9417135306
 20
3.8100516226
 30
0.0
  0
VERTEX
  5
4ED
  8
0
  6
CONTINUOUS
 62
     8
 10
3.8687820427
 20
3.8707354925
 30
0.0
  0
VERTEX
  5
4EE
  8
0
  6
CONTINUOUS
 62
     8
 10
3.7922650312
 20
3.9253349067
 30
0.0
  0
VERTEX
  5
4EF
  8
0
  6
CONTINUOUS
 62
     8
 10
3.712344732
 20
3.9737832105
 30
0.0
  0
VERTEX
  5
4F0
  8
0
  6
CONTINUOUS
 62
     8
 10
3.6292033806
 20
4.0160137494
 30
0.0
  0
VERTEX
  5
4F1
  8
0
  6
CONTINUOUS
 62
     8
 10
3.5430232127
 20
4.051959869
 30
0.0
  0
VERTEX
  5
4F2
  8
0
  6
CONTINUOUS
 62
     8
 10
3.4539864641
 20
4.0815549147
 30
0.0
  0
VERTEX
  5
4F3
  8
0
  6
CONTINUOUS
 62
     8
 10
3.3622753704
 20
4.1047322319
 30
0.0
  0
VERTEX
  5
4F4
  8
0
  6
CONTINUOUS
 62
     8
 10
3.2680721673
 20
4.1214251662
 30
0.0
  0
VERTEX
  5
4F5
  8
0
  6
CONTINUOUS
 62
     8
 10
3.1715590905
 20
4.1315670631
 30
0.0
  0
VERTEX
  5
4F6
  8
0
  6
CONTINUOUS
 62
     8
 10
3.0729183757
 20
4.1350912679
 30
0.0
  0
SEQEND
  5
B7A
  8
0
  6
CONTINUOUS
 62
     8
  0
POLYLINE
  5
DE
  8
0
  6
CONTINUOUS
 62
     8
 66
     1
 10
0.0
 20
0.0
 30
0.0
  0
VERTEX
  5
4F7
  8
0
  6
CONTINUOUS
 62
     8
 10
12.3455513509
 20
0.0213630371
 30
0.0
  0
VERTEX
  5
4F8
  8
0
  6
CONTINUOUS
 62
     8
 10
12.463235403
 20
0.0243172087
 30
0.0
  0
VERTEX
  5
4F9
  8
0
  6
CONTINUOUS
 62
     8
 10
12.5793115824
 20
0.0331756415
 30
0.0
  0
VERTEX
  5
4FA
  8
0
  6
CONTINUOUS
 62
     8
 10
12.6935771847
 20
0.0479322124
 30
0.0
  0
VERTEX
  5
4FB
  8
0
  6
CONTINUOUS
 62
     8
 10
12.8058295054
 20
0.0685807981
 30
0.0
  0
VERTEX
  5
4FC
  8
0
  6
CONTINUOUS
 62
     8
 10
12.9158658403
 20
0.0951152757
 30
0.0
  0
VERTEX
  5
4FD
  8
0
  6
CONTINUOUS
 62
     8
 10
13.0234834849
 20
0.1275295219
 30
0.0
  0
VERTEX
  5
4FE
  8
0
  6
CONTINUOUS
 62
     8
 10
13.1284797348
 20
0.1658174138
 30
0.0
  0
VERTEX
  5
4FF
  8
0
  6
CONTINUOUS
 62
     8
 10
13.2306518856
 20
0.2099728281
 30
0.0
  0
VERTEX
  5
500
  8
0
  6
CONTINUOUS
 62
     8
 10
13.3297972329
 20
0.2599896417
 30
0.0
  0
VERTEX
  5
501
  8
0
  6
CONTINUOUS
 62
     8
 10
13.4257130724
 20
0.3158617315
 30
0.0
  0
VERTEX
  5
502
  8
0
  6
CONTINUOUS
 62
     8
 10
13.5181966996
 20
0.3775829744
 30
0.0
  0
VERTEX
  5
503
  8
0
  6
CONTINUOUS
 62
     8
 10
13.6070454102
 20
0.4451472473
 30
0.0
  0
VERTEX
  5
504
  8
0
  6
CONTINUOUS
 62
     8
 10
13.6920564996
 20
0.5185484271
 30
0.0
  0
VERTEX
  5
505
  8
0
  6
CONTINUOUS
 62
     8
 10
13.7730272637
 20
0.5977803906
 30
0.0
  0
VERTEX
  5
506
  8
0
  6
CONTINUOUS
 62
     8
 10
13.8497549979
 20
0.6828370147
 30
0.0
  0
VERTEX
  5
507
  8
0
  6
CONTINUOUS
 62
     8
 10
13.9220369979
 20
0.7737121763
 30
0.0
  0
VERTEX
  5
508
  8
0
  6
CONTINUOUS
 62
     8
 10
13.9896705592
 20
0.8703997523
 30
0.0
  0
VERTEX
  5
509
  8
0
  6
CONTINUOUS
 62
     8
 10
14.0524529775
 20
0.9728936195
 30
0.0
  0
VERTEX
  5
50A
  8
0
  6
CONTINUOUS
 62
     8
 10
14.1101815484
 20
1.0811876549
 30
0.0
  0
VERTEX
  5
50B
  8
0
  6
CONTINUOUS
 62
     8
 10
14.1626535675
 20
1.1952757354
 30
0.0
  0
VERTEX
  5
50C
  8
0
  6
CONTINUOUS
 62
     8
 10
14.2096663303
 20
1.3151517377
 30
0.0
  0
VERTEX
  5
50D
  8
0
  6
CONTINUOUS
 62
     8
 10
14.2510171326
 20
1.4408095388
 30
0.0
  0
VERTEX
  5
50E
  8
0
  6
CONTINUOUS
 62
     8
 10
14.2865032699
 20
1.5722430156
 30
0.0
  0
VERTEX
  5
50F
  8
0
  6
CONTINUOUS
 62
     8
 10
14.3159220378
 20
1.7094460449
 30
0.0
  0
SEQEND
  5
B7B
  8
0
  6
CONTINUOUS
 62
     8
  0
POLYLINE
  5
DF
  8
0
  6
CONTINUOUS
 62
     8
 66
     1
 10
0.0
 20
0.0
 30
0.0
  0
VERTEX
  5
510
  8
0
  6
CONTINUOUS
 62
     8
 10
31.7470854492
 20
3.6313132324
 30
0.0
  0
VERTEX
  5
511
  8
0
  6
CONTINUOUS
 62
     8
 10
31.6952892961
 20
3.742609744
 30
0.0
  0
VERTEX
  5
512
  8
0
  6
CONTINUOUS
 62
     8
 10
31.640151378
 20
3.8464207719
 30
0.0
  0
VERTEX
  5
513
  8
0
  6
CONTINUOUS
 62
     8
 10
31.5819016325
 20
3.9429892581
 30
0.0
  0
VERTEX
  5
514
  8
0
  6
CONTINUOUS
 62
     8
 10
31.5207699973
 20
4.0325581447
 30
0.0
  0
VERTEX
  5
515
  8
0
  6
CONTINUOUS
 62
     8
 10
31.4569864102
 20
4.1153703735
 30
0.0
  0
VERTEX
  5
516
  8
0
  6
CONTINUOUS
 62
     8
 10
31.3907808088
 20
4.1916688868
 30
0.0
  0
VERTEX
  5
517
  8
0
  6
CONTINUOUS
 62
     8
 10
31.3223831308
 20
4.2616966265
 30
0.0
  0
VERTEX
  5
518
  8
0
  6
CONTINUOUS
 62
     8
 10
31.2520233139
 20
4.3256965347
 30
0.0
  0
VERTEX
  5
519
  8
0
  6
CONTINUOUS
 62
     8
 10
31.1799312959
 20
4.3839115534
 30
0.0
  0
VERTEX
  5
51A
  8
0
  6
CONTINUOUS
 62
     8
 10
31.1063370143
 20
4.4365846246
 30
0.0
  0
VERTEX
  5
51B
  8
0
  6
CONTINUOUS
 62
     8
 10
31.031470407
 20
4.4839586903
 30
0.0
  0
VERTEX
  5
51C
  8
0
  6
CONTINUOUS
 62
     8
 10
30.9555614115
 20
4.5262766927
 30
0.0
  0
VERTEX
  5
51D
  8
0
  6
CONTINUOUS
 62
     8
 10
30.8788399657
 20
4.5637815737
 30
0.0
  0
VERTEX
  5
51E
  8
0
  6
CONTINUOUS
 62
     8
 10
30.8015360071
 20
4.5967162753
 30
0.0
  0
VERTEX
  5
51F
  8
0
  6
CONTINUOUS
 62
     8
 10
30.7238794735
 20
4.6253237397
 30
0.0
  0
VERTEX
  5
520
  8
0
  6
CONTINUOUS
 62
     8
 10
30.6461003026
 20
4.6498469088
 30
0.0
  0
VERTEX
  5
521
  8
0
  6
CONTINUOUS
 62
     8
 10
30.5684284321
 20
4.6705287246
 30
0.0
  0
VERTEX
  5
522
  8
0
  6
CONTINUOUS
 62
     8
 10
30.4910937996
 20
4.6876121292
 30
0.0
  0
VERTEX
  5
523
  8
0
  6
CONTINUOUS
 62
     8
 10
30.4143263429
 20
4.7013400647
 30
0.0
  0
VERTEX
  5
524
  8
0
  6
CONTINUOUS
 62
     8
 10
30.3383559996
 20
4.711955473
 30
0.0
  0
VERTEX
  5
525
  8
0
  6
CONTINUOUS
 62
     8
 10
30.2634127075
 20
4.7197012962
 30
0.0
  0
VERTEX
  5
526
  8
0
  6
CONTINUOUS
 62
     8
 10
30.1897264042
 20
4.7248204763
 30
0.0
  0
VERTEX
  5
527
  8
0
  6
CONTINUOUS
 62
     8
 10
30.1175270275
 20
4.7275559554
 30
0.0
  0
VERTEX
  5
528
  8
0
  6
CONTINUOUS
 62
     8
 10
30.047044515
 20
4.7281506755
 30
0.0
  0
SEQEND
  5
B7C
  8
0
  6
CONTINUOUS
 62
     8
  0
POLYLINE
  5
E0
  8
0
  6
CONTINUOUS
 62
     8
 66
     1
 10
0.0
 20
0.0
 30
0.0
  0
VERTEX
  5
529
  8
0
  6
CONTINUOUS
 62
     8
 10
29.9746251628
 20
4.1021062012
 30
0.0
  0
VERTEX
  5
52A
  8
0
  6
CONTINUOUS
 62
     8
 10
30.038004799
 20
4.1010992786
 30
0.0
  0
VERTEX
  5
52B
  8
0
  6
CONTINUOUS
 62
     8
 10
30.10007228
 20
4.0985140492
 30
0.0
  0
VERTEX
  5
52C
  8
0
  6
CONTINUOUS
 62
     8
 10
30.1607862601
 20
4.0943236295
 30
0.0
  0
VERTEX
  5
52D
  8
0
  6
CONTINUOUS
 62
     8
 10
30.2201053938
 20
4.0885011363
 30
0.0
  0
VERTEX
  5
52E
  8
0
  6
CONTINUOUS
 62
     8
 10
30.2779883353
 20
4.0810196861
 30
0.0
  0
VERTEX
  5
52F
  8
0
  6
CONTINUOUS
 62
     8
 10
30.3343937391
 20
4.0718523954
 30
0.0
  0
VERTEX
  5
530
  8
0
  6
CONTINUOUS
 62
     8
 10
30.3892802594
 20
4.0609723809
 30
0.0
  0
VERTEX
  5
531
  8
0
  6
CONTINUOUS
 62
     8
 10
30.4426065508
 20
4.0483527591
 30
0.0
  0
VERTEX
  5
532
  8
0
  6
CONTINUOUS
 62
     8
 10
30.4943312675
 20
4.0339666467
 30
0.0
  0
VERTEX
  5
533
  8
0
  6
CONTINUOUS
 62
     8
 10
30.5444130639
 20
4.0177871602
 30
0.0
  0
VERTEX
  5
534
  8
0
  6
CONTINUOUS
 62
     8
 10
30.5928105945
 20
3.9997874162
 30
0.0
  0
VERTEX
  5
535
  8
0
  6
CONTINUOUS
 62
     8
 10
30.6394825134
 20
3.9799405314
 30
0.0
  0
VERTEX
  5
536
  8
0
  6
CONTINUOUS
 62
     8
 10
30.6843874752
 20
3.9582196223
 30
0.0
  0
VERTEX
  5
537
  8
0
  6
CONTINUOUS
 62
     8
 10
30.7274841342
 20
3.9345978055
 30
0.0
  0
VERTEX
  5
538
  8
0
  6
CONTINUOUS
 62
     8
 10
30.7687311447
 20
3.9090481976
 30
0.0
  0
VERTEX
  5
539
  8
0
  6
CONTINUOUS
 62
     8
 10
30.8080871612
 20
3.8815439152
 30
0.0
  0
VERTEX
  5
53A
  8
0
  6
CONTINUOUS
 62
     8
 10
30.845510838
 20
3.8520580748
 30
0.0
  0
VERTEX
  5
53B
  8
0
  6
CONTINUOUS
 62
     8
 10
30.8809608294
 20
3.8205637932
 30
0.0
  0
VERTEX
  5
53C
  8
0
  6
CONTINUOUS
 62
     8
 10
30.9143957899
 20
3.7870341868
 30
0.0
  0
VERTEX
  5
53D
  8
0
  6
CONTINUOUS
 62
     8
 10
30.9457743737
 20
3.7514423723
 30
0.0
  0
VERTEX
  5
53E
  8
0
  6
CONTINUOUS
 62
     8
 10
30.9750552354
 20
3.7137614662
 30
0.0
  0
VERTEX
  5
53F
  8
0
  6
CONTINUOUS
 62
     8
 10
31.0021970292
 20
3.6739645852
 30
0.0
  0
VERTEX
  5
540
  8
0
  6
CONTINUOUS
 62
     8
 10
31.0271584094
 20
3.6320248458
 30
0.0
  0
VERTEX
  5
541
  8
0
  6
CONTINUOUS
 62
     8
 10
31.0498980306
 20
3.5879153646
 30
0.0
  0
SEQEND
  5
B7D
  8
0
  6
CONTINUOUS
 62
     8
  0
POLYLINE
  5
E1
  8
0
  6
CONTINUOUS
 62
     8
 66
     1
 10
0.0
 20
0.0
 30
0.0
  0
VERTEX
  5
542
  8
0
  6
CONTINUOUS
 62
     8
 10
24.0318044434
 20
1.3032796224
 30
0.0
  0
VERTEX
  5
543
  8
0
  6
CONTINUOUS
 62
     8
 10
24.0659807969
 20
1.2032003342
 30
0.0
  0
VERTEX
  5
544
  8
0
  6
CONTINUOUS
 62
     8
 10
24.1050739566
 20
1.1069376735
 30
0.0
  0
VERTEX
  5
545
  8
0
  6
CONTINUOUS
 62
     8
 10
24.1488545097
 20
1.0145196317
 30
0.0
  0
VERTEX
  5
546
  8
0
  6
CONTINUOUS
 62
     8
 10
24.1970930432
 20
0.9259742002
 30
0.0
  0
VERTEX
  5
547
  8
0
  6
CONTINUOUS
 62
     8
 10
24.2495601443
 20
0.8413293704
 30
0.0
  0
VERTEX
  5
548
  8
0
  6
CONTINUOUS
 62
     8
 10
24.3060264002
 20
0.7606131337
 30
0.0
  0
VERTEX
  5
549
  8
0
  6
CONTINUOUS
 62
     8
 10
24.3662623981
 20
0.6838534816
 30
0.0
  0
VERTEX
  5
54A
  8
0
  6
CONTINUOUS
 62
     8
 10
24.4300387249
 20
0.6110784053
 30
0.0
  0
VERTEX
  5
54B
  8
0
  6
CONTINUOUS
 62
     8
 10
24.497125968
 20
0.5423158964
 30
0.0
  0
VERTEX
  5
54C
  8
0
  6
CONTINUOUS
 62
     8
 10
24.5672947144
 20
0.4775939461
 30
0.0
  0
VERTEX
  5
54D
  8
0
  6
CONTINUOUS
 62
     8
 10
24.6403155513
 20
0.416940546
 30
0.0
  0
VERTEX
  5
54E
  8
0
  6
CONTINUOUS
 62
     8
 10
24.7159590658
 20
0.3603836873
 30
0.0
  0
VERTEX
  5
54F
  8
0
  6
CONTINUOUS
 62
     8
 10
24.793995845
 20
0.3079513616
 30
0.0
  0
VERTEX
  5
550
  8
0
  6
CONTINUOUS
 62
     8
 10
24.8741964762
 20
0.2596715602
 30
0.0
  0
VERTEX
  5
551
  8
0
  6
CONTINUOUS
 62
     8
 10
24.9563315465
 20
0.2155722745
 30
0.0
  0
VERTEX
  5
552
  8
0
  6
CONTINUOUS
 62
     8
 10
25.0401716429
 20
0.1756814959
 30
0.0
  0
VERTEX
  5
553
  8
0
  6
CONTINUOUS
 62
     8
 10
25.1254873527
 20
0.1400272159
 30
0.0
  0
VERTEX
  5
554
  8
0
  6
CONTINUOUS
 62
     8
 10
25.212049263
 20
0.1086374257
 30
0.0
  0
VERTEX
  5
555
  8
0
  6
CONTINUOUS
 62
     8
 10
25.2996279609
 20
0.0815401169
 30
0.0
  0
VERTEX
  5
556
  8
0
  6
CONTINUOUS
 62
     8
 10
25.3879940336
 20
0.0587632808
 30
0.0
  0
VERTEX
  5
557
  8
0
  6
CONTINUOUS
 62
     8
 10
25.4769180683
 20
0.0403349088
 30
0.0
  0
VERTEX
  5
558
  8
0
  6
CONTINUOUS
 62
     8
 10
25.5661706519
 20
0.0262829923
 30
0.0
  0
VERTEX
  5
559
  8
0
  6
CONTINUOUS
 62
     8
 10
25.6555223718
 20
0.0166355228
 30
0.0
  0
VERTEX
  5
55A
  8
0
  6
CONTINUOUS
 62
     8
 10
25.7447438151
 20
0.0114204915
 30
0.0
  0
SEQEND
  5
B7E
  8
0
  6
CONTINUOUS
 62
     8
  0
POLYLINE
  5
E2
  8
0
  6
CONTINUOUS
 62
     8
 66
     1
 10
0.0
 20
0.0
 30
0.0
  0
VERTEX
  5
55B
  8
0
  6
CONTINUOUS
 62
     8
 10
19.1486038005
 20
2.3953473307
 30
0.0
  0
VERTEX
  5
55C
  8
0
  6
CONTINUOUS
 62
     8
 10
19.140224978
 20
2.5573002595
 30
0.0
  0
VERTEX
  5
55D
  8
0
  6
CONTINUOUS
 62
     8
 10
19.1253377757
 20
2.7160134752
 30
0.0
  0
VERTEX
  5
55E
  8
0
  6
CONTINUOUS
 62
     8
 10
19.1039236203
 20
2.8711611695
 30
0.0
  0
VERTEX
  5
55F
  8
0
  6
CONTINUOUS
 62
     8
 10
19.0759639382
 20
3.0224175343
 30
0.0
  0
VERTEX
  5
560
  8
0
  6
CONTINUOUS
 62
     8
 10
19.041440156
 20
3.1694567614
 30
0.0
  0
VERTEX
  5
561
  8
0
  6
CONTINUOUS
 62
     8
 10
19.0003337002
 20
3.3119530423
 30
0.0
  0
VERTEX
  5
562
  8
0
  6
CONTINUOUS
 62
     8
 10
18.9526259973
 20
3.449580569
 30
0.0
  0
VERTEX
  5
563
  8
0
  6
CONTINUOUS
 62
     8
 10
18.898298474
 20
3.5820135332
 30
0.0
  0
VERTEX
  5
564
  8
0
  6
CONTINUOUS
 62
     8
 10
18.8373325566
 20
3.7089261266
 30
0.0
  0
VERTEX
  5
565
  8
0
  6
CONTINUOUS
 62
     8
 10
18.7697096719
 20
3.829992541
 30
0.0
  0
VERTEX
  5
566
  8
0
  6
CONTINUOUS
 62
     8
 10
18.6954112462
 20
3.9448869682
 30
0.0
  0
VERTEX
  5
567
  8
0
  6
CONTINUOUS
 62
     8
 10
18.6144187063
 20
4.0532835999
 30
0.0
  0
VERTEX
  5
568
  8
0
  6
CONTINUOUS
 62
     8
 10
18.5267134785
 20
4.1548566278
 30
0.0
  0
VERTEX
  5
569
  8
0
  6
CONTINUOUS
 62
     8
 10
18.4322769894
 20
4.2492802437
 30
0.0
  0
VERTEX
  5
56A
  8
0
  6
CONTINUOUS
 62
     8
 10
18.3310906656
 20
4.3362286394
 30
0.0
  0
VERTEX
  5
56B
  8
0
  6
CONTINUOUS
 62
     8
 10
18.2231359336
 20
4.4153760067
 30
0.0
  0
VERTEX
  5
56C
  8
0
  6
CONTINUOUS
 62
     8
 10
18.1083942199
 20
4.4863965373
 30
0.0
  0
VERTEX
  5
56D
  8
0
  6
CONTINUOUS
 62
     8
 10
17.9868469512
 20
4.5489644229
 30
0.0
  0
VERTEX
  5
56E
  8
0
  6
CONTINUOUS
 62
     8
 10
17.8584755538
 20
4.6027538553
 30
0.0
  0
VERTEX
  5
56F
  8
0
  6
CONTINUOUS
 62
     8
 10
17.7232614545
 20
4.6474390263
 30
0.0
  0
VERTEX
  5
570
  8
0
  6
CONTINUOUS
 62
     8
 10
17.5811860796
 20
4.6826941276
 30
0.0
  0
VERTEX
  5
571
  8
0
  6
CONTINUOUS
 62
     8
 10
17.4322308558
 20
4.7081933509
 30
0.0
  0
VERTEX
  5
572
  8
0
  6
CONTINUOUS
 62
     8
 10
17.2763772095
 20
4.7236108882
 30
0.0
  0
VERTEX
  5
573
  8
0
  6
CONTINUOUS
 62
     8
 10
17.1136065674
 20
4.728620931
 30
0.0
  0
SEQEND
  5
B7F
  8
0
  6
CONTINUOUS
 62
     8
  0
POLYLINE
  5
E3
  8
0
  6
CONTINUOUS
 62
     8
 66
     1
 10
0.0
 20
0.0
 30
0.0
  0
VERTEX
  5
574
  8
0
  6
CONTINUOUS
 62
     8
 10
24.1912882487
 20
3.4546986898
 30
0.0
  0
VERTEX
  5
575
  8
0
  6
CONTINUOUS
 62
     8
 10
24.1945860925
 20
3.3445073574
 30
0.0
  0
VERTEX
  5
576
  8
0
  6
CONTINUOUS
 62
     8
 10
24.2048649334
 20
3.2413745524
 30
0.0
  0
VERTEX
  5
577
  8
0
  6
CONTINUOUS
 62
     8
 10
24.221795814
 20
3.1450313532
 30
0.0
  0
VERTEX
  5
578
  8
0
  6
CONTINUOUS
 62
     8
 10
24.2450497772
 20
3.0552088384
 30
0.0
  0
VERTEX
  5
579
  8
0
  6
CONTINUOUS
 62
     8
 10
24.2742978656
 20
2.9716380863
 30
0.0
  0
VERTEX
  5
57A
  8
0
  6
CONTINUOUS
 62
     8
 10
24.3092111219
 20
2.8940501753
 30
0.0
  0
VERTEX
  5
57B
  8
0
  6
CONTINUOUS
 62
     8
 10
24.3494605889
 20
2.8221761841
 30
0.0
  0
VERTEX
  5
57C
  8
0
  6
CONTINUOUS
 62
     8
 10
24.3947173093
 20
2.7557471909
 30
0.0
  0
VERTEX
  5
57D
  8
0
  6
CONTINUOUS
 62
     8
 10
24.4446523258
 20
2.6944942742
 30
0.0
  0
VERTEX
  5
57E
  8
0
  6
CONTINUOUS
 62
     8
 10
24.4989366812
 20
2.6381485125
 30
0.0
  0
VERTEX
  5
57F
  8
0
  6
CONTINUOUS
 62
     8
 10
24.5572414181
 20
2.5864409843
 30
0.0
  0
VERTEX
  5
580
  8
0
  6
CONTINUOUS
 62
     8
 10
24.6192375793
 20
2.5391027679
 30
0.0
  0
VERTEX
  5
581
  8
0
  6
CONTINUOUS
 62
     8
 10
24.6845962076
 20
2.4958649419
 30
0.0
  0
VERTEX
  5
582
  8
0
  6
CONTINUOUS
 62
     8
 10
24.7529883456
 20
2.4564585847
 30
0.0
  0
VERTEX
  5
583
  8
0
  6
CONTINUOUS
 62
     8
 10
24.8240850361
 20
2.4206147746
 30
0.0
  0
VERTEX
  5
584
  8
0
  6
CONTINUOUS
 62
     8
 10
24.8975573218
 20
2.3880645903
 30
0.0
  0
VERTEX
  5
585
  8
0
  6
CONTINUOUS
 62
     8
 10
24.9730762454
 20
2.35853911
 30
0.0
  0
VERTEX
  5
586
  8
0
  6
CONTINUOUS
 62
     8
 10
25.0503128497
 20
2.3317694124
 30
0.0
  0
VERTEX
  5
587
  8
0
  6
CONTINUOUS
 62
     8
 10
25.1289381773
 20
2.3074865757
 30
0.0
  0
VERTEX
  5
588
  8
0
  6
CONTINUOUS
 62
     8
 10
25.208623271
 20
2.2854216785
 30
0.0
  0
VERTEX
  5
589
  8
0
  6
CONTINUOUS
 62
     8
 10
25.2890391736
 20
2.2653057992
 30
0.0
  0
VERTEX
  5
58A
  8
0
  6
CONTINUOUS
 62
     8
 10
25.3698569277
 20
2.2468700163
 30
0.0
  0
VERTEX
  5
58B
  8
0
  6
CONTINUOUS
 62
     8
 10
25.4507475761
 20
2.2298454082
 30
0.0
  0
VERTEX
  5
58C
  8
0
  6
CONTINUOUS
 62
     8
 10
25.5313821615
 20
2.2139630534
 30
0.0
  0
SEQEND
  5
B80
  8
0
  6
CONTINUOUS
 62
     8
  0
POLYLINE
  5
E4
  8
0
  6
CONTINUOUS
 62
     8
 66
     1
 10
0.0
 20
0.0
 30
0.0
  0
VERTEX
  5
58D
  8
0
  6
CONTINUOUS
 62
     8
 10
26.7779624023
 20
1.4143942871
 30
0.0
  0
VERTEX
  5
58E
  8
0
  6
CONTINUOUS
 62
     8
 10
26.7751797364
 20
1.3340504624
 30
0.0
  0
VERTEX
  5
58F
  8
0
  6
CONTINUOUS
 62
     8
 10
26.767079579
 20
1.258876008
 30
0.0
  0
VERTEX
  5
590
  8
0
  6
CONTINUOUS
 62
     8
 10
26.7539329219
 20
1.1887065326
 30
0.0
  0
VERTEX
  5
591
  8
0
  6
CONTINUOUS
 62
     8
 10
26.7360107569
 20
1.1233776452
 30
0.0
  0
VERTEX
  5
592
  8
0
  6
CONTINUOUS
 62
     8
 10
26.7135840757
 20
1.0627249546
 30
0.0
  0
VERTEX
  5
593
  8
0
  6
CONTINUOUS
 62
     8
 10
26.6869238701
 20
1.0065840696
 30
0.0
  0
VERTEX
  5
594
  8
0
  6
CONTINUOUS
 62
     8
 10
26.6563011318
 20
0.954790599
 30
0.0
  0
VERTEX
  5
595
  8
0
  6
CONTINUOUS
 62
     8
 10
26.6219868526
 20
0.9071801517
 30
0.0
  0
VERTEX
  5
596
  8
0
  6
CONTINUOUS
 62
     8
 10
26.5842520242
 20
0.8635883365
 30
0.0
  0
VERTEX
  5
597
  8
0
  6
CONTINUOUS
 62
     8
 10
26.5433676383
 20
0.8238507622
 30
0.0
  0
VERTEX
  5
598
  8
0
  6
CONTINUOUS
 62
     8
 10
26.4996046868
 20
0.7878030377
 30
0.0
  0
VERTEX
  5
599
  8
0
  6
CONTINUOUS
 62
     8
 10
26.4532341614
 20
0.7552807719
 30
0.0
  0
VERTEX
  5
59A
  8
0
  6
CONTINUOUS
 62
     8
 10
26.4045270537
 20
0.7261195735
 30
0.0
  0
VERTEX
  5
59B
  8
0
  6
CONTINUOUS
 62
     8
 10
26.3537543557
 20
0.7001550514
 30
0.0
  0
VERTEX
  5
59C
  8
0
  6
CONTINUOUS
 62
     8
 10
26.3011870589
 20
0.6772228144
 30
0.0
  0
VERTEX
  5
59D
  8
0
  6
CONTINUOUS
 62
     8
 10
26.2470961552
 20
0.6571584714
 30
0.0
  0
VERTEX
  5
59E
  8
0
  6
CONTINUOUS
 62
     8
 10
26.1917526364
 20
0.6397976312
 30
0.0
  0
VERTEX
  5
59F
  8
0
  6
CONTINUOUS
 62
     8
 10
26.135427494
 20
0.6249759026
 30
0.0
  0
VERTEX
  5
5A0
  8
0
  6
CONTINUOUS
 62
     8
 10
26.07839172
 20
0.6125288944
 30
0.0
  0
VERTEX
  5
5A1
  8
0
  6
CONTINUOUS
 62
     8
 10
26.0209163061
 20
0.6022922156
 30
0.0
  0
VERTEX
  5
5A2
  8
0
  6
CONTINUOUS
 62
     8
 10
25.963272244
 20
0.5941014749
 30
0.0
  0
VERTEX
  5
5A3
  8
0
  6
CONTINUOUS
 62
     8
 10
25.9057305254
 20
0.5877922812
 30
0.0
  0
VERTEX
  5
5A4
  8
0
  6
CONTINUOUS
 62
     8
 10
25.8485621421
 20
0.5832002433
 30
0.0
  0
VERTEX
  5
5A5
  8
0
  6
CONTINUOUS
 62
     8
 10
25.7920380859
 20
0.5801609701
 30
0.0
  0
SEQEND
  5
B81
  8
0
  6
CONTINUOUS
 62
     8
  0
POLYLINE
  5
E5
  8
0
  6
CONTINUOUS
 62
     8
 66
     1
 10
0.0
 20
0.0
 30
0.0
  0
VERTEX
  5
5A6
  8
0
  6
CONTINUOUS
 62
     8
 10
17.1480695801
 20
0.0221691895
 30
0.0
  0
VERTEX
  5
5A7
  8
0
  6
CONTINUOUS
 62
     8
 10
17.1492118917
 20
0.0221651074
 30
0.0
  0
VERTEX
  5
5A8
  8
0
  6
CONTINUOUS
 62
     8
 10
17.1503879679
 20
0.0221533277
 30
0.0
  0
VERTEX
  5
5A9
  8
0
  6
CONTINUOUS
 62
     8
 10
17.1515972838
 20
0.0221345501
 30
0.0
  0
VERTEX
  5
5AA
  8
0
  6
CONTINUOUS
 62
     8
 10
17.1528393148
 20
0.0221094745
 30
0.0
  0
VERTEX
  5
5AB
  8
0
  6
CONTINUOUS
 62
     8
 10
17.1541135358
 20
0.0220788006
 30
0.0
  0
VERTEX
  5
5AC
  8
0
  6
CONTINUOUS
 62
     8
 10
17.1554194221
 20
0.0220432281
 30
0.0
  0
VERTEX
  5
5AD
  8
0
  6
CONTINUOUS
 62
     8
 10
17.1567564489
 20
0.022003457
 30
0.0
  0
VERTEX
  5
5AE
  8
0
  6
CONTINUOUS
 62
     8
 10
17.1581240913
 20
0.021960187
 30
0.0
  0
VERTEX
  5
5AF
  8
0
  6
CONTINUOUS
 62
     8
 10
17.1595218244
 20
0.0219141178
 30
0.0
  0
VERTEX
  5
5B0
  8
0
  6
CONTINUOUS
 62
     8
 10
17.1609491234
 20
0.0218659493
 30
0.0
  0
VERTEX
  5
5B1
  8
0
  6
CONTINUOUS
 62
     8
 10
17.1624054635
 20
0.0218163812
 30
0.0
  0
VERTEX
  5
5B2
  8
0
  6
CONTINUOUS
 62
     8
 10
17.1638903198
 20
0.0217661133
 30
0.0
  0
VERTEX
  5
5B3
  8
0
  6
CONTINUOUS
 62
     8
 10
17.1654031676
 20
0.0217158454
 30
0.0
  0
VERTEX
  5
5B4
  8
0
  6
CONTINUOUS
 62
     8
 10
17.1669434819
 20
0.0216662773
 30
0.0
  0
VERTEX
  5
5B5
  8
0
  6
CONTINUOUS
 62
     8
 10
17.1685107379
 20
0.0216181087
 30
0.0
  0
VERTEX
  5
5B6
  8
0
  6
CONTINUOUS
 62
     8
 10
17.1701044108
 20
0.0215720396
 30
0.0
  0
VERTEX
  5
5B7
  8
0
  6
CONTINUOUS
 62
     8
 10
17.1717239758
 20
0.0215287695
 30
0.0
  0
VERTEX
  5
5B8
  8
0
  6
CONTINUOUS
 62
     8
 10
17.1733689079
 20
0.0214889984
 30
0.0
  0
VERTEX
  5
5B9
  8
0
  6
CONTINUOUS
 62
     8
 10
17.1750386825
 20
0.021453426
 30
0.0
  0
VERTEX
  5
5BA
  8
0
  6
CONTINUOUS
 62
     8
 10
17.1767327745
 20
0.0214227521
 30
0.0
  0
VERTEX
  5
5BB
  8
0
  6
CONTINUOUS
 62
     8
 10
17.1784506593
 20
0.0213976765
 30
0.0
  0
VERTEX
  5
5BC
  8
0
  6
CONTINUOUS
 62
     8
 10
17.1801918119
 20
0.0213788989
 30
0.0
  0
VERTEX
  5
5BD
  8
0
  6
CONTINUOUS
 62
     8
 10
17.1819557075
 20
0.0213671192
 30
0.0
  0
VERTEX
  5
5BE
  8
0
  6
CONTINUOUS
 62
     8
 10
17.1837418213
 20
0.0213630371
 30
0.0
  0
SEQEND
  5
B82
  8
0
  6
CONTINUOUS
 62
     8
  0
POLYLINE
  5
E6
  8
0
  6
CONTINUOUS
 62
     8
 66
     1
 10
0.0
 20
0.0
 30
0.0
  0
VERTEX
  5
5BF
  8
0
  6
CONTINUOUS
 62
     8
 10
28.547869873
 20
2.3749248047
 30
0.0
  0
VERTEX
  5
5C0
  8
0
  6
CONTINUOUS
 62
     8
 10
28.5518754619
 20
2.5188208404
 30
0.0
  0
VERTEX
  5
5C1
  8
0
  6
CONTINUOUS
 62
     8
 10
28.5629182056
 20
2.6561875319
 30
0.0
  0
VERTEX
  5
5C2
  8
0
  6
CONTINUOUS
 62
     8
 10
28.5806959136
 20
2.7870623178
 30
0.0
  0
VERTEX
  5
5C3
  8
0
  6
CONTINUOUS
 62
     8
 10
28.6049063954
 20
2.9114826366
 30
0.0
  0
VERTEX
  5
5C4
  8
0
  6
CONTINUOUS
 62
     8
 10
28.6352474605
 20
3.0294859268
 30
0.0
  0
VERTEX
  5
5C5
  8
0
  6
CONTINUOUS
 62
     8
 10
28.6714169184
 20
3.1411096268
 30
0.0
  0
VERTEX
  5
5C6
  8
0
  6
CONTINUOUS
 62
     8
 10
28.7131125787
 20
3.2463911751
 30
0.0
  0
VERTEX
  5
5C7
  8
0
  6
CONTINUOUS
 62
     8
 10
28.7600322507
 20
3.3453680103
 30
0.0
  0
VERTEX
  5
5C8
  8
0
  6
CONTINUOUS
 62
     8
 10
28.811873744
 20
3.4380775709
 30
0.0
  0
VERTEX
  5
5C9
  8
0
  6
CONTINUOUS
 62
     8
 10
28.8683348682
 20
3.5245572953
 30
0.0
  0
VERTEX
  5
5CA
  8
0
  6
CONTINUOUS
 62
     8
 10
28.9291134326
 20
3.6048446221
 30
0.0
  0
VERTEX
  5
5CB
  8
0
  6
CONTINUOUS
 62
     8
 10
28.9939072469
 20
3.6789769897
 30
0.0
  0
VERTEX
  5
5CC
  8
0
  6
CONTINUOUS
 62
     8
 10
29.0624141205
 20
3.7469918367
 30
0.0
  0
VERTEX
  5
5CD
  8
0
  6
CONTINUOUS
 62
     8
 10
29.1343318629
 20
3.8089266016
 30
0.0
  0
VERTEX
  5
5CE
  8
0
  6
CONTINUOUS
 62
     8
 10
29.2093582837
 20
3.8648187227
 30
0.0
  0
VERTEX
  5
5CF
  8
0
  6
CONTINUOUS
 62
     8
 10
29.2871911923
 20
3.9147056387
 30
0.0
  0
VERTEX
  5
5D0
  8
0
  6
CONTINUOUS
 62
     8
 10
29.3675283981
 20
3.9586247881
 30
0.0
  0
VERTEX
  5
5D1
  8
0
  6
CONTINUOUS
 62
     8
 10
29.4500677109
 20
3.9966136093
 30
0.0
  0
VERTEX
  5
5D2
  8
0
  6
CONTINUOUS
 62
     8
 10
29.5345069399
 20
4.0287095409
 30
0.0
  0
VERTEX
  5
5D3
  8
0
  6
CONTINUOUS
 62
     8
 10
29.6205438948
 20
4.0549500212
 30
0.0
  0
VERTEX
  5
5D4
  8
0
  6
CONTINUOUS
 62
     8
 10
29.7078763851
 20
4.075372489
 30
0.0
  0
VERTEX
  5
5D5
  8
0
  6
CONTINUOUS
 62
     8
 10
29.7962022201
 20
4.0900143825
 30
0.0
  0
VERTEX
  5
5D6
  8
0
  6
CONTINUOUS
 62
     8
 10
29.8852192095
 20
4.0989131404
 30
0.0
  0
VERTEX
  5
5D7
  8
0
  6
CONTINUOUS
 62
     8
 10
29.9746251628
 20
4.1021062012
 30
0.0
  0
SEQEND
  5
B83
  8
0
  6
CONTINUOUS
 62
     8
  0
POLYLINE
  5
E7
  8
0
  6
CONTINUOUS
 62
     8
 66
     1
 10
0.0
 20
0.0
 30
0.0
  0
VERTEX
  5
5D8
  8
0
  6
CONTINUOUS
 62
     8
 10
25.2234319661
 20
2.9417842611
 30
0.0
  0
VERTEX
  5
5D9
  8
0
  6
CONTINUOUS
 62
     8
 10
25.1948251044
 20
2.9551373742
 30
0.0
  0
VERTEX
  5
5DA
  8
0
  6
CONTINUOUS
 62
     8
 10
25.167258823
 20
2.9688070817
 30
0.0
  0
VERTEX
  5
5DB
  8
0
  6
CONTINUOUS
 62
     8
 10
25.1407478174
 20
2.982836362
 30
0.0
  0
VERTEX
  5
5DC
  8
0
  6
CONTINUOUS
 62
     8
 10
25.115306783
 20
2.9972681938
 30
0.0
  0
VERTEX
  5
5DD
  8
0
  6
CONTINUOUS
 62
     8
 10
25.0909504155
 20
3.0121455553
 30
0.0
  0
VERTEX
  5
5DE
  8
0
  6
CONTINUOUS
 62
     8
 10
25.0676934102
 20
3.027511425
 30
0.0
  0
VERTEX
  5
5DF
  8
0
  6
CONTINUOUS
 62
     8
 10
25.0455504627
 20
3.0434087815
 30
0.0
  0
VERTEX
  5
5E0
  8
0
  6
CONTINUOUS
 62
     8
 10
25.0245362684
 20
3.0598806032
 30
0.0
  0
VERTEX
  5
5E1
  8
0
  6
CONTINUOUS
 62
     8
 10
25.0046655229
 20
3.0769698685
 30
0.0
  0
VERTEX
  5
5E2
  8
0
  6
CONTINUOUS
 62
     8
 10
24.9859529215
 20
3.0947195559
 30
0.0
  0
VERTEX
  5
5E3
  8
0
  6
CONTINUOUS
 62
     8
 10
24.9684131599
 20
3.1131726439
 30
0.0
  0
VERTEX
  5
5E4
  8
0
  6
CONTINUOUS
 62
     8
 10
24.9520609334
 20
3.132372111
 30
0.0
  0
VERTEX
  5
5E5
  8
0
  6
CONTINUOUS
 62
     8
 10
24.9369109376
 20
3.1523609356
 30
0.0
  0
VERTEX
  5
5E6
  8
0
  6
CONTINUOUS
 62
     8
 10
24.922977868
 20
3.1731820961
 30
0.0
  0
VERTEX
  5
5E7
  8
0
  6
CONTINUOUS
 62
     8
 10
24.91027642
 20
3.194878571
 30
0.0
  0
VERTEX
  5
5E8
  8
0
  6
CONTINUOUS
 62
     8
 10
24.8988212891
 20
3.2174933389
 30
0.0
  0
VERTEX
  5
5E9
  8
0
  6
CONTINUOUS
 62
     8
 10
24.8886271708
 20
3.2410693781
 30
0.0
  0
VERTEX
  5
5EA
  8
0
  6
CONTINUOUS
 62
     8
 10
24.8797087606
 20
3.2656496671
 30
0.0
  0
VERTEX
  5
5EB
  8
0
  6
CONTINUOUS
 62
     8
 10
24.872080754
 20
3.2912771844
 30
0.0
  0
VERTEX
  5
5EC
  8
0
  6
CONTINUOUS
 62
     8
 10
24.8657578464
 20
3.3179949085
 30
0.0
  0
VERTEX
  5
5ED
  8
0
  6
CONTINUOUS
 62
     8
 10
24.8607547334
 20
3.3458458177
 30
0.0
  0
VERTEX
  5
5EE
  8
0
  6
CONTINUOUS
 62
     8
 10
24.8570861104
 20
3.3748728907
 30
0.0
  0
VERTEX
  5
5EF
  8
0
  6
CONTINUOUS
 62
     8
 10
24.854766673
 20
3.4051191057
 30
0.0
  0
VERTEX
  5
5F0
  8
0
  6
CONTINUOUS
 62
     8
 10
24.8538111165
 20
3.4366274414
 30
0.0
  0
SEQEND
  5
B84
  8
0
  6
CONTINUOUS
 62
     8
  0
POLYLINE
  5
E8
  8
0
  6
CONTINUOUS
 62
     8
 66
     1
 10
0.0
 20
0.0
 30
0.0
  0
VERTEX
  5
5F1
  8
0
  6
CONTINUOUS
 62
     8
 10
21.751401001
 20
4.1021062012
 30
0.0
  0
VERTEX
  5
5F2
  8
0
  6
CONTINUOUS
 62
     8
 10
21.8338708649
 20
4.0995195868
 30
0.0
  0
VERTEX
  5
5F3
  8
0
  6
CONTINUOUS
 62
     8
 10
21.9126890465
 20
4.094381702
 30
0.0
  0
VERTEX
  5
5F4
  8
0
  6
CONTINUOUS
 62
     8
 10
21.987873536
 20
4.0865191459
 30
0.0
  0
VERTEX
  5
5F5
  8
0
  6
CONTINUOUS
 62
     8
 10
22.0594423238
 20
4.0757585176
 30
0.0
  0
VERTEX
  5
5F6
  8
0
  6
CONTINUOUS
 62
     8
 10
22.1274134002
 20
4.0619264162
 30
0.0
  0
VERTEX
  5
5F7
  8
0
  6
CONTINUOUS
 62
     8
 10
22.1918047555
 20
4.0448494409
 30
0.0
  0
VERTEX
  5
5F8
  8
0
  6
CONTINUOUS
 62
     8
 10
22.25263438
 20
4.0243541907
 30
0.0
  0
VERTEX
  5
5F9
  8
0
  6
CONTINUOUS
 62
     8
 10
22.309920264
 20
4.0002672647
 30
0.0
  0
VERTEX
  5
5FA
  8
0
  6
CONTINUOUS
 62
     8
 10
22.3636803977
 20
3.972415262
 30
0.0
  0
VERTEX
  5
5FB
  8
0
  6
CONTINUOUS
 62
     8
 10
22.4139327716
 20
3.9406247817
 30
0.0
  0
VERTEX
  5
5FC
  8
0
  6
CONTINUOUS
 62
     8
 10
22.4606953759
 20
3.904722423
 30
0.0
  0
VERTEX
  5
5FD
  8
0
  6
CONTINUOUS
 62
     8
 10
22.503986201
 20
3.864534785
 30
0.0
  0
VERTEX
  5
5FE
  8
0
  6
CONTINUOUS
 62
     8
 10
22.543823237
 20
3.8198884666
 30
0.0
  0
VERTEX
  5
5FF
  8
0
  6
CONTINUOUS
 62
     8
 10
22.5802244744
 20
3.7706100671
 30
0.0
  0
VERTEX
  5
600
  8
0
  6
CONTINUOUS
 62
     8
 10
22.6132079035
 20
3.7165261856
 30
0.0
  0
VERTEX
  5
601
  8
0
  6
CONTINUOUS
 62
     8
 10
22.6427915145
 20
3.6574634211
 30
0.0
  0
VERTEX
  5
602
  8
0
  6
CONTINUOUS
 62
     8
 10
22.6689932977
 20
3.5932483728
 30
0.0
  0
VERTEX
  5
603
  8
0
  6
CONTINUOUS
 62
     8
 10
22.6918312435
 20
3.5237076397
 30
0.0
  0
VERTEX
  5
604
  8
0
  6
CONTINUOUS
 62
     8
 10
22.7113233422
 20
3.448667821
 30
0.0
  0
VERTEX
  5
605
  8
0
  6
CONTINUOUS
 62
     8
 10
22.7274875841
 20
3.3679555157
 30
0.0
  0
VERTEX
  5
606
  8
0
  6
CONTINUOUS
 62
     8
 10
22.7403419594
 20
3.2813973231
 30
0.0
  0
VERTEX
  5
607
  8
0
  6
CONTINUOUS
 62
     8
 10
22.7499044585
 20
3.188819842
 30
0.0
  0
VERTEX
  5
608
  8
0
  6
CONTINUOUS
 62
     8
 10
22.7561930718
 20
3.0900496718
 30
0.0
  0
VERTEX
  5
609
  8
0
  6
CONTINUOUS
 62
     8
 10
22.7592257894
 20
2.9849134115
 30
0.0
  0
SEQEND
  5
B85
  8
0
  6
CONTINUOUS
 62
     8
  0
POLYLINE
  5
E9
  8
0
  6
CONTINUOUS
 62
     8
 66
     1
 10
0.0
 20
0.0
 30
0.0
  0
VERTEX
  5
60A
  8
0
  6
CONTINUOUS
 62
     8
 10
6.2252427572
 20
2.3749248047
 30
0.0
  0
VERTEX
  5
60B
  8
0
  6
CONTINUOUS
 62
     8
 10
6.228756509
 20
2.509995385
 30
0.0
  0
VERTEX
  5
60C
  8
0
  6
CONTINUOUS
 62
     8
 10
6.2382388147
 20
2.6400481567
 30
0.0
  0
VERTEX
  5
60D
  8
0
  6
CONTINUOUS
 62
     8
 10
6.2535120164
 20
2.7650190897
 30
0.0
  0
VERTEX
  5
60E
  8
0
  6
CONTINUOUS
 62
     8
 10
6.2743984561
 20
2.8848441535
 30
0.0
  0
VERTEX
  5
60F
  8
0
  6
CONTINUOUS
 62
     8
 10
6.3007204761
 20
2.9994593178
 30
0.0
  0
VERTEX
  5
610
  8
0
  6
CONTINUOUS
 62
     8
 10
6.3323004182
 20
3.1088005524
 30
0.0
  0
VERTEX
  5
611
  8
0
  6
CONTINUOUS
 62
     8
 10
6.3689606247
 20
3.2128038268
 30
0.0
  0
VERTEX
  5
612
  8
0
  6
CONTINUOUS
 62
     8
 10
6.4105234375
 20
3.3114051107
 30
0.0
  0
VERTEX
  5
613
  8
0
  6
CONTINUOUS
 62
     8
 10
6.4568111988
 20
3.4045403738
 30
0.0
  0
VERTEX
  5
614
  8
0
  6
CONTINUOUS
 62
     8
 10
6.5076462506
 20
3.4921455858
 30
0.0
  0
VERTEX
  5
615
  8
0
  6
CONTINUOUS
 62
     8
 10
6.5628509351
 20
3.5741567163
 30
0.0
  0
VERTEX
  5
616
  8
0
  6
CONTINUOUS
 62
     8
 10
6.6222475942
 20
3.6505097351
 30
0.0
  0
VERTEX
  5
617
  8
0
  6
CONTINUOUS
 62
     8
 10
6.6856585701
 20
3.7211406118
 30
0.0
  0
VERTEX
  5
618
  8
0
  6
CONTINUOUS
 62
     8
 10
6.7529062049
 20
3.785985316
 30
0.0
  0
VERTEX
  5
619
  8
0
  6
CONTINUOUS
 62
     8
 10
6.8238128405
 20
3.8449798174
 30
0.0
  0
VERTEX
  5
61A
  8
0
  6
CONTINUOUS
 62
     8
 10
6.8982008192
 20
3.8980600857
 30
0.0
  0
VERTEX
  5
61B
  8
0
  6
CONTINUOUS
 62
     8
 10
6.975892483
 20
3.9451620906
 30
0.0
  0
VERTEX
  5
61C
  8
0
  6
CONTINUOUS
 62
     8
 10
7.0567101739
 20
3.9862218018
 30
0.0
  0
VERTEX
  5
61D
  8
0
  6
CONTINUOUS
 62
     8
 10
7.1404762341
 20
4.0211751888
 30
0.0
  0
VERTEX
  5
61E
  8
0
  6
CONTINUOUS
 62
     8
 10
7.2270130056
 20
4.0499582214
 30
0.0
  0
VERTEX
  5
61F
  8
0
  6
CONTINUOUS
 62
     8
 10
7.3161428305
 20
4.0725068693
 30
0.0
  0
VERTEX
  5
620
  8
0
  6
CONTINUOUS
 62
     8
 10
7.4076880508
 20
4.0887571021
 30
0.0
  0
VERTEX
  5
621
  8
0
  6
CONTINUOUS
 62
     8
 10
7.5014710087
 20
4.0986448895
 30
0.0
  0
VERTEX
  5
622
  8
0
  6
CONTINUOUS
 62
     8
 10
7.5973140462
 20
4.1021062012
 30
0.0
  0
SEQEND
  5
B86
  8
0
  6
CONTINUOUS
 62
     8
  0
POLYLINE
  5
EA
  8
0
  6
CONTINUOUS
 62
     8
 66
     1
 10
0.0
 20
0.0
 30
0.0
  0
VERTEX
  5
623
  8
0
  6
CONTINUOUS
 62
     8
 10
17.1885787354
 20
0.0213630371
 30
0.0
  0
VERTEX
  5
624
  8
0
  6
CONTINUOUS
 62
     8
 10
17.2962524551
 20
0.0239776089
 30
0.0
  0
VERTEX
  5
625
  8
0
  6
CONTINUOUS
 62
     8
 10
17.4025063984
 20
0.0317996309
 30
0.0
  0
VERTEX
  5
626
  8
0
  6
CONTINUOUS
 62
     8
 10
17.5071950977
 20
0.0447965631
 30
0.0
  0
VERTEX
  5
627
  8
0
  6
CONTINUOUS
 62
     8
 10
17.610173085
 20
0.0629358656
 30
0.0
  0
VERTEX
  5
628
  8
0
  6
CONTINUOUS
 62
     8
 10
17.7112948925
 20
0.0861849983
 30
0.0
  0
VERTEX
  5
629
  8
0
  6
CONTINUOUS
 62
     8
 10
17.8104150524
 20
0.1145114212
 30
0.0
  0
VERTEX
  5
62A
  8
0
  6
CONTINUOUS
 62
     8
 10
17.907388097
 20
0.1478825943
 30
0.0
  0
VERTEX
  5
62B
  8
0
  6
CONTINUOUS
 62
     8
 10
18.0020685583
 20
0.1862659776
 30
0.0
  0
VERTEX
  5
62C
  8
0
  6
CONTINUOUS
 62
     8
 10
18.0943109686
 20
0.2296290312
 30
0.0
  0
VERTEX
  5
62D
  8
0
  6
CONTINUOUS
 62
     8
 10
18.1839698601
 20
0.2779392149
 30
0.0
  0
VERTEX
  5
62E
  8
0
  6
CONTINUOUS
 62
     8
 10
18.270899765
 20
0.3311639889
 30
0.0
  0
VERTEX
  5
62F
  8
0
  6
CONTINUOUS
 62
     8
 10
18.3549552155
 20
0.389270813
 30
0.0
  0
VERTEX
  5
630
  8
0
  6
CONTINUOUS
 62
     8
 10
18.4359907436
 20
0.4522271473
 30
0.0
  0
VERTEX
  5
631
  8
0
  6
CONTINUOUS
 62
     8
 10
18.5138608817
 20
0.5200004518
 30
0.0
  0
VERTEX
  5
632
  8
0
  6
CONTINUOUS
 62
     8
 10
18.588420162
 20
0.5925581865
 30
0.0
  0
VERTEX
  5
633
  8
0
  6
CONTINUOUS
 62
     8
 10
18.6595231165
 20
0.6698678114
 30
0.0
  0
VERTEX
  5
634
  8
0
  6
CONTINUOUS
 62
     8
 10
18.7270242775
 20
0.7518967865
 30
0.0
  0
VERTEX
  5
635
  8
0
  6
CONTINUOUS
 62
     8
 10
18.7907781773
 20
0.8386125717
 30
0.0
  0
VERTEX
  5
636
  8
0
  6
CONTINUOUS
 62
     8
 10
18.8506393479
 20
0.9299826271
 30
0.0
  0
VERTEX
  5
637
  8
0
  6
CONTINUOUS
 62
     8
 10
18.9064623215
 20
1.0259744127
 30
0.0
  0
VERTEX
  5
638
  8
0
  6
CONTINUOUS
 62
     8
 10
18.9581016304
 20
1.1265553885
 30
0.0
  0
VERTEX
  5
639
  8
0
  6
CONTINUOUS
 62
     8
 10
19.0054118068
 20
1.2316930144
 30
0.0
  0
VERTEX
  5
63A
  8
0
  6
CONTINUOUS
 62
     8
 10
19.0482473828
 20
1.3413547504
 30
0.0
  0
VERTEX
  5
63B
  8
0
  6
CONTINUOUS
 62
     8
 10
19.0864628906
 20
1.4555080566
 30
0.0
  0
SEQEND
  5
B87
  8
0
  6
CONTINUOUS
 62
     8
  0
POLYLINE
  5
EB
  8
0
  6
CONTINUOUS
 62
     8
 66
     1
 10
0.0
 20
0.0
 30
0.0
  0
VERTEX
  5
63C
  8
0
  6
CONTINUOUS
 62
     8
 10
25.7627478841
 20
4.7161255697
 30
0.0
  0
VERTEX
  5
63D
  8
0
  6
CONTINUOUS
 62
     8
 10
25.7607296361
 20
4.7161201269
 30
0.0
  0
VERTEX
  5
63E
  8
0
  6
CONTINUOUS
 62
     8
 10
25.7587389712
 20
4.7161044206
 30
0.0
  0
VERTEX
  5
63F
  8
0
  6
CONTINUOUS
 62
     8
 10
25.7567754814
 20
4.7160793839
 30
0.0
  0
VERTEX
  5
640
  8
0
  6
CONTINUOUS
 62
     8
 10
25.7548387583
 20
4.7160459497
 30
0.0
  0
VERTEX
  5
641
  8
0
  6
CONTINUOUS
 62
     8
 10
25.7529283938
 20
4.7160050511
 30
0.0
  0
VERTEX
  5
642
  8
0
  6
CONTINUOUS
 62
     8
 10
25.7510439796
 20
4.7159576213
 30
0.0
  0
VERTEX
  5
643
  8
0
  6
CONTINUOUS
 62
     8
 10
25.7491851076
 20
4.7159045931
 30
0.0
  0
VERTEX
  5
644
  8
0
  6
CONTINUOUS
 62
     8
 10
25.7473513696
 20
4.7158468997
 30
0.0
  0
VERTEX
  5
645
  8
0
  6
CONTINUOUS
 62
     8
 10
25.7455423573
 20
4.7157854741
 30
0.0
  0
VERTEX
  5
646
  8
0
  6
CONTINUOUS
 62
     8
 10
25.7437576625
 20
4.7157212494
 30
0.0
  0
VERTEX
  5
647
  8
0
  6
CONTINUOUS
 62
     8
 10
25.741996877
 20
4.7156551586
 30
0.0
  0
VERTEX
  5
648
  8
0
  6
CONTINUOUS
 62
     8
 10
25.7402595927
 20
4.7155881348
 30
0.0
  0
VERTEX
  5
649
  8
0
  6
CONTINUOUS
 62
     8
 10
25.7385454012
 20
4.7155211109
 30
0.0
  0
VERTEX
  5
64A
  8
0
  6
CONTINUOUS
 62
     8
 10
25.7368538945
 20
4.7154550201
 30
0.0
  0
VERTEX
  5
64B
  8
0
  6
CONTINUOUS
 62
     8
 10
25.7351846642
 20
4.7153907954
 30
0.0
  0
VERTEX
  5
64C
  8
0
  6
CONTINUOUS
 62
     8
 10
25.7335373023
 20
4.7153293698
 30
0.0
  0
VERTEX
  5
64D
  8
0
  6
CONTINUOUS
 62
     8
 10
25.7319114004
 20
4.7152716764
 30
0.0
  0
VERTEX
  5
64E
  8
0
  6
CONTINUOUS
 62
     8
 10
25.7303065503
 20
4.7152186483
 30
0.0
  0
VERTEX
  5
64F
  8
0
  6
CONTINUOUS
 62
     8
 10
25.728722344
 20
4.7151712184
 30
0.0
  0
VERTEX
  5
650
  8
0
  6
CONTINUOUS
 62
     8
 10
25.727158373
 20
4.7151303199
 30
0.0
  0
VERTEX
  5
651
  8
0
  6
CONTINUOUS
 62
     8
 10
25.7256142294
 20
4.7150968857
 30
0.0
  0
VERTEX
  5
652
  8
0
  6
CONTINUOUS
 62
     8
 10
25.7240895047
 20
4.7150718489
 30
0.0
  0
VERTEX
  5
653
  8
0
  6
CONTINUOUS
 62
     8
 10
25.7225837909
 20
4.7150561426
 30
0.0
  0
VERTEX
  5
654
  8
0
  6
CONTINUOUS
 62
     8
 10
25.7210966797
 20
4.7150506999
 30
0.0
  0
SEQEND
  5
B88
  8
0
  6
CONTINUOUS
 62
     8
  0
POLYLINE
  5
EC
  8
0
  6
CONTINUOUS
 62
     8
 66
     1
 10
0.0
 20
0.0
 30
0.0
  0
VERTEX
  5
655
  8
0
  6
CONTINUOUS
 62
     8
 10
41.7684995931
 20
0.8538496908
 30
0.0
  0
VERTEX
  5
656
  8
0
  6
CONTINUOUS
 62
     8
 10
41.7688698085
 20
0.817129988
 30
0.0
  0
VERTEX
  5
657
  8
0
  6
CONTINUOUS
 62
     8
 10
41.7702380924
 20
0.7814676604
 30
0.0
  0
VERTEX
  5
658
  8
0
  6
CONTINUOUS
 62
     8
 10
41.7725878247
 20
0.7468550104
 30
0.0
  0
VERTEX
  5
659
  8
0
  6
CONTINUOUS
 62
     8
 10
41.7759023856
 20
0.7132843402
 30
0.0
  0
VERTEX
  5
65A
  8
0
  6
CONTINUOUS
 62
     8
 10
41.7801651552
 20
0.6807479523
 30
0.0
  0
VERTEX
  5
65B
  8
0
  6
CONTINUOUS
 62
     8
 10
41.7853595136
 20
0.649238149
 30
0.0
  0
VERTEX
  5
65C
  8
0
  6
CONTINUOUS
 62
     8
 10
41.7914688409
 20
0.6187472327
 30
0.0
  0
VERTEX
  5
65D
  8
0
  6
CONTINUOUS
 62
     8
 10
41.7984765173
 20
0.5892675058
 30
0.0
  0
VERTEX
  5
65E
  8
0
  6
CONTINUOUS
 62
     8
 10
41.8063659228
 20
0.5607912706
 30
0.0
  0
VERTEX
  5
65F
  8
0
  6
CONTINUOUS
 62
     8
 10
41.8151204375
 20
0.5333108294
 30
0.0
  0
VERTEX
  5
660
  8
0
  6
CONTINUOUS
 62
     8
 10
41.8247234415
 20
0.5068184848
 30
0.0
  0
VERTEX
  5
661
  8
0
  6
CONTINUOUS
 62
     8
 10
41.835158315
 20
0.4813065389
 30
0.0
  0
VERTEX
  5
662
  8
0
  6
CONTINUOUS
 62
     8
 10
41.8464084381
 20
0.4567672942
 30
0.0
  0
VERTEX
  5
663
  8
0
  6
CONTINUOUS
 62
     8
 10
41.8584571908
 20
0.4331930531
 30
0.0
  0
VERTEX
  5
664
  8
0
  6
CONTINUOUS
 62
     8
 10
41.8712879532
 20
0.4105761178
 30
0.0
  0
VERTEX
  5
665
  8
0
  6
CONTINUOUS
 62
     8
 10
41.8848841055
 20
0.3889087909
 30
0.0
  0
VERTEX
  5
666
  8
0
  6
CONTINUOUS
 62
     8
 10
41.8992290278
 20
0.3681833745
 30
0.0
  0
VERTEX
  5
667
  8
0
  6
CONTINUOUS
 62
     8
 10
41.9143061002
 20
0.3483921712
 30
0.0
  0
VERTEX
  5
668
  8
0
  6
CONTINUOUS
 62
     8
 10
41.9300987028
 20
0.3295274833
 30
0.0
  0
VERTEX
  5
669
  8
0
  6
CONTINUOUS
 62
     8
 10
41.9465902156
 20
0.311581613
 30
0.0
  0
VERTEX
  5
66A
  8
0
  6
CONTINUOUS
 62
     8
 10
41.9637640189
 20
0.2945468629
 30
0.0
  0
VERTEX
  5
66B
  8
0
  6
CONTINUOUS
 62
     8
 10
41.9816034926
 20
0.2784155353
 30
0.0
  0
VERTEX
  5
66C
  8
0
  6
CONTINUOUS
 62
     8
 10
42.0000920169
 20
0.2631799324
 30
0.0
  0
VERTEX
  5
66D
  8
0
  6
CONTINUOUS
 62
     8
 10
42.019212972
 20
0.2488323568
 30
0.0
  0
SEQEND
  5
B89
  8
0
  6
CONTINUOUS
 62
     8
  0
POLYLINE
  5
ED
  8
0
  6
CONTINUOUS
 62
     8
 66
     1
 10
0.0
 20
0.0
 30
0.0
  0
VERTEX
  5
66E
  8
0
  6
CONTINUOUS
 62
     8
 10
5.5627198893
 20
2.3749248047
 30
0.0
  0
VERTEX
  5
66F
  8
0
  6
CONTINUOUS
 62
     8
 10
5.5638686982
 20
2.2810312856
 30
0.0
  0
VERTEX
  5
670
  8
0
  6
CONTINUOUS
 62
     8
 10
5.5673253689
 20
2.1889034408
 30
0.0
  0
VERTEX
  5
671
  8
0
  6
CONTINUOUS
 62
     8
 10
5.5730548831
 20
2.098550484
 30
0.0
  0
VERTEX
  5
672
  8
0
  6
CONTINUOUS
 62
     8
 10
5.5810222223
 20
2.0099816292
 30
0.0
  0
VERTEX
  5
673
  8
0
  6
CONTINUOUS
 62
     8
 10
5.5911923681
 20
1.9232060901
 30
0.0
  0
VERTEX
  5
674
  8
0
  6
CONTINUOUS
 62
     8
 10
5.603530302
 20
1.8382330805
 30
0.0
  0
VERTEX
  5
675
  8
0
  6
CONTINUOUS
 62
     8
 10
5.6180010058
 20
1.7550718144
 30
0.0
  0
VERTEX
  5
676
  8
0
  6
CONTINUOUS
 62
     8
 10
5.634569461
 20
1.6737315056
 30
0.0
  0
VERTEX
  5
677
  8
0
  6
CONTINUOUS
 62
     8
 10
5.6532006492
 20
1.5942213678
 30
0.0
  0
VERTEX
  5
678
  8
0
  6
CONTINUOUS
 62
     8
 10
5.6738595519
 20
1.516550615
 30
0.0
  0
VERTEX
  5
679
  8
0
  6
CONTINUOUS
 62
     8
 10
5.6965111508
 20
1.4407284609
 30
0.0
  0
VERTEX
  5
67A
  8
0
  6
CONTINUOUS
 62
     8
 10
5.7211204274
 20
1.3667641195
 30
0.0
  0
VERTEX
  5
67B
  8
0
  6
CONTINUOUS
 62
     8
 10
5.7476523634
 20
1.2946668044
 30
0.0
  0
VERTEX
  5
67C
  8
0
  6
CONTINUOUS
 62
     8
 10
5.7760719404
 20
1.2244457297
 30
0.0
  0
VERTEX
  5
67D
  8
0
  6
CONTINUOUS
 62
     8
 10
5.8063441398
 20
1.156110109
 30
0.0
  0
VERTEX
  5
67E
  8
0
  6
CONTINUOUS
 62
     8
 10
5.8384339434
 20
1.0896691563
 30
0.0
  0
VERTEX
  5
67F
  8
0
  6
CONTINUOUS
 62
     8
 10
5.8723063327
 20
1.0251320854
 30
0.0
  0
VERTEX
  5
680
  8
0
  6
CONTINUOUS
 62
     8
 10
5.9079262892
 20
0.96250811
 30
0.0
  0
VERTEX
  5
681
  8
0
  6
CONTINUOUS
 62
     8
 10
5.9452587947
 20
0.9018064442
 30
0.0
  0
VERTEX
  5
682
  8
0
  6
CONTINUOUS
 62
     8
 10
5.9842688307
 20
0.8430363016
 30
0.0
  0
VERTEX
  5
683
  8
0
  6
CONTINUOUS
 62
     8
 10
6.0249213787
 20
0.7862068961
 30
0.0
  0
VERTEX
  5
684
  8
0
  6
CONTINUOUS
 62
     8
 10
6.0671814204
 20
0.7313274417
 30
0.0
  0
VERTEX
  5
685
  8
0
  6
CONTINUOUS
 62
     8
 10
6.1110139373
 20
0.678407152
 30
0.0
  0
VERTEX
  5
686
  8
0
  6
CONTINUOUS
 62
     8
 10
6.1563839111
 20
0.6274552409
 30
0.0
  0
SEQEND
  5
B8A
  8
0
  6
CONTINUOUS
 62
     8
  0
POLYLINE
  5
EE
  8
0
  6
CONTINUOUS
 62
     8
 66
     1
 10
0.0
 20
0.0
 30
0.0
  0
VERTEX
  5
687
  8
0
  6
CONTINUOUS
 62
     8
 10
30.047044515
 20
4.7281506755
 30
0.0
  0
VERTEX
  5
688
  8
0
  6
CONTINUOUS
 62
     8
 10
29.8882324644
 20
4.7235778185
 30
0.0
  0
VERTEX
  5
689
  8
0
  6
CONTINUOUS
 62
     8
 10
29.7340751505
 20
4.7092205965
 30
0.0
  0
VERTEX
  5
68A
  8
0
  6
CONTINUOUS
 62
     8
 10
29.5847528845
 20
4.6853050692
 30
0.0
  0
VERTEX
  5
68B
  8
0
  6
CONTINUOUS
 62
     8
 10
29.4404459779
 20
4.6520572964
 30
0.0
  0
VERTEX
  5
68C
  8
0
  6
CONTINUOUS
 62
     8
 10
29.3013347417
 20
4.6097033377
 30
0.0
  0
VERTEX
  5
68D
  8
0
  6
CONTINUOUS
 62
     8
 10
29.1675994873
 20
4.5584692529
 30
0.0
  0
VERTEX
  5
68E
  8
0
  6
CONTINUOUS
 62
     8
 10
29.039420526
 20
4.4985811017
 30
0.0
  0
VERTEX
  5
68F
  8
0
  6
CONTINUOUS
 62
     8
 10
28.916978169
 20
4.4302649438
 30
0.0
  0
VERTEX
  5
690
  8
0
  6
CONTINUOUS
 62
     8
 10
28.8004527276
 20
4.353746839
 30
0.0
  0
VERTEX
  5
691
  8
0
  6
CONTINUOUS
 62
     8
 10
28.6900245132
 20
4.2692528469
 30
0.0
  0
VERTEX
  5
692
  8
0
  6
CONTINUOUS
 62
     8
 10
28.5858738368
 20
4.1770090272
 30
0.0
  0
VERTEX
  5
693
  8
0
  6
CONTINUOUS
 62
     8
 10
28.4881810099
 20
4.0772414398
 30
0.0
  0
VERTEX
  5
694
  8
0
  6
CONTINUOUS
 62
     8
 10
28.3971263437
 20
3.9701761443
 30
0.0
  0
VERTEX
  5
695
  8
0
  6
CONTINUOUS
 62
     8
 10
28.3128901495
 20
3.8560392004
 30
0.0
  0
VERTEX
  5
696
  8
0
  6
CONTINUOUS
 62
     8
 10
28.2356527386
 20
3.7350566679
 30
0.0
  0
VERTEX
  5
697
  8
0
  6
CONTINUOUS
 62
     8
 10
28.1655944221
 20
3.6074546064
 30
0.0
  0
VERTEX
  5
698
  8
0
  6
CONTINUOUS
 62
     8
 10
28.1028955115
 20
3.4734590757
 30
0.0
  0
VERTEX
  5
699
  8
0
  6
CONTINUOUS
 62
     8
 10
28.047736318
 20
3.3332961356
 30
0.0
  0
VERTEX
  5
69A
  8
0
  6
CONTINUOUS
 62
     8
 10
28.0002971527
 20
3.1871918456
 30
0.0
  0
VERTEX
  5
69B
  8
0
  6
CONTINUOUS
 62
     8
 10
27.9607583272
 20
3.0353722657
 30
0.0
  0
VERTEX
  5
69C
  8
0
  6
CONTINUOUS
 62
     8
 10
27.9293001525
 20
2.8780634553
 30
0.0
  0
VERTEX
  5
69D
  8
0
  6
CONTINUOUS
 62
     8
 10
27.9061029399
 20
2.7154914744
 30
0.0
  0
VERTEX
  5
69E
  8
0
  6
CONTINUOUS
 62
     8
 10
27.8913470009
 20
2.5478823826
 30
0.0
  0
VERTEX
  5
69F
  8
0
  6
CONTINUOUS
 62
     8
 10
27.8852126465
 20
2.3754622396
 30
0.0
  0
SEQEND
  5
B8B
  8
0
  6
CONTINUOUS
 62
     8
  0
POLYLINE
  5
EF
  8
0
  6
CONTINUOUS
 62
     8
 66
     1
 10
0.0
 20
0.0
 30
0.0
  0
VERTEX
  5
6A0
  8
0
  6
CONTINUOUS
 62
     8
 10
17.1482711182
 20
0.6478777669
 30
0.0
  0
VERTEX
  5
6A1
  8
0
  6
CONTINUOUS
 62
     8
 10
17.0347507918
 20
0.6524168933
 30
0.0
  0
VERTEX
  5
6A2
  8
0
  6
CONTINUOUS
 62
     8
 10
16.9267235737
 20
0.6635807095
 30
0.0
  0
VERTEX
  5
6A3
  8
0
  6
CONTINUOUS
 62
     8
 10
16.8241276788
 20
0.6812157877
 30
0.0
  0
VERTEX
  5
6A4
  8
0
  6
CONTINUOUS
 62
     8
 10
16.7269013218
 20
0.7051687
 30
0.0
  0
VERTEX
  5
6A5
  8
0
  6
CONTINUOUS
 62
     8
 10
16.6349827175
 20
0.7352860186
 30
0.0
  0
VERTEX
  5
6A6
  8
0
  6
CONTINUOUS
 62
     8
 10
16.5483100808
 20
0.7714143155
 30
0.0
  0
VERTEX
  5
6A7
  8
0
  6
CONTINUOUS
 62
     8
 10
16.4668216265
 20
0.813400163
 30
0.0
  0
VERTEX
  5
6A8
  8
0
  6
CONTINUOUS
 62
     8
 10
16.3904555694
 20
0.8610901331
 30
0.0
  0
VERTEX
  5
6A9
  8
0
  6
CONTINUOUS
 62
     8
 10
16.3191501243
 20
0.914330798
 30
0.0
  0
VERTEX
  5
6AA
  8
0
  6
CONTINUOUS
 62
     8
 10
16.252843506
 20
0.9729687298
 30
0.0
  0
VERTEX
  5
6AB
  8
0
  6
CONTINUOUS
 62
     8
 10
16.1914739294
 20
1.0368505007
 30
0.0
  0
VERTEX
  5
6AC
  8
0
  6
CONTINUOUS
 62
     8
 10
16.1349796092
 20
1.1058226827
 30
0.0
  0
VERTEX
  5
6AD
  8
0
  6
CONTINUOUS
 62
     8
 10
16.0832987602
 20
1.1797318481
 30
0.0
  0
VERTEX
  5
6AE
  8
0
  6
CONTINUOUS
 62
     8
 10
16.0363695974
 20
1.2584245689
 30
0.0
  0
VERTEX
  5
6AF
  8
0
  6
CONTINUOUS
 62
     8
 10
15.9941303354
 20
1.3417474173
 30
0.0
  0
VERTEX
  5
6B0
  8
0
  6
CONTINUOUS
 62
     8
 10
15.9565191892
 20
1.4295469654
 30
0.0
  0
VERTEX
  5
6B1
  8
0
  6
CONTINUOUS
 62
     8
 10
15.9234743734
 20
1.5216697854
 30
0.0
  0
VERTEX
  5
6B2
  8
0
  6
CONTINUOUS
 62
     8
 10
15.894934103
 20
1.6179624494
 30
0.0
  0
VERTEX
  5
6B3
  8
0
  6
CONTINUOUS
 62
     8
 10
15.8708365928
 20
1.7182715295
 30
0.0
  0
VERTEX
  5
6B4
  8
0
  6
CONTINUOUS
 62
     8
 10
15.8511200575
 20
1.8224435979
 30
0.0
  0
VERTEX
  5
6B5
  8
0
  6
CONTINUOUS
 62
     8
 10
15.835722712
 20
1.9303252266
 30
0.0
  0
VERTEX
  5
6B6
  8
0
  6
CONTINUOUS
 62
     8
 10
15.824582771
 20
2.0417629879
 30
0.0
  0
VERTEX
  5
6B7
  8
0
  6
CONTINUOUS
 62
     8
 10
15.8176384495
 20
2.1566034539
 30
0.0
  0
VERTEX
  5
6B8
  8
0
  6
CONTINUOUS
 62
     8
 10
15.8148279622
 20
2.2746931966
 30
0.0
  0
SEQEND
  5
B8C
  8
0
  6
CONTINUOUS
 62
     8
  0
POLYLINE
  5
F0
  8
0
  6
CONTINUOUS
 62
     8
 66
     1
 10
0.0
 20
0.0
 30
0.0
  0
VERTEX
  5
6B9
  8
0
  6
CONTINUOUS
 62
     8
 10
15.6729451497
 20
4.1219912923
 30
0.0
  0
VERTEX
  5
6BA
  8
0
  6
CONTINUOUS
 62
     8
 10
15.6275731543
 20
4.0710859801
 30
0.0
  0
VERTEX
  5
6BB
  8
0
  6
CONTINUOUS
 62
     8
 10
15.5837348836
 20
4.0182049707
 30
0.0
  0
VERTEX
  5
6BC
  8
0
  6
CONTINUOUS
 62
     8
 10
15.5414658225
 20
3.963357857
 30
0.0
  0
VERTEX
  5
6BD
  8
0
  6
CONTINUOUS
 62
     8
 10
15.5008014558
 20
3.9065542318
 30
0.0
  0
VERTEX
  5
6BE
  8
0
  6
CONTINUOUS
 62
     8
 10
15.4617772687
 20
3.8478036881
 30
0.0
  0
VERTEX
  5
6BF
  8
0
  6
CONTINUOUS
 62
     8
 10
15.4244287459
 20
3.7871158187
 30
0.0
  0
VERTEX
  5
6C0
  8
0
  6
CONTINUOUS
 62
     8
 10
15.3887913725
 20
3.7245002165
 30
0.0
  0
VERTEX
  5
6C1
  8
0
  6
CONTINUOUS
 62
     8
 10
15.3549006333
 20
3.6599664744
 30
0.0
  0
VERTEX
  5
6C2
  8
0
  6
CONTINUOUS
 62
     8
 10
15.3227920132
 20
3.5935241853
 30
0.0
  0
VERTEX
  5
6C3
  8
0
  6
CONTINUOUS
 62
     8
 10
15.2925009974
 20
3.525182942
 30
0.0
  0
VERTEX
  5
6C4
  8
0
  6
CONTINUOUS
 62
     8
 10
15.2640630705
 20
3.4549523376
 30
0.0
  0
VERTEX
  5
6C5
  8
0
  6
CONTINUOUS
 62
     8
 10
15.2375137177
 20
3.3828419647
 30
0.0
  0
VERTEX
  5
6C6
  8
0
  6
CONTINUOUS
 62
     8
 10
15.2128884237
 20
3.3088614164
 30
0.0
  0
VERTEX
  5
6C7
  8
0
  6
CONTINUOUS
 62
     8
 10
15.1902226736
 20
3.2330202855
 30
0.0
  0
VERTEX
  5
6C8
  8
0
  6
CONTINUOUS
 62
     8
 10
15.1695519523
 20
3.155328165
 30
0.0
  0
VERTEX
  5
6C9
  8
0
  6
CONTINUOUS
 62
     8
 10
15.1509117447
 20
3.0757946476
 30
0.0
  0
VERTEX
  5
6CA
  8
0
  6
CONTINUOUS
 62
     8
 10
15.1343375357
 20
2.9944293263
 30
0.0
  0
VERTEX
  5
6CB
  8
0
  6
CONTINUOUS
 62
     8
 10
15.1198648103
 20
2.911241794
 30
0.0
  0
VERTEX
  5
6CC
  8
0
  6
CONTINUOUS
 62
     8
 10
15.1075290534
 20
2.8262416435
 30
0.0
  0
VERTEX
  5
6CD
  8
0
  6
CONTINUOUS
 62
     8
 10
15.09736575
 20
2.7394384677
 30
0.0
  0
VERTEX
  5
6CE
  8
0
  6
CONTINUOUS
 62
     8
 10
15.0894103849
 20
2.6508418596
 30
0.0
  0
VERTEX
  5
6CF
  8
0
  6
CONTINUOUS
 62
     8
 10
15.0836984431
 20
2.560461412
 30
0.0
  0
VERTEX
  5
6D0
  8
0
  6
CONTINUOUS
 62
     8
 10
15.0802654096
 20
2.4683067177
 30
0.0
  0
VERTEX
  5
6D1
  8
0
  6
CONTINUOUS
 62
     8
 10
15.0791467692
 20
2.3743873698
 30
0.0
  0
SEQEND
  5
B8D
  8
0
  6
CONTINUOUS
 62
     8
  0
POLYLINE
  5
F1
  8
0
  6
CONTINUOUS
 62
     8
 66
     1
 10
0.0
 20
0.0
 30
0.0
  0
VERTEX
  5
6D2
  8
0
  6
CONTINUOUS
 62
     8
 10
2.7820317383
 20
0.6125414225
 30
0.0
  0
VERTEX
  5
6D3
  8
0
  6
CONTINUOUS
 62
     8
 10
2.7937243782
 20
0.6101075411
 30
0.0
  0
VERTEX
  5
6D4
  8
0
  6
CONTINUOUS
 62
     8
 10
2.8054571974
 20
0.6077770528
 30
0.0
  0
VERTEX
  5
6D5
  8
0
  6
CONTINUOUS
 62
     8
 10
2.8172297877
 20
0.6055497829
 30
0.0
  0
VERTEX
  5
6D6
  8
0
  6
CONTINUOUS
 62
     8
 10
2.8290417409
 20
0.6034255563
 30
0.0
  0
VERTEX
  5
6D7
  8
0
  6
CONTINUOUS
 62
     8
 10
2.8408926488
 20
0.6014041981
 30
0.0
  0
VERTEX
  5
6D8
  8
0
  6
CONTINUOUS
 62
     8
 10
2.8527821032
 20
0.5994855334
 30
0.0
  0
VERTEX
  5
6D9
  8
0
  6
CONTINUOUS
 62
     8
 10
2.8647096959
 20
0.5976693872
 30
0.0
  0
VERTEX
  5
6DA
  8
0
  6
CONTINUOUS
 62
     8
 10
2.8766750187
 20
0.5959555845
 30
0.0
  0
VERTEX
  5
6DB
  8
0
  6
CONTINUOUS
 62
     8
 10
2.8886776633
 20
0.5943439504
 30
0.0
  0
VERTEX
  5
6DC
  8
0
  6
CONTINUOUS
 62
     8
 10
2.9007172216
 20
0.59283431
 30
0.0
  0
VERTEX
  5
6DD
  8
0
  6
CONTINUOUS
 62
     8
 10
2.9127932854
 20
0.5914264884
 30
0.0
  0
VERTEX
  5
6DE
  8
0
  6
CONTINUOUS
 62
     8
 10
2.9249054464
 20
0.5901203105
 30
0.0
  0
VERTEX
  5
6DF
  8
0
  6
CONTINUOUS
 62
     8
 10
2.9370532964
 20
0.5889156014
 30
0.0
  0
VERTEX
  5
6E0
  8
0
  6
CONTINUOUS
 62
     8
 10
2.9492364273
 20
0.5878121862
 30
0.0
  0
VERTEX
  5
6E1
  8
0
  6
CONTINUOUS
 62
     8
 10
2.9614544307
 20
0.58680989
 30
0.0
  0
VERTEX
  5
6E2
  8
0
  6
CONTINUOUS
 62
     8
 10
2.9737068986
 20
0.5859085377
 30
0.0
  0
VERTEX
  5
6E3
  8
0
  6
CONTINUOUS
 62
     8
 10
2.9859934227
 20
0.5851079545
 30
0.0
  0
VERTEX
  5
6E4
  8
0
  6
CONTINUOUS
 62
     8
 10
2.9983135948
 20
0.5844079653
 30
0.0
  0
VERTEX
  5
6E5
  8
0
  6
CONTINUOUS
 62
     8
 10
3.0106670067
 20
0.5838083954
 30
0.0
  0
VERTEX
  5
6E6
  8
0
  6
CONTINUOUS
 62
     8
 10
3.0230532502
 20
0.5833090696
 30
0.0
  0
VERTEX
  5
6E7
  8
0
  6
CONTINUOUS
 62
     8
 10
3.035471917
 20
0.5829098131
 30
0.0
  0
VERTEX
  5
6E8
  8
0
  6
CONTINUOUS
 62
     8
 10
3.047922599
 20
0.5826104509
 30
0.0
  0
VERTEX
  5
6E9
  8
0
  6
CONTINUOUS
 62
     8
 10
3.0604048879
 20
0.5824108081
 30
0.0
  0
VERTEX
  5
6EA
  8
0
  6
CONTINUOUS
 62
     8
 10
3.0729183757
 20
0.5823107096
 30
0.0
  0
SEQEND
  5
B8E
  8
0
  6
CONTINUOUS
 62
     8
  0
POLYLINE
  5
F2
  8
0
  6
CONTINUOUS
 62
     8
 66
     1
 10
0.0
 20
0.0
 30
0.0
  0
VERTEX
  5
6EB
  8
0
  6
CONTINUOUS
 62
     8
 10
24.8538111165
 20
3.4366274414
 30
0.0
  0
VERTEX
  5
6EC
  8
0
  6
CONTINUOUS
 62
     8
 10
24.8556807088
 20
3.4856810836
 30
0.0
  0
VERTEX
  5
6ED
  8
0
  6
CONTINUOUS
 62
     8
 10
24.8591668046
 20
3.5333680164
 30
0.0
  0
VERTEX
  5
6EE
  8
0
  6
CONTINUOUS
 62
     8
 10
24.8644611448
 20
3.5796406254
 30
0.0
  0
VERTEX
  5
6EF
  8
0
  6
CONTINUOUS
 62
     8
 10
24.8717554706
 20
3.624451296
 30
0.0
  0
VERTEX
  5
6F0
  8
0
  6
CONTINUOUS
 62
     8
 10
24.881241523
 20
3.6677524137
 30
0.0
  0
VERTEX
  5
6F1
  8
0
  6
CONTINUOUS
 62
     8
 10
24.8931110433
 20
3.709496364
 30
0.0
  0
VERTEX
  5
6F2
  8
0
  6
CONTINUOUS
 62
     8
 10
24.9075557724
 20
3.7496355322
 30
0.0
  0
VERTEX
  5
6F3
  8
0
  6
CONTINUOUS
 62
     8
 10
24.9247674515
 20
3.7881223039
 30
0.0
  0
VERTEX
  5
6F4
  8
0
  6
CONTINUOUS
 62
     8
 10
24.9449378217
 20
3.8249090645
 30
0.0
  0
VERTEX
  5
6F5
  8
0
  6
CONTINUOUS
 62
     8
 10
24.968258624
 20
3.8599481995
 30
0.0
  0
VERTEX
  5
6F6
  8
0
  6
CONTINUOUS
 62
     8
 10
24.9949215996
 20
3.8931920944
 30
0.0
  0
VERTEX
  5
6F7
  8
0
  6
CONTINUOUS
 62
     8
 10
25.0251184896
 20
3.9245931346
 30
0.0
  0
VERTEX
  5
6F8
  8
0
  6
CONTINUOUS
 62
     8
 10
25.059041035
 20
3.9541037055
 30
0.0
  0
VERTEX
  5
6F9
  8
0
  6
CONTINUOUS
 62
     8
 10
25.0968809769
 20
3.9816761926
 30
0.0
  0
VERTEX
  5
6FA
  8
0
  6
CONTINUOUS
 62
     8
 10
25.1388300565
 20
4.0072629815
 30
0.0
  0
VERTEX
  5
6FB
  8
0
  6
CONTINUOUS
 62
     8
 10
25.1850800148
 20
4.0308164575
 30
0.0
  0
VERTEX
  5
6FC
  8
0
  6
CONTINUOUS
 62
     8
 10
25.235822593
 20
4.0522890061
 30
0.0
  0
VERTEX
  5
6FD
  8
0
  6
CONTINUOUS
 62
     8
 10
25.2912495321
 20
4.0716330128
 30
0.0
  0
VERTEX
  5
6FE
  8
0
  6
CONTINUOUS
 62
     8
 10
25.3515525732
 20
4.088800863
 30
0.0
  0
VERTEX
  5
6FF
  8
0
  6
CONTINUOUS
 62
     8
 10
25.4169234574
 20
4.1037449422
 30
0.0
  0
VERTEX
  5
700
  8
0
  6
CONTINUOUS
 62
     8
 10
25.4875539258
 20
4.1164176358
 30
0.0
  0
VERTEX
  5
701
  8
0
  6
CONTINUOUS
 62
     8
 10
25.5636357196
 20
4.1267713294
 30
0.0
  0
VERTEX
  5
702
  8
0
  6
CONTINUOUS
 62
     8
 10
25.6453605797
 20
4.1347584084
 30
0.0
  0
VERTEX
  5
703
  8
0
  6
CONTINUOUS
 62
     8
 10
25.7329202474
 20
4.1403312581
 30
0.0
  0
SEQEND
  5
B8F
  8
0
  6
CONTINUOUS
 62
     8
  0
POLYLINE
  5
F3
  8
0
  6
CONTINUOUS
 62
     8
 66
     1
 10
0.0
 20
0.0
 30
0.0
  0
VERTEX
  5
704
  8
0
  6
CONTINUOUS
 62
     8
 10
8.9693181559
 20
2.3749248047
 30
0.0
  0
VERTEX
  5
705
  8
0
  6
CONTINUOUS
 62
     8
 10
8.9658319047
 20
2.2388294767
 30
0.0
  0
VERTEX
  5
706
  8
0
  6
CONTINUOUS
 62
     8
 10
8.9563811525
 20
2.1079281281
 30
0.0
  0
VERTEX
  5
707
  8
0
  6
CONTINUOUS
 62
     8
 10
8.9411427116
 20
1.982272718
 30
0.0
  0
VERTEX
  5
708
  8
0
  6
CONTINUOUS
 62
     8
 10
8.9202933945
 20
1.8619152052
 30
0.0
  0
VERTEX
  5
709
  8
0
  6
CONTINUOUS
 62
     8
 10
8.8940100134
 20
1.746907549
 30
0.0
  0
VERTEX
  5
70A
  8
0
  6
CONTINUOUS
 62
     8
 10
8.8624693807
 20
1.6373017082
 30
0.0
  0
VERTEX
  5
70B
  8
0
  6
CONTINUOUS
 62
     8
 10
8.8258483088
 20
1.533149642
 30
0.0
  0
VERTEX
  5
70C
  8
0
  6
CONTINUOUS
 62
     8
 10
8.7843236099
 20
1.4345033095
 30
0.0
  0
VERTEX
  5
70D
  8
0
  6
CONTINUOUS
 62
     8
 10
8.7380720965
 20
1.3414146695
 30
0.0
  0
VERTEX
  5
70E
  8
0
  6
CONTINUOUS
 62
     8
 10
8.6872705809
 20
1.2539356812
 30
0.0
  0
VERTEX
  5
70F
  8
0
  6
CONTINUOUS
 62
     8
 10
8.6320958754
 20
1.1721183037
 30
0.0
  0
VERTEX
  5
710
  8
0
  6
CONTINUOUS
 62
     8
 10
8.5727247925
 20
1.0960144958
 30
0.0
  0
VERTEX
  5
711
  8
0
  6
CONTINUOUS
 62
     8
 10
8.5093341444
 20
1.0256762168
 30
0.0
  0
VERTEX
  5
712
  8
0
  6
CONTINUOUS
 62
     8
 10
8.4421007434
 20
0.9611554256
 30
0.0
  0
VERTEX
  5
713
  8
0
  6
CONTINUOUS
 62
     8
 10
8.371201402
 20
0.9025040812
 30
0.0
  0
VERTEX
  5
714
  8
0
  6
CONTINUOUS
 62
     8
 10
8.2968129325
 20
0.8497741428
 30
0.0
  0
VERTEX
  5
715
  8
0
  6
CONTINUOUS
 62
     8
 10
8.2191121472
 20
0.8030175693
 30
0.0
  0
VERTEX
  5
716
  8
0
  6
CONTINUOUS
 62
     8
 10
8.1382758586
 20
0.7622863197
 30
0.0
  0
VERTEX
  5
717
  8
0
  6
CONTINUOUS
 62
     8
 10
8.0544808788
 20
0.7276323532
 30
0.0
  0
VERTEX
  5
718
  8
0
  6
CONTINUOUS
 62
     8
 10
7.9679040203
 20
0.6991076287
 30
0.0
  0
VERTEX
  5
719
  8
0
  6
CONTINUOUS
 62
     8
 10
7.8787220955
 20
0.6767641053
 30
0.0
  0
VERTEX
  5
71A
  8
0
  6
CONTINUOUS
 62
     8
 10
7.7871119166
 20
0.660653742
 30
0.0
  0
VERTEX
  5
71B
  8
0
  6
CONTINUOUS
 62
     8
 10
7.6932502961
 20
0.6508284979
 30
0.0
  0
VERTEX
  5
71C
  8
0
  6
CONTINUOUS
 62
     8
 10
7.5973140462
 20
0.647340332
 30
0.0
  0
SEQEND
  5
B90
  8
0
  6
CONTINUOUS
 62
     8
  0
POLYLINE
  5
F4
  8
0
  6
CONTINUOUS
 62
     8
 66
     1
 10
0.0
 20
0.0
 30
0.0
  0
VERTEX
  5
71D
  8
0
  6
CONTINUOUS
 62
     8
 10
31.1061943359
 20
1.324911377
 30
0.0
  0
VERTEX
  5
71E
  8
0
  6
CONTINUOUS
 62
     8
 10
31.0821282334
 20
1.2774262106
 30
0.0
  0
VERTEX
  5
71F
  8
0
  6
CONTINUOUS
 62
     8
 10
31.0564020658
 20
1.2309929961
 30
0.0
  0
VERTEX
  5
720
  8
0
  6
CONTINUOUS
 62
     8
 10
31.0289414811
 20
1.1856965823
 30
0.0
  0
VERTEX
  5
721
  8
0
  6
CONTINUOUS
 62
     8
 10
30.9996721271
 20
1.1416218183
 30
0.0
  0
VERTEX
  5
722
  8
0
  6
CONTINUOUS
 62
     8
 10
30.9685196515
 20
1.0988535528
 30
0.0
  0
VERTEX
  5
723
  8
0
  6
CONTINUOUS
 62
     8
 10
30.9354097023
 20
1.057476635
 30
0.0
  0
VERTEX
  5
724
  8
0
  6
CONTINUOUS
 62
     8
 10
30.9002679273
 20
1.0175759136
 30
0.0
  0
VERTEX
  5
725
  8
0
  6
CONTINUOUS
 62
     8
 10
30.8630199743
 20
0.9792362377
 30
0.0
  0
VERTEX
  5
726
  8
0
  6
CONTINUOUS
 62
     8
 10
30.8235914912
 20
0.9425424562
 30
0.0
  0
VERTEX
  5
727
  8
0
  6
CONTINUOUS
 62
     8
 10
30.7819081258
 20
0.9075794179
 30
0.0
  0
VERTEX
  5
728
  8
0
  6
CONTINUOUS
 62
     8
 10
30.737895526
 20
0.8744319719
 30
0.0
  0
VERTEX
  5
729
  8
0
  6
CONTINUOUS
 62
     8
 10
30.6914793396
 20
0.843184967
 30
0.0
  0
VERTEX
  5
72A
  8
0
  6
CONTINUOUS
 62
     8
 10
30.6425852144
 20
0.8139232523
 30
0.0
  0
VERTEX
  5
72B
  8
0
  6
CONTINUOUS
 62
     8
 10
30.5911387983
 20
0.7867316766
 30
0.0
  0
VERTEX
  5
72C
  8
0
  6
CONTINUOUS
 62
     8
 10
30.5370657392
 20
0.7616950889
 30
0.0
  0
VERTEX
  5
72D
  8
0
  6
CONTINUOUS
 62
     8
 10
30.4802916848
 20
0.738898338
 30
0.0
  0
VERTEX
  5
72E
  8
0
  6
CONTINUOUS
 62
     8
 10
30.420742283
 20
0.718426273
 30
0.0
  0
VERTEX
  5
72F
  8
0
  6
CONTINUOUS
 62
     8
 10
30.3583431816
 20
0.7003637428
 30
0.0
  0
VERTEX
  5
730
  8
0
  6
CONTINUOUS
 62
     8
 10
30.2930200286
 20
0.6847955963
 30
0.0
  0
VERTEX
  5
731
  8
0
  6
CONTINUOUS
 62
     8
 10
30.2246984716
 20
0.6718066824
 30
0.0
  0
VERTEX
  5
732
  8
0
  6
CONTINUOUS
 62
     8
 10
30.1533041587
 20
0.6614818501
 30
0.0
  0
VERTEX
  5
733
  8
0
  6
CONTINUOUS
 62
     8
 10
30.0787627376
 20
0.6539059484
 30
0.0
  0
VERTEX
  5
734
  8
0
  6
CONTINUOUS
 62
     8
 10
30.0009998561
 20
0.649163826
 30
0.0
  0
VERTEX
  5
735
  8
0
  6
CONTINUOUS
 62
     8
 10
29.9199411621
 20
0.647340332
 30
0.0
  0
SEQEND
  5
B91
  8
0
  6
CONTINUOUS
 62
     8
  0
POLYLINE
  5
F5
  8
0
  6
CONTINUOUS
 62
     8
 66
     1
 10
0.0
 20
0.0
 30
0.0
  0
VERTEX
  5
736
  8
0
  6
CONTINUOUS
 62
     8
 10
7.5973140462
 20
0.647340332
 30
0.0
  0
VERTEX
  5
737
  8
0
  6
CONTINUOUS
 62
     8
 10
7.5014183645
 20
0.6508284979
 30
0.0
  0
VERTEX
  5
738
  8
0
  6
CONTINUOUS
 62
     8
 10
7.4075943962
 20
0.660653742
 30
0.0
  0
VERTEX
  5
739
  8
0
  6
CONTINUOUS
 62
     8
 10
7.3160188373
 20
0.6767641053
 30
0.0
  0
VERTEX
  5
73A
  8
0
  6
CONTINUOUS
 62
     8
 10
7.2268683833
 20
0.6991076287
 30
0.0
  0
VERTEX
  5
73B
  8
0
  6
CONTINUOUS
 62
     8
 10
7.1403197301
 20
0.7276323532
 30
0.0
  0
VERTEX
  5
73C
  8
0
  6
CONTINUOUS
 62
     8
 10
7.0565495733
 20
0.7622863197
 30
0.0
  0
VERTEX
  5
73D
  8
0
  6
CONTINUOUS
 62
     8
 10
6.9757346086
 20
0.8030175693
 30
0.0
  0
VERTEX
  5
73E
  8
0
  6
CONTINUOUS
 62
     8
 10
6.8980515318
 20
0.8497741428
 30
0.0
  0
VERTEX
  5
73F
  8
0
  6
CONTINUOUS
 62
     8
 10
6.8236770385
 20
0.9025040812
 30
0.0
  0
VERTEX
  5
740
  8
0
  6
CONTINUOUS
 62
     8
 10
6.7527878246
 20
0.9611554256
 30
0.0
  0
VERTEX
  5
741
  8
0
  6
CONTINUOUS
 62
     8
 10
6.6855605856
 20
1.0256762168
 30
0.0
  0
VERTEX
  5
742
  8
0
  6
CONTINUOUS
 62
     8
 10
6.6221720174
 20
1.0960144958
 30
0.0
  0
VERTEX
  5
743
  8
0
  6
CONTINUOUS
 62
     8
 10
6.5627988157
 20
1.1721183037
 30
0.0
  0
VERTEX
  5
744
  8
0
  6
CONTINUOUS
 62
     8
 10
6.5076176761
 20
1.2539356812
 30
0.0
  0
VERTEX
  5
745
  8
0
  6
CONTINUOUS
 62
     8
 10
6.4568052944
 20
1.3414146695
 30
0.0
  0
VERTEX
  5
746
  8
0
  6
CONTINUOUS
 62
     8
 10
6.4105383662
 20
1.4345033095
 30
0.0
  0
VERTEX
  5
747
  8
0
  6
CONTINUOUS
 62
     8
 10
6.3689935875
 20
1.533149642
 30
0.0
  0
VERTEX
  5
748
  8
0
  6
CONTINUOUS
 62
     8
 10
6.3323476537
 20
1.6373017082
 30
0.0
  0
VERTEX
  5
749
  8
0
  6
CONTINUOUS
 62
     8
 10
6.3007772607
 20
1.746907549
 30
0.0
  0
VERTEX
  5
74A
  8
0
  6
CONTINUOUS
 62
     8
 10
6.2744591042
 20
1.8619152052
 30
0.0
  0
VERTEX
  5
74B
  8
0
  6
CONTINUOUS
 62
     8
 10
6.2535698798
 20
1.982272718
 30
0.0
  0
VERTEX
  5
74C
  8
0
  6
CONTINUOUS
 62
     8
 10
6.2382862834
 20
2.1079281281
 30
0.0
  0
VERTEX
  5
74D
  8
0
  6
CONTINUOUS
 62
     8
 10
6.2287850106
 20
2.2388294767
 30
0.0
  0
VERTEX
  5
74E
  8
0
  6
CONTINUOUS
 62
     8
 10
6.2252427572
 20
2.3749248047
 30
0.0
  0
SEQEND
  5
B92
  8
0
  6
CONTINUOUS
 62
     8
  0
POLYLINE
  5
F6
  8
0
  6
CONTINUOUS
 62
     8
 66
     1
 10
0.0
 20
0.0
 30
0.0
  0
VERTEX
  5
74F
  8
0
  6
CONTINUOUS
 62
     8
 10
14.3159220378
 20
1.7094460449
 30
0.0
  0
VERTEX
  5
750
  8
0
  6
CONTINUOUS
 62
     8
 10
14.3209484138
 20
1.7370509895
 30
0.0
  0
VERTEX
  5
751
  8
0
  6
CONTINUOUS
 62
     8
 10
14.3257021943
 20
1.7648704181
 30
0.0
  0
VERTEX
  5
752
  8
0
  6
CONTINUOUS
 62
     8
 10
14.3301885987
 20
1.7928403006
 30
0.0
  0
VERTEX
  5
753
  8
0
  6
CONTINUOUS
 62
     8
 10
14.3344128461
 20
1.8208966064
 30
0.0
  0
VERTEX
  5
754
  8
0
  6
CONTINUOUS
 62
     8
 10
14.3383801558
 20
1.8489753055
 30
0.0
  0
VERTEX
  5
755
  8
0
  6
CONTINUOUS
 62
     8
 10
14.342095747
 20
1.8770123672
 30
0.0
  0
VERTEX
  5
756
  8
0
  6
CONTINUOUS
 62
     8
 10
14.3455648389
 20
1.9049437615
 30
0.0
  0
VERTEX
  5
757
  8
0
  6
CONTINUOUS
 62
     8
 10
14.3487926508
 20
1.9327054579
 30
0.0
  0
VERTEX
  5
758
  8
0
  6
CONTINUOUS
 62
     8
 10
14.3517844018
 20
1.9602334261
 30
0.0
  0
VERTEX
  5
759
  8
0
  6
CONTINUOUS
 62
     8
 10
14.3545453113
 20
1.9874636358
 30
0.0
  0
VERTEX
  5
75A
  8
0
  6
CONTINUOUS
 62
     8
 10
14.3570805984
 20
2.0143320566
 30
0.0
  0
VERTEX
  5
75B
  8
0
  6
CONTINUOUS
 62
     8
 10
14.3593954824
 20
2.0407746582
 30
0.0
  0
VERTEX
  5
75C
  8
0
  6
CONTINUOUS
 62
     8
 10
14.3614951825
 20
2.0667274103
 30
0.0
  0
VERTEX
  5
75D
  8
0
  6
CONTINUOUS
 62
     8
 10
14.3633849179
 20
2.0921262826
 30
0.0
  0
VERTEX
  5
75E
  8
0
  6
CONTINUOUS
 62
     8
 10
14.3650699079
 20
2.1169072447
 30
0.0
  0
VERTEX
  5
75F
  8
0
  6
CONTINUOUS
 62
     8
 10
14.3665553717
 20
2.1410062663
 30
0.0
  0
VERTEX
  5
760
  8
0
  6
CONTINUOUS
 62
     8
 10
14.3678465285
 20
2.164359317
 30
0.0
  0
VERTEX
  5
761
  8
0
  6
CONTINUOUS
 62
     8
 10
14.3689485976
 20
2.1869023666
 30
0.0
  0
VERTEX
  5
762
  8
0
  6
CONTINUOUS
 62
     8
 10
14.3698667982
 20
2.2085713847
 30
0.0
  0
VERTEX
  5
763
  8
0
  6
CONTINUOUS
 62
     8
 10
14.3706063494
 20
2.229302341
 30
0.0
  0
VERTEX
  5
764
  8
0
  6
CONTINUOUS
 62
     8
 10
14.3711724706
 20
2.2490312052
 30
0.0
  0
VERTEX
  5
765
  8
0
  6
CONTINUOUS
 62
     8
 10
14.371570381
 20
2.2676939468
 30
0.0
  0
VERTEX
  5
766
  8
0
  6
CONTINUOUS
 62
     8
 10
14.3718052999
 20
2.2852265357
 30
0.0
  0
VERTEX
  5
767
  8
0
  6
CONTINUOUS
 62
     8
 10
14.3718824463
 20
2.3015649414
 30
0.0
  0
SEQEND
  5
B93
  8
0
  6
CONTINUOUS
 62
     8
  0
POLYLINE
  5
F7
  8
0
  6
CONTINUOUS
 62
     8
 66
     1
 10
0.0
 20
0.0
 30
0.0
  0
VERTEX
  5
768
  8
0
  6
CONTINUOUS
 62
     8
 10
27.2586979167
 20
3.7098459066
 30
0.0
  0
VERTEX
  5
769
  8
0
  6
CONTINUOUS
 62
     8
 10
27.2211532743
 20
3.7902021768
 30
0.0
  0
VERTEX
  5
76A
  8
0
  6
CONTINUOUS
 62
     8
 10
27.1808276279
 20
3.8673727631
 30
0.0
  0
VERTEX
  5
76B
  8
0
  6
CONTINUOUS
 62
     8
 10
27.137806293
 20
3.9413364096
 30
0.0
  0
VERTEX
  5
76C
  8
0
  6
CONTINUOUS
 62
     8
 10
27.092174585
 20
4.0120718604
 30
0.0
  0
VERTEX
  5
76D
  8
0
  6
CONTINUOUS
 62
     8
 10
27.0440178194
 20
4.0795578594
 30
0.0
  0
VERTEX
  5
76E
  8
0
  6
CONTINUOUS
 62
     8
 10
26.9934213117
 20
4.1437731508
 30
0.0
  0
VERTEX
  5
76F
  8
0
  6
CONTINUOUS
 62
     8
 10
26.9404703772
 20
4.2046964784
 30
0.0
  0
VERTEX
  5
770
  8
0
  6
CONTINUOUS
 62
     8
 10
26.8852503315
 20
4.2623065864
 30
0.0
  0
VERTEX
  5
771
  8
0
  6
CONTINUOUS
 62
     8
 10
26.8278464901
 20
4.3165822187
 30
0.0
  0
VERTEX
  5
772
  8
0
  6
CONTINUOUS
 62
     8
 10
26.7683441683
 20
4.3675021195
 30
0.0
  0
VERTEX
  5
773
  8
0
  6
CONTINUOUS
 62
     8
 10
26.7068286816
 20
4.4150450327
 30
0.0
  0
VERTEX
  5
774
  8
0
  6
CONTINUOUS
 62
     8
 10
26.6433853455
 20
4.4591897024
 30
0.0
  0
VERTEX
  5
775
  8
0
  6
CONTINUOUS
 62
     8
 10
26.5780994754
 20
4.4999148725
 30
0.0
  0
VERTEX
  5
776
  8
0
  6
CONTINUOUS
 62
     8
 10
26.5110563868
 20
4.5371992872
 30
0.0
  0
VERTEX
  5
777
  8
0
  6
CONTINUOUS
 62
     8
 10
26.4423413952
 20
4.5710216904
 30
0.0
  0
VERTEX
  5
778
  8
0
  6
CONTINUOUS
 62
     8
 10
26.372039816
 20
4.6013608263
 30
0.0
  0
VERTEX
  5
779
  8
0
  6
CONTINUOUS
 62
     8
 10
26.3002369647
 20
4.6281954387
 30
0.0
  0
VERTEX
  5
77A
  8
0
  6
CONTINUOUS
 62
     8
 10
26.2270181567
 20
4.6515042718
 30
0.0
  0
VERTEX
  5
77B
  8
0
  6
CONTINUOUS
 62
     8
 10
26.1524687075
 20
4.6712660696
 30
0.0
  0
VERTEX
  5
77C
  8
0
  6
CONTINUOUS
 62
     8
 10
26.0766739325
 20
4.6874595761
 30
0.0
  0
VERTEX
  5
77D
  8
0
  6
CONTINUOUS
 62
     8
 10
25.9997191472
 20
4.7000635353
 30
0.0
  0
VERTEX
  5
77E
  8
0
  6
CONTINUOUS
 62
     8
 10
25.9216896671
 20
4.7090566913
 30
0.0
  0
VERTEX
  5
77F
  8
0
  6
CONTINUOUS
 62
     8
 10
25.8426708076
 20
4.7144177881
 30
0.0
  0
VERTEX
  5
780
  8
0
  6
CONTINUOUS
 62
     8
 10
25.7627478841
 20
4.7161255697
 30
0.0
  0
SEQEND
  5
B94
  8
0
  6
CONTINUOUS
 62
     8
  0
POLYLINE
  5
F8
  8
0
  6
CONTINUOUS
 62
     8
 66
     1
 10
0.0
 20
0.0
 30
0.0
  0
VERTEX
  5
781
  8
0
  6
CONTINUOUS
 62
     8
 10
6.1563839111
 20
4.1219912923
 30
0.0
  0
VERTEX
  5
782
  8
0
  6
CONTINUOUS
 62
     8
 10
6.1110139373
 20
4.071086019
 30
0.0
  0
VERTEX
  5
783
  8
0
  6
CONTINUOUS
 62
     8
 10
6.0671814204
 20
4.0182052817
 30
0.0
  0
VERTEX
  5
784
  8
0
  6
CONTINUOUS
 62
     8
 10
6.0249213787
 20
3.9633589067
 30
0.0
  0
VERTEX
  5
785
  8
0
  6
CONTINUOUS
 62
     8
 10
5.9842688307
 20
3.9065567199
 30
0.0
  0
VERTEX
  5
786
  8
0
  6
CONTINUOUS
 62
     8
 10
5.9452587947
 20
3.8478085477
 30
0.0
  0
VERTEX
  5
787
  8
0
  6
CONTINUOUS
 62
     8
 10
5.9079262892
 20
3.7871242161
 30
0.0
  0
VERTEX
  5
788
  8
0
  6
CONTINUOUS
 62
     8
 10
5.8723063327
 20
3.7245135513
 30
0.0
  0
VERTEX
  5
789
  8
0
  6
CONTINUOUS
 62
     8
 10
5.8384339434
 20
3.6599863794
 30
0.0
  0
VERTEX
  5
78A
  8
0
  6
CONTINUOUS
 62
     8
 10
5.8063441398
 20
3.5935525266
 30
0.0
  0
VERTEX
  5
78B
  8
0
  6
CONTINUOUS
 62
     8
 10
5.7760719404
 20
3.525221819
 30
0.0
  0
VERTEX
  5
78C
  8
0
  6
CONTINUOUS
 62
     8
 10
5.7476523634
 20
3.4550040828
 30
0.0
  0
VERTEX
  5
78D
  8
0
  6
CONTINUOUS
 62
     8
 10
5.7211204274
 20
3.3829091441
 30
0.0
  0
VERTEX
  5
78E
  8
0
  6
CONTINUOUS
 62
     8
 10
5.6965111508
 20
3.3089468291
 30
0.0
  0
VERTEX
  5
78F
  8
0
  6
CONTINUOUS
 62
     8
 10
5.6738595519
 20
3.2331269639
 30
0.0
  0
VERTEX
  5
790
  8
0
  6
CONTINUOUS
 62
     8
 10
5.6532006492
 20
3.1554593747
 30
0.0
  0
VERTEX
  5
791
  8
0
  6
CONTINUOUS
 62
     8
 10
5.634569461
 20
3.0759538876
 30
0.0
  0
VERTEX
  5
792
  8
0
  6
CONTINUOUS
 62
     8
 10
5.6180010058
 20
2.9946203287
 30
0.0
  0
VERTEX
  5
793
  8
0
  6
CONTINUOUS
 62
     8
 10
5.603530302
 20
2.9114685243
 30
0.0
  0
VERTEX
  5
794
  8
0
  6
CONTINUOUS
 62
     8
 10
5.5911923681
 20
2.8265083004
 30
0.0
  0
VERTEX
  5
795
  8
0
  6
CONTINUOUS
 62
     8
 10
5.5810222223
 20
2.7397494833
 30
0.0
  0
VERTEX
  5
796
  8
0
  6
CONTINUOUS
 62
     8
 10
5.5730548831
 20
2.651201899
 30
0.0
  0
VERTEX
  5
797
  8
0
  6
CONTINUOUS
 62
     8
 10
5.5673253689
 20
2.5608753737
 30
0.0
  0
VERTEX
  5
798
  8
0
  6
CONTINUOUS
 62
     8
 10
5.5638686982
 20
2.4687797335
 30
0.0
  0
VERTEX
  5
799
  8
0
  6
CONTINUOUS
 62
     8
 10
5.5627198893
 20
2.3749248047
 30
0.0
  0
SEQEND
  5
B95
  8
0
  6
CONTINUOUS
 62
     8
  0
POLYLINE
  5
F9
  8
0
  6
CONTINUOUS
 62
     8
 66
     1
 10
0.0
 20
0.0
 30
0.0
  0
VERTEX
  5
79A
  8
0
  6
CONTINUOUS
 62
     8
 10
26.1021380208
 20
2.7085375163
 30
0.0
  0
VERTEX
  5
79B
  8
0
  6
CONTINUOUS
 62
     8
 10
26.0615658849
 20
2.7177949626
 30
0.0
  0
VERTEX
  5
79C
  8
0
  6
CONTINUOUS
 62
     8
 10
26.0210609283
 20
2.7268774043
 30
0.0
  0
VERTEX
  5
79D
  8
0
  6
CONTINUOUS
 62
     8
 10
25.9806609395
 20
2.7358141742
 30
0.0
  0
VERTEX
  5
79E
  8
0
  6
CONTINUOUS
 62
     8
 10
25.9404037069
 20
2.7446346047
 30
0.0
  0
VERTEX
  5
79F
  8
0
  6
CONTINUOUS
 62
     8
 10
25.9003270187
 20
2.7533680287
 30
0.0
  0
VERTEX
  5
7A0
  8
0
  6
CONTINUOUS
 62
     8
 10
25.8604686635
 20
2.7620437787
 30
0.0
  0
VERTEX
  5
7A1
  8
0
  6
CONTINUOUS
 62
     8
 10
25.8208664296
 20
2.7706911875
 30
0.0
  0
VERTEX
  5
7A2
  8
0
  6
CONTINUOUS
 62
     8
 10
25.7815581055
 20
2.7793395876
 30
0.0
  0
VERTEX
  5
7A3
  8
0
  6
CONTINUOUS
 62
     8
 10
25.7425814794
 20
2.7880183117
 30
0.0
  0
VERTEX
  5
7A4
  8
0
  6
CONTINUOUS
 62
     8
 10
25.7039743398
 20
2.7967566924
 30
0.0
  0
VERTEX
  5
7A5
  8
0
  6
CONTINUOUS
 62
     8
 10
25.6657744751
 20
2.8055840625
 30
0.0
  0
VERTEX
  5
7A6
  8
0
  6
CONTINUOUS
 62
     8
 10
25.6280196737
 20
2.8145297546
 30
0.0
  0
VERTEX
  5
7A7
  8
0
  6
CONTINUOUS
 62
     8
 10
25.5907477239
 20
2.8236231014
 30
0.0
  0
VERTEX
  5
7A8
  8
0
  6
CONTINUOUS
 62
     8
 10
25.5539964142
 20
2.8328934354
 30
0.0
  0
VERTEX
  5
7A9
  8
0
  6
CONTINUOUS
 62
     8
 10
25.5178035329
 20
2.8423700894
 30
0.0
  0
VERTEX
  5
7AA
  8
0
  6
CONTINUOUS
 62
     8
 10
25.4822068685
 20
2.852082396
 30
0.0
  0
VERTEX
  5
7AB
  8
0
  6
CONTINUOUS
 62
     8
 10
25.4472442093
 20
2.8620596878
 30
0.0
  0
VERTEX
  5
7AC
  8
0
  6
CONTINUOUS
 62
     8
 10
25.4129533437
 20
2.8723312976
 30
0.0
  0
VERTEX
  5
7AD
  8
0
  6
CONTINUOUS
 62
     8
 10
25.3793720601
 20
2.8829265579
 30
0.0
  0
VERTEX
  5
7AE
  8
0
  6
CONTINUOUS
 62
     8
 10
25.346538147
 20
2.8938748014
 30
0.0
  0
VERTEX
  5
7AF
  8
0
  6
CONTINUOUS
 62
     8
 10
25.3144893926
 20
2.9052053609
 30
0.0
  0
VERTEX
  5
7B0
  8
0
  6
CONTINUOUS
 62
     8
 10
25.2832635854
 20
2.9169475689
 30
0.0
  0
VERTEX
  5
7B1
  8
0
  6
CONTINUOUS
 62
     8
 10
25.2528985138
 20
2.929130758
 30
0.0
  0
VERTEX
  5
7B2
  8
0
  6
CONTINUOUS
 62
     8
 10
25.2234319661
 20
2.9417842611
 30
0.0
  0
SEQEND
  5
B96
  8
0
  6
CONTINUOUS
 62
     8
  0
POLYLINE
  5
FA
  8
0
  6
CONTINUOUS
 62
     8
 66
     1
 10
0.0
 20
0.0
 30
0.0
  0
VERTEX
  5
7B3
  8
0
  6
CONTINUOUS
 62
     8
 10
34.1170389811
 20
4.1021062012
 30
0.0
  0
VERTEX
  5
7B4
  8
0
  6
CONTINUOUS
 62
     8
 10
34.1994527991
 20
4.0994887768
 30
0.0
  0
VERTEX
  5
7B5
  8
0
  6
CONTINUOUS
 62
     8
 10
34.2782201539
 20
4.0943255637
 30
0.0
  0
VERTEX
  5
7B6
  8
0
  6
CONTINUOUS
 62
     8
 10
34.3533586569
 20
4.0864430443
 30
0.0
  0
VERTEX
  5
7B7
  8
0
  6
CONTINUOUS
 62
     8
 10
34.4248859193
 20
4.0756677011
 30
0.0
  0
VERTEX
  5
7B8
  8
0
  6
CONTINUOUS
 62
     8
 10
34.4928195523
 20
4.0618260165
 30
0.0
  0
VERTEX
  5
7B9
  8
0
  6
CONTINUOUS
 62
     8
 10
34.5571771673
 20
4.0447444731
 30
0.0
  0
VERTEX
  5
7BA
  8
0
  6
CONTINUOUS
 62
     8
 10
34.6179763754
 20
4.0242495534
 30
0.0
  0
VERTEX
  5
7BB
  8
0
  6
CONTINUOUS
 62
     8
 10
34.6752347879
 20
4.0001677397
 30
0.0
  0
VERTEX
  5
7BC
  8
0
  6
CONTINUOUS
 62
     8
 10
34.7289700162
 20
3.9723255146
 30
0.0
  0
VERTEX
  5
7BD
  8
0
  6
CONTINUOUS
 62
     8
 10
34.7791996713
 20
3.9405493605
 30
0.0
  0
VERTEX
  5
7BE
  8
0
  6
CONTINUOUS
 62
     8
 10
34.8259413647
 20
3.9046657599
 30
0.0
  0
VERTEX
  5
7BF
  8
0
  6
CONTINUOUS
 62
     8
 10
34.8692127075
 20
3.8645011953
 30
0.0
  0
VERTEX
  5
7C0
  8
0
  6
CONTINUOUS
 62
     8
 10
34.909031311
 20
3.8198821491
 30
0.0
  0
VERTEX
  5
7C1
  8
0
  6
CONTINUOUS
 62
     8
 10
34.9454147865
 20
3.7706351039
 30
0.0
  0
VERTEX
  5
7C2
  8
0
  6
CONTINUOUS
 62
     8
 10
34.9783807453
 20
3.7165865421
 30
0.0
  0
VERTEX
  5
7C3
  8
0
  6
CONTINUOUS
 62
     8
 10
35.0079467984
 20
3.6575629461
 30
0.0
  0
VERTEX
  5
7C4
  8
0
  6
CONTINUOUS
 62
     8
 10
35.0341305574
 20
3.5933907985
 30
0.0
  0
VERTEX
  5
7C5
  8
0
  6
CONTINUOUS
 62
     8
 10
35.0569496333
 20
3.5238965816
 30
0.0
  0
VERTEX
  5
7C6
  8
0
  6
CONTINUOUS
 62
     8
 10
35.0764216374
 20
3.4489067781
 30
0.0
  0
VERTEX
  5
7C7
  8
0
  6
CONTINUOUS
 62
     8
 10
35.0925641811
 20
3.3682478704
 30
0.0
  0
VERTEX
  5
7C8
  8
0
  6
CONTINUOUS
 62
     8
 10
35.1053948755
 20
3.2817463408
 30
0.0
  0
VERTEX
  5
7C9
  8
0
  6
CONTINUOUS
 62
     8
 10
35.114931332
 20
3.189228672
 30
0.0
  0
VERTEX
  5
7CA
  8
0
  6
CONTINUOUS
 62
     8
 10
35.1211911617
 20
3.0905213464
 30
0.0
  0
VERTEX
  5
7CB
  8
0
  6
CONTINUOUS
 62
     8
 10
35.1241919759
 20
2.9854508464
 30
0.0
  0
SEQEND
  5
B97
  8
0
  6
CONTINUOUS
 62
     8
  0
POLYLINE
  5
FB
  8
0
  6
CONTINUOUS
 62
     8
 66
     1
 10
0.0
 20
0.0
 30
0.0
  0
VERTEX
  5
7CC
  8
0
  6
CONTINUOUS
 62
     8
 10
3.0729183757
 20
0.5823107096
 30
0.0
  0
VERTEX
  5
7CD
  8
0
  6
CONTINUOUS
 62
     8
 10
3.1716110641
 20
0.5858460138
 30
0.0
  0
VERTEX
  5
7CE
  8
0
  6
CONTINUOUS
 62
     8
 10
3.268163256
 20
0.5959116535
 30
0.0
  0
VERTEX
  5
7CF
  8
0
  6
CONTINUOUS
 62
     8
 10
3.3623938528
 20
0.6124529872
 30
0.0
  0
VERTEX
  5
7D0
  8
0
  6
CONTINUOUS
 62
     8
 10
3.4541217559
 20
0.6354153732
 30
0.0
  0
VERTEX
  5
7D1
  8
0
  6
CONTINUOUS
 62
     8
 10
3.5431658668
 20
0.6647441702
 30
0.0
  0
VERTEX
  5
7D2
  8
0
  6
CONTINUOUS
 62
     8
 10
3.6293450871
 20
0.7003847364
 30
0.0
  0
VERTEX
  5
7D3
  8
0
  6
CONTINUOUS
 62
     8
 10
3.712478318
 20
0.7422824304
 30
0.0
  0
VERTEX
  5
7D4
  8
0
  6
CONTINUOUS
 62
     8
 10
3.7923844612
 20
0.7903826106
 30
0.0
  0
VERTEX
  5
7D5
  8
0
  6
CONTINUOUS
 62
     8
 10
3.8688824181
 20
0.8446306354
 30
0.0
  0
VERTEX
  5
7D6
  8
0
  6
CONTINUOUS
 62
     8
 10
3.9417910901
 20
0.9049718634
 30
0.0
  0
VERTEX
  5
7D7
  8
0
  6
CONTINUOUS
 62
     8
 10
4.0109293788
 20
0.971351653
 30
0.0
  0
VERTEX
  5
7D8
  8
0
  6
CONTINUOUS
 62
     8
 10
4.0761161855
 20
1.0437153625
 30
0.0
  0
VERTEX
  5
7D9
  8
0
  6
CONTINUOUS
 62
     8
 10
4.1371704118
 20
1.1220083506
 30
0.0
  0
VERTEX
  5
7DA
  8
0
  6
CONTINUOUS
 62
     8
 10
4.1939109591
 20
1.2061759756
 30
0.0
  0
VERTEX
  5
7DB
  8
0
  6
CONTINUOUS
 62
     8
 10
4.246156729
 20
1.296163596
 30
0.0
  0
VERTEX
  5
7DC
  8
0
  6
CONTINUOUS
 62
     8
 10
4.2937266228
 20
1.3919165702
 30
0.0
  0
VERTEX
  5
7DD
  8
0
  6
CONTINUOUS
 62
     8
 10
4.336439542
 20
1.4933802567
 30
0.0
  0
VERTEX
  5
7DE
  8
0
  6
CONTINUOUS
 62
     8
 10
4.3741143881
 20
1.600500014
 30
0.0
  0
VERTEX
  5
7DF
  8
0
  6
CONTINUOUS
 62
     8
 10
4.4065700627
 20
1.7132212004
 30
0.0
  0
VERTEX
  5
7E0
  8
0
  6
CONTINUOUS
 62
     8
 10
4.433625467
 20
1.8314891745
 30
0.0
  0
VERTEX
  5
7E1
  8
0
  6
CONTINUOUS
 62
     8
 10
4.4550995026
 20
1.9552492948
 30
0.0
  0
VERTEX
  5
7E2
  8
0
  6
CONTINUOUS
 62
     8
 10
4.4708110711
 20
2.0844469195
 30
0.0
  0
VERTEX
  5
7E3
  8
0
  6
CONTINUOUS
 62
     8
 10
4.4805790737
 20
2.2190274073
 30
0.0
  0
VERTEX
  5
7E4
  8
0
  6
CONTINUOUS
 62
     8
 10
4.4842224121
 20
2.3589361165
 30
0.0
  0
SEQEND
  5
B98
  8
0
  6
CONTINUOUS
 62
     8
  0
POLYLINE
  5
FC
  8
0
  6
CONTINUOUS
 62
     8
 66
     1
 10
0.0
 20
0.0
 30
0.0
  0
VERTEX
  5
7E5
  8
0
  6
CONTINUOUS
 62
     8
 10
15.6729451497
 20
0.6274552409
 30
0.0
  0
VERTEX
  5
7E6
  8
0
  6
CONTINUOUS
 62
     8
 10
15.7197753222
 20
0.5785434559
 30
0.0
  0
VERTEX
  5
7E7
  8
0
  6
CONTINUOUS
 62
     8
 10
15.7680518045
 20
0.5316409869
 30
0.0
  0
VERTEX
  5
7E8
  8
0
  6
CONTINUOUS
 62
     8
 10
15.8177338633
 20
0.4867543653
 30
0.0
  0
VERTEX
  5
7E9
  8
0
  6
CONTINUOUS
 62
     8
 10
15.8687807653
 20
0.4438901224
 30
0.0
  0
VERTEX
  5
7EA
  8
0
  6
CONTINUOUS
 62
     8
 10
15.9211517772
 20
0.4030547896
 30
0.0
  0
VERTEX
  5
7EB
  8
0
  6
CONTINUOUS
 62
     8
 10
15.9748061657
 20
0.3642548981
 30
0.0
  0
VERTEX
  5
7EC
  8
0
  6
CONTINUOUS
 62
     8
 10
16.0297031974
 20
0.3274969793
 30
0.0
  0
VERTEX
  5
7ED
  8
0
  6
CONTINUOUS
 62
     8
 10
16.0858021391
 20
0.2927875645
 30
0.0
  0
VERTEX
  5
7EE
  8
0
  6
CONTINUOUS
 62
     8
 10
16.1430622574
 20
0.2601331851
 30
0.0
  0
VERTEX
  5
7EF
  8
0
  6
CONTINUOUS
 62
     8
 10
16.2014428189
 20
0.2295403723
 30
0.0
  0
VERTEX
  5
7F0
  8
0
  6
CONTINUOUS
 62
     8
 10
16.2609030905
 20
0.2010156575
 30
0.0
  0
VERTEX
  5
7F1
  8
0
  6
CONTINUOUS
 62
     8
 10
16.3214023387
 20
0.1745655721
 30
0.0
  0
VERTEX
  5
7F2
  8
0
  6
CONTINUOUS
 62
     8
 10
16.3828998302
 20
0.1501966473
 30
0.0
  0
VERTEX
  5
7F3
  8
0
  6
CONTINUOUS
 62
     8
 10
16.4453548317
 20
0.1279154145
 30
0.0
  0
VERTEX
  5
7F4
  8
0
  6
CONTINUOUS
 62
     8
 10
16.5087266099
 20
0.107728405
 30
0.0
  0
VERTEX
  5
7F5
  8
0
  6
CONTINUOUS
 62
     8
 10
16.5729744315
 20
0.0896421501
 30
0.0
  0
VERTEX
  5
7F6
  8
0
  6
CONTINUOUS
 62
     8
 10
16.6380575632
 20
0.0736631812
 30
0.0
  0
VERTEX
  5
7F7
  8
0
  6
CONTINUOUS
 62
     8
 10
16.7039352716
 20
0.0597980296
 30
0.0
  0
VERTEX
  5
7F8
  8
0
  6
CONTINUOUS
 62
     8
 10
16.7705668234
 20
0.0480532266
 30
0.0
  0
VERTEX
  5
7F9
  8
0
  6
CONTINUOUS
 62
     8
 10
16.8379114853
 20
0.0384353035
 30
0.0
  0
VERTEX
  5
7FA
  8
0
  6
CONTINUOUS
 62
     8
 10
16.9059285239
 20
0.0309507917
 30
0.0
  0
VERTEX
  5
7FB
  8
0
  6
CONTINUOUS
 62
     8
 10
16.9745772061
 20
0.0256062225
 30
0.0
  0
VERTEX
  5
7FC
  8
0
  6
CONTINUOUS
 62
     8
 10
17.0438167983
 20
0.0224081272
 30
0.0
  0
VERTEX
  5
7FD
  8
0
  6
CONTINUOUS
 62
     8
 10
17.1136065674
 20
0.0213630371
 30
0.0
  0
SEQEND
  5
B99
  8
0
  6
CONTINUOUS
 62
     8
  0
POLYLINE
  5
FD
  8
0
  6
CONTINUOUS
 62
     8
 66
     1
 10
0.0
 20
0.0
 30
0.0
  0
VERTEX
  5
7FE
  8
0
  6
CONTINUOUS
 62
     8
 10
12.3384303385
 20
4.728620931
 30
0.0
  0
VERTEX
  5
7FF
  8
0
  6
CONTINUOUS
 62
     8
 10
12.2685929306
 20
4.7275466298
 30
0.0
  0
VERTEX
  5
800
  8
0
  6
CONTINUOUS
 62
     8
 10
12.1993109771
 20
4.7243274
 30
0.0
  0
VERTEX
  5
801
  8
0
  6
CONTINUOUS
 62
     8
 10
12.1306248905
 20
4.7189687525
 30
0.0
  0
VERTEX
  5
802
  8
0
  6
CONTINUOUS
 62
     8
 10
12.0625750834
 20
4.711476198
 30
0.0
  0
VERTEX
  5
803
  8
0
  6
CONTINUOUS
 62
     8
 10
11.9952019685
 20
4.7018552474
 30
0.0
  0
VERTEX
  5
804
  8
0
  6
CONTINUOUS
 62
     8
 10
11.9285459582
 20
4.6901114114
 30
0.0
  0
VERTEX
  5
805
  8
0
  6
CONTINUOUS
 62
     8
 10
11.8626474652
 20
4.6762502009
 30
0.0
  0
VERTEX
  5
806
  8
0
  6
CONTINUOUS
 62
     8
 10
11.7975469021
 20
4.6602771267
 30
0.0
  0
VERTEX
  5
807
  8
0
  6
CONTINUOUS
 62
     8
 10
11.7332846815
 20
4.6421976996
 30
0.0
  0
VERTEX
  5
808
  8
0
  6
CONTINUOUS
 62
     8
 10
11.6699012159
 20
4.6220174304
 30
0.0
  0
VERTEX
  5
809
  8
0
  6
CONTINUOUS
 62
     8
 10
11.6074369179
 20
4.5997418299
 30
0.0
  0
VERTEX
  5
80A
  8
0
  6
CONTINUOUS
 62
     8
 10
11.5459322001
 20
4.5753764089
 30
0.0
  0
VERTEX
  5
80B
  8
0
  6
CONTINUOUS
 62
     8
 10
11.4854274751
 20
4.5489266782
 30
0.0
  0
VERTEX
  5
80C
  8
0
  6
CONTINUOUS
 62
     8
 10
11.4259631555
 20
4.5203981486
 30
0.0
  0
VERTEX
  5
80D
  8
0
  6
CONTINUOUS
 62
     8
 10
11.3675796539
 20
4.489796331
 30
0.0
  0
VERTEX
  5
80E
  8
0
  6
CONTINUOUS
 62
     8
 10
11.3103173828
 20
4.4571267361
 30
0.0
  0
VERTEX
  5
80F
  8
0
  6
CONTINUOUS
 62
     8
 10
11.2542167549
 20
4.4223948748
 30
0.0
  0
VERTEX
  5
810
  8
0
  6
CONTINUOUS
 62
     8
 10
11.1993181826
 20
4.3856062578
 30
0.0
  0
VERTEX
  5
811
  8
0
  6
CONTINUOUS
 62
     8
 10
11.1456620787
 20
4.3467663959
 30
0.0
  0
VERTEX
  5
812
  8
0
  6
CONTINUOUS
 62
     8
 10
11.0932888557
 20
4.3058808
 30
0.0
  0
VERTEX
  5
813
  8
0
  6
CONTINUOUS
 62
     8
 10
11.0422389261
 20
4.2629549809
 30
0.0
  0
VERTEX
  5
814
  8
0
  6
CONTINUOUS
 62
     8
 10
10.9925527026
 20
4.2179944494
 30
0.0
  0
VERTEX
  5
815
  8
0
  6
CONTINUOUS
 62
     8
 10
10.9442705977
 20
4.1710047163
 30
0.0
  0
VERTEX
  5
816
  8
0
  6
CONTINUOUS
 62
     8
 10
10.8974330241
 20
4.1219912923
 30
0.0
  0
SEQEND
  5
B9A
  8
0
  6
CONTINUOUS
 62
     8
  0
POLYLINE
  5
FE
  8
0
  6
CONTINUOUS
 62
     8
 66
     1
 10
0.0
 20
0.0
 30
0.0
  0
VERTEX
  5
817
  8
0
  6
CONTINUOUS
 62
     8
 10
29.9199411621
 20
0.647340332
 30
0.0
  0
VERTEX
  5
818
  8
0
  6
CONTINUOUS
 62
     8
 10
29.8373480437
 20
0.6504569704
 30
0.0
  0
VERTEX
  5
819
  8
0
  6
CONTINUOUS
 62
     8
 10
29.7545460394
 20
0.6592938265
 30
0.0
  0
VERTEX
  5
81A
  8
0
  6
CONTINUOUS
 62
     8
 10
29.671865098
 20
0.673887464
 30
0.0
  0
VERTEX
  5
81B
  8
0
  6
CONTINUOUS
 62
     8
 10
29.589635168
 20
0.6942744468
 30
0.0
  0
VERTEX
  5
81C
  8
0
  6
CONTINUOUS
 62
     8
 10
29.5081861981
 20
0.7204913386
 30
0.0
  0
VERTEX
  5
81D
  8
0
  6
CONTINUOUS
 62
     8
 10
29.4278481369
 20
0.7525747032
 30
0.0
  0
VERTEX
  5
81E
  8
0
  6
CONTINUOUS
 62
     8
 10
29.3489509331
 20
0.7905611043
 30
0.0
  0
VERTEX
  5
81F
  8
0
  6
CONTINUOUS
 62
     8
 10
29.2718245352
 20
0.8344871058
 30
0.0
  0
VERTEX
  5
820
  8
0
  6
CONTINUOUS
 62
     8
 10
29.196798892
 20
0.8843892713
 30
0.0
  0
VERTEX
  5
821
  8
0
  6
CONTINUOUS
 62
     8
 10
29.1242039521
 20
0.9403041646
 30
0.0
  0
VERTEX
  5
822
  8
0
  6
CONTINUOUS
 62
     8
 10
29.0543696641
 20
1.0022683496
 30
0.0
  0
VERTEX
  5
823
  8
0
  6
CONTINUOUS
 62
     8
 10
28.9876259766
 20
1.0703183899
 30
0.0
  0
VERTEX
  5
824
  8
0
  6
CONTINUOUS
 62
     8
 10
28.9243028383
 20
1.1444908494
 30
0.0
  0
VERTEX
  5
825
  8
0
  6
CONTINUOUS
 62
     8
 10
28.8647301978
 20
1.2248222918
 30
0.0
  0
VERTEX
  5
826
  8
0
  6
CONTINUOUS
 62
     8
 10
28.8092380037
 20
1.3113492808
 30
0.0
  0
VERTEX
  5
827
  8
0
  6
CONTINUOUS
 62
     8
 10
28.7581562048
 20
1.4041083804
 30
0.0
  0
VERTEX
  5
828
  8
0
  6
CONTINUOUS
 62
     8
 10
28.7118147496
 20
1.5031361541
 30
0.0
  0
VERTEX
  5
829
  8
0
  6
CONTINUOUS
 62
     8
 10
28.6705435867
 20
1.6084691658
 30
0.0
  0
VERTEX
  5
82A
  8
0
  6
CONTINUOUS
 62
     8
 10
28.6346726649
 20
1.7201439793
 30
0.0
  0
VERTEX
  5
82B
  8
0
  6
CONTINUOUS
 62
     8
 10
28.6045319327
 20
1.8381971582
 30
0.0
  0
VERTEX
  5
82C
  8
0
  6
CONTINUOUS
 62
     8
 10
28.5804513388
 20
1.9626652665
 30
0.0
  0
VERTEX
  5
82D
  8
0
  6
CONTINUOUS
 62
     8
 10
28.5627608318
 20
2.0935848678
 30
0.0
  0
VERTEX
  5
82E
  8
0
  6
CONTINUOUS
 62
     8
 10
28.5517903603
 20
2.230992526
 30
0.0
  0
VERTEX
  5
82F
  8
0
  6
CONTINUOUS
 62
     8
 10
28.547869873
 20
2.3749248047
 30
0.0
  0
SEQEND
  5
B9B
  8
0
  6
CONTINUOUS
 62
     8
  0
POLYLINE
  5
FF
  8
0
  6
CONTINUOUS
 62
     8
 10
0.0
 20
0.0
 30
0.0
 66
     1
 70
     8
  0
VERTEX
  5
830
  8
0
  6
CONTINUOUS
 62
     8
 10
43.158171875
 20
0.6738090007
 30
0.0
 70
    32
  0
VERTEX
  5
831
  8
0
  6
CONTINUOUS
 62
     8
 10
43.1311757434
 20
0.6738090007
 30
0.0
 70
    32
  0
VERTEX
  5
832
  8
0
  6
CONTINUOUS
 62
     8
 10
43.1038972486
 20
0.6738090007
 30
0.0
 70
    32
  0
VERTEX
  5
833
  8
0
  6
CONTINUOUS
 62
     8
 10
43.0763363905
 20
0.6738090007
 30
0.0
 70
    32
  0
VERTEX
  5
834
  8
0
  6
CONTINUOUS
 62
     8
 10
43.0484931691
 20
0.6738090007
 30
0.0
 70
    32
  0
VERTEX
  5
835
  8
0
  6
CONTINUOUS
 62
     8
 10
43.0203675845
 20
0.6738090007
 30
0.0
 70
    32
  0
VERTEX
  5
836
  8
0
  6
CONTINUOUS
 62
     8
 10
42.9919596367
 20
0.6738090007
 30
0.0
 70
    32
  0
VERTEX
  5
837
  8
0
  6
CONTINUOUS
 62
     8
 10
42.9632693256
 20
0.6738090007
 30
0.0
 70
    32
  0
VERTEX
  5
838
  8
0
  6
CONTINUOUS
 62
     8
 10
42.9342966512
 20
0.6738090007
 30
0.0
 70
    32
  0
VERTEX
  5
839
  8
0
  6
CONTINUOUS
 62
     8
 10
42.9050416136
 20
0.6738090007
 30
0.0
 70
    32
  0
VERTEX
  5
83A
  8
0
  6
CONTINUOUS
 62
     8
 10
42.8755042127
 20
0.6738090007
 30
0.0
 70
    32
  0
VERTEX
  5
83B
  8
0
  6
CONTINUOUS
 62
     8
 10
42.8456844486
 20
0.6738090007
 30
0.0
 70
    32
  0
VERTEX
  5
83C
  8
0
  6
CONTINUOUS
 62
     8
 10
42.8155823212
 20
0.6738090007
 30
0.0
 70
    32
  0
VERTEX
  5
83D
  8
0
  6
CONTINUOUS
 62
     8
 10
42.7851978305
 20
0.6738090007
 30
0.0
 70
    32
  0
VERTEX
  5
83E
  8
0
  6
CONTINUOUS
 62
     8
 10
42.7545309766
 20
0.6738090007
 30
0.0
 70
    32
  0
VERTEX
  5
83F
  8
0
  6
CONTINUOUS
 62
     8
 10
42.7235817595
 20
0.6738090007
 30
0.0
 70
    32
  0
VERTEX
  5
840
  8
0
  6
CONTINUOUS
 62
     8
 10
42.692350179
 20
0.6738090007
 30
0.0
 70
    32
  0
SEQEND
  5
B9C
  8
0
  6
CONTINUOUS
 62
     8
  0
POLYLINE
  5
100
  8
0
  6
CONTINUOUS
 62
     8
 66
     1
 10
0.0
 20
0.0
 30
0.0
  0
VERTEX
  5
841
  8
0
  6
CONTINUOUS
 62
     8
 10
2.2800675456
 20
0.0088676758
 30
0.0
  0
VERTEX
  5
842
  8
0
  6
CONTINUOUS
 62
     8
 10
2.1714782349
 20
0.0396236551
 30
0.0
  0
VERTEX
  5
843
  8
0
  6
CONTINUOUS
 62
     8
 10
2.0654043307
 20
0.0762408005
 30
0.0
  0
VERTEX
  5
844
  8
0
  6
CONTINUOUS
 62
     8
 10
1.9620232575
 20
0.1186796907
 30
0.0
  0
VERTEX
  5
845
  8
0
  6
CONTINUOUS
 62
     8
 10
1.8615124401
 20
0.1669009045
 30
0.0
  0
VERTEX
  5
846
  8
0
  6
CONTINUOUS
 62
     8
 10
1.764049303
 20
0.2208650208
 30
0.0
  0
VERTEX
  5
847
  8
0
  6
CONTINUOUS
 62
     8
 10
1.669811271
 20
0.2805326182
 30
0.0
  0
VERTEX
  5
848
  8
0
  6
CONTINUOUS
 62
     8
 10
1.5789757688
 20
0.3458642756
 30
0.0
  0
VERTEX
  5
849
  8
0
  6
CONTINUOUS
 62
     8
 10
1.4917202209
 20
0.4168205717
 30
0.0
  0
VERTEX
  5
84A
  8
0
  6
CONTINUOUS
 62
     8
 10
1.408222052
 20
0.4933620853
 30
0.0
  0
VERTEX
  5
84B
  8
0
  6
CONTINUOUS
 62
     8
 10
1.3286586869
 20
0.5754493953
 30
0.0
  0
VERTEX
  5
84C
  8
0
  6
CONTINUOUS
 62
     8
 10
1.2532075501
 20
0.6630430802
 30
0.0
  0
VERTEX
  5
84D
  8
0
  6
CONTINUOUS
 62
     8
 10
1.1820460663
 20
0.7561037191
 30
0.0
  0
VERTEX
  5
84E
  8
0
  6
CONTINUOUS
 62
     8
 10
1.1153516602
 20
0.8545918905
 30
0.0
  0
VERTEX
  5
84F
  8
0
  6
CONTINUOUS
 62
     8
 10
1.0533017564
 20
0.9584681734
 30
0.0
  0
VERTEX
  5
850
  8
0
  6
CONTINUOUS
 62
     8
 10
0.9960737797
 20
1.0676931464
 30
0.0
  0
VERTEX
  5
851
  8
0
  6
CONTINUOUS
 62
     8
 10
0.9438451546
 20
1.1822273884
 30
0.0
  0
VERTEX
  5
852
  8
0
  6
CONTINUOUS
 62
     8
 10
0.8967933058
 20
1.3020314781
 30
0.0
  0
VERTEX
  5
853
  8
0
  6
CONTINUOUS
 62
     8
 10
0.855095658
 20
1.4270659943
 30
0.0
  0
VERTEX
  5
854
  8
0
  6
CONTINUOUS
 62
     8
 10
0.8189296358
 20
1.5572915158
 30
0.0
  0
VERTEX
  5
855
  8
0
  6
CONTINUOUS
 62
     8
 10
0.788472664
 20
1.6926686213
 30
0.0
  0
VERTEX
  5
856
  8
0
  6
CONTINUOUS
 62
     8
 10
0.7639021671
 20
1.8331578897
 30
0.0
  0
VERTEX
  5
857
  8
0
  6
CONTINUOUS
 62
     8
 10
0.7453955698
 20
1.9787198997
 30
0.0
  0
VERTEX
  5
858
  8
0
  6
CONTINUOUS
 62
     8
 10
0.7331302968
 20
2.1293152301
 30
0.0
  0
VERTEX
  5
859
  8
0
  6
CONTINUOUS
 62
     8
 10
0.7272837728
 20
2.2849044596
 30
0.0
  0
SEQEND
  5
B9D
  8
0
  6
CONTINUOUS
 62
     8
  0
POLYLINE
  5
101
  8
0
  6
CONTINUOUS
 62
     8
 66
     1
 10
0.0
 20
0.0
 30
0.0
  0
VERTEX
  5
85A
  8
0
  6
CONTINUOUS
 62
     8
 10
23.0394980876
 20
4.2873868815
 30
0.0
  0
VERTEX
  5
85B
  8
0
  6
CONTINUOUS
 62
     8
 10
23.0058550188
 20
4.322013746
 30
0.0
  0
VERTEX
  5
85C
  8
0
  6
CONTINUOUS
 62
     8
 10
22.970743976
 20
4.3553452208
 30
0.0
  0
VERTEX
  5
85D
  8
0
  6
CONTINUOUS
 62
     8
 10
22.9341637346
 20
4.3873651237
 30
0.0
  0
VERTEX
  5
85E
  8
0
  6
CONTINUOUS
 62
     8
 10
22.8961130699
 20
4.4180572719
 30
0.0
  0
VERTEX
  5
85F
  8
0
  6
CONTINUOUS
 62
     8
 10
22.8565907573
 20
4.447405483
 30
0.0
  0
VERTEX
  5
860
  8
0
  6
CONTINUOUS
 62
     8
 10
22.8155955722
 20
4.4753935744
 30
0.0
  0
VERTEX
  5
861
  8
0
  6
CONTINUOUS
 62
     8
 10
22.7731262899
 20
4.5020053636
 30
0.0
  0
VERTEX
  5
862
  8
0
  6
CONTINUOUS
 62
     8
 10
22.7291816858
 20
4.5272246681
 30
0.0
  0
VERTEX
  5
863
  8
0
  6
CONTINUOUS
 62
     8
 10
22.6837605354
 20
4.5510353054
 30
0.0
  0
VERTEX
  5
864
  8
0
  6
CONTINUOUS
 62
     8
 10
22.6368616139
 20
4.5734210929
 30
0.0
  0
VERTEX
  5
865
  8
0
  6
CONTINUOUS
 62
     8
 10
22.5884836968
 20
4.5943658481
 30
0.0
  0
VERTEX
  5
866
  8
0
  6
CONTINUOUS
 62
     8
 10
22.5386255595
 20
4.6138533885
 30
0.0
  0
VERTEX
  5
867
  8
0
  6
CONTINUOUS
 62
     8
 10
22.4872859772
 20
4.6318675315
 30
0.0
  0
VERTEX
  5
868
  8
0
  6
CONTINUOUS
 62
     8
 10
22.4344637255
 20
4.6483920946
 30
0.0
  0
VERTEX
  5
869
  8
0
  6
CONTINUOUS
 62
     8
 10
22.3801575796
 20
4.6634108953
 30
0.0
  0
VERTEX
  5
86A
  8
0
  6
CONTINUOUS
 62
     8
 10
22.3243663149
 20
4.676907751
 30
0.0
  0
VERTEX
  5
86B
  8
0
  6
CONTINUOUS
 62
     8
 10
22.2670887069
 20
4.6888664793
 30
0.0
  0
VERTEX
  5
86C
  8
0
  6
CONTINUOUS
 62
     8
 10
22.2083235308
 20
4.6992708975
 30
0.0
  0
VERTEX
  5
86D
  8
0
  6
CONTINUOUS
 62
     8
 10
22.1480695622
 20
4.7081048233
 30
0.0
  0
VERTEX
  5
86E
  8
0
  6
CONTINUOUS
 62
     8
 10
22.0863255762
 20
4.715352074
 30
0.0
  0
VERTEX
  5
86F
  8
0
  6
CONTINUOUS
 62
     8
 10
22.0230903484
 20
4.720996467
 30
0.0
  0
VERTEX
  5
870
  8
0
  6
CONTINUOUS
 62
     8
 10
21.9583626541
 20
4.72502182
 30
0.0
  0
VERTEX
  5
871
  8
0
  6
CONTINUOUS
 62
     8
 10
21.8921412686
 20
4.7274119503
 30
0.0
  0
VERTEX
  5
872
  8
0
  6
CONTINUOUS
 62
     8
 10
21.8244249674
 20
4.7281506755
 30
0.0
  0
SEQEND
  5
B9E
  8
0
  6
CONTINUOUS
 62
     8
  0
POLYLINE
  5
102
  8
0
  6
CONTINUOUS
 62
     8
 66
     1
 10
0.0
 20
0.0
 30
0.0
  0
VERTEX
  5
873
  8
0
  6
CONTINUOUS
 62
     8
 10
15.0791467692
 20
2.3743873698
 30
0.0
  0
VERTEX
  5
874
  8
0
  6
CONTINUOUS
 62
     8
 10
15.0802654096
 20
2.2805582698
 30
0.0
  0
VERTEX
  5
875
  8
0
  6
CONTINUOUS
 62
     8
 10
15.0836984431
 20
2.1884894791
 30
0.0
  0
VERTEX
  5
876
  8
0
  6
CONTINUOUS
 62
     8
 10
15.0894103849
 20
2.0981904446
 30
0.0
  0
VERTEX
  5
877
  8
0
  6
CONTINUOUS
 62
     8
 10
15.09736575
 20
2.0096706136
 30
0.0
  0
VERTEX
  5
878
  8
0
  6
CONTINUOUS
 62
     8
 10
15.1075290534
 20
1.9229394331
 30
0.0
  0
VERTEX
  5
879
  8
0
  6
CONTINUOUS
 62
     8
 10
15.1198648103
 20
1.8380063502
 30
0.0
  0
VERTEX
  5
87A
  8
0
  6
CONTINUOUS
 62
     8
 10
15.1343375357
 20
1.754880812
 30
0.0
  0
VERTEX
  5
87B
  8
0
  6
CONTINUOUS
 62
     8
 10
15.1509117447
 20
1.6735722656
 30
0.0
  0
VERTEX
  5
87C
  8
0
  6
CONTINUOUS
 62
     8
 10
15.1695519523
 20
1.5940901581
 30
0.0
  0
VERTEX
  5
87D
  8
0
  6
CONTINUOUS
 62
     8
 10
15.1902226736
 20
1.5164439367
 30
0.0
  0
VERTEX
  5
87E
  8
0
  6
CONTINUOUS
 62
     8
 10
15.2128884237
 20
1.4406430483
 30
0.0
  0
VERTEX
  5
87F
  8
0
  6
CONTINUOUS
 62
     8
 10
15.2375137177
 20
1.3666969401
 30
0.0
  0
VERTEX
  5
880
  8
0
  6
CONTINUOUS
 62
     8
 10
15.2640630705
 20
1.2946150592
 30
0.0
  0
VERTEX
  5
881
  8
0
  6
CONTINUOUS
 62
     8
 10
15.2925009974
 20
1.2244068527
 30
0.0
  0
VERTEX
  5
882
  8
0
  6
CONTINUOUS
 62
     8
 10
15.3227920132
 20
1.1560817677
 30
0.0
  0
VERTEX
  5
883
  8
0
  6
CONTINUOUS
 62
     8
 10
15.3549006333
 20
1.0896492513
 30
0.0
  0
VERTEX
  5
884
  8
0
  6
CONTINUOUS
 62
     8
 10
15.3887913725
 20
1.0251187506
 30
0.0
  0
VERTEX
  5
885
  8
0
  6
CONTINUOUS
 62
     8
 10
15.4244287459
 20
0.9624997126
 30
0.0
  0
VERTEX
  5
886
  8
0
  6
CONTINUOUS
 62
     8
 10
15.4617772687
 20
0.9018015846
 30
0.0
  0
VERTEX
  5
887
  8
0
  6
CONTINUOUS
 62
     8
 10
15.5008014558
 20
0.8430338135
 30
0.0
  0
VERTEX
  5
888
  8
0
  6
CONTINUOUS
 62
     8
 10
15.5414658225
 20
0.7862058465
 30
0.0
  0
VERTEX
  5
889
  8
0
  6
CONTINUOUS
 62
     8
 10
15.5837348836
 20
0.7313271306
 30
0.0
  0
VERTEX
  5
88A
  8
0
  6
CONTINUOUS
 62
     8
 10
15.6275731543
 20
0.6784071131
 30
0.0
  0
VERTEX
  5
88B
  8
0
  6
CONTINUOUS
 62
     8
 10
15.6729451497
 20
0.6274552409
 30
0.0
  0
SEQEND
  5
B9F
  8
0
  6
CONTINUOUS
 62
     8
  0
POLYLINE
  5
103
  8
0
  6
CONTINUOUS
 62
     8
 66
     1
 10
0.0
 20
0.0
 30
0.0
  0
VERTEX
  5
88C
  8
0
  6
CONTINUOUS
 62
     8
 10
12.3384303385
 20
0.6476090495
 30
0.0
  0
VERTEX
  5
88D
  8
0
  6
CONTINUOUS
 62
     8
 10
12.2424716178
 20
0.6510650058
 30
0.0
  0
VERTEX
  5
88E
  8
0
  6
CONTINUOUS
 62
     8
 10
12.1485926581
 20
0.6608607229
 30
0.0
  0
VERTEX
  5
88F
  8
0
  6
CONTINUOUS
 62
     8
 10
12.0569698054
 20
0.676944125
 30
0.0
  0
VERTEX
  5
890
  8
0
  6
CONTINUOUS
 62
     8
 10
11.9677794054
 20
0.6992631365
 30
0.0
  0
VERTEX
  5
891
  8
0
  6
CONTINUOUS
 62
     8
 10
11.8811978039
 20
0.7277656817
 30
0.0
  0
VERTEX
  5
892
  8
0
  6
CONTINUOUS
 62
     8
 10
11.7974013468
 20
0.7623996849
 30
0.0
  0
VERTEX
  5
893
  8
0
  6
CONTINUOUS
 62
     8
 10
11.71656638
 20
0.8031130705
 30
0.0
  0
VERTEX
  5
894
  8
0
  6
CONTINUOUS
 62
     8
 10
11.6388692491
 20
0.8498537628
 30
0.0
  0
VERTEX
  5
895
  8
0
  6
CONTINUOUS
 62
     8
 10
11.5644863002
 20
0.9025696861
 30
0.0
  0
VERTEX
  5
896
  8
0
  6
CONTINUOUS
 62
     8
 10
11.4935938789
 20
0.9612087648
 30
0.0
  0
VERTEX
  5
897
  8
0
  6
CONTINUOUS
 62
     8
 10
11.4263683311
 20
1.0257189231
 30
0.0
  0
VERTEX
  5
898
  8
0
  6
CONTINUOUS
 62
     8
 10
11.3629860026
 20
1.0960480855
 30
0.0
  0
VERTEX
  5
899
  8
0
  6
CONTINUOUS
 62
     8
 10
11.3036232393
 20
1.1721441763
 30
0.0
  0
VERTEX
  5
89A
  8
0
  6
CONTINUOUS
 62
     8
 10
11.248456387
 20
1.2539551197
 30
0.0
  0
VERTEX
  5
89B
  8
0
  6
CONTINUOUS
 62
     8
 10
11.1976617915
 20
1.3414288402
 30
0.0
  0
VERTEX
  5
89C
  8
0
  6
CONTINUOUS
 62
     8
 10
11.1514157986
 20
1.434513262
 30
0.0
  0
VERTEX
  5
89D
  8
0
  6
CONTINUOUS
 62
     8
 10
11.1098947542
 20
1.5331563094
 30
0.0
  0
VERTEX
  5
89E
  8
0
  6
CONTINUOUS
 62
     8
 10
11.0732750041
 20
1.6373059069
 30
0.0
  0
VERTEX
  5
89F
  8
0
  6
CONTINUOUS
 62
     8
 10
11.041732894
 20
1.7469099788
 30
0.0
  0
VERTEX
  5
8A0
  8
0
  6
CONTINUOUS
 62
     8
 10
11.01544477
 20
1.8619164493
 30
0.0
  0
VERTEX
  5
8A1
  8
0
  6
CONTINUOUS
 62
     8
 10
10.9945869776
 20
1.9822732428
 30
0.0
  0
VERTEX
  5
8A2
  8
0
  6
CONTINUOUS
 62
     8
 10
10.9793358629
 20
2.1079282836
 30
0.0
  0
VERTEX
  5
8A3
  8
0
  6
CONTINUOUS
 62
     8
 10
10.9698677716
 20
2.2388294962
 30
0.0
  0
VERTEX
  5
8A4
  8
0
  6
CONTINUOUS
 62
     8
 10
10.9663590495
 20
2.3749248047
 30
0.0
  0
SEQEND
  5
BA0
  8
0
  6
CONTINUOUS
 62
     8
  0
POLYLINE
  5
104
  8
0
  6
CONTINUOUS
 62
     8
 66
     1
 10
0.0
 20
0.0
 30
0.0
  0
VERTEX
  5
8A5
  8
0
  6
CONTINUOUS
 62
     8
 10
10.9663590495
 20
2.3749248047
 30
0.0
  0
VERTEX
  5
8A6
  8
0
  6
CONTINUOUS
 62
     8
 10
10.9698466468
 20
2.509995385
 30
0.0
  0
VERTEX
  5
8A7
  8
0
  6
CONTINUOUS
 62
     8
 10
10.9793012235
 20
2.6400481567
 30
0.0
  0
VERTEX
  5
8A8
  8
0
  6
CONTINUOUS
 62
     8
 10
10.9945456466
 20
2.7650190897
 30
0.0
  0
VERTEX
  5
8A9
  8
0
  6
CONTINUOUS
 62
     8
 10
11.0154027829
 20
2.8848441535
 30
0.0
  0
VERTEX
  5
8AA
  8
0
  6
CONTINUOUS
 62
     8
 10
11.0416954993
 20
2.9994593178
 30
0.0
  0
VERTEX
  5
8AB
  8
0
  6
CONTINUOUS
 62
     8
 10
11.0732466628
 20
3.1088005524
 30
0.0
  0
VERTEX
  5
8AC
  8
0
  6
CONTINUOUS
 62
     8
 10
11.1098791402
 20
3.2128038268
 30
0.0
  0
VERTEX
  5
8AD
  8
0
  6
CONTINUOUS
 62
     8
 10
11.1514157986
 20
3.3114051107
 30
0.0
  0
VERTEX
  5
8AE
  8
0
  6
CONTINUOUS
 62
     8
 10
11.1976795048
 20
3.4045403738
 30
0.0
  0
VERTEX
  5
8AF
  8
0
  6
CONTINUOUS
 62
     8
 10
11.2484931257
 20
3.4921455858
 30
0.0
  0
VERTEX
  5
8B0
  8
0
  6
CONTINUOUS
 62
     8
 10
11.3036795283
 20
3.5741567163
 30
0.0
  0
VERTEX
  5
8B1
  8
0
  6
CONTINUOUS
 62
     8
 10
11.3630615794
 20
3.6505097351
 30
0.0
  0
VERTEX
  5
8B2
  8
0
  6
CONTINUOUS
 62
     8
 10
11.426462146
 20
3.7211406118
 30
0.0
  0
VERTEX
  5
8B3
  8
0
  6
CONTINUOUS
 62
     8
 10
11.493704095
 20
3.785985316
 30
0.0
  0
VERTEX
  5
8B4
  8
0
  6
CONTINUOUS
 62
     8
 10
11.5646102933
 20
3.8449798174
 30
0.0
  0
VERTEX
  5
8B5
  8
0
  6
CONTINUOUS
 62
     8
 10
11.6390036079
 20
3.8980600857
 30
0.0
  0
VERTEX
  5
8B6
  8
0
  6
CONTINUOUS
 62
     8
 10
11.7167069056
 20
3.9451620906
 30
0.0
  0
VERTEX
  5
8B7
  8
0
  6
CONTINUOUS
 62
     8
 10
11.7975430533
 20
3.9862218018
 30
0.0
  0
VERTEX
  5
8B8
  8
0
  6
CONTINUOUS
 62
     8
 10
11.881334918
 20
4.0211751888
 30
0.0
  0
VERTEX
  5
8B9
  8
0
  6
CONTINUOUS
 62
     8
 10
11.9679053667
 20
4.0499582214
 30
0.0
  0
VERTEX
  5
8BA
  8
0
  6
CONTINUOUS
 62
     8
 10
12.0570772661
 20
4.0725068693
 30
0.0
  0
VERTEX
  5
8BB
  8
0
  6
CONTINUOUS
 62
     8
 10
12.1486734833
 20
4.0887571021
 30
0.0
  0
VERTEX
  5
8BC
  8
0
  6
CONTINUOUS
 62
     8
 10
12.2425168851
 20
4.0986448895
 30
0.0
  0
VERTEX
  5
8BD
  8
0
  6
CONTINUOUS
 62
     8
 10
12.3384303385
 20
4.1021062012
 30
0.0
  0
SEQEND
  5
BA1
  8
0
  6
CONTINUOUS
 62
     8
  0
POLYLINE
  5
105
  8
0
  6
CONTINUOUS
 62
     8
 66
     1
 10
0.0
 20
0.0
 30
0.0
  0
VERTEX
  5
8BE
  8
0
  6
CONTINUOUS
 62
     8
 10
7.5973140462
 20
4.7281506755
 30
0.0
  0
VERTEX
  5
8BF
  8
0
  6
CONTINUOUS
 62
     8
 10
7.527507492
 20
4.727132741
 30
0.0
  0
VERTEX
  5
8C0
  8
0
  6
CONTINUOUS
 62
     8
 10
7.458251173
 20
4.7239651835
 30
0.0
  0
VERTEX
  5
8C1
  8
0
  6
CONTINUOUS
 62
     8
 10
7.3895858807
 20
4.718653718
 30
0.0
  0
VERTEX
  5
8C2
  8
0
  6
CONTINUOUS
 62
     8
 10
7.3215524068
 20
4.7112040594
 30
0.0
  0
VERTEX
  5
8C3
  8
0
  6
CONTINUOUS
 62
     8
 10
7.2541915429
 20
4.7016219225
 30
0.0
  0
VERTEX
  5
8C4
  8
0
  6
CONTINUOUS
 62
     8
 10
7.1875440807
 20
4.6899130224
 30
0.0
  0
VERTEX
  5
8C5
  8
0
  6
CONTINUOUS
 62
     8
 10
7.1216508119
 20
4.6760830738
 30
0.0
  0
VERTEX
  5
8C6
  8
0
  6
CONTINUOUS
 62
     8
 10
7.0565525279
 20
4.6601377918
 30
0.0
  0
VERTEX
  5
8C7
  8
0
  6
CONTINUOUS
 62
     8
 10
6.9922900205
 20
4.6420828911
 30
0.0
  0
VERTEX
  5
8C8
  8
0
  6
CONTINUOUS
 62
     8
 10
6.9289040814
 20
4.6219240869
 30
0.0
  0
VERTEX
  5
8C9
  8
0
  6
CONTINUOUS
 62
     8
 10
6.8664355021
 20
4.5996670938
 30
0.0
  0
VERTEX
  5
8CA
  8
0
  6
CONTINUOUS
 62
     8
 10
6.8049250743
 20
4.575317627
 30
0.0
  0
VERTEX
  5
8CB
  8
0
  6
CONTINUOUS
 62
     8
 10
6.7444135896
 20
4.5488814011
 30
0.0
  0
VERTEX
  5
8CC
  8
0
  6
CONTINUOUS
 62
     8
 10
6.6849418396
 20
4.5203641313
 30
0.0
  0
VERTEX
  5
8CD
  8
0
  6
CONTINUOUS
 62
     8
 10
6.626550616
 20
4.4897715324
 30
0.0
  0
VERTEX
  5
8CE
  8
0
  6
CONTINUOUS
 62
     8
 10
6.5692807105
 20
4.4571093192
 30
0.0
  0
VERTEX
  5
8CF
  8
0
  6
CONTINUOUS
 62
     8
 10
6.5131729146
 20
4.4223832068
 30
0.0
  0
VERTEX
  5
8D0
  8
0
  6
CONTINUOUS
 62
     8
 10
6.45826802
 20
4.38559891
 30
0.0
  0
VERTEX
  5
8D1
  8
0
  6
CONTINUOUS
 62
     8
 10
6.4046068183
 20
4.3467621437
 30
0.0
  0
VERTEX
  5
8D2
  8
0
  6
CONTINUOUS
 62
     8
 10
6.3522301012
 20
4.3058786229
 30
0.0
  0
VERTEX
  5
8D3
  8
0
  6
CONTINUOUS
 62
     8
 10
6.3011786603
 20
4.2629540625
 30
0.0
  0
VERTEX
  5
8D4
  8
0
  6
CONTINUOUS
 62
     8
 10
6.2514932872
 20
4.2179941773
 30
0.0
  0
VERTEX
  5
8D5
  8
0
  6
CONTINUOUS
 62
     8
 10
6.2032147736
 20
4.1710046822
 30
0.0
  0
VERTEX
  5
8D6
  8
0
  6
CONTINUOUS
 62
     8
 10
6.1563839111
 20
4.1219912923
 30
0.0
  0
SEQEND
  5
BA2
  8
0
  6
CONTINUOUS
 62
     8
  0
POLYLINE
  5
106
  8
0
  6
CONTINUOUS
 62
     8
 66
     1
 10
0.0
 20
0.0
 30
0.0
  0
VERTEX
  5
8D7
  8
0
  6
CONTINUOUS
 62
     8
 10
39.800681722
 20
4.2021362712
 30
0.0
  0
VERTEX
  5
8D8
  8
0
  6
CONTINUOUS
 62
     8
 10
39.7549727655
 20
4.2445123654
 30
0.0
  0
VERTEX
  5
8D9
  8
0
  6
CONTINUOUS
 62
     8
 10
39.7080885784
 20
4.2851594658
 30
0.0
  0
VERTEX
  5
8DA
  8
0
  6
CONTINUOUS
 62
     8
 10
39.6600603595
 20
4.3240707494
 30
0.0
  0
VERTEX
  5
8DB
  8
0
  6
CONTINUOUS
 62
     8
 10
39.6109193074
 20
4.3612393934
 30
0.0
  0
VERTEX
  5
8DC
  8
0
  6
CONTINUOUS
 62
     8
 10
39.5606966209
 20
4.3966585749
 30
0.0
  0
VERTEX
  5
8DD
  8
0
  6
CONTINUOUS
 62
     8
 10
39.5094234988
 20
4.4303214709
 30
0.0
  0
VERTEX
  5
8DE
  8
0
  6
CONTINUOUS
 62
     8
 10
39.4571311398
 20
4.4622212585
 30
0.0
  0
VERTEX
  5
8DF
  8
0
  6
CONTINUOUS
 62
     8
 10
39.4038507427
 20
4.4923511149
 30
0.0
  0
VERTEX
  5
8E0
  8
0
  6
CONTINUOUS
 62
     8
 10
39.3496135062
 20
4.5207042171
 30
0.0
  0
VERTEX
  5
8E1
  8
0
  6
CONTINUOUS
 62
     8
 10
39.294450629
 20
4.5472737423
 30
0.0
  0
VERTEX
  5
8E2
  8
0
  6
CONTINUOUS
 62
     8
 10
39.23839331
 20
4.5720528674
 30
0.0
  0
VERTEX
  5
8E3
  8
0
  6
CONTINUOUS
 62
     8
 10
39.1814727478
 20
4.5950347697
 30
0.0
  0
VERTEX
  5
8E4
  8
0
  6
CONTINUOUS
 62
     8
 10
39.1237201412
 20
4.6162126262
 30
0.0
  0
VERTEX
  5
8E5
  8
0
  6
CONTINUOUS
 62
     8
 10
39.065166689
 20
4.635579614
 30
0.0
  0
VERTEX
  5
8E6
  8
0
  6
CONTINUOUS
 62
     8
 10
39.0058435899
 20
4.6531289102
 30
0.0
  0
VERTEX
  5
8E7
  8
0
  6
CONTINUOUS
 62
     8
 10
38.9457820427
 20
4.6688536919
 30
0.0
  0
VERTEX
  5
8E8
  8
0
  6
CONTINUOUS
 62
     8
 10
38.8850132461
 20
4.6827471363
 30
0.0
  0
VERTEX
  5
8E9
  8
0
  6
CONTINUOUS
 62
     8
 10
38.8235683988
 20
4.6948024203
 30
0.0
  0
VERTEX
  5
8EA
  8
0
  6
CONTINUOUS
 62
     8
 10
38.7614786996
 20
4.7050127211
 30
0.0
  0
VERTEX
  5
8EB
  8
0
  6
CONTINUOUS
 62
     8
 10
38.6987753473
 20
4.7133712158
 30
0.0
  0
VERTEX
  5
8EC
  8
0
  6
CONTINUOUS
 62
     8
 10
38.6354895406
 20
4.7198710815
 30
0.0
  0
VERTEX
  5
8ED
  8
0
  6
CONTINUOUS
 62
     8
 10
38.5716524782
 20
4.7245054953
 30
0.0
  0
VERTEX
  5
8EE
  8
0
  6
CONTINUOUS
 62
     8
 10
38.5072953589
 20
4.7272676342
 30
0.0
  0
VERTEX
  5
8EF
  8
0
  6
CONTINUOUS
 62
     8
 10
38.4424493815
 20
4.7281506755
 30
0.0
  0
SEQEND
  5
BA3
  8
0
  6
CONTINUOUS
 62
     8
  0
POLYLINE
  5
107
  8
0
  6
CONTINUOUS
 62
     8
 66
     1
 10
0.0
 20
0.0
 30
0.0
  0
VERTEX
  5
8F0
  8
0
  6
CONTINUOUS
 62
     8
 10
38.4424493815
 20
4.7281506755
 30
0.0
  0
VERTEX
  5
8F1
  8
0
  6
CONTINUOUS
 62
     8
 10
38.3726428127
 20
4.727132741
 30
0.0
  0
VERTEX
  5
8F2
  8
0
  6
CONTINUOUS
 62
     8
 10
38.3033863916
 20
4.7239651835
 30
0.0
  0
VERTEX
  5
8F3
  8
0
  6
CONTINUOUS
 62
     8
 10
38.2347208223
 20
4.718653718
 30
0.0
  0
VERTEX
  5
8F4
  8
0
  6
CONTINUOUS
 62
     8
 10
38.166686809
 20
4.7112040594
 30
0.0
  0
VERTEX
  5
8F5
  8
0
  6
CONTINUOUS
 62
     8
 10
38.0993250559
 20
4.7016219225
 30
0.0
  0
VERTEX
  5
8F6
  8
0
  6
CONTINUOUS
 62
     8
 10
38.032676267
 20
4.6899130224
 30
0.0
  0
VERTEX
  5
8F7
  8
0
  6
CONTINUOUS
 62
     8
 10
37.9667811466
 20
4.6760830738
 30
0.0
  0
VERTEX
  5
8F8
  8
0
  6
CONTINUOUS
 62
     8
 10
37.9016803988
 20
4.6601377918
 30
0.0
  0
VERTEX
  5
8F9
  8
0
  6
CONTINUOUS
 62
     8
 10
37.8374147278
 20
4.6420828911
 30
0.0
  0
VERTEX
  5
8FA
  8
0
  6
CONTINUOUS
 62
     8
 10
37.7740248378
 20
4.6219240869
 30
0.0
  0
VERTEX
  5
8FB
  8
0
  6
CONTINUOUS
 62
     8
 10
37.7115514329
 20
4.5996670938
 30
0.0
  0
VERTEX
  5
8FC
  8
0
  6
CONTINUOUS
 62
     8
 10
37.6500352173
 20
4.575317627
 30
0.0
  0
VERTEX
  5
8FD
  8
0
  6
CONTINUOUS
 62
     8
 10
37.5895168951
 20
4.5488814011
 30
0.0
  0
VERTEX
  5
8FE
  8
0
  6
CONTINUOUS
 62
     8
 10
37.5300371705
 20
4.5203641313
 30
0.0
  0
VERTEX
  5
8FF
  8
0
  6
CONTINUOUS
 62
     8
 10
37.4716367477
 20
4.4897715324
 30
0.0
  0
VERTEX
  5
900
  8
0
  6
CONTINUOUS
 62
     8
 10
37.4143563308
 20
4.4571093192
 30
0.0
  0
VERTEX
  5
901
  8
0
  6
CONTINUOUS
 62
     8
 10
37.358236624
 20
4.4223832068
 30
0.0
  0
VERTEX
  5
902
  8
0
  6
CONTINUOUS
 62
     8
 10
37.3033183314
 20
4.38559891
 30
0.0
  0
VERTEX
  5
903
  8
0
  6
CONTINUOUS
 62
     8
 10
37.2496421572
 20
4.3467621437
 30
0.0
  0
VERTEX
  5
904
  8
0
  6
CONTINUOUS
 62
     8
 10
37.1972488057
 20
4.3058786229
 30
0.0
  0
VERTEX
  5
905
  8
0
  6
CONTINUOUS
 62
     8
 10
37.1461789808
 20
4.2629540625
 30
0.0
  0
VERTEX
  5
906
  8
0
  6
CONTINUOUS
 62
     8
 10
37.0964733869
 20
4.2179941773
 30
0.0
  0
VERTEX
  5
907
  8
0
  6
CONTINUOUS
 62
     8
 10
37.048172728
 20
4.1710046822
 30
0.0
  0
VERTEX
  5
908
  8
0
  6
CONTINUOUS
 62
     8
 10
37.0013177083
 20
4.1219912923
 30
0.0
  0
SEQEND
  5
BA4
  8
0
  6
CONTINUOUS
 62
     8
  0
POLYLINE
  5
108
  8
0
  6
CONTINUOUS
 62
     8
 66
     1
 10
0.0
 20
0.0
 30
0.0
  0
VERTEX
  5
909
  8
0
  6
CONTINUOUS
 62
     8
 10
3.0729183757
 20
4.1350912679
 30
0.0
  0
VERTEX
  5
90A
  8
0
  6
CONTINUOUS
 62
     8
 10
3.060338734
 20
4.1350048736
 30
0.0
  0
VERTEX
  5
90B
  8
0
  6
CONTINUOUS
 62
     8
 10
3.0477922446
 20
4.1348129867
 30
0.0
  0
VERTEX
  5
90C
  8
0
  6
CONTINUOUS
 62
     8
 10
3.03527917
 20
4.1345157822
 30
0.0
  0
VERTEX
  5
90D
  8
0
  6
CONTINUOUS
 62
     8
 10
3.0227997725
 20
4.134113435
 30
0.0
  0
VERTEX
  5
90E
  8
0
  6
CONTINUOUS
 62
     8
 10
3.0103543146
 20
4.13360612
 30
0.0
  0
VERTEX
  5
90F
  8
0
  6
CONTINUOUS
 62
     8
 10
2.9979430586
 20
4.1329940122
 30
0.0
  0
VERTEX
  5
910
  8
0
  6
CONTINUOUS
 62
     8
 10
2.9855662671
 20
4.1322772865
 30
0.0
  0
VERTEX
  5
911
  8
0
  6
CONTINUOUS
 62
     8
 10
2.9732242025
 20
4.131456118
 30
0.0
  0
VERTEX
  5
912
  8
0
  6
CONTINUOUS
 62
     8
 10
2.9609171271
 20
4.1305306815
 30
0.0
  0
VERTEX
  5
913
  8
0
  6
CONTINUOUS
 62
     8
 10
2.9486453033
 20
4.1295011519
 30
0.0
  0
VERTEX
  5
914
  8
0
  6
CONTINUOUS
 62
     8
 10
2.9364089936
 20
4.1283677043
 30
0.0
  0
VERTEX
  5
915
  8
0
  6
CONTINUOUS
 62
     8
 10
2.9242084605
 20
4.1271305135
 30
0.0
  0
VERTEX
  5
916
  8
0
  6
CONTINUOUS
 62
     8
 10
2.9120439663
 20
4.1257897546
 30
0.0
  0
VERTEX
  5
917
  8
0
  6
CONTINUOUS
 62
     8
 10
2.8999157734
 20
4.1243456024
 30
0.0
  0
VERTEX
  5
918
  8
0
  6
CONTINUOUS
 62
     8
 10
2.8878241443
 20
4.1227982319
 30
0.0
  0
VERTEX
  5
919
  8
0
  6
CONTINUOUS
 62
     8
 10
2.8757693414
 20
4.1211478181
 30
0.0
  0
VERTEX
  5
91A
  8
0
  6
CONTINUOUS
 62
     8
 10
2.863751627
 20
4.1193945359
 30
0.0
  0
VERTEX
  5
91B
  8
0
  6
CONTINUOUS
 62
     8
 10
2.8517712638
 20
4.1175385602
 30
0.0
  0
VERTEX
  5
91C
  8
0
  6
CONTINUOUS
 62
     8
 10
2.8398285139
 20
4.1155800661
 30
0.0
  0
VERTEX
  5
91D
  8
0
  6
CONTINUOUS
 62
     8
 10
2.8279236399
 20
4.1135192283
 30
0.0
  0
VERTEX
  5
91E
  8
0
  6
CONTINUOUS
 62
     8
 10
2.8160569042
 20
4.111356222
 30
0.0
  0
VERTEX
  5
91F
  8
0
  6
CONTINUOUS
 62
     8
 10
2.8042285692
 20
4.109091222
 30
0.0
  0
VERTEX
  5
920
  8
0
  6
CONTINUOUS
 62
     8
 10
2.7924388974
 20
4.1067244033
 30
0.0
  0
VERTEX
  5
921
  8
0
  6
CONTINUOUS
 62
     8
 10
2.780688151
 20
4.1042559408
 30
0.0
  0
SEQEND
  5
BA5
  8
0
  6
CONTINUOUS
 62
     8
  0
POLYLINE
  5
109
  8
0
  6
CONTINUOUS
 62
     8
 66
     1
 10
0.0
 20
0.0
 30
0.0
  0
VERTEX
  5
922
  8
0
  6
CONTINUOUS
 62
     8
 10
9.03837854
 20
4.1219912923
 30
0.0
  0
VERTEX
  5
923
  8
0
  6
CONTINUOUS
 62
     8
 10
8.9915087714
 20
4.1710046822
 30
0.0
  0
VERTEX
  5
924
  8
0
  6
CONTINUOUS
 62
     8
 10
8.9431972416
 20
4.2179941773
 30
0.0
  0
VERTEX
  5
925
  8
0
  6
CONTINUOUS
 62
     8
 10
8.8934843339
 20
4.2629540625
 30
0.0
  0
VERTEX
  5
926
  8
0
  6
CONTINUOUS
 62
     8
 10
8.8424104319
 20
4.3058786229
 30
0.0
  0
VERTEX
  5
927
  8
0
  6
CONTINUOUS
 62
     8
 10
8.7900159188
 20
4.3467621437
 30
0.0
  0
VERTEX
  5
928
  8
0
  6
CONTINUOUS
 62
     8
 10
8.7363411783
 20
4.38559891
 30
0.0
  0
VERTEX
  5
929
  8
0
  6
CONTINUOUS
 62
     8
 10
8.6814265936
 20
4.4223832068
 30
0.0
  0
VERTEX
  5
92A
  8
0
  6
CONTINUOUS
 62
     8
 10
8.6253125482
 20
4.4571093192
 30
0.0
  0
VERTEX
  5
92B
  8
0
  6
CONTINUOUS
 62
     8
 10
8.5680394256
 20
4.4897715324
 30
0.0
  0
VERTEX
  5
92C
  8
0
  6
CONTINUOUS
 62
     8
 10
8.5096476092
 20
4.5203641313
 30
0.0
  0
VERTEX
  5
92D
  8
0
  6
CONTINUOUS
 62
     8
 10
8.4501774823
 20
4.5488814011
 30
0.0
  0
VERTEX
  5
92E
  8
0
  6
CONTINUOUS
 62
     8
 10
8.3896694285
 20
4.575317627
 30
0.0
  0
VERTEX
  5
92F
  8
0
  6
CONTINUOUS
 62
     8
 10
8.3281638311
 20
4.5996670938
 30
0.0
  0
VERTEX
  5
930
  8
0
  6
CONTINUOUS
 62
     8
 10
8.2657010737
 20
4.6219240869
 30
0.0
  0
VERTEX
  5
931
  8
0
  6
CONTINUOUS
 62
     8
 10
8.2023215395
 20
4.6420828911
 30
0.0
  0
VERTEX
  5
932
  8
0
  6
CONTINUOUS
 62
     8
 10
8.138065612
 20
4.6601377918
 30
0.0
  0
VERTEX
  5
933
  8
0
  6
CONTINUOUS
 62
     8
 10
8.0729736748
 20
4.6760830738
 30
0.0
  0
VERTEX
  5
934
  8
0
  6
CONTINUOUS
 62
     8
 10
8.0070861111
 20
4.6899130224
 30
0.0
  0
VERTEX
  5
935
  8
0
  6
CONTINUOUS
 62
     8
 10
7.9404433044
 20
4.7016219225
 30
0.0
  0
VERTEX
  5
936
  8
0
  6
CONTINUOUS
 62
     8
 10
7.8730856382
 20
4.7112040594
 30
0.0
  0
VERTEX
  5
937
  8
0
  6
CONTINUOUS
 62
     8
 10
7.8050534958
 20
4.718653718
 30
0.0
  0
VERTEX
  5
938
  8
0
  6
CONTINUOUS
 62
     8
 10
7.7363872607
 20
4.7239651835
 30
0.0
  0
VERTEX
  5
939
  8
0
  6
CONTINUOUS
 62
     8
 10
7.6671273164
 20
4.727132741
 30
0.0
  0
VERTEX
  5
93A
  8
0
  6
CONTINUOUS
 62
     8
 10
7.5973140462
 20
4.7281506755
 30
0.0
  0
SEQEND
  5
BA6
  8
0
  6
CONTINUOUS
 62
     8
  0
POLYLINE
  5
10A
  8
0
  6
CONTINUOUS
 62
     8
 66
     1
 10
0.0
 20
0.0
 30
0.0
  0
VERTEX
  5
93B
  8
0
  6
CONTINUOUS
 62
     8
 10
38.4424493815
 20
4.1021062012
 30
0.0
  0
VERTEX
  5
93C
  8
0
  6
CONTINUOUS
 62
     8
 10
38.5382840459
 20
4.0986448895
 30
0.0
  0
VERTEX
  5
93D
  8
0
  6
CONTINUOUS
 62
     8
 10
38.6320587765
 20
4.0887571021
 30
0.0
  0
VERTEX
  5
93E
  8
0
  6
CONTINUOUS
 62
     8
 10
38.7235960611
 20
4.0725068693
 30
0.0
  0
VERTEX
  5
93F
  8
0
  6
CONTINUOUS
 62
     8
 10
38.8127183876
 20
4.0499582214
 30
0.0
  0
VERTEX
  5
940
  8
0
  6
CONTINUOUS
 62
     8
 10
38.8992482438
 20
4.0211751888
 30
0.0
  0
VERTEX
  5
941
  8
0
  6
CONTINUOUS
 62
     8
 10
38.9830081177
 20
3.9862218018
 30
0.0
  0
VERTEX
  5
942
  8
0
  6
CONTINUOUS
 62
     8
 10
39.063820497
 20
3.9451620906
 30
0.0
  0
VERTEX
  5
943
  8
0
  6
CONTINUOUS
 62
     8
 10
39.1415078698
 20
3.8980600857
 30
0.0
  0
VERTEX
  5
944
  8
0
  6
CONTINUOUS
 62
     8
 10
39.2158927237
 20
3.8449798174
 30
0.0
  0
VERTEX
  5
945
  8
0
  6
CONTINUOUS
 62
     8
 10
39.2867975468
 20
3.785985316
 30
0.0
  0
VERTEX
  5
946
  8
0
  6
CONTINUOUS
 62
     8
 10
39.3540448268
 20
3.7211406118
 30
0.0
  0
VERTEX
  5
947
  8
0
  6
CONTINUOUS
 62
     8
 10
39.4174570516
 20
3.6505097351
 30
0.0
  0
VERTEX
  5
948
  8
0
  6
CONTINUOUS
 62
     8
 10
39.4768567091
 20
3.5741567163
 30
0.0
  0
VERTEX
  5
949
  8
0
  6
CONTINUOUS
 62
     8
 10
39.5320662872
 20
3.4921455858
 30
0.0
  0
VERTEX
  5
94A
  8
0
  6
CONTINUOUS
 62
     8
 10
39.5829082737
 20
3.4045403738
 30
0.0
  0
VERTEX
  5
94B
  8
0
  6
CONTINUOUS
 62
     8
 10
39.6292051565
 20
3.3114051107
 30
0.0
  0
VERTEX
  5
94C
  8
0
  6
CONTINUOUS
 62
     8
 10
39.6707794234
 20
3.2128038268
 30
0.0
  0
VERTEX
  5
94D
  8
0
  6
CONTINUOUS
 62
     8
 10
39.7074535624
 20
3.1088005524
 30
0.0
  0
VERTEX
  5
94E
  8
0
  6
CONTINUOUS
 62
     8
 10
39.7390500613
 20
2.9994593178
 30
0.0
  0
VERTEX
  5
94F
  8
0
  6
CONTINUOUS
 62
     8
 10
39.7653914079
 20
2.8848441535
 30
0.0
  0
VERTEX
  5
950
  8
0
  6
CONTINUOUS
 62
     8
 10
39.7863000902
 20
2.7650190897
 30
0.0
  0
VERTEX
  5
951
  8
0
  6
CONTINUOUS
 62
     8
 10
39.8015985959
 20
2.6400481567
 30
0.0
  0
VERTEX
  5
952
  8
0
  6
CONTINUOUS
 62
     8
 10
39.811109413
 20
2.509995385
 30
0.0
  0
VERTEX
  5
953
  8
0
  6
CONTINUOUS
 62
     8
 10
39.8146550293
 20
2.3749248047
 30
0.0
  0
SEQEND
  5
BA7
  8
0
  6
CONTINUOUS
 62
     8
  0
POLYLINE
  5
10B
  8
0
  6
CONTINUOUS
 62
     8
 66
     1
 10
0.0
 20
0.0
 30
0.0
  0
VERTEX
  5
954
  8
0
  6
CONTINUOUS
 62
     8
 10
10.8974330241
 20
4.1219912923
 30
0.0
  0
VERTEX
  5
955
  8
0
  6
CONTINUOUS
 62
     8
 10
10.8520311712
 20
4.071086019
 30
0.0
  0
VERTEX
  5
956
  8
0
  6
CONTINUOUS
 62
     8
 10
10.8081700408
 20
4.0182052817
 30
0.0
  0
VERTEX
  5
957
  8
0
  6
CONTINUOUS
 62
     8
 10
10.7658844181
 20
3.9633589067
 30
0.0
  0
VERTEX
  5
958
  8
0
  6
CONTINUOUS
 62
     8
 10
10.7252090882
 20
3.9065567199
 30
0.0
  0
VERTEX
  5
959
  8
0
  6
CONTINUOUS
 62
     8
 10
10.6861788362
 20
3.8478085477
 30
0.0
  0
VERTEX
  5
95A
  8
0
  6
CONTINUOUS
 62
     8
 10
10.6488284473
 20
3.7871242161
 30
0.0
  0
VERTEX
  5
95B
  8
0
  6
CONTINUOUS
 62
     8
 10
10.6131927067
 20
3.7245135513
 30
0.0
  0
VERTEX
  5
95C
  8
0
  6
CONTINUOUS
 62
     8
 10
10.5793063995
 20
3.6599863794
 30
0.0
  0
VERTEX
  5
95D
  8
0
  6
CONTINUOUS
 62
     8
 10
10.5472043108
 20
3.5935525266
 30
0.0
  0
VERTEX
  5
95E
  8
0
  6
CONTINUOUS
 62
     8
 10
10.5169212258
 20
3.525221819
 30
0.0
  0
VERTEX
  5
95F
  8
0
  6
CONTINUOUS
 62
     8
 10
10.4884919297
 20
3.4550040828
 30
0.0
  0
VERTEX
  5
960
  8
0
  6
CONTINUOUS
 62
     8
 10
10.4619512075
 20
3.3829091441
 30
0.0
  0
VERTEX
  5
961
  8
0
  6
CONTINUOUS
 62
     8
 10
10.4373338444
 20
3.3089468291
 30
0.0
  0
VERTEX
  5
962
  8
0
  6
CONTINUOUS
 62
     8
 10
10.4146746257
 20
3.2331269639
 30
0.0
  0
VERTEX
  5
963
  8
0
  6
CONTINUOUS
 62
     8
 10
10.3940083363
 20
3.1554593747
 30
0.0
  0
VERTEX
  5
964
  8
0
  6
CONTINUOUS
 62
     8
 10
10.3753697615
 20
3.0759538876
 30
0.0
  0
VERTEX
  5
965
  8
0
  6
CONTINUOUS
 62
     8
 10
10.3587936865
 20
2.9946203287
 30
0.0
  0
VERTEX
  5
966
  8
0
  6
CONTINUOUS
 62
     8
 10
10.3443148963
 20
2.9114685243
 30
0.0
  0
VERTEX
  5
967
  8
0
  6
CONTINUOUS
 62
     8
 10
10.3319681761
 20
2.8265083004
 30
0.0
  0
VERTEX
  5
968
  8
0
  6
CONTINUOUS
 62
     8
 10
10.3217883111
 20
2.7397494833
 30
0.0
  0
VERTEX
  5
969
  8
0
  6
CONTINUOUS
 62
     8
 10
10.3138100863
 20
2.651201899
 30
0.0
  0
VERTEX
  5
96A
  8
0
  6
CONTINUOUS
 62
     8
 10
10.3080682871
 20
2.5608753737
 30
0.0
  0
VERTEX
  5
96B
  8
0
  6
CONTINUOUS
 62
     8
 10
10.3045976984
 20
2.4687797335
 30
0.0
  0
VERTEX
  5
96C
  8
0
  6
CONTINUOUS
 62
     8
 10
10.3034331055
 20
2.3749248047
 30
0.0
  0
SEQEND
  5
BA8
  8
0
  6
CONTINUOUS
 62
     8
  0
POLYLINE
  5
10C
  8
0
  6
CONTINUOUS
 62
     8
 66
     1
 10
0.0
 20
0.0
 30
0.0
  0
VERTEX
  5
96D
  8
0
  6
CONTINUOUS
 62
     8
 10
39.8146550293
 20
2.3749248047
 30
0.0
  0
VERTEX
  5
96E
  8
0
  6
CONTINUOUS
 62
     8
 10
39.8111120955
 20
2.2388294962
 30
0.0
  0
VERTEX
  5
96F
  8
0
  6
CONTINUOUS
 62
     8
 10
39.8016088594
 20
2.1079282836
 30
0.0
  0
VERTEX
  5
970
  8
0
  6
CONTINUOUS
 62
     8
 10
39.7863221334
 20
1.9822732428
 30
0.0
  0
VERTEX
  5
971
  8
0
  6
CONTINUOUS
 62
     8
 10
39.7654287298
 20
1.8619164493
 30
0.0
  0
VERTEX
  5
972
  8
0
  6
CONTINUOUS
 62
     8
 10
39.7391054609
 20
1.7469099788
 30
0.0
  0
VERTEX
  5
973
  8
0
  6
CONTINUOUS
 62
     8
 10
39.7075291392
 20
1.6373059069
 30
0.0
  0
VERTEX
  5
974
  8
0
  6
CONTINUOUS
 62
     8
 10
39.6708765769
 20
1.5331563094
 30
0.0
  0
VERTEX
  5
975
  8
0
  6
CONTINUOUS
 62
     8
 10
39.6293245865
 20
1.434513262
 30
0.0
  0
VERTEX
  5
976
  8
0
  6
CONTINUOUS
 62
     8
 10
39.5830499802
 20
1.3414288402
 30
0.0
  0
VERTEX
  5
977
  8
0
  6
CONTINUOUS
 62
     8
 10
39.5322295704
 20
1.2539551197
 30
0.0
  0
VERTEX
  5
978
  8
0
  6
CONTINUOUS
 62
     8
 10
39.4770401694
 20
1.1721441763
 30
0.0
  0
VERTEX
  5
979
  8
0
  6
CONTINUOUS
 62
     8
 10
39.4176585897
 20
1.0960480855
 30
0.0
  0
VERTEX
  5
97A
  8
0
  6
CONTINUOUS
 62
     8
 10
39.3542616435
 20
1.0257189231
 30
0.0
  0
VERTEX
  5
97B
  8
0
  6
CONTINUOUS
 62
     8
 10
39.2870261432
 20
0.9612087648
 30
0.0
  0
VERTEX
  5
97C
  8
0
  6
CONTINUOUS
 62
     8
 10
39.2161289012
 20
0.9025696861
 30
0.0
  0
VERTEX
  5
97D
  8
0
  6
CONTINUOUS
 62
     8
 10
39.1417467297
 20
0.8498537628
 30
0.0
  0
VERTEX
  5
97E
  8
0
  6
CONTINUOUS
 62
     8
 10
39.0640564412
 20
0.8031130705
 30
0.0
  0
VERTEX
  5
97F
  8
0
  6
CONTINUOUS
 62
     8
 10
38.983234848
 20
0.7623996849
 30
0.0
  0
VERTEX
  5
980
  8
0
  6
CONTINUOUS
 62
     8
 10
38.8994587625
 20
0.7277656817
 30
0.0
  0
VERTEX
  5
981
  8
0
  6
CONTINUOUS
 62
     8
 10
38.8129049969
 20
0.6992631365
 30
0.0
  0
VERTEX
  5
982
  8
0
  6
CONTINUOUS
 62
     8
 10
38.7237503637
 20
0.676944125
 30
0.0
  0
VERTEX
  5
983
  8
0
  6
CONTINUOUS
 62
     8
 10
38.6321716751
 20
0.6608607229
 30
0.0
  0
VERTEX
  5
984
  8
0
  6
CONTINUOUS
 62
     8
 10
38.5383457436
 20
0.6510650058
 30
0.0
  0
VERTEX
  5
985
  8
0
  6
CONTINUOUS
 62
     8
 10
38.4424493815
 20
0.6476090495
 30
0.0
  0
SEQEND
  5
BA9
  8
0
  6
CONTINUOUS
 62
     8
  0
POLYLINE
  5
10D
  8
0
  6
CONTINUOUS
 62
     8
 66
     1
 10
0.0
 20
0.0
 30
0.0
  0
VERTEX
  5
986
  8
0
  6
CONTINUOUS
 62
     8
 10
7.5991950684
 20
0.0213630371
 30
0.0
  0
VERTEX
  5
987
  8
0
  6
CONTINUOUS
 62
     8
 10
7.6689149853
 20
0.022438976
 30
0.0
  0
VERTEX
  5
988
  8
0
  6
CONTINUOUS
 62
     8
 10
7.7380798852
 20
0.0256626718
 30
0.0
  0
VERTEX
  5
989
  8
0
  6
CONTINUOUS
 62
     8
 10
7.8066497929
 20
0.031027943
 30
0.0
  0
VERTEX
  5
98A
  8
0
  6
CONTINUOUS
 62
     8
 10
7.8745847332
 20
0.0385286082
 30
0.0
  0
VERTEX
  5
98B
  8
0
  6
CONTINUOUS
 62
     8
 10
7.9418447308
 20
0.0481584859
 30
0.0
  0
VERTEX
  5
98C
  8
0
  6
CONTINUOUS
 62
     8
 10
8.0083898106
 20
0.0599113948
 30
0.0
  0
VERTEX
  5
98D
  8
0
  6
CONTINUOUS
 62
     8
 10
8.0741799972
 20
0.0737811533
 30
0.0
  0
VERTEX
  5
98E
  8
0
  6
CONTINUOUS
 62
     8
 10
8.1391753156
 20
0.0897615801
 30
0.0
  0
VERTEX
  5
98F
  8
0
  6
CONTINUOUS
 62
     8
 10
8.2033357904
 20
0.1078464937
 30
0.0
  0
VERTEX
  5
990
  8
0
  6
CONTINUOUS
 62
     8
 10
8.2666214465
 20
0.1280297127
 30
0.0
  0
VERTEX
  5
991
  8
0
  6
CONTINUOUS
 62
     8
 10
8.3289923086
 20
0.1503050557
 30
0.0
  0
VERTEX
  5
992
  8
0
  6
CONTINUOUS
 62
     8
 10
8.3904084015
 20
0.1746663411
 30
0.0
  0
VERTEX
  5
993
  8
0
  6
CONTINUOUS
 62
     8
 10
8.45082975
 20
0.2011073877
 30
0.0
  0
VERTEX
  5
994
  8
0
  6
CONTINUOUS
 62
     8
 10
8.5102163789
 20
0.2296220139
 30
0.0
  0
VERTEX
  5
995
  8
0
  6
CONTINUOUS
 62
     8
 10
8.5685283129
 20
0.2602040383
 30
0.0
  0
VERTEX
  5
996
  8
0
  6
CONTINUOUS
 62
     8
 10
8.6257255769
 20
0.2928472795
 30
0.0
  0
VERTEX
  5
997
  8
0
  6
CONTINUOUS
 62
     8
 10
8.6817681956
 20
0.327545556
 30
0.0
  0
VERTEX
  5
998
  8
0
  6
CONTINUOUS
 62
     8
 10
8.7366161938
 20
0.3642926865
 30
0.0
  0
VERTEX
  5
999
  8
0
  6
CONTINUOUS
 62
     8
 10
8.7902295962
 20
0.4030824894
 30
0.0
  0
VERTEX
  5
99A
  8
0
  6
CONTINUOUS
 62
     8
 10
8.8425684278
 20
0.4439087833
 30
0.0
  0
VERTEX
  5
99B
  8
0
  6
CONTINUOUS
 62
     8
 10
8.8935927131
 20
0.4867653869
 30
0.0
  0
VERTEX
  5
99C
  8
0
  6
CONTINUOUS
 62
     8
 10
8.9432624771
 20
0.5316461186
 30
0.0
  0
VERTEX
  5
99D
  8
0
  6
CONTINUOUS
 62
     8
 10
8.9915377445
 20
0.5785447971
 30
0.0
  0
VERTEX
  5
99E
  8
0
  6
CONTINUOUS
 62
     8
 10
9.03837854
 20
0.6274552409
 30
0.0
  0
SEQEND
  5
BAA
  8
0
  6
CONTINUOUS
 62
     8
  0
POLYLINE
  5
10E
  8
0
  6
CONTINUOUS
 62
     8
 66
     1
 10
0.0
 20
0.0
 30
0.0
  0
VERTEX
  5
99F
  8
0
  6
CONTINUOUS
 62
     8
 10
34.1898614095
 20
4.728620931
 30
0.0
  0
VERTEX
  5
9A0
  8
0
  6
CONTINUOUS
 62
     8
 10
34.1307924004
 20
4.7278204109
 30
0.0
  0
VERTEX
  5
9A1
  8
0
  6
CONTINUOUS
 62
     8
 10
34.0716132918
 20
4.7251838591
 30
0.0
  0
VERTEX
  5
9A2
  8
0
  6
CONTINUOUS
 62
     8
 10
34.0124155223
 20
4.7206610951
 30
0.0
  0
VERTEX
  5
9A3
  8
0
  6
CONTINUOUS
 62
     8
 10
33.9532905304
 20
4.7142019384
 30
0.0
  0
VERTEX
  5
9A4
  8
0
  6
CONTINUOUS
 62
     8
 10
33.8943297547
 20
4.7057562087
 30
0.0
  0
VERTEX
  5
9A5
  8
0
  6
CONTINUOUS
 62
     8
 10
33.8356246338
 20
4.6952737255
 30
0.0
  0
VERTEX
  5
9A6
  8
0
  6
CONTINUOUS
 62
     8
 10
33.7772666063
 20
4.6827043085
 30
0.0
  0
VERTEX
  5
9A7
  8
0
  6
CONTINUOUS
 62
     8
 10
33.7193471107
 20
4.6679977771
 30
0.0
  0
VERTEX
  5
9A8
  8
0
  6
CONTINUOUS
 62
     8
 10
33.6619575857
 20
4.6511039511
 30
0.0
  0
VERTEX
  5
9A9
  8
0
  6
CONTINUOUS
 62
     8
 10
33.6051894697
 20
4.6319726499
 30
0.0
  0
VERTEX
  5
9AA
  8
0
  6
CONTINUOUS
 62
     8
 10
33.5491342014
 20
4.6105536931
 30
0.0
  0
VERTEX
  5
9AB
  8
0
  6
CONTINUOUS
 62
     8
 10
33.4938832194
 20
4.5867969004
 30
0.0
  0
VERTEX
  5
9AC
  8
0
  6
CONTINUOUS
 62
     8
 10
33.4395279622
 20
4.5606520913
 30
0.0
  0
VERTEX
  5
9AD
  8
0
  6
CONTINUOUS
 62
     8
 10
33.3861598684
 20
4.5320690855
 30
0.0
  0
VERTEX
  5
9AE
  8
0
  6
CONTINUOUS
 62
     8
 10
33.3338703766
 20
4.5009977024
 30
0.0
  0
VERTEX
  5
9AF
  8
0
  6
CONTINUOUS
 62
     8
 10
33.2827509253
 20
4.4673877616
 30
0.0
  0
VERTEX
  5
9B0
  8
0
  6
CONTINUOUS
 62
     8
 10
33.2328929532
 20
4.4311890828
 30
0.0
  0
VERTEX
  5
9B1
  8
0
  6
CONTINUOUS
 62
     8
 10
33.1843878988
 20
4.3923514856
 30
0.0
  0
VERTEX
  5
9B2
  8
0
  6
CONTINUOUS
 62
     8
 10
33.1373272006
 20
4.3508247894
 30
0.0
  0
VERTEX
  5
9B3
  8
0
  6
CONTINUOUS
 62
     8
 10
33.0918022973
 20
4.306558814
 30
0.0
  0
VERTEX
  5
9B4
  8
0
  6
CONTINUOUS
 62
     8
 10
33.0479046275
 20
4.2595033788
 30
0.0
  0
VERTEX
  5
9B5
  8
0
  6
CONTINUOUS
 62
     8
 10
33.0057256296
 20
4.2096083035
 30
0.0
  0
VERTEX
  5
9B6
  8
0
  6
CONTINUOUS
 62
     8
 10
32.9653567424
 20
4.1568234076
 30
0.0
  0
VERTEX
  5
9B7
  8
0
  6
CONTINUOUS
 62
     8
 10
32.9268894043
 20
4.1010985107
 30
0.0
  0
SEQEND
  5
BAB
  8
0
  6
CONTINUOUS
 62
     8
  0
POLYLINE
  5
10F
  8
0
  6
CONTINUOUS
 62
     8
 66
     1
 10
0.0
 20
0.0
 30
0.0
  0
VERTEX
  5
9B8
  8
0
  6
CONTINUOUS
 62
     8
 10
17.1136065674
 20
0.0213630371
 30
0.0
  0
VERTEX
  5
9B9
  8
0
  6
CONTINUOUS
 62
     8
 10
17.1154338373
 20
0.0213671192
 30
0.0
  0
VERTEX
  5
9BA
  8
0
  6
CONTINUOUS
 62
     8
 10
17.1172213069
 20
0.0213788989
 30
0.0
  0
VERTEX
  5
9BB
  8
0
  6
CONTINUOUS
 62
     8
 10
17.1189697635
 20
0.0213976765
 30
0.0
  0
VERTEX
  5
9BC
  8
0
  6
CONTINUOUS
 62
     8
 10
17.1206799944
 20
0.0214227521
 30
0.0
  0
VERTEX
  5
9BD
  8
0
  6
CONTINUOUS
 62
     8
 10
17.1223527867
 20
0.021453426
 30
0.0
  0
VERTEX
  5
9BE
  8
0
  6
CONTINUOUS
 62
     8
 10
17.1239889278
 20
0.0214889984
 30
0.0
  0
VERTEX
  5
9BF
  8
0
  6
CONTINUOUS
 62
     8
 10
17.125589205
 20
0.0215287695
 30
0.0
  0
VERTEX
  5
9C0
  8
0
  6
CONTINUOUS
 62
     8
 10
17.1271544054
 20
0.0215720396
 30
0.0
  0
VERTEX
  5
9C1
  8
0
  6
CONTINUOUS
 62
     8
 10
17.1286853163
 20
0.0216181087
 30
0.0
  0
VERTEX
  5
9C2
  8
0
  6
CONTINUOUS
 62
     8
 10
17.1301827251
 20
0.0216662773
 30
0.0
  0
VERTEX
  5
9C3
  8
0
  6
CONTINUOUS
 62
     8
 10
17.1316474188
 20
0.0217158454
 30
0.0
  0
VERTEX
  5
9C4
  8
0
  6
CONTINUOUS
 62
     8
 10
17.1330801849
 20
0.0217661133
 30
0.0
  0
VERTEX
  5
9C5
  8
0
  6
CONTINUOUS
 62
     8
 10
17.1344818106
 20
0.0218163812
 30
0.0
  0
VERTEX
  5
9C6
  8
0
  6
CONTINUOUS
 62
     8
 10
17.1358530831
 20
0.0218659493
 30
0.0
  0
VERTEX
  5
9C7
  8
0
  6
CONTINUOUS
 62
     8
 10
17.1371947896
 20
0.0219141178
 30
0.0
  0
VERTEX
  5
9C8
  8
0
  6
CONTINUOUS
 62
     8
 10
17.1385077176
 20
0.021960187
 30
0.0
  0
VERTEX
  5
9C9
  8
0
  6
CONTINUOUS
 62
     8
 10
17.1397926541
 20
0.022003457
 30
0.0
  0
VERTEX
  5
9CA
  8
0
  6
CONTINUOUS
 62
     8
 10
17.1410503864
 20
0.0220432281
 30
0.0
  0
VERTEX
  5
9CB
  8
0
  6
CONTINUOUS
 62
     8
 10
17.1422817019
 20
0.0220788006
 30
0.0
  0
VERTEX
  5
9CC
  8
0
  6
CONTINUOUS
 62
     8
 10
17.1434873878
 20
0.0221094745
 30
0.0
  0
VERTEX
  5
9CD
  8
0
  6
CONTINUOUS
 62
     8
 10
17.1446682312
 20
0.0221345501
 30
0.0
  0
VERTEX
  5
9CE
  8
0
  6
CONTINUOUS
 62
     8
 10
17.1458250196
 20
0.0221533277
 30
0.0
  0
VERTEX
  5
9CF
  8
0
  6
CONTINUOUS
 62
     8
 10
17.1469585401
 20
0.0221651074
 30
0.0
  0
VERTEX
  5
9D0
  8
0
  6
CONTINUOUS
 62
     8
 10
17.1480695801
 20
0.0221691895
 30
0.0
  0
SEQEND
  5
BAC
  8
0
  6
CONTINUOUS
 62
     8
  0
POLYLINE
  5
110
  8
0
  6
CONTINUOUS
 62
     8
 66
     1
 10
0.0
 20
0.0
 30
0.0
  0
VERTEX
  5
9D1
  8
0
  6
CONTINUOUS
 62
     8
 10
6.1563839111
 20
0.6274552409
 30
0.0
  0
VERTEX
  5
9D2
  8
0
  6
CONTINUOUS
 62
     8
 10
6.2032147736
 20
0.5785434559
 30
0.0
  0
VERTEX
  5
9D3
  8
0
  6
CONTINUOUS
 62
     8
 10
6.2514932872
 20
0.5316409869
 30
0.0
  0
VERTEX
  5
9D4
  8
0
  6
CONTINUOUS
 62
     8
 10
6.3011786603
 20
0.4867543653
 30
0.0
  0
VERTEX
  5
9D5
  8
0
  6
CONTINUOUS
 62
     8
 10
6.3522301012
 20
0.4438901224
 30
0.0
  0
VERTEX
  5
9D6
  8
0
  6
CONTINUOUS
 62
     8
 10
6.4046068183
 20
0.4030547896
 30
0.0
  0
VERTEX
  5
9D7
  8
0
  6
CONTINUOUS
 62
     8
 10
6.45826802
 20
0.3642548981
 30
0.0
  0
VERTEX
  5
9D8
  8
0
  6
CONTINUOUS
 62
     8
 10
6.5131729146
 20
0.3274969793
 30
0.0
  0
VERTEX
  5
9D9
  8
0
  6
CONTINUOUS
 62
     8
 10
6.5692807105
 20
0.2927875645
 30
0.0
  0
VERTEX
  5
9DA
  8
0
  6
CONTINUOUS
 62
     8
 10
6.626550616
 20
0.2601331851
 30
0.0
  0
VERTEX
  5
9DB
  8
0
  6
CONTINUOUS
 62
     8
 10
6.6849418396
 20
0.2295403723
 30
0.0
  0
VERTEX
  5
9DC
  8
0
  6
CONTINUOUS
 62
     8
 10
6.7444135896
 20
0.2010156575
 30
0.0
  0
VERTEX
  5
9DD
  8
0
  6
CONTINUOUS
 62
     8
 10
6.8049250743
 20
0.1745655721
 30
0.0
  0
VERTEX
  5
9DE
  8
0
  6
CONTINUOUS
 62
     8
 10
6.8664355021
 20
0.1501966473
 30
0.0
  0
VERTEX
  5
9DF
  8
0
  6
CONTINUOUS
 62
     8
 10
6.9289040814
 20
0.1279154145
 30
0.0
  0
VERTEX
  5
9E0
  8
0
  6
CONTINUOUS
 62
     8
 10
6.9922900205
 20
0.107728405
 30
0.0
  0
VERTEX
  5
9E1
  8
0
  6
CONTINUOUS
 62
     8
 10
7.0565525279
 20
0.0896421501
 30
0.0
  0
VERTEX
  5
9E2
  8
0
  6
CONTINUOUS
 62
     8
 10
7.1216508119
 20
0.0736631812
 30
0.0
  0
VERTEX
  5
9E3
  8
0
  6
CONTINUOUS
 62
     8
 10
7.1875440807
 20
0.0597980296
 30
0.0
  0
VERTEX
  5
9E4
  8
0
  6
CONTINUOUS
 62
     8
 10
7.2541915429
 20
0.0480532266
 30
0.0
  0
VERTEX
  5
9E5
  8
0
  6
CONTINUOUS
 62
     8
 10
7.3215524068
 20
0.0384353035
 30
0.0
  0
VERTEX
  5
9E6
  8
0
  6
CONTINUOUS
 62
     8
 10
7.3895858807
 20
0.0309507917
 30
0.0
  0
VERTEX
  5
9E7
  8
0
  6
CONTINUOUS
 62
     8
 10
7.458251173
 20
0.0256062225
 30
0.0
  0
VERTEX
  5
9E8
  8
0
  6
CONTINUOUS
 62
     8
 10
7.527507492
 20
0.0224081272
 30
0.0
  0
VERTEX
  5
9E9
  8
0
  6
CONTINUOUS
 62
     8
 10
7.5973140462
 20
0.0213630371
 30
0.0
  0
SEQEND
  5
BAD
  8
0
  6
CONTINUOUS
 62
     8
  0
POLYLINE
  5
111
  8
0
  6
CONTINUOUS
 62
     8
 66
     1
 10
0.0
 20
0.0
 30
0.0
  0
VERTEX
  5
9EA
  8
0
  6
CONTINUOUS
 62
     8
 10
25.7920380859
 20
0.5801609701
 30
0.0
  0
VERTEX
  5
9EB
  8
0
  6
CONTINUOUS
 62
     8
 10
25.7440335916
 20
0.5818164476
 30
0.0
  0
VERTEX
  5
9EC
  8
0
  6
CONTINUOUS
 62
     8
 10
25.6945584991
 20
0.5848758105
 30
0.0
  0
VERTEX
  5
9ED
  8
0
  6
CONTINUOUS
 62
     8
 10
25.6438398886
 20
0.5895015256
 30
0.0
  0
VERTEX
  5
9EE
  8
0
  6
CONTINUOUS
 62
     8
 10
25.5921048403
 20
0.5958560595
 30
0.0
  0
VERTEX
  5
9EF
  8
0
  6
CONTINUOUS
 62
     8
 10
25.5395804346
 20
0.6041018791
 30
0.0
  0
VERTEX
  5
9F0
  8
0
  6
CONTINUOUS
 62
     8
 10
25.4864937515
 20
0.6144014511
 30
0.0
  0
VERTEX
  5
9F1
  8
0
  6
CONTINUOUS
 62
     8
 10
25.4330718715
 20
0.6269172423
 30
0.0
  0
VERTEX
  5
9F2
  8
0
  6
CONTINUOUS
 62
     8
 10
25.3795418746
 20
0.6418117194
 30
0.0
  0
VERTEX
  5
9F3
  8
0
  6
CONTINUOUS
 62
     8
 10
25.3261308413
 20
0.6592473491
 30
0.0
  0
VERTEX
  5
9F4
  8
0
  6
CONTINUOUS
 62
     8
 10
25.2730658516
 20
0.6793865983
 30
0.0
  0
VERTEX
  5
9F5
  8
0
  6
CONTINUOUS
 62
     8
 10
25.2205739858
 20
0.7023919336
 30
0.0
  0
VERTEX
  5
9F6
  8
0
  6
CONTINUOUS
 62
     8
 10
25.1688823242
 20
0.7284258219
 30
0.0
  0
VERTEX
  5
9F7
  8
0
  6
CONTINUOUS
 62
     8
 10
25.118217947
 20
0.7576507299
 30
0.0
  0
VERTEX
  5
9F8
  8
0
  6
CONTINUOUS
 62
     8
 10
25.0688079345
 20
0.7902291244
 30
0.0
  0
VERTEX
  5
9F9
  8
0
  6
CONTINUOUS
 62
     8
 10
25.0208793669
 20
0.826323472
 30
0.0
  0
VERTEX
  5
9FA
  8
0
  6
CONTINUOUS
 62
     8
 10
24.9746593244
 20
0.8660962396
 30
0.0
  0
VERTEX
  5
9FB
  8
0
  6
CONTINUOUS
 62
     8
 10
24.9303748872
 20
0.909709894
 30
0.0
  0
VERTEX
  5
9FC
  8
0
  6
CONTINUOUS
 62
     8
 10
24.8882531357
 20
0.9573269018
 30
0.0
  0
VERTEX
  5
9FD
  8
0
  6
CONTINUOUS
 62
     8
 10
24.84852115
 20
1.0091097298
 30
0.0
  0
VERTEX
  5
9FE
  8
0
  6
CONTINUOUS
 62
     8
 10
24.8114060104
 20
1.0652208448
 30
0.0
  0
VERTEX
  5
9FF
  8
0
  6
CONTINUOUS
 62
     8
 10
24.7771347971
 20
1.1258227135
 30
0.0
  0
VERTEX
  5
A00
  8
0
  6
CONTINUOUS
 62
     8
 10
24.7459345904
 20
1.1910778028
 30
0.0
  0
VERTEX
  5
A01
  8
0
  6
CONTINUOUS
 62
     8
 10
24.7180324705
 20
1.2611485793
 30
0.0
  0
VERTEX
  5
A02
  8
0
  6
CONTINUOUS
 62
     8
 10
24.6936555176
 20
1.3361975098
 30
0.0
  0
SEQEND
  5
BAE
  8
0
  6
CONTINUOUS
 62
     8
  0
POLYLINE
  5
112
  8
0
  6
CONTINUOUS
 62
     8
 66
     1
 10
0.0
 20
0.0
 30
0.0
  0
VERTEX
  5
A03
  8
0
  6
CONTINUOUS
 62
     8
 10
12.3384303385
 20
4.1021062012
 30
0.0
  0
VERTEX
  5
A04
  8
0
  6
CONTINUOUS
 62
     8
 10
12.4342988453
 20
4.0989855682
 30
0.0
  0
VERTEX
  5
A05
  8
0
  6
CONTINUOUS
 62
     8
 10
12.5281383254
 20
4.0900605684
 30
0.0
  0
VERTEX
  5
A06
  8
0
  6
CONTINUOUS
 62
     8
 10
12.6197664849
 20
4.0753063593
 30
0.0
  0
VERTEX
  5
A07
  8
0
  6
CONTINUOUS
 62
     8
 10
12.7090010297
 20
4.0546980986
 30
0.0
  0
VERTEX
  5
A08
  8
0
  6
CONTINUOUS
 62
     8
 10
12.7956596658
 20
4.028210944
 30
0.0
  0
VERTEX
  5
A09
  8
0
  6
CONTINUOUS
 62
     8
 10
12.8795600993
 20
3.9958200531
 30
0.0
  0
VERTEX
  5
A0A
  8
0
  6
CONTINUOUS
 62
     8
 10
12.9605200361
 20
3.9575005835
 30
0.0
  0
VERTEX
  5
A0B
  8
0
  6
CONTINUOUS
 62
     8
 10
13.0383571823
 20
3.9132276928
 30
0.0
  0
VERTEX
  5
A0C
  8
0
  6
CONTINUOUS
 62
     8
 10
13.1128892438
 20
3.8629765387
 30
0.0
  0
VERTEX
  5
A0D
  8
0
  6
CONTINUOUS
 62
     8
 10
13.1839339266
 20
3.8067222787
 30
0.0
  0
VERTEX
  5
A0E
  8
0
  6
CONTINUOUS
 62
     8
 10
13.2513089368
 20
3.7444400706
 30
0.0
  0
VERTEX
  5
A0F
  8
0
  6
CONTINUOUS
 62
     8
 10
13.3148319804
 20
3.676105072
 30
0.0
  0
VERTEX
  5
A10
  8
0
  6
CONTINUOUS
 62
     8
 10
13.3743207633
 20
3.6016924405
 30
0.0
  0
VERTEX
  5
A11
  8
0
  6
CONTINUOUS
 62
     8
 10
13.4295929916
 20
3.5211773337
 30
0.0
  0
VERTEX
  5
A12
  8
0
  6
CONTINUOUS
 62
     8
 10
13.4804663712
 20
3.4345349092
 30
0.0
  0
VERTEX
  5
A13
  8
0
  6
CONTINUOUS
 62
     8
 10
13.5267586082
 20
3.3417403248
 30
0.0
  0
VERTEX
  5
A14
  8
0
  6
CONTINUOUS
 62
     8
 10
13.5682874086
 20
3.242768738
 30
0.0
  0
VERTEX
  5
A15
  8
0
  6
CONTINUOUS
 62
     8
 10
13.6048704783
 20
3.1375953064
 30
0.0
  0
VERTEX
  5
A16
  8
0
  6
CONTINUOUS
 62
     8
 10
13.6363255234
 20
3.0261951877
 30
0.0
  0
VERTEX
  5
A17
  8
0
  6
CONTINUOUS
 62
     8
 10
13.6624702499
 20
2.9085435395
 30
0.0
  0
VERTEX
  5
A18
  8
0
  6
CONTINUOUS
 62
     8
 10
13.6831223637
 20
2.7846155195
 30
0.0
  0
VERTEX
  5
A19
  8
0
  6
CONTINUOUS
 62
     8
 10
13.6980995709
 20
2.6543862853
 30
0.0
  0
VERTEX
  5
A1A
  8
0
  6
CONTINUOUS
 62
     8
 10
13.7072195775
 20
2.5178309945
 30
0.0
  0
VERTEX
  5
A1B
  8
0
  6
CONTINUOUS
 62
     8
 10
13.7103000895
 20
2.3749248047
 30
0.0
  0
SEQEND
  5
BAF
  8
0
  6
CONTINUOUS
 62
     8
  0
POLYLINE
  5
113
  8
0
  6
CONTINUOUS
 62
     8
 66
     1
 10
0.0
 20
0.0
 30
0.0
  0
VERTEX
  5
A1C
  8
0
  6
CONTINUOUS
 62
     8
 10
20.5614529622
 20
2.7389025879
 30
0.0
  0
VERTEX
  5
A1D
  8
0
  6
CONTINUOUS
 62
     8
 10
20.5648787647
 20
2.855835207
 30
0.0
  0
VERTEX
  5
A1E
  8
0
  6
CONTINUOUS
 62
     8
 10
20.5738419951
 20
2.9670180424
 30
0.0
  0
VERTEX
  5
A1F
  8
0
  6
CONTINUOUS
 62
     8
 10
20.5881348466
 20
3.0725221224
 30
0.0
  0
VERTEX
  5
A20
  8
0
  6
CONTINUOUS
 62
     8
 10
20.6075495121
 20
3.1724184751
 30
0.0
  0
VERTEX
  5
A21
  8
0
  6
CONTINUOUS
 62
     8
 10
20.6318781847
 20
3.2667781288
 30
0.0
  0
VERTEX
  5
A22
  8
0
  6
CONTINUOUS
 62
     8
 10
20.6609130573
 20
3.3556721115
 30
0.0
  0
VERTEX
  5
A23
  8
0
  6
CONTINUOUS
 62
     8
 10
20.694446323
 20
3.4391714515
 30
0.0
  0
VERTEX
  5
A24
  8
0
  6
CONTINUOUS
 62
     8
 10
20.7322701748
 20
3.517347177
 30
0.0
  0
VERTEX
  5
A25
  8
0
  6
CONTINUOUS
 62
     8
 10
20.7741768056
 20
3.5902703161
 30
0.0
  0
VERTEX
  5
A26
  8
0
  6
CONTINUOUS
 62
     8
 10
20.8199584085
 20
3.6580118971
 30
0.0
  0
VERTEX
  5
A27
  8
0
  6
CONTINUOUS
 62
     8
 10
20.8694071765
 20
3.720642948
 30
0.0
  0
VERTEX
  5
A28
  8
0
  6
CONTINUOUS
 62
     8
 10
20.9223153025
 20
3.7782344971
 30
0.0
  0
VERTEX
  5
A29
  8
0
  6
CONTINUOUS
 62
     8
 10
20.9784749797
 20
3.8308575725
 30
0.0
  0
VERTEX
  5
A2A
  8
0
  6
CONTINUOUS
 62
     8
 10
21.037678401
 20
3.8785832025
 30
0.0
  0
VERTEX
  5
A2B
  8
0
  6
CONTINUOUS
 62
     8
 10
21.0997177594
 20
3.9214824152
 30
0.0
  0
VERTEX
  5
A2C
  8
0
  6
CONTINUOUS
 62
     8
 10
21.1643852479
 20
3.9596262388
 30
0.0
  0
VERTEX
  5
A2D
  8
0
  6
CONTINUOUS
 62
     8
 10
21.2314730595
 20
3.9930857014
 30
0.0
  0
VERTEX
  5
A2E
  8
0
  6
CONTINUOUS
 62
     8
 10
21.3007733873
 20
4.0219318314
 30
0.0
  0
VERTEX
  5
A2F
  8
0
  6
CONTINUOUS
 62
     8
 10
21.3720784242
 20
4.0462356567
 30
0.0
  0
VERTEX
  5
A30
  8
0
  6
CONTINUOUS
 62
     8
 10
21.4451803632
 20
4.0660682057
 30
0.0
  0
VERTEX
  5
A31
  8
0
  6
CONTINUOUS
 62
     8
 10
21.5198713974
 20
4.0815005064
 30
0.0
  0
VERTEX
  5
A32
  8
0
  6
CONTINUOUS
 62
     8
 10
21.5959437198
 20
4.0926035871
 30
0.0
  0
VERTEX
  5
A33
  8
0
  6
CONTINUOUS
 62
     8
 10
21.6731895233
 20
4.099448476
 30
0.0
  0
VERTEX
  5
A34
  8
0
  6
CONTINUOUS
 62
     8
 10
21.751401001
 20
4.1021062012
 30
0.0
  0
SEQEND
  5
BB0
  8
0
  6
CONTINUOUS
 62
     8
  0
POLYLINE
  5
114
  8
0
  6
CONTINUOUS
 62
     8
 66
     1
 10
0.0
 20
0.0
 30
0.0
  0
VERTEX
  5
A35
  8
0
  6
CONTINUOUS
 62
     8
 10
38.4435242513
 20
0.0213630371
 30
0.0
  0
VERTEX
  5
A36
  8
0
  6
CONTINUOUS
 62
     8
 10
38.5105376087
 20
0.0223667038
 30
0.0
  0
VERTEX
  5
A37
  8
0
  6
CONTINUOUS
 62
     8
 10
38.5770279935
 20
0.0253728053
 30
0.0
  0
VERTEX
  5
A38
  8
0
  6
CONTINUOUS
 62
     8
 10
38.6429608828
 20
0.0303739939
 30
0.0
  0
VERTEX
  5
A39
  8
0
  6
CONTINUOUS
 62
     8
 10
38.708301754
 20
0.0373629218
 30
0.0
  0
VERTEX
  5
A3A
  8
0
  6
CONTINUOUS
 62
     8
 10
38.7730160844
 20
0.0463322414
 30
0.0
  0
VERTEX
  5
A3B
  8
0
  6
CONTINUOUS
 62
     8
 10
38.8370693512
 20
0.0572746048
 30
0.0
  0
VERTEX
  5
A3C
  8
0
  6
CONTINUOUS
 62
     8
 10
38.9004270317
 20
0.0701826643
 30
0.0
  0
VERTEX
  5
A3D
  8
0
  6
CONTINUOUS
 62
     8
 10
38.9630546031
 20
0.0850490723
 30
0.0
  0
VERTEX
  5
A3E
  8
0
  6
CONTINUOUS
 62
     8
 10
39.0249175428
 20
0.1018664808
 30
0.0
  0
VERTEX
  5
A3F
  8
0
  6
CONTINUOUS
 62
     8
 10
39.085981328
 20
0.1206275423
 30
0.0
  0
VERTEX
  5
A40
  8
0
  6
CONTINUOUS
 62
     8
 10
39.1462114359
 20
0.1413249089
 30
0.0
  0
VERTEX
  5
A41
  8
0
  6
CONTINUOUS
 62
     8
 10
39.2055733439
 20
0.1639512329
 30
0.0
  0
VERTEX
  5
A42
  8
0
  6
CONTINUOUS
 62
     8
 10
39.2640325292
 20
0.1884991666
 30
0.0
  0
VERTEX
  5
A43
  8
0
  6
CONTINUOUS
 62
     8
 10
39.3215544692
 20
0.2149613622
 30
0.0
  0
VERTEX
  5
A44
  8
0
  6
CONTINUOUS
 62
     8
 10
39.378104641
 20
0.243330472
 30
0.0
  0
VERTEX
  5
A45
  8
0
  6
CONTINUOUS
 62
     8
 10
39.4336485219
 20
0.2735991482
 30
0.0
  0
VERTEX
  5
A46
  8
0
  6
CONTINUOUS
 62
     8
 10
39.4881515892
 20
0.3057600431
 30
0.0
  0
VERTEX
  5
A47
  8
0
  6
CONTINUOUS
 62
     8
 10
39.5415793203
 20
0.339805809
 30
0.0
  0
VERTEX
  5
A48
  8
0
  6
CONTINUOUS
 62
     8
 10
39.5938971923
 20
0.3757290981
 30
0.0
  0
VERTEX
  5
A49
  8
0
  6
CONTINUOUS
 62
     8
 10
39.6450706825
 20
0.4135225627
 30
0.0
  0
VERTEX
  5
A4A
  8
0
  6
CONTINUOUS
 62
     8
 10
39.6950652682
 20
0.4531788549
 30
0.0
  0
VERTEX
  5
A4B
  8
0
  6
CONTINUOUS
 62
     8
 10
39.7438464267
 20
0.4946906272
 30
0.0
  0
VERTEX
  5
A4C
  8
0
  6
CONTINUOUS
 62
     8
 10
39.7913796352
 20
0.5380505317
 30
0.0
  0
VERTEX
  5
A4D
  8
0
  6
CONTINUOUS
 62
     8
 10
39.8376303711
 20
0.5832512207
 30
0.0
  0
SEQEND
  5
BB1
  8
0
  6
CONTINUOUS
 62
     8
  0
POLYLINE
  5
115
  8
0
  6
CONTINUOUS
 62
     8
 66
     1
 10
0.0
 20
0.0
 30
0.0
  0
VERTEX
  5
A4E
  8
0
  6
CONTINUOUS
 62
     8
 10
42.692350179
 20
0.6738090007
 30
0.0
  0
VERTEX
  5
A4F
  8
0
  6
CONTINUOUS
 62
     8
 10
42.6756107479
 20
0.6744777424
 30
0.0
  0
VERTEX
  5
A50
  8
0
  6
CONTINUOUS
 62
     8
 10
42.6597971907
 20
0.6755788347
 30
0.0
  0
VERTEX
  5
A51
  8
0
  6
CONTINUOUS
 62
     8
 10
42.6448724771
 20
0.67711496
 30
0.0
  0
VERTEX
  5
A52
  8
0
  6
CONTINUOUS
 62
     8
 10
42.6307995767
 20
0.6790888009
 30
0.0
  0
VERTEX
  5
A53
  8
0
  6
CONTINUOUS
 62
     8
 10
42.6175414595
 20
0.6815030398
 30
0.0
  0
VERTEX
  5
A54
  8
0
  6
CONTINUOUS
 62
     8
 10
42.6050610949
 20
0.6843603592
 30
0.0
  0
VERTEX
  5
A55
  8
0
  6
CONTINUOUS
 62
     8
 10
42.5933214528
 20
0.6876634417
 30
0.0
  0
VERTEX
  5
A56
  8
0
  6
CONTINUOUS
 62
     8
 10
42.5822855029
 20
0.6914149697
 30
0.0
  0
VERTEX
  5
A57
  8
0
  6
CONTINUOUS
 62
     8
 10
42.5719162148
 20
0.6956176259
 30
0.0
  0
VERTEX
  5
A58
  8
0
  6
CONTINUOUS
 62
     8
 10
42.5621765583
 20
0.7002740926
 30
0.0
  0
VERTEX
  5
A59
  8
0
  6
CONTINUOUS
 62
     8
 10
42.553029503
 20
0.7053870524
 30
0.0
  0
VERTEX
  5
A5A
  8
0
  6
CONTINUOUS
 62
     8
 10
42.5444380188
 20
0.7109591878
 30
0.0
  0
VERTEX
  5
A5B
  8
0
  6
CONTINUOUS
 62
     8
 10
42.5363650753
 20
0.7169931814
 30
0.0
  0
VERTEX
  5
A5C
  8
0
  6
CONTINUOUS
 62
     8
 10
42.5287736421
 20
0.7234917155
 30
0.0
  0
VERTEX
  5
A5D
  8
0
  6
CONTINUOUS
 62
     8
 10
42.5216266891
 20
0.7304574728
 30
0.0
  0
VERTEX
  5
A5E
  8
0
  6
CONTINUOUS
 62
     8
 10
42.5148871859
 20
0.7378931357
 30
0.0
  0
VERTEX
  5
A5F
  8
0
  6
CONTINUOUS
 62
     8
 10
42.5085181023
 20
0.7458013868
 30
0.0
  0
VERTEX
  5
A60
  8
0
  6
CONTINUOUS
 62
     8
 10
42.5024824079
 20
0.7541849085
 30
0.0
  0
VERTEX
  5
A61
  8
0
  6
CONTINUOUS
 62
     8
 10
42.4967430724
 20
0.7630463835
 30
0.0
  0
VERTEX
  5
A62
  8
0
  6
CONTINUOUS
 62
     8
 10
42.4912630657
 20
0.772388494
 30
0.0
  0
VERTEX
  5
A63
  8
0
  6
CONTINUOUS
 62
     8
 10
42.4860053573
 20
0.7822139228
 30
0.0
  0
VERTEX
  5
A64
  8
0
  6
CONTINUOUS
 62
     8
 10
42.4809329169
 20
0.7925253523
 30
0.0
  0
VERTEX
  5
A65
  8
0
  6
CONTINUOUS
 62
     8
 10
42.4760087144
 20
0.803325465
 30
0.0
  0
VERTEX
  5
A66
  8
0
  6
CONTINUOUS
 62
     8
 10
42.4711957194
 20
0.8146169434
 30
0.0
  0
SEQEND
  5
BB2
  8
0
  6
CONTINUOUS
 62
     8
  0
POLYLINE
  5
116
  8
0
  6
CONTINUOUS
 62
     8
 66
     1
 10
0.0
 20
0.0
 30
0.0
  0
VERTEX
  5
A67
  8
0
  6
CONTINUOUS
 62
     8
 10
36.4074521484
 20
2.3749248047
 30
0.0
  0
VERTEX
  5
A68
  8
0
  6
CONTINUOUS
 62
     8
 10
36.4086197495
 20
2.2810312856
 30
0.0
  0
VERTEX
  5
A69
  8
0
  6
CONTINUOUS
 62
     8
 10
36.4120987987
 20
2.1889034408
 30
0.0
  0
VERTEX
  5
A6A
  8
0
  6
CONTINUOUS
 62
     8
 10
36.4178536655
 20
2.098550484
 30
0.0
  0
VERTEX
  5
A6B
  8
0
  6
CONTINUOUS
 62
     8
 10
36.4258487191
 20
2.0099816292
 30
0.0
  0
VERTEX
  5
A6C
  8
0
  6
CONTINUOUS
 62
     8
 10
36.4360483287
 20
1.9232060901
 30
0.0
  0
VERTEX
  5
A6D
  8
0
  6
CONTINUOUS
 62
     8
 10
36.4484168638
 20
1.8382330805
 30
0.0
  0
VERTEX
  5
A6E
  8
0
  6
CONTINUOUS
 62
     8
 10
36.4629186934
 20
1.7550718144
 30
0.0
  0
VERTEX
  5
A6F
  8
0
  6
CONTINUOUS
 62
     8
 10
36.479518187
 20
1.6737315056
 30
0.0
  0
VERTEX
  5
A70
  8
0
  6
CONTINUOUS
 62
     8
 10
36.4981797137
 20
1.5942213678
 30
0.0
  0
VERTEX
  5
A71
  8
0
  6
CONTINUOUS
 62
     8
 10
36.518867643
 20
1.516550615
 30
0.0
  0
VERTEX
  5
A72
  8
0
  6
CONTINUOUS
 62
     8
 10
36.5415463439
 20
1.4407284609
 30
0.0
  0
VERTEX
  5
A73
  8
0
  6
CONTINUOUS
 62
     8
 10
36.566180186
 20
1.3667641195
 30
0.0
  0
VERTEX
  5
A74
  8
0
  6
CONTINUOUS
 62
     8
 10
36.5927335383
 20
1.2946668044
 30
0.0
  0
VERTEX
  5
A75
  8
0
  6
CONTINUOUS
 62
     8
 10
36.6211707702
 20
1.2244457297
 30
0.0
  0
VERTEX
  5
A76
  8
0
  6
CONTINUOUS
 62
     8
 10
36.651456251
 20
1.156110109
 30
0.0
  0
VERTEX
  5
A77
  8
0
  6
CONTINUOUS
 62
     8
 10
36.6835543499
 20
1.0896691563
 30
0.0
  0
VERTEX
  5
A78
  8
0
  6
CONTINUOUS
 62
     8
 10
36.7174294363
 20
1.0251320854
 30
0.0
  0
VERTEX
  5
A79
  8
0
  6
CONTINUOUS
 62
     8
 10
36.7530458794
 20
0.96250811
 30
0.0
  0
VERTEX
  5
A7A
  8
0
  6
CONTINUOUS
 62
     8
 10
36.7903680484
 20
0.9018064442
 30
0.0
  0
VERTEX
  5
A7B
  8
0
  6
CONTINUOUS
 62
     8
 10
36.8293603128
 20
0.8430363016
 30
0.0
  0
VERTEX
  5
A7C
  8
0
  6
CONTINUOUS
 62
     8
 10
36.8699870416
 20
0.7862068961
 30
0.0
  0
VERTEX
  5
A7D
  8
0
  6
CONTINUOUS
 62
     8
 10
36.9122126043
 20
0.7313274417
 30
0.0
  0
VERTEX
  5
A7E
  8
0
  6
CONTINUOUS
 62
     8
 10
36.9560013701
 20
0.678407152
 30
0.0
  0
VERTEX
  5
A7F
  8
0
  6
CONTINUOUS
 62
     8
 10
37.0013177083
 20
0.6274552409
 30
0.0
  0
SEQEND
  5
BB3
  8
0
  6
CONTINUOUS
 62
     8
  0
POLYLINE
  5
117
  8
0
  6
CONTINUOUS
 62
     8
 66
     1
 10
0.0
 20
0.0
 30
0.0
  0
VERTEX
  5
A80
  8
0
  6
CONTINUOUS
 62
     8
 10
29.9324365234
 20
0.0213630371
 30
0.0
  0
VERTEX
  5
A81
  8
0
  6
CONTINUOUS
 62
     8
 10
30.0499372416
 20
0.0235778664
 30
0.0
  0
VERTEX
  5
A82
  8
0
  6
CONTINUOUS
 62
     8
 10
30.1638371576
 20
0.0302167949
 30
0.0
  0
VERTEX
  5
A83
  8
0
  6
CONTINUOUS
 62
     8
 10
30.2741645544
 20
0.0412714836
 30
0.0
  0
VERTEX
  5
A84
  8
0
  6
CONTINUOUS
 62
     8
 10
30.3809477151
 20
0.0567335932
 30
0.0
  0
VERTEX
  5
A85
  8
0
  6
CONTINUOUS
 62
     8
 10
30.4842149226
 20
0.0765947848
 30
0.0
  0
VERTEX
  5
A86
  8
0
  6
CONTINUOUS
 62
     8
 10
30.5839944598
 20
0.1008467191
 30
0.0
  0
VERTEX
  5
A87
  8
0
  6
CONTINUOUS
 62
     8
 10
30.6803146098
 20
0.1294810571
 30
0.0
  0
VERTEX
  5
A88
  8
0
  6
CONTINUOUS
 62
     8
 10
30.7732036555
 20
0.1624894598
 30
0.0
  0
VERTEX
  5
A89
  8
0
  6
CONTINUOUS
 62
     8
 10
30.8626898799
 20
0.1998635879
 30
0.0
  0
VERTEX
  5
A8A
  8
0
  6
CONTINUOUS
 62
     8
 10
30.948801566
 20
0.2415951023
 30
0.0
  0
VERTEX
  5
A8B
  8
0
  6
CONTINUOUS
 62
     8
 10
31.0315669968
 20
0.2876756641
 30
0.0
  0
VERTEX
  5
A8C
  8
0
  6
CONTINUOUS
 62
     8
 10
31.1110144552
 20
0.338096934
 30
0.0
  0
VERTEX
  5
A8D
  8
0
  6
CONTINUOUS
 62
     8
 10
31.1871722242
 20
0.392850573
 30
0.0
  0
VERTEX
  5
A8E
  8
0
  6
CONTINUOUS
 62
     8
 10
31.2600685868
 20
0.4519282419
 30
0.0
  0
VERTEX
  5
A8F
  8
0
  6
CONTINUOUS
 62
     8
 10
31.329731826
 20
0.5153216017
 30
0.0
  0
VERTEX
  5
A90
  8
0
  6
CONTINUOUS
 62
     8
 10
31.3961902247
 20
0.5830223132
 30
0.0
  0
VERTEX
  5
A91
  8
0
  6
CONTINUOUS
 62
     8
 10
31.459472066
 20
0.6550220374
 30
0.0
  0
VERTEX
  5
A92
  8
0
  6
CONTINUOUS
 62
     8
 10
31.5196056328
 20
0.7313124352
 30
0.0
  0
VERTEX
  5
A93
  8
0
  6
CONTINUOUS
 62
     8
 10
31.576619208
 20
0.8118851673
 30
0.0
  0
VERTEX
  5
A94
  8
0
  6
CONTINUOUS
 62
     8
 10
31.6305410748
 20
0.8967318948
 30
0.0
  0
VERTEX
  5
A95
  8
0
  6
CONTINUOUS
 62
     8
 10
31.6813995159
 20
0.9858442785
 30
0.0
  0
VERTEX
  5
A96
  8
0
  6
CONTINUOUS
 62
     8
 10
31.7292228145
 20
1.0792139793
 30
0.0
  0
VERTEX
  5
A97
  8
0
  6
CONTINUOUS
 62
     8
 10
31.7740392535
 20
1.1768326582
 30
0.0
  0
VERTEX
  5
A98
  8
0
  6
CONTINUOUS
 62
     8
 10
31.8158771159
 20
1.2786919759
 30
0.0
  0
SEQEND
  5
BB4
  8
0
  6
CONTINUOUS
 62
     8
  0
POLYLINE
  5
118
  8
0
  6
CONTINUOUS
 62
     8
 66
     1
 10
0.0
 20
0.0
 30
0.0
  0
VERTEX
  5
A99
  8
0
  6
CONTINUOUS
 62
     8
 10
42.5737114258
 20
0.1099054362
 30
0.0
  0
VERTEX
  5
A9A
  8
0
  6
CONTINUOUS
 62
     8
 10
42.5802929039
 20
0.1099043865
 30
0.0
  0
VERTEX
  5
A9B
  8
0
  6
CONTINUOUS
 62
     8
 10
42.5908673553
 20
0.1099012375
 30
0.0
  0
VERTEX
  5
A9C
  8
0
  6
CONTINUOUS
 62
     8
 10
42.6054347801
 20
0.1098959891
 30
0.0
  0
VERTEX
  5
A9D
  8
0
  6
CONTINUOUS
 62
     8
 10
42.6239951782
 20
0.1098886414
 30
0.0
  0
VERTEX
  5
A9E
  8
0
  6
CONTINUOUS
 62
     8
 10
42.6465485497
 20
0.1098791943
 30
0.0
  0
VERTEX
  5
A9F
  8
0
  6
CONTINUOUS
 62
     8
 10
42.6730948944
 20
0.1098676478
 30
0.0
  0
VERTEX
  5
AA0
  8
0
  6
CONTINUOUS
 62
     8
 10
42.7036342125
 20
0.109854002
 30
0.0
  0
VERTEX
  5
AA1
  8
0
  6
CONTINUOUS
 62
     8
 10
42.7381665039
 20
0.1098382568
 30
0.0
  0
VERTEX
  5
AA2
  8
0
  6
CONTINUOUS
 62
     8
 10
42.7766917686
 20
0.1098204123
 30
0.0
  0
VERTEX
  5
AA3
  8
0
  6
CONTINUOUS
 62
     8
 10
42.8192100067
 20
0.1098004684
 30
0.0
  0
VERTEX
  5
AA4
  8
0
  6
CONTINUOUS
 62
     8
 10
42.8657212181
 20
0.1097784252
 30
0.0
  0
VERTEX
  5
AA5
  8
0
  6
CONTINUOUS
 62
     8
 10
42.9162254028
 20
0.1097542826
 30
0.0
  0
VERTEX
  5
AA6
  8
0
  6
CONTINUOUS
 62
     8
 10
42.9707225609
 20
0.1097280407
 30
0.0
  0
VERTEX
  5
AA7
  8
0
  6
CONTINUOUS
 62
     8
 10
43.0292126923
 20
0.1096996994
 30
0.0
  0
VERTEX
  5
AA8
  8
0
  6
CONTINUOUS
 62
     8
 10
43.091695797
 20
0.1096692588
 30
0.0
  0
VERTEX
  5
AA9
  8
0
  6
CONTINUOUS
 62
     8
 10
43.158171875
 20
0.1096367188
 30
0.0
  0
SEQEND
  5
BB5
  8
0
  6
CONTINUOUS
 62
     8
  0
POLYLINE
  5
119
  8
0
  6
CONTINUOUS
 62
     8
 66
     1
 10
0.0
 20
0.0
 30
0.0
  0
VERTEX
  5
AAA
  8
0
  6
CONTINUOUS
 62
     8
 10
25.7947252604
 20
0.0119579264
 30
0.0
  0
VERTEX
  5
AAB
  8
0
  6
CONTINUOUS
 62
     8
 10
25.9233030117
 20
0.0194718389
 30
0.0
  0
VERTEX
  5
AAC
  8
0
  6
CONTINUOUS
 62
     8
 10
26.0471597217
 20
0.0328420773
 30
0.0
  0
VERTEX
  5
AAD
  8
0
  6
CONTINUOUS
 62
     8
 10
26.1662279194
 20
0.0518648292
 30
0.0
  0
VERTEX
  5
AAE
  8
0
  6
CONTINUOUS
 62
     8
 10
26.2804401339
 20
0.0763362822
 30
0.0
  0
VERTEX
  5
AAF
  8
0
  6
CONTINUOUS
 62
     8
 10
26.3897288943
 20
0.106052624
 30
0.0
  0
VERTEX
  5
AB0
  8
0
  6
CONTINUOUS
 62
     8
 10
26.4940267296
 20
0.1408100421
 30
0.0
  0
VERTEX
  5
AB1
  8
0
  6
CONTINUOUS
 62
     8
 10
26.5932661688
 20
0.1804047241
 30
0.0
  0
VERTEX
  5
AB2
  8
0
  6
CONTINUOUS
 62
     8
 10
26.6873797412
 20
0.2246328577
 30
0.0
  0
VERTEX
  5
AB3
  8
0
  6
CONTINUOUS
 62
     8
 10
26.7762999756
 20
0.2732906305
 30
0.0
  0
VERTEX
  5
AB4
  8
0
  6
CONTINUOUS
 62
     8
 10
26.8599594011
 20
0.3261742301
 30
0.0
  0
VERTEX
  5
AB5
  8
0
  6
CONTINUOUS
 62
     8
 10
26.9382905469
 20
0.3830798441
 30
0.0
  0
VERTEX
  5
AB6
  8
0
  6
CONTINUOUS
 62
     8
 10
27.011225942
 20
0.4438036601
 30
0.0
  0
VERTEX
  5
AB7
  8
0
  6
CONTINUOUS
 62
     8
 10
27.0786981154
 20
0.5081418657
 30
0.0
  0
VERTEX
  5
AB8
  8
0
  6
CONTINUOUS
 62
     8
 10
27.1406395962
 20
0.5758906486
 30
0.0
  0
VERTEX
  5
AB9
  8
0
  6
CONTINUOUS
 62
     8
 10
27.1969829135
 20
0.6468461963
 30
0.0
  0
VERTEX
  5
ABA
  8
0
  6
CONTINUOUS
 62
     8
 10
27.2476605963
 20
0.7208046965
 30
0.0
  0
VERTEX
  5
ABB
  8
0
  6
CONTINUOUS
 62
     8
 10
27.2926051737
 20
0.7975623368
 30
0.0
  0
VERTEX
  5
ABC
  8
0
  6
CONTINUOUS
 62
     8
 10
27.3317491748
 20
0.8769153048
 30
0.0
  0
VERTEX
  5
ABD
  8
0
  6
CONTINUOUS
 62
     8
 10
27.3650251285
 20
0.9586597881
 30
0.0
  0
VERTEX
  5
ABE
  8
0
  6
CONTINUOUS
 62
     8
 10
27.392365564
 20
1.0425919743
 30
0.0
  0
VERTEX
  5
ABF
  8
0
  6
CONTINUOUS
 62
     8
 10
27.4137030104
 20
1.1285080511
 30
0.0
  0
VERTEX
  5
AC0
  8
0
  6
CONTINUOUS
 62
     8
 10
27.4289699967
 20
1.216204206
 30
0.0
  0
VERTEX
  5
AC1
  8
0
  6
CONTINUOUS
 62
     8
 10
27.4380990519
 20
1.3054766266
 30
0.0
  0
VERTEX
  5
AC2
  8
0
  6
CONTINUOUS
 62
     8
 10
27.4410227051
 20
1.3961215007
 30
0.0
  0
SEQEND
  5
BB6
  8
0
  6
CONTINUOUS
 62
     8
  0
POLYLINE
  5
11A
  8
0
  6
CONTINUOUS
 62
     8
 66
     1
 10
0.0
 20
0.0
 30
0.0
  0
VERTEX
  5
AC3
  8
0
  6
CONTINUOUS
 62
     8
 10
7.5973140462
 20
4.1021062012
 30
0.0
  0
VERTEX
  5
AC4
  8
0
  6
CONTINUOUS
 62
     8
 10
7.6932040228
 20
4.0986448895
 30
0.0
  0
VERTEX
  5
AC5
  8
0
  6
CONTINUOUS
 62
     8
 10
7.7870272426
 20
4.0887571021
 30
0.0
  0
VERTEX
  5
AC6
  8
0
  6
CONTINUOUS
 62
     8
 10
7.8786063685
 20
4.0725068693
 30
0.0
  0
VERTEX
  5
AC7
  8
0
  6
CONTINUOUS
 62
     8
 10
7.9677640633
 20
4.0499582214
 30
0.0
  0
VERTEX
  5
AC8
  8
0
  6
CONTINUOUS
 62
     8
 10
8.0543229898
 20
4.0211751888
 30
0.0
  0
VERTEX
  5
AC9
  8
0
  6
CONTINUOUS
 62
     8
 10
8.1381058108
 20
3.9862218018
 30
0.0
  0
VERTEX
  5
ACA
  8
0
  6
CONTINUOUS
 62
     8
 10
8.2189351891
 20
3.9451620906
 30
0.0
  0
VERTEX
  5
ACB
  8
0
  6
CONTINUOUS
 62
     8
 10
8.2966337876
 20
3.8980600857
 30
0.0
  0
VERTEX
  5
ACC
  8
0
  6
CONTINUOUS
 62
     8
 10
8.3710242689
 20
3.8449798174
 30
0.0
  0
VERTEX
  5
ACD
  8
0
  6
CONTINUOUS
 62
     8
 10
8.4419292961
 20
3.785985316
 30
0.0
  0
VERTEX
  5
ACE
  8
0
  6
CONTINUOUS
 62
     8
 10
8.5091715318
 20
3.7211406118
 30
0.0
  0
VERTEX
  5
ACF
  8
0
  6
CONTINUOUS
 62
     8
 10
8.5725736389
 20
3.6505097351
 30
0.0
  0
VERTEX
  5
AD0
  8
0
  6
CONTINUOUS
 62
     8
 10
8.6319582802
 20
3.5741567163
 30
0.0
  0
VERTEX
  5
AD1
  8
0
  6
CONTINUOUS
 62
     8
 10
8.6871481185
 20
3.4921455858
 30
0.0
  0
VERTEX
  5
AD2
  8
0
  6
CONTINUOUS
 62
     8
 10
8.7379658167
 20
3.4045403738
 30
0.0
  0
VERTEX
  5
AD3
  8
0
  6
CONTINUOUS
 62
     8
 10
8.7842340374
 20
3.3114051107
 30
0.0
  0
VERTEX
  5
AD4
  8
0
  6
CONTINUOUS
 62
     8
 10
8.8257754436
 20
3.2128038268
 30
0.0
  0
VERTEX
  5
AD5
  8
0
  6
CONTINUOUS
 62
     8
 10
8.8624126981
 20
3.1088005524
 30
0.0
  0
VERTEX
  5
AD6
  8
0
  6
CONTINUOUS
 62
     8
 10
8.8939684637
 20
2.9994593178
 30
0.0
  0
VERTEX
  5
AD7
  8
0
  6
CONTINUOUS
 62
     8
 10
8.9202654031
 20
2.8848441535
 30
0.0
  0
VERTEX
  5
AD8
  8
0
  6
CONTINUOUS
 62
     8
 10
8.9411261792
 20
2.7650190897
 30
0.0
  0
VERTEX
  5
AD9
  8
0
  6
CONTINUOUS
 62
     8
 10
8.9563734549
 20
2.6400481567
 30
0.0
  0
VERTEX
  5
ADA
  8
0
  6
CONTINUOUS
 62
     8
 10
8.9658298928
 20
2.509995385
 30
0.0
  0
VERTEX
  5
ADB
  8
0
  6
CONTINUOUS
 62
     8
 10
8.9693181559
 20
2.3749248047
 30
0.0
  0
SEQEND
  5
BB7
  8
0
  6
CONTINUOUS
 62
     8
  0
POLYLINE
  5
11B
  8
0
  6
CONTINUOUS
 62
     8
 66
     1
 10
0.0
 20
0.0
 30
0.0
  0
VERTEX
  5
ADC
  8
0
  6
CONTINUOUS
 62
     8
 10
32.9268894043
 20
2.7394400228
 30
0.0
  0
VERTEX
  5
ADD
  8
0
  6
CONTINUOUS
 62
     8
 10
32.9303145507
 20
2.8563082227
 30
0.0
  0
VERTEX
  5
ADE
  8
0
  6
CONTINUOUS
 62
     8
 10
32.9392759879
 20
2.9674320041
 30
0.0
  0
VERTEX
  5
ADF
  8
0
  6
CONTINUOUS
 62
     8
 10
32.9535661715
 20
3.0728821618
 30
0.0
  0
VERTEX
  5
AE0
  8
0
  6
CONTINUOUS
 62
     8
 10
32.9729775568
 20
3.1727294907
 30
0.0
  0
VERTEX
  5
AE1
  8
0
  6
CONTINUOUS
 62
     8
 10
32.9973025992
 20
3.2670447857
 30
0.0
  0
VERTEX
  5
AE2
  8
0
  6
CONTINUOUS
 62
     8
 10
33.0263337542
 20
3.3558988419
 30
0.0
  0
VERTEX
  5
AE3
  8
0
  6
CONTINUOUS
 62
     8
 10
33.0598634772
 20
3.439362454
 30
0.0
  0
VERTEX
  5
AE4
  8
0
  6
CONTINUOUS
 62
     8
 10
33.0976842237
 20
3.517506417
 30
0.0
  0
VERTEX
  5
AE5
  8
0
  6
CONTINUOUS
 62
     8
 10
33.139588449
 20
3.5904015258
 30
0.0
  0
VERTEX
  5
AE6
  8
0
  6
CONTINUOUS
 62
     8
 10
33.1853686086
 20
3.6581185754
 30
0.0
  0
VERTEX
  5
AE7
  8
0
  6
CONTINUOUS
 62
     8
 10
33.2348171579
 20
3.7207283606
 30
0.0
  0
VERTEX
  5
AE8
  8
0
  6
CONTINUOUS
 62
     8
 10
33.2877265523
 20
3.7783016764
 30
0.0
  0
VERTEX
  5
AE9
  8
0
  6
CONTINUOUS
 62
     8
 10
33.3438892473
 20
3.8309093177
 30
0.0
  0
VERTEX
  5
AEA
  8
0
  6
CONTINUOUS
 62
     8
 10
33.4030976983
 20
3.8786220794
 30
0.0
  0
VERTEX
  5
AEB
  8
0
  6
CONTINUOUS
 62
     8
 10
33.4651443607
 20
3.9215107565
 30
0.0
  0
VERTEX
  5
AEC
  8
0
  6
CONTINUOUS
 62
     8
 10
33.5298216899
 20
3.9596461438
 30
0.0
  0
VERTEX
  5
AED
  8
0
  6
CONTINUOUS
 62
     8
 10
33.5969221414
 20
3.9930990362
 30
0.0
  0
VERTEX
  5
AEE
  8
0
  6
CONTINUOUS
 62
     8
 10
33.6662381706
 20
4.0219402288
 30
0.0
  0
VERTEX
  5
AEF
  8
0
  6
CONTINUOUS
 62
     8
 10
33.7375622329
 20
4.0462405163
 30
0.0
  0
VERTEX
  5
AF0
  8
0
  6
CONTINUOUS
 62
     8
 10
33.8106867838
 20
4.0660706938
 30
0.0
  0
VERTEX
  5
AF1
  8
0
  6
CONTINUOUS
 62
     8
 10
33.8854042786
 20
4.0815015561
 30
0.0
  0
VERTEX
  5
AF2
  8
0
  6
CONTINUOUS
 62
     8
 10
33.9615071728
 20
4.0926038981
 30
0.0
  0
VERTEX
  5
AF3
  8
0
  6
CONTINUOUS
 62
     8
 10
34.0387879218
 20
4.0994485149
 30
0.0
  0
VERTEX
  5
AF4
  8
0
  6
CONTINUOUS
 62
     8
 10
34.1170389811
 20
4.1021062012
 30
0.0
  0
SEQEND
  5
BB8
  8
0
  6
CONTINUOUS
 62
     8
  0
POLYLINE
  5
11C
  8
0
  6
CONTINUOUS
 62
     8
 66
     1
 10
0.0
 20
0.0
 30
0.0
  0
VERTEX
  5
AF5
  8
0
  6
CONTINUOUS
 62
     8
 10
25.6641285807
 20
4.7132368571
 30
0.0
  0
VERTEX
  5
AF6
  8
0
  6
CONTINUOUS
 62
     8
 10
25.5478714
 20
4.7068999295
 30
0.0
  0
VERTEX
  5
AF7
  8
0
  6
CONTINUOUS
 62
     8
 10
25.4360394848
 20
4.6949694745
 30
0.0
  0
VERTEX
  5
AF8
  8
0
  6
CONTINUOUS
 62
     8
 10
25.3286802456
 20
4.6776615798
 30
0.0
  0
VERTEX
  5
AF9
  8
0
  6
CONTINUOUS
 62
     8
 10
25.2258410927
 20
4.6551923333
 30
0.0
  0
VERTEX
  5
AFA
  8
0
  6
CONTINUOUS
 62
     8
 10
25.1275694367
 20
4.6277778226
 30
0.0
  0
VERTEX
  5
AFB
  8
0
  6
CONTINUOUS
 62
     8
 10
25.0339126879
 20
4.5956341356
 30
0.0
  0
VERTEX
  5
AFC
  8
0
  6
CONTINUOUS
 62
     8
 10
24.9449182569
 20
4.55897736
 30
0.0
  0
VERTEX
  5
AFD
  8
0
  6
CONTINUOUS
 62
     8
 10
24.860633554
 20
4.5180235837
 30
0.0
  0
VERTEX
  5
AFE
  8
0
  6
CONTINUOUS
 62
     8
 10
24.7811059896
 20
4.4729888944
 30
0.0
  0
VERTEX
  5
AFF
  8
0
  6
CONTINUOUS
 62
     8
 10
24.7063829743
 20
4.4240893799
 30
0.0
  0
VERTEX
  5
B00
  8
0
  6
CONTINUOUS
 62
     8
 10
24.6365119184
 20
4.371541128
 30
0.0
  0
VERTEX
  5
B01
  8
0
  6
CONTINUOUS
 62
     8
 10
24.5715402323
 20
4.3155602264
 30
0.0
  0
VERTEX
  5
B02
  8
0
  6
CONTINUOUS
 62
     8
 10
24.5115153266
 20
4.2563627631
 30
0.0
  0
VERTEX
  5
B03
  8
0
  6
CONTINUOUS
 62
     8
 10
24.4564846117
 20
4.1941648256
 30
0.0
  0
VERTEX
  5
B04
  8
0
  6
CONTINUOUS
 62
     8
 10
24.4064954979
 20
4.1291825019
 30
0.0
  0
VERTEX
  5
B05
  8
0
  6
CONTINUOUS
 62
     8
 10
24.3615953957
 20
4.0616318796
 30
0.0
  0
VERTEX
  5
B06
  8
0
  6
CONTINUOUS
 62
     8
 10
24.3218317156
 20
3.9917290467
 30
0.0
  0
VERTEX
  5
B07
  8
0
  6
CONTINUOUS
 62
     8
 10
24.2872518679
 20
3.9196900908
 30
0.0
  0
VERTEX
  5
B08
  8
0
  6
CONTINUOUS
 62
     8
 10
24.2579032632
 20
3.8457310998
 30
0.0
  0
VERTEX
  5
B09
  8
0
  6
CONTINUOUS
 62
     8
 10
24.2338333119
 20
3.7700681614
 30
0.0
  0
VERTEX
  5
B0A
  8
0
  6
CONTINUOUS
 62
     8
 10
24.2150894243
 20
3.6929173634
 30
0.0
  0
VERTEX
  5
B0B
  8
0
  6
CONTINUOUS
 62
     8
 10
24.201719011
 20
3.6144947936
 30
0.0
  0
VERTEX
  5
B0C
  8
0
  6
CONTINUOUS
 62
     8
 10
24.1937694823
 20
3.5350165398
 30
0.0
  0
VERTEX
  5
B0D
  8
0
  6
CONTINUOUS
 62
     8
 10
24.1912882487
 20
3.4546986898
 30
0.0
  0
SEQEND
  5
BB9
  8
0
  6
CONTINUOUS
 62
     8
  0
POLYLINE
  5
11D
  8
0
  6
CONTINUOUS
 62
     8
 66
     1
 10
0.0
 20
0.0
 30
0.0
  0
VERTEX
  5
B0E
  8
0
  6
CONTINUOUS
 62
     8
 10
10.8974330241
 20
0.6274552409
 30
0.0
  0
VERTEX
  5
B0F
  8
0
  6
CONTINUOUS
 62
     8
 10
10.9442705977
 20
0.5785434559
 30
0.0
  0
VERTEX
  5
B10
  8
0
  6
CONTINUOUS
 62
     8
 10
10.9925527026
 20
0.5316409869
 30
0.0
  0
VERTEX
  5
B11
  8
0
  6
CONTINUOUS
 62
     8
 10
11.0422389261
 20
0.4867543653
 30
0.0
  0
VERTEX
  5
B12
  8
0
  6
CONTINUOUS
 62
     8
 10
11.0932888557
 20
0.4438901224
 30
0.0
  0
VERTEX
  5
B13
  8
0
  6
CONTINUOUS
 62
     8
 10
11.1456620787
 20
0.4030547896
 30
0.0
  0
VERTEX
  5
B14
  8
0
  6
CONTINUOUS
 62
     8
 10
11.1993181826
 20
0.3642548981
 30
0.0
  0
VERTEX
  5
B15
  8
0
  6
CONTINUOUS
 62
     8
 10
11.2542167549
 20
0.3274969793
 30
0.0
  0
VERTEX
  5
B16
  8
0
  6
CONTINUOUS
 62
     8
 10
11.3103173828
 20
0.2927875645
 30
0.0
  0
VERTEX
  5
B17
  8
0
  6
CONTINUOUS
 62
     8
 10
11.3675796539
 20
0.2601331851
 30
0.0
  0
VERTEX
  5
B18
  8
0
  6
CONTINUOUS
 62
     8
 10
11.4259631555
 20
0.2295403723
 30
0.0
  0
VERTEX
  5
B19
  8
0
  6
CONTINUOUS
 62
     8
 10
11.4854274751
 20
0.2010156575
 30
0.0
  0
VERTEX
  5
B1A
  8
0
  6
CONTINUOUS
 62
     8
 10
11.5459322001
 20
0.1745655721
 30
0.0
  0
VERTEX
  5
B1B
  8
0
  6
CONTINUOUS
 62
     8
 10
11.6074369179
 20
0.1501966473
 30
0.0
  0
VERTEX
  5
B1C
  8
0
  6
CONTINUOUS
 62
     8
 10
11.6699012159
 20
0.1279154145
 30
0.0
  0
VERTEX
  5
B1D
  8
0
  6
CONTINUOUS
 62
     8
 10
11.7332846815
 20
0.107728405
 30
0.0
  0
VERTEX
  5
B1E
  8
0
  6
CONTINUOUS
 62
     8
 10
11.7975469021
 20
0.0896421501
 30
0.0
  0
VERTEX
  5
B1F
  8
0
  6
CONTINUOUS
 62
     8
 10
11.8626474652
 20
0.0736631812
 30
0.0
  0
VERTEX
  5
B20
  8
0
  6
CONTINUOUS
 62
     8
 10
11.9285459582
 20
0.0597980296
 30
0.0
  0
VERTEX
  5
B21
  8
0
  6
CONTINUOUS
 62
     8
 10
11.9952019685
 20
0.0480532266
 30
0.0
  0
VERTEX
  5
B22
  8
0
  6
CONTINUOUS
 62
     8
 10
12.0625750834
 20
0.0384353035
 30
0.0
  0
VERTEX
  5
B23
  8
0
  6
CONTINUOUS
 62
     8
 10
12.1306248905
 20
0.0309507917
 30
0.0
  0
VERTEX
  5
B24
  8
0
  6
CONTINUOUS
 62
     8
 10
12.1993109771
 20
0.0256062225
 30
0.0
  0
VERTEX
  5
B25
  8
0
  6
CONTINUOUS
 62
     8
 10
12.2685929306
 20
0.0224081272
 30
0.0
  0
VERTEX
  5
B26
  8
0
  6
CONTINUOUS
 62
     8
 10
12.3384303385
 20
0.0213630371
 30
0.0
  0
SEQEND
  5
BBA
  8
0
  6
CONTINUOUS
 62
     8
  0
POLYLINE
  5
11E
  8
0
  6
CONTINUOUS
 62
     8
 66
     1
 10
0.0
 20
0.0
 30
0.0
  0
VERTEX
  5
B27
  8
0
  6
CONTINUOUS
 62
     8
 10
42.4711957194
 20
0.8146169434
 30
0.0
  0
VERTEX
  5
B28
  8
0
  6
CONTINUOUS
 62
     8
 10
42.4668424637
 20
0.8265973893
 30
0.0
  0
VERTEX
  5
B29
  8
0
  6
CONTINUOUS
 62
     8
 10
42.462810351
 20
0.8391160282
 30
0.0
  0
VERTEX
  5
B2A
  8
0
  6
CONTINUOUS
 62
     8
 10
42.4590874267
 20
0.8521568233
 30
0.0
  0
VERTEX
  5
B2B
  8
0
  6
CONTINUOUS
 62
     8
 10
42.455661736
 20
0.865703738
 30
0.0
  0
VERTEX
  5
B2C
  8
0
  6
CONTINUOUS
 62
     8
 10
42.4525213244
 20
0.8797407354
 30
0.0
  0
VERTEX
  5
B2D
  8
0
  6
CONTINUOUS
 62
     8
 10
42.4496542371
 20
0.8942517789
 30
0.0
  0
VERTEX
  5
B2E
  8
0
  6
CONTINUOUS
 62
     8
 10
42.4470485196
 20
0.9092208317
 30
0.0
  0
VERTEX
  5
B2F
  8
0
  6
CONTINUOUS
 62
     8
 10
42.444692217
 20
0.924631857
 30
0.0
  0
VERTEX
  5
B30
  8
0
  6
CONTINUOUS
 62
     8
 10
42.4425733749
 20
0.9404688182
 30
0.0
  0
VERTEX
  5
B31
  8
0
  6
CONTINUOUS
 62
     8
 10
42.4406800385
 20
0.9567156784
 30
0.0
  0
VERTEX
  5
B32
  8
0
  6
CONTINUOUS
 62
     8
 10
42.4390002532
 20
0.973356401
 30
0.0
  0
VERTEX
  5
B33
  8
0
  6
CONTINUOUS
 62
     8
 10
42.4375220642
 20
0.9903749491
 30
0.0
  0
VERTEX
  5
B34
  8
0
  6
CONTINUOUS
 62
     8
 10
42.436233517
 20
1.0077552862
 30
0.0
  0
VERTEX
  5
B35
  8
0
  6
CONTINUOUS
 62
     8
 10
42.4351226569
 20
1.0254813753
 30
0.0
  0
VERTEX
  5
B36
  8
0
  6
CONTINUOUS
 62
     8
 10
42.4341775292
 20
1.0435371798
 30
0.0
  0
VERTEX
  5
B37
  8
0
  6
CONTINUOUS
 62
     8
 10
42.4333861792
 20
1.0619066629
 30
0.0
  0
VERTEX
  5
B38
  8
0
  6
CONTINUOUS
 62
     8
 10
42.4327366524
 20
1.080573788
 30
0.0
  0
VERTEX
  5
B39
  8
0
  6
CONTINUOUS
 62
     8
 10
42.432216994
 20
1.0995225182
 30
0.0
  0
VERTEX
  5
B3A
  8
0
  6
CONTINUOUS
 62
     8
 10
42.4318152493
 20
1.1187368168
 30
0.0
  0
VERTEX
  5
B3B
  8
0
  6
CONTINUOUS
 62
     8
 10
42.4315194638
 20
1.138200647
 30
0.0
  0
VERTEX
  5
B3C
  8
0
  6
CONTINUOUS
 62
     8
 10
42.4313176827
 20
1.1578979723
 30
0.0
  0
VERTEX
  5
B3D
  8
0
  6
CONTINUOUS
 62
     8
 10
42.4311979515
 20
1.1778127557
 30
0.0
  0
VERTEX
  5
B3E
  8
0
  6
CONTINUOUS
 62
     8
 10
42.4311483153
 20
1.1979289605
 30
0.0
  0
VERTEX
  5
B3F
  8
0
  6
CONTINUOUS
 62
     8
 10
42.4311568197
 20
1.2182305501
 30
0.0
  0
SEQEND
  5
BBB
  8
0
  6
CONTINUOUS
 62
     8
  0
POLYLINE
  5
11F
  8
0
  6
CONTINUOUS
 62
     8
 66
     1
 10
0.0
 20
0.0
 30
0.0
  0
VERTEX
  5
B40
  8
0
  6
CONTINUOUS
 62
     8
 10
35.7875209961
 20
3.1490325928
 30
0.0
  0
VERTEX
  5
B41
  8
0
  6
CONTINUOUS
 62
     8
 10
35.7869004812
 20
3.2062369615
 30
0.0
  0
VERTEX
  5
B42
  8
0
  6
CONTINUOUS
 62
     8
 10
35.7850313165
 20
3.2627567947
 30
0.0
  0
VERTEX
  5
B43
  8
0
  6
CONTINUOUS
 62
     8
 10
35.7819020723
 20
3.3185695535
 30
0.0
  0
VERTEX
  5
B44
  8
0
  6
CONTINUOUS
 62
     8
 10
35.7775013187
 20
3.3736526988
 30
0.0
  0
VERTEX
  5
B45
  8
0
  6
CONTINUOUS
 62
     8
 10
35.7718176258
 20
3.427983692
 30
0.0
  0
VERTEX
  5
B46
  8
0
  6
CONTINUOUS
 62
     8
 10
35.764839564
 20
3.4815399939
 30
0.0
  0
VERTEX
  5
B47
  8
0
  6
CONTINUOUS
 62
     8
 10
35.7565557033
 20
3.5342990658
 30
0.0
  0
VERTEX
  5
B48
  8
0
  6
CONTINUOUS
 62
     8
 10
35.746954614
 20
3.5862383687
 30
0.0
  0
VERTEX
  5
B49
  8
0
  6
CONTINUOUS
 62
     8
 10
35.7360248661
 20
3.6373353636
 30
0.0
  0
VERTEX
  5
B4A
  8
0
  6
CONTINUOUS
 62
     8
 10
35.7237550299
 20
3.6875675118
 30
0.0
  0
VERTEX
  5
B4B
  8
0
  6
CONTINUOUS
 62
     8
 10
35.7101336756
 20
3.7369122742
 30
0.0
  0
VERTEX
  5
B4C
  8
0
  6
CONTINUOUS
 62
     8
 10
35.6951493734
 20
3.785347112
 30
0.0
  0
VERTEX
  5
B4D
  8
0
  6
CONTINUOUS
 62
     8
 10
35.6787906933
 20
3.8328494863
 30
0.0
  0
VERTEX
  5
B4E
  8
0
  6
CONTINUOUS
 62
     8
 10
35.6610462057
 20
3.8793968581
 30
0.0
  0
VERTEX
  5
B4F
  8
0
  6
CONTINUOUS
 62
     8
 10
35.6419044806
 20
3.9249666886
 30
0.0
  0
VERTEX
  5
B50
  8
0
  6
CONTINUOUS
 62
     8
 10
35.6213540883
 20
3.9695364387
 30
0.0
  0
VERTEX
  5
B51
  8
0
  6
CONTINUOUS
 62
     8
 10
35.5993835989
 20
4.0130835698
 30
0.0
  0
VERTEX
  5
B52
  8
0
  6
CONTINUOUS
 62
     8
 10
35.5759815826
 20
4.0555855427
 30
0.0
  0
VERTEX
  5
B53
  8
0
  6
CONTINUOUS
 62
     8
 10
35.5511366097
 20
4.0970198186
 30
0.0
  0
VERTEX
  5
B54
  8
0
  6
CONTINUOUS
 62
     8
 10
35.5248372501
 20
4.1373638586
 30
0.0
  0
VERTEX
  5
B55
  8
0
  6
CONTINUOUS
 62
     8
 10
35.4970720743
 20
4.1765951238
 30
0.0
  0
VERTEX
  5
B56
  8
0
  6
CONTINUOUS
 62
     8
 10
35.4678296522
 20
4.2146910753
 30
0.0
  0
VERTEX
  5
B57
  8
0
  6
CONTINUOUS
 62
     8
 10
35.4370985541
 20
4.2516291742
 30
0.0
  0
VERTEX
  5
B58
  8
0
  6
CONTINUOUS
 62
     8
 10
35.4048673503
 20
4.2873868815
 30
0.0
  0
SEQEND
  5
BBC
  8
0
  6
CONTINUOUS
 62
     8
  0
ENDBLK
  5
78
  8
0
  0
BLOCK
  8
0
  2
_D
 70
     0
 10
0.0
 20
0.0
 30
0.0
  3
_D
  1

  0
SOLID
  5
175
  8
0
  6
CONTINUOUS
 62
     7
 10
184.9667977605
 20
253.7408932039
 30
0.0
 11
184.4587977605
 21
250.4388932039
 31
0.0
 12
185.4747977605
 22
250.4388932039
 32
0.0
 13
185.4747977605
 23
250.4388932039
 33
0.0
  0
SOLID
  5
176
  8
0
  6
CONTINUOUS
 62
     7
 10
184.9667977605
 20
189.1408932039
 30
0.0
 11
185.4747977605
 21
192.4428932039
 31
0.0
 12
184.4587977605
 22
192.4428932039
 32
0.0
 13
184.4587977605
 23
192.4428932039
 33
0.0
  0
LINE
  5
177
  8
0
  6
CONTINUOUS
 62
     7
 10
143.4667977605
 20
253.7408932039
 30
0.0
 11
185.9667977605
 21
253.7408932039
 31
0.0
  0
LINE
  5
178
  8
0
  6
CONTINUOUS
 62
     7
 10
143.4667977605
 20
189.1408932039
 30
0.0
 11
185.9667977605
 21
189.1408932039
 31
0.0
  0
LINE
  5
179
  8
0
  6
CONTINUOUS
 62
     7
 10
184.9667977605
 20
253.7408932039
 30
0.0
 11
184.9667977605
 21
189.1408932039
 31
0.0
  0
TEXT
  5
17A
  8
0
  6
CONTINUOUS
 62
     7
 10
183.7303877184
 20
219.4270288698
 30
0.0
 40
3.5
  1
64.6
 50
90.0
 41
0.7
 11
184.9667979351
 21
219.4270288698
 31
0.0
 73
     1
  0
ENDBLK
  5
174
  8
0
  0
BLOCK
  8
0
  2
_D_1
 70
     0
 10
0.0
 20
0.0
 30
0.0
  3
_D_1
  1

  0
SOLID
  5
180
  8
0
  6
CONTINUOUS
 62
     7
 10
34.9667977605
 20
263.9408932039
 30
0.0
 11
38.2687977605
 21
263.4328932039
 31
0.0
 12
38.2687977605
 22
264.4488932039
 32
0.0
 13
38.2687977605
 23
264.4488932039
 33
0.0
  0
SOLID
  5
181
  8
0
  6
CONTINUOUS
 62
     7
 10
174.7667977605
 20
263.9408932039
 30
0.0
 11
171.4647977605
 21
264.4488932039
 31
0.0
 12
171.4647977605
 22
263.4328932039
 32
0.0
 13
171.4647977605
 23
263.4328932039
 33
0.0
  0
LINE
  5
182
  8
0
  6
CONTINUOUS
 62
     7
 10
34.9667977605
 20
222.4408932039
 30
0.0
 11
34.9667977605
 21
264.9408932039
 31
0.0
  0
LINE
  5
183
  8
0
  6
CONTINUOUS
 62
     7
 10
174.7667977605
 20
222.4408932039
 30
0.0
 11
174.7667977605
 21
264.9408932039
 31
0.0
  0
LINE
  5
184
  8
0
  6
CONTINUOUS
 62
     7
 10
34.9667977605
 20
263.9408932039
 30
0.0
 11
174.7667977605
 21
263.9408932039
 31
0.0
  0
TEXT
  5
185
  8
0
  6
CONTINUOUS
 62
     7
 10
101.9774479052
 20
265.177303246
 30
0.0
 40
3.5
  1
139.8
 50
0.0
 41
0.7
 11
101.9774479052
 21
263.9408930293
 31
0.0
 73
     1
  0
ENDBLK
  5
17F
  8
0
  0
BLOCK
  8
0
  2
_D_2
 70
     0
 10
0.0
 20
0.0
 30
0.0
  3
_D_2
  1

  0
SOLID
  5
18B
  8
0
  6
CONTINUOUS
 62
     7
 10
96.2167977605
 20
178.9408932039
 30
0.0
 11
92.9147977605
 21
179.4488932039
 31
0.0
 12
92.9147977605
 22
178.4328932039
 32
0.0
 13
92.9147977605
 23
178.4328932039
 33
0.0
  0
SOLID
  5
18C
  8
0
  6
CONTINUOUS
 62
     7
 10
37.7167977605
 20
178.9408932039
 30
0.0
 11
41.0187977605
 21
178.4328932039
 31
0.0
 12
41.0187977605
 22
179.4488932039
 32
0.0
 13
41.0187977605
 23
179.4488932039
 33
0.0
  0
LINE
  5
18D
  8
0
  6
CONTINUOUS
 62
     7
 10
96.2167977605
 20
220.4408932039
 30
0.0
 11
96.2167977605
 21
177.9408932039
 31
0.0
  0
LINE
  5
18E
  8
0
  6
CONTINUOUS
 62
     7
 10
37.7167977605
 20
220.4408932039
 30
0.0
 11
37.7167977605
 21
177.9408932039
 31
0.0
  0
LINE
  5
18F
  8
0
  6
CONTINUOUS
 62
     7
 10
96.2167977605
 20
178.9408932039
 30
0.0
 11
37.7167977605
 21
178.9408932039
 31
0.0
  0
TEXT
  5
190
  8
0
  6
CONTINUOUS
 62
     7
 10
56.5666459714
 20
180.1773034206
 30
0.0
 40
3.5
  1
%%c
 50
0.0
 41
0.7
 11
56.5666459714
 21
178.9408932039
 31
0.0
 73
     1
  0
TEXT
  5
191
  8
0
  6
CONTINUOUS
 62
     7
 10
61.8450833698
 20
180.2307755973
 30
0.0
 40
3.5
  1
58.50
 50
0.0
 41
0.7
 11
61.8450833698
 21
178.9943653805
 31
0.0
 73
     1
  0
ENDBLK
  5
18A
  8
0
  0
BLOCK
  8
0
  2
_D_3
 70
     0
 10
0.0
 20
0.0
 30
0.0
  3
_D_3
  1

  0
SOLID
  5
197
  8
0
  6
CONTINUOUS
 62
     7
 10
111.9667977605
 20
178.9408932039
 30
0.0
 11
115.2687977605
 21
178.4328932039
 31
0.0
 12
115.2687977605
 22
179.4488932039
 32
0.0
 13
115.2687977605
 23
179.4488932039
 33
0.0
  0
SOLID
  5
198
  8
0
  6
CONTINUOUS
 62
     7
 10
172.9667977605
 20
178.9408932039
 30
0.0
 11
169.6647977605
 21
179.4488932039
 31
0.0
 12
169.6647977605
 22
178.4328932039
 32
0.0
 13
169.6647977605
 23
178.4328932039
 33
0.0
  0
LINE
  5
199
  8
0
  6
CONTINUOUS
 62
     7
 10
111.9667977605
 20
220.4408932039
 30
0.0
 11
111.9667977605
 21
177.9408932039
 31
0.0
  0
LINE
  5
19A
  8
0
  6
CONTINUOUS
 62
     7
 10
172.9667977605
 20
220.4408932039
 30
0.0
 11
172.9667977605
 21
177.9408932039
 31
0.0
  0
LINE
  5
19B
  8
0
  6
CONTINUOUS
 62
     7
 10
111.9667977605
 20
178.9408932039
 30
0.0
 11
172.9667977605
 21
178.9408932039
 31
0.0
  0
TEXT
  5
19C
  8
0
  6
CONTINUOUS
 62
     7
 10
134.9321076702
 20
180.1773034206
 30
0.0
 40
3.5
  1
%%c
 50
0.0
 41
0.7
 11
134.9321076702
 21
178.9408932039
 31
0.0
 73
     1
  0
TEXT
  5
19D
  8
0
  6
CONTINUOUS
 62
     7
 10
140.2105450686
 20
180.2307755973
 30
0.0
 40
3.5
  1
61
 50
0.0
 41
0.7
 11
140.2105450686
 21
178.9943653805
 31
0.0
 73
     1
  0
ENDBLK
  5
196
  8
0
  0
BLOCK
  8
0
  2
_D_4
 70
     0
 10
0.0
 20
0.0
 30
0.0
  3
_D_4
  1

  0
SOLID
  5
20D
  8
0
  6
CONTINUOUS
 62
     7
 10
190.9667977605
 20
135.3236116505
 30
0.0
 11
191.4747977605
 21
138.6256116505
 31
0.0
 12
190.4587977605
 22
138.6256116505
 32
0.0
 13
190.4587977605
 23
138.6256116505
 33
0.0
  0
SOLID
  5
20E
  8
0
  6
CONTINUOUS
 62
     7
 10
190.9667977605
 20
119.3236116505
 30
0.0
 11
190.4587977605
 21
116.0216116505
 31
0.0
 12
191.4747977605
 22
116.0216116505
 32
0.0
 13
191.4747977605
 23
116.0216116505
 33
0.0
  0
LINE
  5
20F
  8
0
  6
CONTINUOUS
 62
     7
 10
174.4667977605
 20
135.3236116505
 30
0.0
 11
191.9667977605
 21
135.3236116505
 31
0.0
  0
LINE
  5
210
  8
0
  6
CONTINUOUS
 62
     7
 10
175.7667977605
 20
119.3236116505
 30
0.0
 11
191.9667977605
 21
119.3236116505
 31
0.0
  0
LINE
  5
211
  8
0
  6
CONTINUOUS
 62
     7
 10
190.9667977605
 20
135.3236116505
 30
0.0
 11
190.9667977605
 21
141.6736116505
 31
0.0
  0
LINE
  5
212
  8
0
  6
CONTINUOUS
 62
     7
 10
190.9667977605
 20
135.3236116505
 30
0.0
 11
190.9667977605
 21
119.3236116505
 31
0.0
  0
LINE
  5
213
  8
0
  6
CONTINUOUS
 62
     7
 10
190.9667977605
 20
119.3236116505
 30
0.0
 11
190.9667977605
 21
112.9736116505
 31
0.0
  0
TEXT
  5
214
  8
0
  6
CONTINUOUS
 62
     7
 10
189.7303877184
 20
124.584138475
 30
0.0
 40
3.5
  1
16
 50
90.0
 41
0.7
 11
190.9667979351
 21
124.584138475
 31
0.0
 73
     1
  0
ENDBLK
  5
20C
  8
0
  0
BLOCK
  8
0
  2
_D_5
 70
     0
 10
0.0
 20
0.0
 30
0.0
  3
_D_5
  1

  0
SOLID
  5
219
  8
0
  6
CONTINUOUS
 62
     7
 10
183.6902379662
 20
134.3236116505
 30
0.0
 11
184.1982379662
 21
137.6256116505
 31
0.0
 12
183.1822379662
 22
137.6256116505
 32
0.0
 13
183.1822379662
 23
137.6256116505
 33
0.0
  0
SOLID
  5
21A
  8
0
  6
CONTINUOUS
 62
     7
 10
183.6902379662
 20
120.3236116505
 30
0.0
 11
183.1822379662
 21
117.0216116505
 31
0.0
 12
184.1982379662
 22
117.0216116505
 32
0.0
 13
184.1982379662
 23
117.0216116505
 33
0.0
  0
LINE
  5
21B
  8
0
  6
CONTINUOUS
 62
     7
 10
175.7667977605
 20
134.3236116505
 30
0.0
 11
184.6902379662
 21
134.3236116505
 31
0.0
  0
LINE
  5
21C
  8
0
  6
CONTINUOUS
 62
     7
 10
175.7667977605
 20
120.3236116505
 30
0.0
 11
184.6902379662
 21
120.3236116505
 31
0.0
  0
LINE
  5
21D
  8
0
  6
CONTINUOUS
 62
     7
 10
183.6902379662
 20
134.3236116505
 30
0.0
 11
183.6902379662
 21
140.6736116505
 31
0.0
  0
LINE
  5
21E
  8
0
  6
CONTINUOUS
 62
     7
 10
183.6902379662
 20
134.3236116505
 30
0.0
 11
183.6902379662
 21
120.3236116505
 31
0.0
  0
LINE
  5
21F
  8
0
  6
CONTINUOUS
 62
     7
 10
183.6902379662
 20
120.3236116505
 30
0.0
 11
183.6902379662
 21
113.9736116505
 31
0.0
  0
TEXT
  5
220
  8
0
  6
CONTINUOUS
 62
     7
 10
182.4538279241
 20
124.584138475
 30
0.0
 40
3.5
  1
14
 50
90.0
 41
0.7
 11
183.6902381408
 21
124.584138475
 31
0.0
 73
     1
  0
ENDBLK
  5
218
  8
0
  0
ENDSEC
  0
SECTION
  2
ENTITIES
  0
ARC
  5
120
  8
0
  6
CONTINUOUS
 62
     7
 10
118.1243777594
 20
202.3444664254
 30
0.0
 40
0.4316154209003689
 50
47.6122269236
 51
93.582929759
  0
ARC
  5
121
  8
0
  6
CONTINUOUS
 62
     7
 10
91.8085059392
 20
202.3436078511
 30
0.0
 40
0.4337777173628814
 50
86.3916716443
 51
132.2535780247
  0
LINE
  5
122
  8
0
  6
CONTINUOUS
 62
     7
 10
118.0976834626
 20
202.780990638
 30
0.0
 11
91.8359105908
 21
202.780990638
 31
0.0
  0
LINE
  5
123
  8
0
  6
CONTINUOUS
 62
     7
 10
91.8355877328
 20
240.1007957698
 30
0.0
 11
118.0996684764
 21
240.1007957698
 31
0.0
  0
LINE
  5
124
  8
0
  6
CONTINUOUS
 62
     7
 10
67.4667977605
 20
253.9408932039
 30
0.0
 11
142.4667977605
 21
253.9408932039
 31
0.0
  0
LINE
  5
125
  8
0
  6
CONTINUOUS
 62
     7
 10
142.4667977605
 20
253.9408932039
 30
0.0
 11
142.4667977605
 21
253.7408932039
 31
0.0
  0
LINE
  5
126
  8
0
  6
CONTINUOUS
 62
     7
 10
142.4667977605
 20
253.7408932039
 30
0.0
 11
67.4667977605
 21
253.7408932039
 31
0.0
  0
LINE
  5
127
  8
0
  6
CONTINUOUS
 62
     7
 10
67.4667977605
 20
253.9408932039
 30
0.0
 11
67.4667977605
 21
253.7408932039
 31
0.0
  0
LINE
  5
128
  8
0
  6
CONTINUOUS
 62
     7
 10
91.7259622248
 20
240.2410455087
 30
0.0
 11
118.2076332962
 21
240.2410455087
 31
0.0
  0
POLYLINE
  5
129
  8
0
  6
CONTINUOUS
 62
     7
 66
     1
 10
0.0
 20
0.0
 30
0.0
 70
   128
  0
VERTEX
  5
221
  8
0
  6
CONTINUOUS
 62
     7
 10
91.7086490428
 20
240.2658932039
 30
0.0
  0
VERTEX
  5
222
  8
0
  6
CONTINUOUS
 62
     7
 10
91.7153337672
 20
240.2563047755
 30
0.0
  0
VERTEX
  5
223
  8
0
  6
CONTINUOUS
 62
     7
 10
91.7204531599
 20
240.2489570202
 30
0.0
  0
VERTEX
  5
224
  8
0
  6
CONTINUOUS
 62
     7
 10
91.7240020137
 20
240.243861079
 30
0.0
  0
VERTEX
  5
225
  8
0
  6
CONTINUOUS
 62
     7
 10
91.7259622249
 20
240.2410455087
 30
0.0
  0
SEQEND
  5
B59
  8
0
  6
CONTINUOUS
 62
     7
  0
LINE
  5
12A
  8
0
  6
CONTINUOUS
 62
     7
 10
91.7045221585
 20
240.2718093228
 30
0.0
 11
92.0919190419
 21
240.2718093228
 31
0.0
  0
ARC
  5
12B
  8
0
  6
CONTINUOUS
 62
     7
 10
63.6520813095
 20
220.7177412084
 30
0.0
 40
34.1950437550449
 50
34.8785819667
 51
43.4639303631
  0
LINE
  5
12C
  8
0
  6
CONTINUOUS
 62
     7
 10
88.4711029166
 20
244.2404362894
 30
0.0
 11
121.4624926044
 21
244.2404362894
 31
0.0
  0
ARC
  5
12D
  8
0
  6
CONTINUOUS
 62
     7
 10
146.2815142115
 20
220.7177412084
 30
0.0
 40
34.19504375503936
 50
136.5360696369
 51
145.1214180333
  0
LINE
  5
12E
  8
0
  6
CONTINUOUS
 62
     7
 10
117.8416764791
 20
240.2718093228
 30
0.0
 11
118.2290733625
 21
240.2718093228
 31
0.0
  0
POLYLINE
  5
12F
  8
0
  6
CONTINUOUS
 62
     7
 66
     1
 10
0.0
 20
0.0
 30
0.0
 70
   128
  0
VERTEX
  5
226
  8
0
  6
CONTINUOUS
 62
     7
 10
118.2249464782
 20
240.2658932039
 30
0.0
  0
VERTEX
  5
227
  8
0
  6
CONTINUOUS
 62
     7
 10
118.2182617538
 20
240.2563047755
 30
0.0
  0
VERTEX
  5
228
  8
0
  6
CONTINUOUS
 62
     7
 10
118.2131423611
 20
240.2489570202
 30
0.0
  0
VERTEX
  5
229
  8
0
  6
CONTINUOUS
 62
     7
 10
118.2095935073
 20
240.243861079
 30
0.0
  0
VERTEX
  5
22A
  8
0
  6
CONTINUOUS
 62
     7
 10
118.2076332961
 20
240.2410455087
 30
0.0
  0
SEQEND
  5
B5A
  8
0
  6
CONTINUOUS
 62
     7
  0
LINE
  5
130
  8
0
  6
CONTINUOUS
 62
     7
 10
121.8012717197
 20
243.8727017235
 30
0.0
 11
121.4624926044
 21
244.2404362894
 31
0.0
  0
ARC
  5
131
  8
0
  6
CONTINUOUS
 62
     7
 10
142.4667977605
 20
221.4408932039
 30
0.0
 40
30.50000000000265
 50
132.6531279963
 51
141.4114123705
  0
ARC
  5
132
  8
0
  6
CONTINUOUS
 62
     7
 10
118.2276924235
 20
240.7811728634
 30
0.0
 40
0.5093654125302483
 50
270.1553345937
 51
321.5556419263
  0
ARC
  5
133
  8
0
  6
CONTINUOUS
 62
     7
 10
142.4667977605
 20
221.4408932039
 30
0.0
 40
32.30000000000001
 50
270.0
 51
90.0
  0
ARC
  5
134
  8
0
  6
CONTINUOUS
 62
     7
 10
142.4667977605
 20
221.4408932039
 30
0.0
 40
32.50000000000003
 50
270.0
 51
90.0
  0
LINE
  5
135
  8
0
  6
CONTINUOUS
 62
     7
 10
142.4667977605
 20
188.9408932039
 30
0.0
 11
142.4667977605
 21
189.1408932039
 31
0.0
  0
LINE
  5
136
  8
0
  6
CONTINUOUS
 62
     7
 10
88.1323238013
 20
199.0090846843
 30
0.0
 11
88.4711029166
 21
198.6413501184
 31
0.0
  0
ARC
  5
137
  8
0
  6
CONTINUOUS
 62
     7
 10
67.4667977605
 20
221.4408932039
 30
0.0
 40
30.50000000001242
 50
312.6531279963
 51
321.4114123705
  0
ARC
  5
138
  8
0
  6
CONTINUOUS
 62
     7
 10
91.7060799073
 20
202.1002486979
 30
0.0
 40
0.509730767378223
 50
90.1750974693
 51
141.5358790508
  0
ARC
  5
139
  8
0
  6
CONTINUOUS
 62
     7
 10
63.7010837967
 20
222.1241206647
 30
0.0
 40
34.13201370758922
 50
316.5281276426
 51
325.1293600276
  0
LINE
  5
13A
  8
0
  6
CONTINUOUS
 62
     7
 10
121.8012717197
 20
199.0090846843
 30
0.0
 11
121.4624926044
 21
198.6413501184
 31
0.0
  0
ARC
  5
13B
  8
0
  6
CONTINUOUS
 62
     7
 10
146.2325117243
 20
222.1241206647
 30
0.0
 40
34.13201370759336
 50
214.8706399724
 51
223.4718723574
  0
ARC
  5
13C
  8
0
  6
CONTINUOUS
 62
     7
 10
118.2278648373
 20
202.1009693196
 30
0.0
 40
0.5090092000989372
 50
38.4250592517
 51
89.8639642281
  0
ARC
  5
13D
  8
0
  6
CONTINUOUS
 62
     7
 10
142.4667977605
 20
221.4408932039
 30
0.0
 40
30.49999999999086
 50
218.5885876295
 51
227.3468720037
  0
LINE
  5
13E
  8
0
  6
CONTINUOUS
 62
     7
 10
67.4667977605
 20
188.9408932039
 30
0.0
 11
67.4667977605
 21
189.1408932039
 31
0.0
  0
LINE
  5
13F
  8
0
  6
CONTINUOUS
 62
     7
 10
67.4667977605
 20
189.1408932039
 30
0.0
 11
142.4667977605
 21
189.1408932039
 31
0.0
  0
LINE
  5
140
  8
0
  6
CONTINUOUS
 62
     7
 10
142.4667977605
 20
188.9408932039
 30
0.0
 11
67.4667977605
 21
188.9408932039
 31
0.0
  0
ARC
  5
141
  8
0
  6
CONTINUOUS
 62
     7
 10
67.4667977605
 20
221.4408932039
 30
0.0
 40
32.50000000000003
 50
90.0
 51
270.0
  0
ARC
  5
142
  8
0
  6
CONTINUOUS
 62
     7
 10
67.4667977605
 20
221.4408932039
 30
0.0
 40
32.30000000000001
 50
90.0
 51
270.0
  0
ARC
  5
143
  8
0
  6
CONTINUOUS
 62
     7
 10
67.4667977605
 20
221.4408932039
 30
0.0
 40
30.50000000000001
 50
47.3468720037
 51
312.6531279963
  0
ARC
  5
144
  8
0
  6
CONTINUOUS
 62
     7
 10
67.4667977605
 20
221.4408932039
 30
0.0
 40
30.99999999993893
 50
47.3468720038
 51
312.6531279962
  0
LINE
  5
145
  8
0
  6
CONTINUOUS
 62
     7
 10
88.1323238013
 20
243.8727017235
 30
0.0
 11
88.4711029166
 21
244.2404362894
 31
0.0
  0
LINE
  5
146
  8
0
  6
CONTINUOUS
 62
     7
 10
88.4711029166
 20
198.6413501184
 30
0.0
 11
121.4624926044
 21
198.6413501184
 31
0.0
  0
ARC
  5
147
  8
0
  6
CONTINUOUS
 62
     7
 10
142.4667977605
 20
221.4408932039
 30
0.0
 40
30.99999999993893
 50
227.3468720038
 51
132.6531279962
  0
ARC
  5
148
  8
0
  6
CONTINUOUS
 62
     7
 10
91.7059018192
 20
240.7811702256
 30
0.0
 40
0.5093627713537181
 50
218.4442150913
 51
269.8448083887
  0
ARC
  5
149
  8
0
  6
CONTINUOUS
 62
     7
 10
67.4667977605
 20
221.4408932039
 30
0.0
 40
30.5000000000014
 50
38.5885876295
 51
47.3468720037
  0
ARC
  5
14A
  8
0
  6
CONTINUOUS
 62
     7
 10
142.4667977605
 20
221.4408932039
 30
0.0
 40
30.50000000000002
 50
227.3468720037
 51
132.6531279963
  0
LINE
  5
14B
  8
0
  6
CONTINUOUS
 62
     7
 10
118.2290733625
 20
202.609977085
 30
0.0
 11
117.8416764791
 21
202.609977085
 31
0.0
  0
LINE
  5
14C
  8
0
  6
CONTINUOUS
 62
     7
 10
92.0919190419
 20
202.609977085
 30
0.0
 11
91.7045221585
 21
202.609977085
 31
0.0
  0
POLYLINE
  5
14D
  8
0
  6
CONTINUOUS
 62
     7
 66
     1
 10
0.0
 20
0.0
 30
0.0
 70
   128
  0
VERTEX
  5
22B
  8
0
  6
CONTINUOUS
 62
     7
 10
91.7259622249
 20
202.640740899
 30
0.0
  0
VERTEX
  5
22C
  8
0
  6
CONTINUOUS
 62
     7
 10
91.7204823711
 20
202.6328713252
 30
0.0
  0
VERTEX
  5
22D
  8
0
  6
CONTINUOUS
 62
     7
 10
91.7086490428
 20
202.6158932039
 30
0.0
  0
SEQEND
  5
B5B
  8
0
  6
CONTINUOUS
 62
     7
  0
LINE
  5
14E
  8
0
  6
CONTINUOUS
 62
     7
 10
91.7259622248
 20
202.640740899
 30
0.0
 11
118.2076332962
 21
202.640740899
 31
0.0
  0
POLYLINE
  5
14F
  8
0
  6
CONTINUOUS
 62
     7
 66
     1
 10
0.0
 20
0.0
 30
0.0
 70
   128
  0
VERTEX
  5
22E
  8
0
  6
CONTINUOUS
 62
     7
 10
118.2076332961
 20
202.640740899
 30
0.0
  0
VERTEX
  5
22F
  8
0
  6
CONTINUOUS
 62
     7
 10
118.2131131499
 20
202.6328713252
 30
0.0
  0
VERTEX
  5
230
  8
0
  6
CONTINUOUS
 62
     7
 10
118.2249464782
 20
202.6158932039
 30
0.0
  0
SEQEND
  5
B5C
  8
0
  6
CONTINUOUS
 62
     7
  0
POLYLINE
  5
150
  8
0
  6
CONTINUOUS
 62
     7
 66
     1
 10
0.0
 20
0.0
 30
0.0
 70
   128
  0
VERTEX
  5
231
  8
0
  6
CONTINUOUS
 62
     7
 10
92.0964419926
 20
202.6158932039
 30
0.0
  0
VERTEX
  5
232
  8
0
  6
CONTINUOUS
 62
     7
 10
92.0958767015
 20
202.6151536296
 30
0.0
  0
VERTEX
  5
233
  8
0
  6
CONTINUOUS
 62
     7
 10
92.0953113882
 20
202.6144140723
 30
0.0
  0
VERTEX
  5
234
  8
0
  6
CONTINUOUS
 62
     7
 10
92.0947460526
 20
202.613674532
 30
0.0
  0
VERTEX
  5
235
  8
0
  6
CONTINUOUS
 62
     7
 10
92.0941806949
 20
202.6129350086
 30
0.0
  0
VERTEX
  5
236
  8
0
  6
CONTINUOUS
 62
     7
 10
92.093615315
 20
202.6121955023
 30
0.0
  0
VERTEX
  5
237
  8
0
  6
CONTINUOUS
 62
     7
 10
92.0930499128
 20
202.6114560129
 30
0.0
  0
VERTEX
  5
238
  8
0
  6
CONTINUOUS
 62
     7
 10
92.0924844885
 20
202.6107165404
 30
0.0
  0
VERTEX
  5
239
  8
0
  6
CONTINUOUS
 62
     7
 10
92.0919190419
 20
202.609977085
 30
0.0
  0
SEQEND
  5
B5D
  8
0
  6
CONTINUOUS
 62
     7
  0
POLYLINE
  5
151
  8
0
  6
CONTINUOUS
 62
     7
 66
     1
 10
0.0
 20
0.0
 30
0.0
 70
   128
  0
VERTEX
  5
23A
  8
0
  6
CONTINUOUS
 62
     7
 10
92.0919190419
 20
240.2718093228
 30
0.0
  0
VERTEX
  5
23B
  8
0
  6
CONTINUOUS
 62
     7
 10
92.0924844885
 20
240.2710698673
 30
0.0
  0
VERTEX
  5
23C
  8
0
  6
CONTINUOUS
 62
     7
 10
92.0930499128
 20
240.2703303949
 30
0.0
  0
VERTEX
  5
23D
  8
0
  6
CONTINUOUS
 62
     7
 10
92.093615315
 20
240.2695909055
 30
0.0
  0
VERTEX
  5
23E
  8
0
  6
CONTINUOUS
 62
     7
 10
92.0941806949
 20
240.2688513991
 30
0.0
  0
VERTEX
  5
23F
  8
0
  6
CONTINUOUS
 62
     7
 10
92.0947460526
 20
240.2681118758
 30
0.0
  0
VERTEX
  5
240
  8
0
  6
CONTINUOUS
 62
     7
 10
92.0953113882
 20
240.2673723355
 30
0.0
  0
VERTEX
  5
241
  8
0
  6
CONTINUOUS
 62
     7
 10
92.0958767015
 20
240.2666327782
 30
0.0
  0
VERTEX
  5
242
  8
0
  6
CONTINUOUS
 62
     7
 10
92.0964419926
 20
240.2658932039
 30
0.0
  0
SEQEND
  5
B5E
  8
0
  6
CONTINUOUS
 62
     7
  0
LINE
  5
152
  8
0
  6
CONTINUOUS
 62
     7
 10
92.0964419926
 20
240.2658932039
 30
0.0
 11
89.8148146329
 21
240.2658932039
 31
0.0
  0
ARC
  5
153
  8
0
  6
CONTINUOUS
 62
     7
 10
89.8148146329
 20
241.2658932039
 30
0.0
 40
1.0
 50
220.9478554624
 51
270.0
  0
ARC
  5
154
  8
0
  6
CONTINUOUS
 62
     7
 10
66.9667977605
 20
221.4408932039
 30
0.0
 40
29.25000000000001
 50
40.9478554624
 51
319.0521445376
  0
ARC
  5
155
  8
0
  6
CONTINUOUS
 62
     7
 10
89.8148146329
 20
201.6158932039
 30
0.0
 40
1.000000000000015
 50
90.0
 51
139.0521445376
  0
LINE
  5
156
  8
0
  6
CONTINUOUS
 62
     7
 10
89.8148146329
 20
202.6158932039
 30
0.0
 11
92.0964419926
 21
202.6158932039
 31
0.0
  0
POLYLINE
  5
157
  8
0
  6
CONTINUOUS
 62
     7
 66
     1
 10
0.0
 20
0.0
 30
0.0
 70
   128
  0
VERTEX
  5
243
  8
0
  6
CONTINUOUS
 62
     7
 10
117.8416764791
 20
240.2718093228
 30
0.0
  0
VERTEX
  5
244
  8
0
  6
CONTINUOUS
 62
     7
 10
117.8411110325
 20
240.2710698673
 30
0.0
  0
VERTEX
  5
245
  8
0
  6
CONTINUOUS
 62
     7
 10
117.8405456082
 20
240.2703303949
 30
0.0
  0
VERTEX
  5
246
  8
0
  6
CONTINUOUS
 62
     7
 10
117.839980206
 20
240.2695909055
 30
0.0
  0
VERTEX
  5
247
  8
0
  6
CONTINUOUS
 62
     7
 10
117.8394148261
 20
240.2688513991
 30
0.0
  0
VERTEX
  5
248
  8
0
  6
CONTINUOUS
 62
     7
 10
117.8388494684
 20
240.2681118758
 30
0.0
  0
VERTEX
  5
249
  8
0
  6
CONTINUOUS
 62
     7
 10
117.8382841328
 20
240.2673723355
 30
0.0
  0
VERTEX
  5
24A
  8
0
  6
CONTINUOUS
 62
     7
 10
117.8377188195
 20
240.2666327782
 30
0.0
  0
VERTEX
  5
24B
  8
0
  6
CONTINUOUS
 62
     7
 10
117.8371535284
 20
240.2658932039
 30
0.0
  0
SEQEND
  5
B5F
  8
0
  6
CONTINUOUS
 62
     7
  0
POLYLINE
  5
158
  8
0
  6
CONTINUOUS
 62
     7
 66
     1
 10
0.0
 20
0.0
 30
0.0
 70
   128
  0
VERTEX
  5
24C
  8
0
  6
CONTINUOUS
 62
     7
 10
117.8371535284
 20
202.6158932039
 30
0.0
  0
VERTEX
  5
24D
  8
0
  6
CONTINUOUS
 62
     7
 10
117.8377188195
 20
202.6151536296
 30
0.0
  0
VERTEX
  5
24E
  8
0
  6
CONTINUOUS
 62
     7
 10
117.8382841328
 20
202.6144140723
 30
0.0
  0
VERTEX
  5
24F
  8
0
  6
CONTINUOUS
 62
     7
 10
117.8388494684
 20
202.613674532
 30
0.0
  0
VERTEX
  5
250
  8
0
  6
CONTINUOUS
 62
     7
 10
117.8394148261
 20
202.6129350086
 30
0.0
  0
VERTEX
  5
251
  8
0
  6
CONTINUOUS
 62
     7
 10
117.839980206
 20
202.6121955023
 30
0.0
  0
VERTEX
  5
252
  8
0
  6
CONTINUOUS
 62
     7
 10
117.8405456082
 20
202.6114560129
 30
0.0
  0
VERTEX
  5
253
  8
0
  6
CONTINUOUS
 62
     7
 10
117.8411110325
 20
202.6107165404
 30
0.0
  0
VERTEX
  5
254
  8
0
  6
CONTINUOUS
 62
     7
 10
117.8416764791
 20
202.609977085
 30
0.0
  0
SEQEND
  5
B60
  8
0
  6
CONTINUOUS
 62
     7
  0
LINE
  5
159
  8
0
  6
CONTINUOUS
 62
     7
 10
120.1187808881
 20
202.6158932039
 30
0.0
 11
117.8371535284
 21
202.6158932039
 31
0.0
  0
ARC
  5
15A
  8
0
  6
CONTINUOUS
 62
     7
 10
120.1187808881
 20
201.6158932039
 30
0.0
 40
1.000000000000015
 50
40.9478554624
 51
90.0
  0
ARC
  5
15B
  8
0
  6
CONTINUOUS
 62
     7
 10
142.9667977605
 20
221.4408932039
 30
0.0
 40
29.25000000000001
 50
220.9478554624
 51
139.0521445376
  0
ARC
  5
15C
  8
0
  6
CONTINUOUS
 62
     7
 10
120.1187808881
 20
241.2658932039
 30
0.0
 40
1.0
 50
270.0
 51
319.0521445376
  0
LINE
  5
15D
  8
0
  6
CONTINUOUS
 62
     7
 10
117.8371535284
 20
240.2658932039
 30
0.0
 11
120.1187808881
 21
240.2658932039
 31
0.0
  0
ARC
  5
15E
  8
0
  6
CONTINUOUS
 62
     7
 10
118.2077575387
 20
202.1408196421
 30
0.0
 40
0.4999212723420528
 50
71.8596587797
 51
90.0142393788
  0
ARC
  5
15F
  8
0
  6
CONTINUOUS
 62
     7
 10
91.7258379823
 20
202.1408196421
 30
0.0
 40
0.4999212723418555
 50
89.9857606212
 51
108.1403412203
  0
ARC
  5
160
  8
0
  6
CONTINUOUS
 62
     7
 10
118.2077575387
 20
240.7409667656
 30
0.0
 40
0.4999212723407175
 50
269.9857606212
 51
288.1403412203
  0
ARC
  5
161
  8
0
  6
CONTINUOUS
 62
     7
 10
91.7258379823
 20
240.7409667656
 30
0.0
 40
0.4999212723404897
 50
251.8596587797
 51
270.0142393788
  0
LINE
  5
162
  8
0
  6
CONTINUOUS
 62
     7
 10
118.0971915602
 20
202.7803814186
 30
0.0
 11
118.2076332962
 21
202.640740899
 31
0.0
  0
ARC
  5
163
  8
0
  6
CONTINUOUS
 62
     7
 10
118.0973313595
 20
202.2805430242
 30
0.0
 40
0.4998384139921238
 50
42.1378927966
 51
90.0160249887
  0
LINE
  5
164
  8
0
  6
CONTINUOUS
 62
     7
 10
91.8364039608
 20
202.7803814186
 30
0.0
 11
91.7259622249
 21
202.640740899
 31
0.0
  0
LINE
  5
165
  8
0
  6
CONTINUOUS
 62
     7
 10
91.8364039607
 20
202.7803814186
 30
0.0
 11
118.0971915603
 21
202.7803814186
 31
0.0
  0
ARC
  5
166
  8
0
  6
CONTINUOUS
 62
     7
 10
91.8362641615
 20
202.2805430242
 30
0.0
 40
0.4998384139922034
 50
89.9839750113
 51
137.8621072034
  0
LINE
  5
167
  8
0
  6
CONTINUOUS
 62
     7
 10
118.2076332962
 20
240.2410455088
 30
0.0
 11
118.0971915602
 21
240.1014049892
 31
0.0
  0
LINE
  5
168
  8
0
  6
CONTINUOUS
 62
     7
 10
91.8364039607
 20
240.1014049891
 30
0.0
 11
118.0971915603
 21
240.1014049891
 31
0.0
  0
LINE
  5
169
  8
0
  6
CONTINUOUS
 62
     7
 10
91.7259622249
 20
240.2410455088
 30
0.0
 11
91.8364039608
 21
240.1014049892
 31
0.0
  0
ARC
  5
16A
  8
0
  6
CONTINUOUS
 62
     7
 10
91.8362641615
 20
240.6012433836
 30
0.0
 40
0.4998384139918908
 50
222.1378927966
 51
270.0160249887
  0
ARC
  5
16B
  8
0
  6
CONTINUOUS
 62
     7
 10
118.0973313595
 20
240.6012433836
 30
0.0
 40
0.4998384139918056
 50
269.9839750113
 51
317.8621072034
  0
LINE
  5
16C
  8
0
  6
CONTINUOUS
 62
     7
 10
118.0976834626
 20
202.7796664655
 30
0.0
 11
118.0971915603
 21
202.7803814186
 31
0.0
  0
LINE
  5
16D
  8
0
  6
CONTINUOUS
 62
     7
 10
91.8359105909
 20
202.7796643327
 30
0.0
 11
91.8364039607
 21
202.7803814186
 31
0.0
  0
LINE
  5
16E
  8
0
  6
CONTINUOUS
 62
     7
 10
91.8364039607
 20
240.1014049891
 30
0.0
 11
91.8355877328
 21
240.1025912259
 31
0.0
  0
LINE
  5
16F
  8
0
  6
CONTINUOUS
 62
     7
 10
118.0971915603
 20
240.1014049891
 30
0.0
 11
118.0996684764
 21
240.1050015621
 31
0.0
  0
DIMENSION
  5
170
  8
0
  6
CONTINUOUS
 62
     7
  2
_D
 10
184.9667977605
 20
189.1408932039
 30
0.0
 11
184.9667977605
 21
223.9527234002
 31
0.0
 70
   160
  1
<>
  3
SLDDIMSTYLE0
 13
142.4667977605
 23
253.7408932039
 33
0.0
 14
142.4667977605
 24
189.1408932039
 34
0.0
 50
90.0
  0
DIMENSION
  5
17B
  8
0
  6
CONTINUOUS
 62
     7
  2
_D_1
 10
174.7667977605
 20
263.9408932039
 30
0.0
 11
107.7961981489
 21
263.9408932039
 31
0.0
 70
   160
  1
<>
  3
SLDDIMSTYLE1
 13
34.9667977605
 23
221.4408932039
 33
0.0
 14
174.7667977605
 24
221.4408932039
 34
0.0
  0
DIMENSION
  5
186
  8
0
  6
CONTINUOUS
 62
     7
  2
_D_2
 10
37.7167977605
 20
178.9408932039
 30
0.0
 11
65.0246149142
 21
178.9408932039
 31
0.0
 70
   160
  1
%%c<>
  3
SLDDIMSTYLE2
 13
96.2167977605
 23
221.4408932039
 33
0.0
 14
37.7167977605
 24
221.4408932039
 34
0.0
 50
0.0
  0
DIMENSION
  5
192
  8
0
  6
CONTINUOUS
 62
     7
  2
_D_3
 10
172.9667977605
 20
178.9408932039
 30
0.0
 11
140.1574377958
 21
178.9408932039
 31
0.0
 70
   160
  1
%%c<>
  3
SLDDIMSTYLE3
 13
111.9667977605
 23
221.4408932039
 33
0.0
 14
172.9667977605
 24
221.4408932039
 34
0.0
  0
ARC
  5
19E
  8
0
  6
CONTINUOUS
 62
     7
 10
174.7667977605
 20
134.5236116505
 30
0.0
 40
0.2000000000000171
 50
270.0
 51
0.0
  0
LINE
  5
19F
  8
0
  6
CONTINUOUS
 62
     7
 10
174.9667977605
 20
134.5236116505
 30
0.0
 11
174.9667977605
 21
135.1236116505
 31
0.0
  0
ARC
  5
1A0
  8
0
  6
CONTINUOUS
 62
     7
 10
174.7667977605
 20
135.1236116505
 30
0.0
 40
0.2000000000000171
 50
0.0
 51
90.0
  0
LINE
  5
1A1
  8
0
  6
CONTINUOUS
 62
     7
 10
34.9667977605
 20
135.1236116505
 30
0.0
 11
34.9667977605
 21
134.5236116505
 31
0.0
  0
ARC
  5
1A2
  8
0
  6
CONTINUOUS
 62
     7
 10
35.1667977605
 20
135.1236116505
 30
0.0
 40
0.2000000000000171
 50
90.0
 51
180.0
  0
ARC
  5
1A3
  8
0
  6
CONTINUOUS
 62
     7
 10
35.1667977605
 20
134.5236116505
 30
0.0
 40
0.2000000000000171
 50
180.0
 51
270.0
  0
LINE
  5
1A4
  8
0
  6
CONTINUOUS
 62
     7
 10
174.9667977605
 20
119.5236116505
 30
0.0
 11
174.9667977605
 21
120.1236116505
 31
0.0
  0
ARC
  5
1A5
  8
0
  6
CONTINUOUS
 62
     7
 10
174.7667977605
 20
120.1236116505
 30
0.0
 40
0.2000000000000171
 50
0.0
 51
90.0
  0
LINE
  5
1A6
  8
0
  6
CONTINUOUS
 62
     7
 10
34.9667977605
 20
120.1236116505
 30
0.0
 11
34.9667977605
 21
119.5236116505
 31
0.0
  0
ARC
  5
1A7
  8
0
  6
CONTINUOUS
 62
     7
 10
35.1667977605
 20
119.5236116505
 30
0.0
 40
0.2000000000000028
 50
180.0
 51
270.0
  0
ARC
  5
1A8
  8
0
  6
CONTINUOUS
 62
     7
 10
35.1667977605
 20
120.1236116505
 30
0.0
 40
0.2000000000000028
 50
90.0
 51
180.0
  0
ARC
  5
1A9
  8
0
  6
CONTINUOUS
 62
     7
 10
174.7667977605
 20
119.5236116505
 30
0.0
 40
0.2000000000000171
 50
270.0
 51
0.0
  0
ARC
  5
1AA
  8
0
  6
CONTINUOUS
 62
     7
 10
174.1667977605
 20
134.1236116505
 30
0.0
 40
0.2000000000000171
 50
90.0
 51
180.0
  0
ARC
  5
1AB
  8
0
  6
CONTINUOUS
 62
     7
 10
35.7667977605
 20
134.1236116505
 30
0.0
 40
0.2000000000000171
 50
0.0
 51
90.0
  0
ARC
  5
1AC
  8
0
  6
CONTINUOUS
 62
     7
 10
174.1667977605
 20
120.5236116505
 30
0.0
 40
0.2000000000000171
 50
180.0
 51
270.0
  0
ARC
  5
1AD
  8
0
  6
CONTINUOUS
 62
     7
 10
35.7667977605
 20
120.5236116505
 30
0.0
 40
0.2000000000000099
 50
270.0
 51
0.0
  0
LINE
  5
1AE
  8
0
  6
CONTINUOUS
 62
     7
 10
35.9667977605
 20
134.1236116505
 30
0.0
 11
35.9667977605
 21
120.5236116505
 31
0.0
  0
LINE
  5
1AF
  8
0
  6
CONTINUOUS
 62
     7
 10
173.9667977605
 20
120.5236116505
 30
0.0
 11
173.9667977605
 21
134.1236116505
 31
0.0
  0
LINE
  5
1B0
  8
0
  6
CONTINUOUS
 62
     7
 10
118.9589498552
 20
135.3183448427
 30
0.0
 11
90.9746456658
 21
135.3183448427
 31
0.0
  0
LINE
  5
1B1
  8
0
  6
CONTINUOUS
 62
     7
 10
119.4576011744
 20
134.3236116505
 30
0.0
 11
174.7667977605
 21
134.3236116505
 31
0.0
  0
ARC
  5
1B2
  8
0
  6
CONTINUOUS
 62
     7
 10
119.492172549
 20
134.4989844197
 30
0.0
 40
0.1787478338873671
 50
172.0808042725
 51
258.8482245278
  0
LINE
  5
1B3
  8
0
  6
CONTINUOUS
 62
     7
 10
119.3151293689
 20
134.5236116505
 30
0.0
 11
119.3151293689
 21
135.1236116505
 31
0.0
  0
LINE
  5
1B4
  8
0
  6
CONTINUOUS
 62
     7
 10
174.7667977605
 20
135.3236116505
 30
0.0
 11
119.4576011744
 21
135.3236116505
 31
0.0
  0
ARC
  5
1B5
  8
0
  6
CONTINUOUS
 62
     7
 10
119.492172549
 20
135.1482388813
 30
0.0
 40
0.1787478338873806
 50
101.1517754722
 51
187.9191957274
  0
LINE
  5
1B6
  8
0
  6
CONTINUOUS
 62
     7
 10
90.6184661521
 20
134.5236116505
 30
0.0
 11
90.6184661521
 21
135.1236116505
 31
0.0
  0
LINE
  5
1B7
  8
0
  6
CONTINUOUS
 62
     7
 10
35.1667977605
 20
135.3236116505
 30
0.0
 11
90.4759943466
 21
135.3236116505
 31
0.0
  0
ARC
  5
1B8
  8
0
  6
CONTINUOUS
 62
     7
 10
90.441422972
 20
135.1482388813
 30
0.0
 40
0.1787478338873874
 50
352.0808042726
 51
78.8482245278
  0
LINE
  5
1B9
  8
0
  6
CONTINUOUS
 62
     7
 10
90.4759943466
 20
134.3236116505
 30
0.0
 11
35.1667977605
 21
134.3236116505
 31
0.0
  0
ARC
  5
1BA
  8
0
  6
CONTINUOUS
 62
     7
 10
90.441422972
 20
134.4989844197
 30
0.0
 40
0.1787478338873952
 50
281.1517754722
 51
7.9191957274
  0
LINE
  5
1BB
  8
0
  6
CONTINUOUS
 62
     7
 10
67.4667977605
 20
120.3236116505
 30
0.0
 11
142.4667977605
 21
120.3236116505
 31
0.0
  0
LINE
  5
1BC
  8
0
  6
CONTINUOUS
 62
     7
 10
142.4667977605
 20
120.3236116505
 30
0.0
 11
142.4667977605
 21
120.1236116505
 31
0.0
  0
LINE
  5
1BD
  8
0
  6
CONTINUOUS
 62
     7
 10
142.4667977605
 20
120.1236116505
 30
0.0
 11
67.4667977605
 21
120.1236116505
 31
0.0
  0
LINE
  5
1BE
  8
0
  6
CONTINUOUS
 62
     7
 10
67.4667977605
 20
120.3236116505
 30
0.0
 11
67.4667977605
 21
120.1236116505
 31
0.0
  0
LINE
  5
1BF
  8
0
  6
CONTINUOUS
 62
     7
 10
142.4667977605
 20
119.5236116505
 30
0.0
 11
142.4667977605
 21
120.1236116505
 31
0.0
  0
LINE
  5
1C0
  8
0
  6
CONTINUOUS
 62
     7
 10
174.7667977605
 20
120.3236116505
 30
0.0
 11
142.4667977605
 21
120.3236116505
 31
0.0
  0
LINE
  5
1C1
  8
0
  6
CONTINUOUS
 62
     7
 10
67.4667977605
 20
119.5236116505
 30
0.0
 11
67.4667977605
 21
120.1236116505
 31
0.0
  0
LINE
  5
1C2
  8
0
  6
CONTINUOUS
 62
     7
 10
67.4667977605
 20
119.5236116505
 30
0.0
 11
67.4667977605
 21
119.3236116505
 31
0.0
  0
LINE
  5
1C3
  8
0
  6
CONTINUOUS
 62
     7
 10
67.4667977605
 20
119.3236116505
 30
0.0
 11
35.1667977605
 21
119.3236116505
 31
0.0
  0
LINE
  5
1C4
  8
0
  6
CONTINUOUS
 62
     7
 10
35.1667977605
 20
120.3236116505
 30
0.0
 11
67.4667977605
 21
120.3236116505
 31
0.0
  0
LINE
  5
1C5
  8
0
  6
CONTINUOUS
 62
     7
 10
142.4667977605
 20
119.3236116505
 30
0.0
 11
174.7667977605
 21
119.3236116505
 31
0.0
  0
LINE
  5
1C6
  8
0
  6
CONTINUOUS
 62
     7
 10
142.4667977605
 20
119.5236116505
 30
0.0
 11
142.4667977605
 21
119.3236116505
 31
0.0
  0
LINE
  5
1C7
  8
0
  6
CONTINUOUS
 62
     7
 10
67.4667977605
 20
119.5236116505
 30
0.0
 11
142.4667977605
 21
119.5236116505
 31
0.0
  0
LINE
  5
1C8
  8
0
  6
CONTINUOUS
 62
     7
 10
142.4667977605
 20
119.3236116505
 30
0.0
 11
67.4667977605
 21
119.3236116505
 31
0.0
  0
ARC
  5
1C9
  8
0
  6
CONTINUOUS
 62
     7
 10
120.2622952131
 20
134.1491602769
 30
0.0
 40
0.1782359045751258
 50
351.758741141
 51
78.1718306925
  0
ARC
  5
1CA
  8
0
  6
CONTINUOUS
 62
     7
 10
89.6713003079
 20
134.1491602769
 30
0.0
 40
0.1782359045751499
 50
101.8281693075
 51
188.241258859
  0
ARC
  5
1CB
  8
0
  6
CONTINUOUS
 62
     7
 10
120.4052468393
 20
120.4977471695
 30
0.0
 40
0.1780703341160007
 50
282.0672131329
 51
8.3516799578
  0
ARC
  5
1CC
  8
0
  6
CONTINUOUS
 62
     7
 10
89.5283486817
 20
120.4977471695
 30
0.0
 40
0.1780703341159995
 50
171.6483200422
 51
257.9327868671
  0
ARC
  5
1CD
  8
0
  6
CONTINUOUS
 62
     7
 10
89.4564240221
 20
131.5474954149
 30
0.0
 40
2.576403626179895
 50
353.9230052653
 51
89.1442026111
  0
LINE
  5
1CE
  8
0
  6
CONTINUOUS
 62
     7
 10
91.9061635375
 20
123.2747449124
 30
0.0
 11
92.0183496276
 21
131.2747449124
 31
0.0
  0
ARC
  5
1CF
  8
0
  6
CONTINUOUS
 62
     7
 10
89.3081536122
 20
123.1255308011
 30
0.0
 40
2.602291379322543
 50
270.9691026103
 51
3.2871148147
  0
ARC
  5
1D0
  8
0
  6
CONTINUOUS
 62
     7
 10
120.6254419088
 20
123.1255308011
 30
0.0
 40
2.602291379322543
 50
176.7128851853
 51
269.0308973897
  0
LINE
  5
1D1
  8
0
  6
CONTINUOUS
 62
     7
 10
118.0274319835
 20
123.2747449124
 30
0.0
 11
117.9152458934
 21
131.2747449124
 31
0.0
  0
ARC
  5
1D2
  8
0
  6
CONTINUOUS
 62
     7
 10
120.4771714989
 20
131.5474954149
 30
0.0
 40
2.576403626179909
 50
90.8557973889
 51
186.0769947347
  0
ARC
  5
1D3
  8
0
  6
CONTINUOUS
 62
     7
 10
119.1648784838
 20
138.7688841991
 30
0.0
 40
3.456955526041728
 50
266.5849052945
 51
274.7118329908
  0
ARC
  5
1D4
  8
0
  6
CONTINUOUS
 62
     7
 10
90.7687170372
 20
138.7688841991
 30
0.0
 40
3.456955526033421
 50
265.2881670092
 51
273.4150947055
  0
ARC
  5
1D5
  8
0
  6
CONTINUOUS
 62
     7
 10
89.4122846572
 20
122.9867304391
 30
0.0
 40
2.6642854438066
 50
271.69564278
 51
6.1304129912
  0
ARC
  5
1D6
  8
0
  6
CONTINUOUS
 62
     7
 10
92.1611191515
 20
131.1580600317
 30
0.0
 40
7.887436822905546
 50
268.1476332516
 51
269.275123951
  0
ARC
  5
1D7
  8
0
  6
CONTINUOUS
 62
     7
 10
120.5214653497
 20
122.9868651439
 30
0.0
 40
2.664424665135146
 50
173.8728219047
 51
268.3011223242
  0
ARC
  5
1D8
  8
0
  6
CONTINUOUS
 62
     7
 10
117.7724763695
 20
131.1580600317
 30
0.0
 40
7.887436822905688
 50
270.724876049
 51
271.8523667484
  0
LINE
  5
1D9
  8
0
  6
CONTINUOUS
 62
     7
 10
92.0613341138
 20
123.2712544311
 30
0.0
 11
117.8722614073
 21
123.2712544311
 31
0.0
  0
ARC
  5
1DA
  8
0
  6
CONTINUOUS
 62
     7
 10
120.4970681702
 20
131.5761259707
 30
0.0
 40
2.754628127564084
 50
94.1268963649
 51
186.3542920958
  0
ARC
  5
1DB
  8
0
  6
CONTINUOUS
 62
     7
 10
117.6616409273
 20
139.1180310564
 30
0.0
 40
7.847385106898931
 50
270.7135126388
 51
271.8519576242
  0
ARC
  5
1DC
  8
0
  6
CONTINUOUS
 62
     7
 10
90.7686739783
 20
137.5763552131
 30
0.0
 40
3.26511176010917
 50
265.0113963848
 51
273.6167673128
  0
LINE
  5
1DD
  8
0
  6
CONTINUOUS
 62
     7
 10
118.9589498552
 20
134.3177465422
 30
0.0
 11
90.9746456658
 21
134.3177465422
 31
0.0
  0
ARC
  5
1DE
  8
0
  6
CONTINUOUS
 62
     7
 10
119.1649215427
 20
137.5763552131
 30
0.0
 40
3.265111760111325
 50
266.3832326872
 51
274.9886036152
  0
LINE
  5
1DF
  8
0
  6
CONTINUOUS
 62
     7
 10
92.1742324965
 20
131.2712544311
 30
0.0
 11
117.7593630245
 21
131.2712544311
 31
0.0
  0
ARC
  5
1E0
  8
0
  6
CONTINUOUS
 62
     7
 10
89.4365273508
 20
131.5761259707
 30
0.0
 40
2.754628127564035
 50
353.6457079042
 51
85.8731036351
  0
ARC
  5
1E1
  8
0
  6
CONTINUOUS
 62
     7
 10
92.2719545937
 20
139.1180310564
 30
0.0
 40
7.847385106905156
 50
268.1480423759
 51
269.2864873612
  0
LINE
  5
1E2
  8
0
  6
CONTINUOUS
 62
     7
 10
119.3088769613
 20
135.1236116505
 30
0.0
 11
119.3151293689
 21
135.1236116505
 31
0.0
  0
LINE
  5
1E3
  8
0
  6
CONTINUOUS
 62
     7
 10
119.3151293689
 20
134.5236116505
 30
0.0
 11
119.3088769613
 21
134.5236116505
 31
0.0
  0
ARC
  5
1E4
  8
0
  6
CONTINUOUS
 62
     7
 10
119.1060573142
 20
136.0785754183
 30
0.0
 40
1.568135239215734
 50
264.6171426393
 51
277.431345874
  0
LINE
  5
1E5
  8
0
  6
CONTINUOUS
 62
     7
 10
118.9589498552
 20
135.1183448427
 30
0.0
 11
118.9589498552
 21
134.517355535
 31
0.0
  0
ARC
  5
1E6
  8
0
  6
CONTINUOUS
 62
     7
 10
119.1060332512
 20
136.9733379783
 30
0.0
 40
1.860815159683204
 50
265.4664719263
 51
276.2581333934
  0
LINE
  5
1E7
  8
0
  6
CONTINUOUS
 62
     7
 10
90.9746456658
 20
135.1183448427
 30
0.0
 11
90.9746456658
 21
134.517355535
 31
0.0
  0
ARC
  5
1E8
  8
0
  6
CONTINUOUS
 62
     7
 10
90.8275382068
 20
136.0785754183
 30
0.0
 40
1.568135239214944
 50
262.568654126
 51
275.3828573607
  0
LINE
  5
1E9
  8
0
  6
CONTINUOUS
 62
     7
 10
90.6184661521
 20
134.5236116505
 30
0.0
 11
90.6247185597
 21
134.5236116505
 31
0.0
  0
LINE
  5
1EA
  8
0
  6
CONTINUOUS
 62
     7
 10
90.6247185597
 20
135.1236116505
 30
0.0
 11
90.6184661521
 21
135.1236116505
 31
0.0
  0
ARC
  5
1EB
  8
0
  6
CONTINUOUS
 62
     7
 10
90.8275622698
 20
136.9733379783
 30
0.0
 40
1.860815159683797
 50
263.7418666066
 51
274.5335280737
  0
ARC
  5
1EC
  8
0
  6
CONTINUOUS
 62
     7
 10
119.485298544
 20
134.4981014465
 30
0.0
 40
0.1782564034138898
 50
171.7721739462
 51
258.2006536666
  0
LINE
  5
1ED
  8
0
  6
CONTINUOUS
 62
     7
 10
118.9589498552
 20
134.3177465422
 30
0.0
 11
118.9589498552
 21
134.517355535
 31
0.0
  0
ARC
  5
1EE
  8
0
  6
CONTINUOUS
 62
     7
 10
90.448296977
 20
134.4981014465
 30
0.0
 40
0.1782564034138839
 50
281.7993463334
 51
8.2278260538
  0
LINE
  5
1EF
  8
0
  6
CONTINUOUS
 62
     7
 10
90.9746456658
 20
134.3177465422
 30
0.0
 11
90.9746456658
 21
134.517355535
 31
0.0
  0
ARC
  5
1F0
  8
0
  6
CONTINUOUS
 62
     7
 10
90.448296977
 20
135.1491218546
 30
0.0
 40
0.1782564033694608
 50
351.7721739162
 51
78.2006535998
  0
ARC
  5
1F1
  8
0
  6
CONTINUOUS
 62
     7
 10
119.485298544
 20
135.1491218546
 30
0.0
 40
0.1782564033694603
 50
101.7993464002
 51
188.2278260838
  0
LINE
  5
1F2
  8
0
  6
CONTINUOUS
 62
     7
 10
119.4576011744
 20
135.3236116505
 30
0.0
 11
119.4488478038
 21
135.3236116505
 31
0.0
  0
LINE
  5
1F3
  8
0
  6
CONTINUOUS
 62
     7
 10
90.4759943466
 20
135.3236116505
 30
0.0
 11
90.4847477173
 21
135.3236116505
 31
0.0
  0
LINE
  5
1F4
  8
0
  6
CONTINUOUS
 62
     7
 10
119.448847804
 20
134.3236116505
 30
0.0
 11
119.4576011744
 21
134.3236116505
 31
0.0
  0
LINE
  5
1F5
  8
0
  6
CONTINUOUS
 62
     7
 10
90.484747717
 20
134.3236116505
 30
0.0
 11
90.4759943466
 21
134.3236116505
 31
0.0
  0
LINE
  5
1F6
  8
0
  6
CONTINUOUS
 62
     7
 10
118.9589498552
 20
135.1183448427
 30
0.0
 11
90.9746456658
 21
135.1183448427
 31
0.0
  0
LINE
  5
1F7
  8
0
  6
CONTINUOUS
 62
     7
 10
90.9746456658
 20
134.517355535
 30
0.0
 11
118.9589498552
 21
134.517355535
 31
0.0
  0
LINE
  5
1F8
  8
0
  6
CONTINUOUS
 62
     7
 10
117.7593630244
 20
131.2712544287
 30
0.0
 11
117.8722614072
 21
123.2712544275
 31
0.0
  0
LINE
  5
1F9
  8
0
  6
CONTINUOUS
 62
     7
 10
92.1742324966
 20
131.2712544287
 30
0.0
 11
92.0613341138
 21
123.2712544275
 31
0.0
  0
LINE
  5
1FA
  8
0
  6
CONTINUOUS
 62
     8
 10
174.9667977605
 20
134.5236116505
 30
0.0
 11
119.3151293689
 21
134.5236116505
 31
0.0
  0
LINE
  5
1FB
  8
0
  6
CONTINUOUS
 62
     8
 10
119.3151293689
 20
135.1236116505
 30
0.0
 11
174.9667977605
 21
135.1236116505
 31
0.0
  0
LINE
  5
1FC
  8
0
  6
CONTINUOUS
 62
     8
 10
34.9667977605
 20
134.5236116505
 30
0.0
 11
90.6184661521
 21
134.5236116505
 31
0.0
  0
LINE
  5
1FD
  8
0
  6
CONTINUOUS
 62
     8
 10
90.6184661521
 20
135.1236116505
 30
0.0
 11
34.9667977605
 21
135.1236116505
 31
0.0
  0
LINE
  5
1FE
  8
0
  6
CONTINUOUS
 62
     8
 10
174.9667977605
 20
119.5236116505
 30
0.0
 11
142.4667977605
 21
119.5236116505
 31
0.0
  0
LINE
  5
1FF
  8
0
  6
CONTINUOUS
 62
     8
 10
142.4667977605
 20
120.1236116505
 30
0.0
 11
174.9667977605
 21
120.1236116505
 31
0.0
  0
LINE
  5
200
  8
0
  6
CONTINUOUS
 62
     8
 10
67.4667977605
 20
120.1236116505
 30
0.0
 11
34.9667977605
 21
120.1236116505
 31
0.0
  0
LINE
  5
201
  8
0
  6
CONTINUOUS
 62
     8
 10
34.9667977605
 20
119.5236116505
 30
0.0
 11
67.4667977605
 21
119.5236116505
 31
0.0
  0
LINE
  5
202
  8
0
  6
CONTINUOUS
 62
     8
 10
120.438690523
 20
134.1236116505
 30
0.0
 11
173.9667977605
 21
134.1236116505
 31
0.0
  0
LINE
  5
203
  8
0
  6
CONTINUOUS
 62
     8
 10
89.494904998
 20
134.1236116505
 30
0.0
 11
35.9667977605
 21
134.1236116505
 31
0.0
  0
LINE
  5
204
  8
0
  6
CONTINUOUS
 62
     8
 10
173.9667977605
 20
120.5236116505
 30
0.0
 11
120.5814287695
 21
120.5236116505
 31
0.0
  0
LINE
  5
205
  8
0
  6
CONTINUOUS
 62
     8
 10
35.9667977605
 20
120.5236116505
 30
0.0
 11
89.3521667515
 21
120.5236116505
 31
0.0
  0
LINE
  5
206
  8
0
  6
CONTINUOUS
 62
     8
 10
90.9746456658
 20
135.1183448427
 30
0.0
 11
90.9746456658
 21
135.3183448427
 31
0.0
  0
LINE
  5
207
  8
0
  6
CONTINUOUS
 62
     8
 10
118.9589498552
 20
135.1183448427
 30
0.0
 11
118.9589498552
 21
135.3183448427
 31
0.0
  0
DIMENSION
  5
208
  8
0
  6
CONTINUOUS
 62
     7
  2
_D_4
 10
190.9667977605
 20
119.3236116505
 30
0.0
 11
190.9667977605
 21
127.1702496685
 31
0.0
 70
   160
  1
<>
  3
SLDDIMSTYLE4
 13
173.4667977605
 23
135.3236116505
 33
0.0
 14
174.7667977605
 24
119.3236116505
 34
0.0
 50
90.0
  0
DIMENSION
  5
215
  8
0
  6
CONTINUOUS
 62
     7
  2
_D_5
 10
183.6902379662
 20
120.3236116505
 30
0.0
 11
183.6902379662
 21
127.1702496685
 31
0.0
 70
   160
  1
<>
  3
SLDDIMSTYLE4
 13
174.7667977605
 23
134.3236116505
 33
0.0
 14
174.7667977605
 24
120.3236116505
 34
0.0
 50
90.0
  0
ENDSEC
  0
EOF
