  0
SECTION
  2
HEADER
  9
$ACADVER
  1
AC1009
  9
$DWGCODEPAGE
  3
ansi_1252
  9
$INSBASE
 10
0.0
 20
0.0
 30
0.0
  9
$EXTMIN
 10
0.0
 20
0.0
 30
0.0
  9
$EXTMAX
 10
594.0
 20
420.0
 30
0.0
  9
$LIMMIN
 10
0.0
 20
0.0
  9
$LIMMAX
 10
594.0
 20
420.0
  9
$ORTHOMODE
 70
     0
  9
$REGENMODE
 70
     1
  9
$FILLMODE
 70
     1
  9
$QTEXTMODE
 70
     0
  9
$MIRRTEXT
 70
     1
  9
$DRAGMODE
 70
     2
  9
$LTSCALE
 40
1.0
  9
$OSMODE
 70
    37
  9
$ATTMODE
 70
     1
  9
$TEXTSIZE
 40
3.5
  9
$TRACEWID
 40
1.0
  9
$TEXTSTYLE
  7
STANDARD
  9
$CLAYER
  8
0
  9
$CELTYPE
  6
BYLAYER
  9
$CECOLOR
 62
   256
  9
$DIMSCALE
 40
1.0
  9
$DIMASZ
 40
3.5
  9
$DIMEXO
 40
1.0
  9
$DIMDLI
 40
3.75
  9
$DIMRND
 40
0.0
  9
$DIMDLE
 40
0.0
  9
$DIMEXE
 40
1.0
  9
$DIMTP
 40
0.0
  9
$DIMTM
 40
0.0
  9
$DIMTXT
 40
3.5
  9
$DIMCEN
 40
2.5
  9
$DIMTSZ
 40
0.0
  9
$DIMTOL
 70
     0
  9
$DIMLIM
 70
     0
  9
$DIMTIH
 70
     1
  9
$DIMTOH
 70
     1
  9
$DIMSE1
 70
     0
  9
$DIMSE2
 70
     0
  9
$DIMTAD
 70
     1
  9
$DIMZIN
 70
     0
  9
$DIMBLK
  1

  9
$DIMASO
 70
     1
  9
$DIMSHO
 70
     1
  9
$DIMPOST
  1

  9
$DIMAPOST
  1

  9
$DIMALT
 70
     0
  9
$DIMALTD
 70
     3
  9
$DIMALTF
 40
0.0393700787
  9
$DIMLFAC
 40
1.0
  9
$DIMTOFL
 70
     1
  9
$DIMTVP
 40
0.0
  9
$DIMTIX
 70
     0
  9
$DIMSOXD
 70
     0
  9
$DIMSAH
 70
     0
  9
$DIMBLK1
  1

  9
$DIMBLK2
  1

  9
$DIMSTYLE
  2
ISO-25
  9
$DIMCLRD
 70
     0
  9
$DIMCLRE
 70
     0
  9
$DIMCLRT
 70
     0
  9
$DIMTFAC
 40
1.0
  9
$DIMGAP
 40
4.0
  9
$LUNITS
 70
     2
  9
$LUPREC
 70
     1
  9
$SKETCHINC
 40
1.0
  9
$FILLETRAD
 40
10.0
  9
$AUNITS
 70
     0
  9
$AUPREC
 70
     1
  9
$MENU
  1
.
  9
$ELEVATION
 40
0.0
  9
$PELEVATION
 40
0.0
  9
$THICKNESS
 40
0.0
  9
$LIMCHECK
 70
     0
  9
$CHAMFERA
 40
0.0
  9
$CHAMFERB
 40
0.0
  9
$SKPOLY
 70
     0
  9
$TDCREATE
 40
2457648.35531066
  9
$TDUPDATE
 40
2457648.35531103
  9
$TDINDWG
 40
0.0000000116
  9
$TDUSRTIMER
 40
0.0000000116
  9
$USRTIMER
 70
     1
  9
$ANGBASE
 50
0.0
  9
$ANGDIR
 70
     0
  9
$PDMODE
 70
     0
  9
$PDSIZE
 40
-1.0
  9
$PLINEWID
 40
0.0
  9
$COORDS
 70
     1
  9
$SPLFRAME
 70
     0
  9
$SPLINETYPE
 70
     6
  9
$SPLINESEGS
 70
     8
  9
$ATTDIA
 70
     0
  9
$ATTREQ
 70
     1
  9
$HANDLING
 70
     1
  9
$HANDSEED
  5
1DE
  9
$SURFTAB1
 70
     6
  9
$SURFTAB2
 70
     6
  9
$SURFTYPE
 70
     6
  9
$SURFU
 70
     6
  9
$SURFV
 70
     6
  9
$UCSNAME
  2

  9
$UCSORG
 10
0.0
 20
0.0
 30
0.0
  9
$UCSXDIR
 10
1.0
 20
0.0
 30
0.0
  9
$UCSYDIR
 10
0.0
 20
1.0
 30
0.0
  9
$PUCSNAME
  2

  9
$PUCSORG
 10
0.0
 20
0.0
 30
0.0
  9
$PUCSXDIR
 10
1.0
 20
0.0
 30
0.0
  9
$PUCSYDIR
 10
0.0
 20
1.0
 30
0.0
  9
$USERI1
 70
     0
  9
$USERI2
 70
     0
  9
$USERI3
 70
     0
  9
$USERI4
 70
     0
  9
$USERI5
 70
     0
  9
$USERR1
 40
0.0
  9
$USERR2
 40
0.0
  9
$USERR3
 40
0.0
  9
$USERR4
 40
0.0
  9
$USERR5
 40
0.0
  9
$WORLDVIEW
 70
     1
  9
$SHADEDGE
 70
     3
  9
$SHADEDIF
 70
    70
  9
$TILEMODE
 70
     1
  9
$MAXACTVP
 70
    64
  9
$PLIMCHECK
 70
     0
  9
$PEXTMIN
 10
1.0000000000E+20
 20
1.0000000000E+20
 30
1.0000000000E+20
  9
$PEXTMAX
 10
-1.0000000000E+20
 20
-1.0000000000E+20
 30
-1.0000000000E+20
  9
$PLIMMIN
 10
0.0
 20
0.0
  9
$PLIMMAX
 10
420.0
 20
297.0
  9
$UNITMODE
 70
     0
  9
$VISRETAIN
 70
     1
  9
$PLINEGEN
 70
     0
  9
$PSLTSCALE
 70
     1
  0
ENDSEC
  0
SECTION
  2
TABLES
  0
TABLE
  2
VPORT
 70
     1
  0
VPORT
  2
*ACTIVE
 70
     0
 10
0.0
 20
0.0
 11
1.0
 21
1.0
 12
297.0
 22
210.0
 13
0.0
 23
0.0
 14
10.0
 24
10.0
 15
10.0
 25
10.0
 16
0.0
 26
0.0
 36
1.0
 17
0.0
 27
0.0
 37
0.0
 40
420.0
 41
1.4142857143
 42
50.0
 43
0.0
 44
0.0
 50
0.0
 51
0.0
 71
     0
 72
  2000
 73
     1
 74
     3
 75
     0
 76
     0
 77
     0
 78
     0
  0
ENDTAB
  0
TABLE
  2
LTYPE
 70
     6
  0
LTYPE
  2
CONTINUOUS
 70
     0
  3
Solid line
 72
    65
 73
     0
 40
0.0
  0
LTYPE
  2
HIDDEN
 70
     0
  3
Hidden __ __ __ __ __ __ __ __ __ __ __ __ __ __
 72
    65
 73
     2
 40
1.905
 49
1.27
 49
-0.635
  0
LTYPE
  2
PHANTOM
 70
     0
  3
Phantom ______  __  __  ______  __  __  ______
 72
    65
 73
     6
 40
12.7
 49
6.35
 49
-1.27
 49
1.27
 49
-1.27
 49
1.27
 49
-1.27
  0
LTYPE
  2
CENTER
 70
     0
  3
Center ____ _ ____ _ ____ _ ____ _ ____ _ ____
 72
    65
 73
     4
 40
10.16
 49
6.35
 49
-1.27
 49
1.27
 49
-1.27
  0
LTYPE
  2
CENTERX2
 70
     0
  3
Center (2x) ________  __  ________  __  _____
 72
    65
 73
     4
 40
20.32
 49
12.7
 49
-2.54
 49
2.54
 49
-2.54
  0
LTYPE
  2
DOT2
 70
     0
  3
Dot (.5x) ........................................
 72
    65
 73
     2
 40
0.635
 49
0.0
 49
-0.635
  0
ENDTAB
  0
TABLE
  2
LAYER
 70
     3
  0
LAYER
  2
0
 70
     0
 62
     7
  6
CONTINUOUS
  0
LAYER
  2
RAHMEN
 70
     0
 62
   179
  6
CONTINUOUS
  0
LAYER
  2
KOPF
 70
     0
 62
     7
  6
CONTINUOUS
  0
ENDTAB
  0
TABLE
  2
STYLE
 70
     1
  0
STYLE
  2
STANDARD
 70
     0
 40
0.0
 41
1.0
 50
0.0
 71
     0
 42
3.5
  3
txt
  4

  0
ENDTAB
  0
TABLE
  2
VIEW
 70
     0
  0
ENDTAB
  0
TABLE
  2
UCS
 70
     0
  0
ENDTAB
  0
TABLE
  2
APPID
 70
     1
  0
APPID
  2
ACAD
 70
     0
  0
ENDTAB
  0
TABLE
  2
DIMSTYLE
 70
     3
  0
DIMSTYLE
  2
ISO-25
 70
     0
  3

  4

  5

  6

  7

 40
1.0
 41
2.5
 42
0.625
 43
3.75
 44
1.25
 45
0.0
 46
0.0
 47
0.0
 48
0.0
140
2.5
141
2.5
142
0.0
143
0.0393700787
144
1.0
145
0.0
146
1.0
147
0.625
 71
     0
 72
     0
 73
     0
 74
     0
 75
     0
 76
     0
 77
     1
 78
     8
170
     0
171
     3
172
     1
173
     0
174
     0
175
     0
176
     0
177
     0
178
     0
  0
DIMSTYLE
  2
SLDDIMSTYLE0
 70
     0
  3

  4

  5

  6

  7

 40
1.0
 41
3.5
 42
0.0625
 43
0.38
 44
0.0
 45
0.000000001
 46
0.0
 47
0.0
 48
0.0
140
3.5
141
0.09
142
0.0
143
25.4
144
1.0
145
0.0
146
1.0
147
0.875
 71
     0
 72
     0
 73
     0
 74
     0
 75
     0
 76
     0
 77
     1
 78
    12
170
     0
171
     2
172
     0
173
     1
174
     0
175
     0
176
     0
177
     0
178
     0
  0
DIMSTYLE
  2
SLDDIMSTYLE1
 70
     0
  3

  4

  5

  6

  7

 40
1.0
 41
3.5
 42
0.0625
 43
0.38
 44
0.0
 45
0.000000001
 46
0.0
 47
0.0
 48
0.0
140
3.5
141
0.09
142
0.0
143
25.4
144
1.0
145
0.0
146
1.0
147
0.875
 71
     0
 72
     0
 73
     0
 74
     0
 75
     0
 76
     0
 77
     1
 78
    12
170
     0
171
     2
172
     0
173
     1
174
     0
175
     0
176
     0
177
     0
178
     0
  0
ENDTAB
  0
ENDSEC
  0
SECTION
  2
BLOCKS
  0
BLOCK
  8
0
  2
$MODEL_SPACE
 70
     0
 10
0.0
 20
0.0
 30
0.0
  3
$MODEL_SPACE
  1

  0
ENDBLK
  5
21
  8
0
  0
BLOCK
 67
     1
  8
0
  2
$PAPER_SPACE
 70
     0
 10
0.0
 20
0.0
 30
0.0
  3
$PAPER_SPACE
  1

  0
ENDBLK
  5
1D
 67
     1
  8
0
  0
BLOCK
  8
0
  2
_D
 70
     0
 10
0.0
 20
0.0
 30
0.0
  3
_D
  1

  0
SOLID
  5
E3
  8
0
  6
CONTINUOUS
 62
     7
 10
59.2486290872
 20
348.1913016939
 30
0.0
 11
62.7486290872
 21
347.2913016939
 31
0.0
 12
62.7486290872
 22
349.0913016939
 32
0.0
 13
62.7486290872
 23
349.0913016939
 33
0.0
  0
SOLID
  5
E4
  8
0
  6
CONTINUOUS
 62
     7
 10
386.169381457
 20
348.1913016939
 30
0.0
 11
382.669381457
 21
349.0913016939
 31
0.0
 12
382.669381457
 22
347.2913016939
 32
0.0
 13
382.669381457
 23
347.2913016939
 33
0.0
  0
LINE
  5
E5
  8
0
  6
CONTINUOUS
 62
     7
 10
59.2486290872
 20
328.287818899
 30
0.0
 11
59.2486290872
 21
349.1913016939
 31
0.0
  0
LINE
  5
E6
  8
0
  6
CONTINUOUS
 62
     7
 10
386.169381457
 20
336.8913016939
 30
0.0
 11
386.169381457
 21
349.1913016939
 31
0.0
  0
LINE
  5
E7
  8
0
  6
CONTINUOUS
 62
     7
 10
59.2486290872
 20
348.1913016939
 30
0.0
 11
386.169381457
 21
348.1913016939
 31
0.0
  0
TEXT
  5
E8
  8
0
  6
CONTINUOUS
 62
     7
 10
189.4021045456
 20
349.4277121435
 30
0.0
 40
3.5
  1
Min 
 50
0.0
 41
0.7
 11
189.4021045456
 21
348.1913019267
 31
0.0
 73
     1
  0
TEXT
  5
E9
  8
0
  6
CONTINUOUS
 62
     7
 10
198.4875213394
 20
349.4277121435
 30
0.0
 40
3.5
  1
327
 50
0.0
 41
0.7
 11
198.4875213394
 21
348.1913019267
 31
0.0
 73
     1
  0
TEXT
  5
EA
  8
0
  6
CONTINUOUS
 62
     7
 10
206.5083544741
 20
349.4277121435
 30
0.0
 40
3.5
  1
 - >Max 530
 50
0.0
 41
0.6045454545
 11
206.5083544741
 21
348.1913019267
 31
0.0
 73
     1
  0
ENDBLK
  5
E2
  8
0
  0
BLOCK
  8
0
  2
_D_1
 70
     0
 10
0.0
 20
0.0
 30
0.0
  3
_D_1
  1

  0
SOLID
  5
148
  8
0
  6
CONTINUOUS
 62
     7
 10
402.3890551677
 20
184.309929052
 30
0.0
 11
401.4890551677
 21
180.809929052
 31
0.0
 12
403.2890551677
 22
180.809929052
 32
0.0
 13
403.2890551677
 23
180.809929052
 33
0.0
  0
SOLID
  5
149
  8
0
  6
CONTINUOUS
 62
     7
 10
402.3890551677
 20
132.309929052
 30
0.0
 11
403.2890551677
 21
135.809929052
 31
0.0
 12
401.4890551677
 22
135.809929052
 32
0.0
 13
401.4890551677
 23
135.809929052
 33
0.0
  0
LINE
  5
14A
  8
0
  6
CONTINUOUS
 62
     7
 10
386.869381457
 20
184.309929052
 30
0.0
 11
403.3890551677
 21
184.309929052
 31
0.0
  0
LINE
  5
14B
  8
0
  6
CONTINUOUS
 62
     7
 10
386.869381457
 20
132.309929052
 30
0.0
 11
403.3890551677
 21
132.309929052
 31
0.0
  0
LINE
  5
14C
  8
0
  6
CONTINUOUS
 62
     7
 10
402.3890551677
 20
184.309929052
 30
0.0
 11
402.3890551677
 21
132.309929052
 31
0.0
  0
TEXT
  5
14D
  8
0
  6
CONTINUOUS
 62
     7
 10
401.1526447181
 20
154.0760093309
 30
-1.0
 40
3.5
  1
52
 50
90.0
 41
0.7
 11
402.3890549349
 21
154.0760093309
 31
-1.0
 73
     1
  0
ENDBLK
  5
147
  8
0
  0
BLOCK
  8
0
  2
_D_2
 70
     0
 10
0.0
 20
0.0
 30
0.0
  3
_D_2
  1

  0
SOLID
  5
152
  8
0
  6
CONTINUOUS
 62
     7
 10
358.669381457
 20
194.309929052
 30
0.0
 11
355.169381457
 21
195.209929052
 31
0.0
 12
355.169381457
 22
193.409929052
 32
0.0
 13
355.169381457
 23
193.409929052
 33
0.0
  0
SOLID
  5
153
  8
0
  6
CONTINUOUS
 62
     7
 10
59.2486290872
 20
194.309929052
 30
0.0
 11
62.7486290872
 21
193.409929052
 31
0.0
 12
62.7486290872
 22
195.209929052
 32
0.0
 13
62.7486290872
 23
195.209929052
 33
0.0
  0
LINE
  5
154
  8
0
  6
CONTINUOUS
 62
     7
 10
358.669381457
 20
183.309929052
 30
0.0
 11
358.669381457
 21
195.309929052
 31
0.0
  0
LINE
  5
155
  8
0
  6
CONTINUOUS
 62
     7
 10
59.2486290872
 20
159.406446257
 30
0.0
 11
59.2486290872
 21
195.309929052
 31
0.0
  0
LINE
  5
156
  8
0
  6
CONTINUOUS
 62
     7
 10
358.669381457
 20
194.309929052
 30
0.0
 11
59.2486290872
 21
194.309929052
 31
0.0
  0
TEXT
  5
157
  8
0
  6
CONTINUOUS
 62
     7
 10
187.584551577
 20
195.5463395015
 30
-1.0
 40
3.5
  1
299
 50
0.0
 41
0.7
 11
187.584551577
 21
194.3099292848
 31
-1.0
 73
     1
  0
ENDBLK
  5
151
  8
0
  0
BLOCK
  8
0
  2
_D_3
 70
     0
 10
0.0
 20
0.0
 30
0.0
  3
_D_3
  1

  0
SOLID
  5
15C
  8
0
  6
CONTINUOUS
 62
     7
 10
358.669381457
 20
194.309929052
 30
0.0
 11
362.169381457
 21
193.409929052
 31
0.0
 12
362.169381457
 22
195.209929052
 32
0.0
 13
362.169381457
 23
195.209929052
 33
0.0
  0
SOLID
  5
15D
  8
0
  6
CONTINUOUS
 62
     7
 10
386.169381457
 20
194.309929052
 30
0.0
 11
382.669381457
 21
195.209929052
 31
0.0
 12
382.669381457
 22
193.409929052
 32
0.0
 13
382.669381457
 23
193.409929052
 33
0.0
  0
LINE
  5
15E
  8
0
  6
CONTINUOUS
 62
     7
 10
358.669381457
 20
183.309929052
 30
0.0
 11
358.669381457
 21
195.309929052
 31
0.0
  0
LINE
  5
15F
  8
0
  6
CONTINUOUS
 62
     7
 10
386.169381457
 20
185.009929052
 30
0.0
 11
386.169381457
 21
195.309929052
 31
0.0
  0
LINE
  5
160
  8
0
  6
CONTINUOUS
 62
     7
 10
358.669381457
 20
194.309929052
 30
0.0
 11
386.169381457
 21
194.309929052
 31
0.0
  0
TEXT
  5
161
  8
0
  6
CONTINUOUS
 62
     7
 10
367.0147235764
 20
195.5463395015
 30
-1.0
 40
3.5
  1
27.5
 41
0.7
 11
367.0147235764
 21
194.3099292848
 31
-1.0
 73
     1
  0
ENDBLK
  5
15B
  8
0
  0
BLOCK
  8
0
  2
_D_4
 70
     0
 10
0.0
 20
0.0
 30
0.0
  3
_D_4
  1

  0
SOLID
  5
1C2
  8
0
  6
CONTINUOUS
 62
     7
 10
467.3556406503
 20
338.1913016939
 30
0.0
 11
466.4556406503
 21
334.6913016939
 31
0.0
 12
468.2556406503
 22
334.6913016939
 32
0.0
 13
468.2556406503
 23
334.6913016939
 33
0.0
  0
SOLID
  5
1C3
  8
0
  6
CONTINUOUS
 62
     7
 10
467.3556406503
 20
294.1913016939
 30
0.0
 11
468.2556406503
 21
297.6913016939
 31
0.0
 12
466.4556406503
 22
297.6913016939
 32
0.0
 13
466.4556406503
 23
297.6913016939
 33
0.0
  0
LINE
  5
1C4
  8
0
  6
CONTINUOUS
 62
     7
 10
480.4907531395
 20
338.1913016939
 30
0.0
 11
466.3556406503
 21
338.1913016939
 31
0.0
  0
LINE
  5
1C5
  8
0
  6
CONTINUOUS
 62
     7
 10
478.7907531395
 20
294.1913016939
 30
0.0
 11
466.3556406503
 21
294.1913016939
 31
0.0
  0
LINE
  5
1C6
  8
0
  6
CONTINUOUS
 62
     7
 10
467.3556406503
 20
338.1913016939
 30
0.0
 11
467.3556406503
 21
294.1913016939
 31
0.0
  0
TEXT
  5
1C7
  8
0
  6
CONTINUOUS
 62
     7
 10
466.1192302007
 20
311.9697692669
 30
-163.1103761849
 40
3.5
  1
44
 50
90.0
 41
0.7
 11
467.3556404175
 21
311.9697692669
 31
-163.1103761849
 73
     1
  0
ENDBLK
  5
1C1
  8
0
  0
ENDSEC
  0
SECTION
  2
ENTITIES
  0
LINE
  5
75
  8
0
  6
CONTINUOUS
 62
     7
 10
358.619381457
 20
322.1913016939
 30
0.0
 11
358.669381457
 21
322.1913016939
 31
0.0
  0
LINE
  5
76
  8
0
  6
CONTINUOUS
 62
     7
 10
358.669381457
 20
332.1913016939
 30
0.0
 11
358.619381457
 21
332.1913016939
 31
0.0
  0
ARC
  5
77
  8
0
  6
CONTINUOUS
 62
     7
 10
357.919381457
 20
332.9413016939
 30
0.0
 40
0.7500000000000568
 50
0.0
 51
180.0
  0
ARC
  5
78
  8
0
  6
CONTINUOUS
 62
     7
 10
357.919381457
 20
321.4413016939
 30
0.0
 40
0.7500000000000568
 50
180.0
 51
0.0
  0
LINE
  5
79
  8
0
  6
CONTINUOUS
 62
     7
 10
356.669381457
 20
337.1913016939
 30
0.0
 11
347.669381457
 21
337.1913016939
 31
0.0
  0
LINE
  5
7A
  8
0
  6
CONTINUOUS
 62
     7
 10
347.669381457
 20
317.1913016939
 30
0.0
 11
356.669381457
 21
317.1913016939
 31
0.0
  0
ARC
  5
7B
  8
0
  6
CONTINUOUS
 62
     7
 10
356.669381457
 20
336.6913016939
 30
0.0
 40
0.5
 50
0.0
 51
90.0
  0
ARC
  5
7C
  8
0
  6
CONTINUOUS
 62
     7
 10
356.669381457
 20
317.6913016939
 30
0.0
 40
0.5
 50
270.0
 51
0.0
  0
ARC
  5
7D
  8
0
  6
CONTINUOUS
 62
     7
 10
347.669381457
 20
317.6913016939
 30
0.0
 40
0.5
 50
180.0
 51
270.0
  0
ARC
  5
7E
  8
0
  6
CONTINUOUS
 62
     7
 10
347.669381457
 20
336.6913016939
 30
0.0
 40
0.5
 50
90.0
 51
180.0
  0
LINE
  5
7F
  8
0
  6
CONTINUOUS
 62
     7
 10
60.669381457
 20
319.6913016939
 30
0.0
 11
61.669381457
 21
319.6913016939
 31
0.0
  0
LINE
  5
80
  8
0
  6
CONTINUOUS
 62
     7
 10
61.669381457
 20
334.6913016939
 30
0.0
 11
60.669381457
 21
334.6913016939
 31
0.0
  0
ARC
  5
81
  8
0
  6
CONTINUOUS
 62
     7
 10
79.2486290872
 20
327.0947844889
 30
0.0
 40
20.00000000000002
 50
180.0
 51
201.7263573307
  0
ARC
  5
82
  8
0
  6
CONTINUOUS
 62
     7
 10
79.2486290872
 20
327.287818899
 30
0.0
 40
20.00000000000002
 50
158.2736426693
 51
180.0
  0
LINE
  5
83
  8
0
  6
CONTINUOUS
 62
     7
 10
59.2486290872
 20
327.287818899
 30
0.0
 11
59.2486290872
 21
327.0947844889
 31
0.0
  0
LINE
  5
84
  8
0
  6
CONTINUOUS
 62
     7
 10
347.169381457
 20
334.6913016939
 30
0.0
 11
61.669381457
 21
334.6913016939
 31
0.0
  0
LINE
  5
85
  8
0
  6
CONTINUOUS
 62
     7
 10
61.669381457
 20
319.6913016939
 30
0.0
 11
347.169381457
 21
319.6913016939
 31
0.0
  0
LINE
  5
86
  8
0
  6
CONTINUOUS
 62
     7
 10
358.619381457
 20
327.1913016939
 30
0.0
 11
358.619381457
 21
332.1913016939
 31
0.0
  0
LINE
  5
87
  8
0
  6
CONTINUOUS
 62
     7
 10
358.619381457
 20
322.1913016939
 30
0.0
 11
358.619381457
 21
327.1913016939
 31
0.0
  0
LINE
  5
88
  8
0
  6
CONTINUOUS
 62
     7
 10
386.169381457
 20
333.1913016939
 30
0.0
 11
386.869381457
 21
333.1913016939
 31
0.0
  0
LINE
  5
89
  8
0
  6
CONTINUOUS
 62
     7
 10
386.869381457
 20
333.1913016939
 30
0.0
 11
386.869381457
 21
326.1913016939
 31
0.0
  0
LINE
  5
8A
  8
0
  6
CONTINUOUS
 62
     7
 10
386.869381457
 20
308.1913016939
 30
0.0
 11
386.869381457
 21
301.1913016939
 31
0.0
  0
LINE
  5
8B
  8
0
  6
CONTINUOUS
 62
     7
 10
386.869381457
 20
301.1913016939
 30
0.0
 11
386.169381457
 21
301.1913016939
 31
0.0
  0
LINE
  5
8C
  8
0
  6
CONTINUOUS
 62
     7
 10
386.869381457
 20
308.1913016939
 30
0.0
 11
386.869381457
 21
326.1913016939
 31
0.0
  0
LINE
  5
8D
  8
0
  6
CONTINUOUS
 62
     7
 10
357.169381457
 20
336.6913016939
 30
0.0
 11
357.169381457
 21
317.6913016939
 31
0.0
  0
LINE
  5
8E
  8
0
  6
CONTINUOUS
 62
     7
 10
347.169381457
 20
327.1913016939
 30
0.0
 11
347.169381457
 21
336.6913016939
 31
0.0
  0
LINE
  5
8F
  8
0
  6
CONTINUOUS
 62
     7
 10
347.169381457
 20
317.6913016939
 30
0.0
 11
347.169381457
 21
327.1913016939
 31
0.0
  0
LINE
  5
90
  8
0
  6
CONTINUOUS
 62
     7
 10
60.669381457
 20
319.6913016939
 30
0.0
 11
60.669381457
 21
334.6913016939
 31
0.0
  0
LINE
  5
91
  8
0
  6
CONTINUOUS
 62
     7
 10
61.669381457
 20
319.6913016939
 30
0.0
 11
61.669381457
 21
334.6913016939
 31
0.0
  0
LINE
  5
92
  8
0
  6
CONTINUOUS
 62
     7
 10
61.669381457
 20
327.1913016939
 30
0.0
 11
61.669381457
 21
334.6913016939
 31
0.0
  0
LINE
  5
93
  8
0
  6
CONTINUOUS
 62
     7
 10
61.669381457
 20
319.6913016939
 30
0.0
 11
61.669381457
 21
327.1913016939
 31
0.0
  0
LINE
  5
94
  8
0
  6
CONTINUOUS
 62
     7
 10
358.969381457
 20
338.1913016939
 30
0.0
 11
360.669381457
 21
338.1913016939
 31
0.0
  0
LINE
  5
95
  8
0
  6
CONTINUOUS
 62
     7
 10
360.669381457
 20
338.1913016939
 30
0.0
 11
360.669381457
 21
337.8913016939
 31
0.0
  0
LINE
  5
96
  8
0
  6
CONTINUOUS
 62
     7
 10
360.669381457
 20
337.8913016939
 30
0.0
 11
358.669381457
 21
337.8913016939
 31
0.0
  0
ARC
  5
97
  8
0
  6
CONTINUOUS
 62
     7
 10
358.969381457
 20
337.8913016939
 30
0.0
 40
0.3000000000000114
 50
90.0
 51
180.0
  0
LINE
  5
98
  8
0
  6
CONTINUOUS
 62
     7
 10
360.669381457
 20
338.1913016939
 30
0.0
 11
364.369381457
 21
338.1913016939
 31
0.0
  0
LINE
  5
99
  8
0
  6
CONTINUOUS
 62
     7
 10
364.369381457
 20
338.1913016939
 30
0.0
 11
364.369381457
 21
337.8913016939
 31
0.0
  0
LINE
  5
9A
  8
0
  6
CONTINUOUS
 62
     7
 10
364.369381457
 20
337.8913016939
 30
0.0
 11
360.669381457
 21
337.8913016939
 31
0.0
  0
LINE
  5
9B
  8
0
  6
CONTINUOUS
 62
     7
 10
360.669381457
 20
337.8913016939
 30
0.0
 11
360.669381457
 21
316.4913016939
 31
0.0
  0
LINE
  5
9C
  8
0
  6
CONTINUOUS
 62
     7
 10
358.669381457
 20
316.4913016939
 30
0.0
 11
360.669381457
 21
316.4913016939
 31
0.0
  0
LINE
  5
9D
  8
0
  6
CONTINUOUS
 62
     7
 10
358.669381457
 20
316.4913016939
 30
0.0
 11
358.669381457
 21
337.8913016939
 31
0.0
  0
LINE
  5
9E
  8
0
  6
CONTINUOUS
 62
     7
 10
360.669381457
 20
316.1913016939
 30
0.0
 11
358.969381457
 21
316.1913016939
 31
0.0
  0
ARC
  5
9F
  8
0
  6
CONTINUOUS
 62
     7
 10
358.969381457
 20
316.4913016939
 30
0.0
 40
0.3000000000000114
 50
180.0
 51
270.0
  0
LINE
  5
A0
  8
0
  6
CONTINUOUS
 62
     7
 10
360.669381457
 20
316.1913016939
 30
0.0
 11
360.669381457
 21
316.4913016939
 31
0.0
  0
LINE
  5
A1
  8
0
  6
CONTINUOUS
 62
     7
 10
364.369381457
 20
316.1913016939
 30
0.0
 11
360.669381457
 21
316.1913016939
 31
0.0
  0
LINE
  5
A2
  8
0
  6
CONTINUOUS
 62
     7
 10
360.669381457
 20
316.4913016939
 30
0.0
 11
364.369381457
 21
316.4913016939
 31
0.0
  0
LINE
  5
A3
  8
0
  6
CONTINUOUS
 62
     7
 10
364.369381457
 20
316.4913016939
 30
0.0
 11
364.369381457
 21
316.1913016939
 31
0.0
  0
LINE
  5
A4
  8
0
  6
CONTINUOUS
 62
     7
 10
364.669381457
 20
337.8913016939
 30
0.0
 11
364.669381457
 21
336.1913016939
 31
0.0
  0
LINE
  5
A5
  8
0
  6
CONTINUOUS
 62
     7
 10
364.669381457
 20
316.4913016939
 30
0.0
 11
364.369381457
 21
316.4913016939
 31
0.0
  0
LINE
  5
A6
  8
0
  6
CONTINUOUS
 62
     7
 10
364.369381457
 20
316.4913016939
 30
0.0
 11
364.369381457
 21
337.8913016939
 31
0.0
  0
LINE
  5
A7
  8
0
  6
CONTINUOUS
 62
     7
 10
364.669381457
 20
337.8913016939
 30
0.0
 11
364.369381457
 21
337.8913016939
 31
0.0
  0
ARC
  5
A8
  8
0
  6
CONTINUOUS
 62
     7
 10
364.369381457
 20
316.4913016939
 30
0.0
 40
0.3000000000000114
 50
270.0
 51
0.0
  0
ARC
  5
A9
  8
0
  6
CONTINUOUS
 62
     7
 10
364.369381457
 20
337.8913016939
 30
0.0
 40
0.3000000000000114
 50
0.0
 51
90.0
  0
LINE
  5
AA
  8
0
  6
CONTINUOUS
 62
     7
 10
364.669381457
 20
316.4913016939
 30
0.0
 11
366.169381457
 21
316.4913016939
 31
0.0
  0
LINE
  5
AB
  8
0
  6
CONTINUOUS
 62
     7
 10
366.169381457
 20
316.1913016939
 30
0.0
 11
364.669381457
 21
316.1913016939
 31
0.0
  0
LINE
  5
AC
  8
0
  6
CONTINUOUS
 62
     7
 10
364.669381457
 20
316.1913016939
 30
0.0
 11
364.669381457
 21
316.4913016939
 31
0.0
  0
LINE
  5
AD
  8
0
  6
CONTINUOUS
 62
     7
 10
366.169381457
 20
316.4913016939
 30
0.0
 11
366.169381457
 21
316.1913016939
 31
0.0
  0
LINE
  5
AE
  8
0
  6
CONTINUOUS
 62
     7
 10
364.669381457
 20
336.1913016939
 30
0.0
 11
366.169381457
 21
336.1913016939
 31
0.0
  0
LINE
  5
AF
  8
0
  6
CONTINUOUS
 62
     7
 10
366.169381457
 20
335.8913016939
 30
0.0
 11
364.669381457
 21
335.8913016939
 31
0.0
  0
LINE
  5
B0
  8
0
  6
CONTINUOUS
 62
     7
 10
364.669381457
 20
335.8913016939
 30
0.0
 11
364.669381457
 21
336.1913016939
 31
0.0
  0
LINE
  5
B1
  8
0
  6
CONTINUOUS
 62
     7
 10
366.169381457
 20
336.1913016939
 30
0.0
 11
366.169381457
 21
335.8913016939
 31
0.0
  0
LINE
  5
B2
  8
0
  6
CONTINUOUS
 62
     7
 10
364.669381457
 20
316.4913016939
 30
0.0
 11
364.669381457
 21
335.8913016939
 31
0.0
  0
LINE
  5
B3
  8
0
  6
CONTINUOUS
 62
     7
 10
366.169381457
 20
316.4913016939
 30
0.0
 11
366.169381457
 21
335.8913016939
 31
0.0
  0
LINE
  5
B4
  8
0
  6
CONTINUOUS
 62
     7
 10
363.169381457
 20
316.1913016939
 30
0.0
 11
366.169381457
 21
316.1913016939
 31
0.0
  0
LINE
  5
B5
  8
0
  6
CONTINUOUS
 62
     7
 10
366.169381457
 20
316.1913016939
 30
0.0
 11
366.469381457
 21
315.8913016939
 31
0.0
  0
LINE
  5
B6
  8
0
  6
CONTINUOUS
 62
     7
 10
366.469381457
 20
315.8913016939
 30
0.0
 11
363.2497662147
 21
315.8913016939
 31
0.0
  0
LINE
  5
B7
  8
0
  6
CONTINUOUS
 62
     7
 10
363.169381457
 20
316.1913016939
 30
0.0
 11
363.2497662147
 21
315.8913016939
 31
0.0
  0
LINE
  5
B8
  8
0
  6
CONTINUOUS
 62
     7
 10
366.169381457
 20
335.8913016939
 30
0.0
 11
366.469381457
 21
335.8913016939
 31
0.0
  0
LINE
  5
B9
  8
0
  6
CONTINUOUS
 62
     7
 10
366.469381457
 20
335.8913016939
 30
0.0
 11
366.469381457
 21
315.8913016939
 31
0.0
  0
LINE
  5
BA
  8
0
  6
CONTINUOUS
 62
     7
 10
362.469381457
 20
312.9913016939
 30
0.0
 11
363.169381457
 21
312.9913016939
 31
0.0
  0
LINE
  5
BB
  8
0
  6
CONTINUOUS
 62
     7
 10
362.469381457
 20
315.440746344
 30
0.0
 11
362.469381457
 21
312.9913016939
 31
0.0
  0
LINE
  5
BC
  8
0
  6
CONTINUOUS
 62
     7
 10
363.2497662147
 20
315.8913016939
 30
0.0
 11
362.469381457
 21
315.440746344
 31
0.0
  0
LINE
  5
BD
  8
0
  6
CONTINUOUS
 62
     7
 10
385.869381457
 20
335.8913016939
 30
0.0
 11
366.469381457
 21
335.8913016939
 31
0.0
  0
LINE
  5
BE
  8
0
  6
CONTINUOUS
 62
     7
 10
385.869381457
 20
294.4913016939
 30
0.0
 11
385.869381457
 21
335.8913016939
 31
0.0
  0
LINE
  5
BF
  8
0
  6
CONTINUOUS
 62
     7
 10
366.469381457
 20
294.4913016939
 30
0.0
 11
385.869381457
 21
294.4913016939
 31
0.0
  0
LINE
  5
C0
  8
0
  6
CONTINUOUS
 62
     7
 10
366.469381457
 20
309.6913016939
 30
0.0
 11
366.469381457
 21
294.4913016939
 31
0.0
  0
ARC
  5
C1
  8
0
  6
CONTINUOUS
 62
     7
 10
363.169381457
 20
309.6913016939
 30
0.0
 40
3.300000000000068
 50
0.0
 51
90.0
  0
LINE
  5
C2
  8
0
  6
CONTINUOUS
 62
     7
 10
386.169381457
 20
335.8913016939
 30
0.0
 11
386.169381457
 21
294.4913016939
 31
0.0
  0
LINE
  5
C3
  8
0
  6
CONTINUOUS
 62
     7
 10
386.169381457
 20
294.4913016939
 30
0.0
 11
385.869381457
 21
294.4913016939
 31
0.0
  0
LINE
  5
C4
  8
0
  6
CONTINUOUS
 62
     7
 10
386.169381457
 20
335.8913016939
 30
0.0
 11
385.869381457
 21
335.8913016939
 31
0.0
  0
LINE
  5
C5
  8
0
  6
CONTINUOUS
 62
     7
 10
362.169381457
 20
315.6139514247
 30
0.0
 11
363.169381457
 21
316.1913016939
 31
0.0
  0
LINE
  5
C6
  8
0
  6
CONTINUOUS
 62
     7
 10
362.469381457
 20
315.440746344
 30
0.0
 11
362.169381457
 21
315.6139514247
 31
0.0
  0
LINE
  5
C7
  8
0
  6
CONTINUOUS
 62
     7
 10
366.469381457
 20
309.6913016939
 30
0.0
 11
366.169381457
 21
309.6913016939
 31
0.0
  0
ARC
  5
C8
  8
0
  6
CONTINUOUS
 62
     7
 10
363.169381457
 20
309.6913016939
 30
0.0
 40
3.0
 50
0.0
 51
90.0
  0
LINE
  5
C9
  8
0
  6
CONTINUOUS
 62
     7
 10
363.169381457
 20
312.9913016939
 30
0.0
 11
363.169381457
 21
312.6913016939
 31
0.0
  0
LINE
  5
CA
  8
0
  6
CONTINUOUS
 62
     7
 10
385.869381457
 20
294.1913016939
 30
0.0
 11
385.869381457
 21
294.4913016939
 31
0.0
  0
ARC
  5
CB
  8
0
  6
CONTINUOUS
 62
     7
 10
385.869381457
 20
294.4913016939
 30
0.0
 40
0.3000000000000114
 50
270.0
 51
0.0
  0
LINE
  5
CC
  8
0
  6
CONTINUOUS
 62
     7
 10
366.469381457
 20
294.4913016939
 30
0.0
 11
366.169381457
 21
294.4913016939
 31
0.0
  0
LINE
  5
CD
  8
0
  6
CONTINUOUS
 62
     7
 10
366.169381457
 20
294.4913016939
 30
0.0
 11
366.169381457
 21
309.6913016939
 31
0.0
  0
LINE
  5
CE
  8
0
  6
CONTINUOUS
 62
     7
 10
385.869381457
 20
294.1913016939
 30
0.0
 11
366.469381457
 21
294.1913016939
 31
0.0
  0
LINE
  5
CF
  8
0
  6
CONTINUOUS
 62
     7
 10
366.469381457
 20
294.1913016939
 30
0.0
 11
366.469381457
 21
294.4913016939
 31
0.0
  0
LINE
  5
D0
  8
0
  6
CONTINUOUS
 62
     7
 10
363.169381457
 20
312.6913016939
 30
0.0
 11
362.169381457
 21
312.6913016939
 31
0.0
  0
LINE
  5
D1
  8
0
  6
CONTINUOUS
 62
     7
 10
362.469381457
 20
312.9913016939
 30
0.0
 11
362.169381457
 21
312.6913016939
 31
0.0
  0
LINE
  5
D2
  8
0
  6
CONTINUOUS
 62
     7
 10
385.869381457
 20
335.8913016939
 30
0.0
 11
385.869381457
 21
336.1913016939
 31
0.0
  0
ARC
  5
D3
  8
0
  6
CONTINUOUS
 62
     7
 10
385.869381457
 20
335.8913016939
 30
0.0
 40
0.3000000000000114
 50
0.0
 51
90.0
  0
ARC
  5
D4
  8
0
  6
CONTINUOUS
 62
     7
 10
366.469381457
 20
335.8913016939
 30
0.0
 40
0.3000000000000114
 50
90.0
 51
180.0
  0
LINE
  5
D5
  8
0
  6
CONTINUOUS
 62
     7
 10
366.469381457
 20
335.8913016939
 30
0.0
 11
366.469381457
 21
336.1913016939
 31
0.0
  0
ARC
  5
D6
  8
0
  6
CONTINUOUS
 62
     7
 10
366.469381457
 20
294.4913016939
 30
0.0
 40
0.3000000000000114
 50
180.0
 51
270.0
  0
LINE
  5
D7
  8
0
  6
CONTINUOUS
 62
     7
 10
362.169381457
 20
312.6913016939
 30
0.0
 11
362.169381457
 21
315.6139514247
 31
0.0
  0
LINE
  5
D8
  8
0
  6
CONTINUOUS
 62
     7
 10
366.469381457
 20
336.1913016939
 30
0.0
 11
385.869381457
 21
336.1913016939
 31
0.0
  0
LINE
  5
D9
  8
0
  6
CONTINUOUS
 62
     8
 10
386.869381457
 20
326.1913016939
 30
0.0
 11
386.169381457
 21
326.1913016939
 31
0.0
  0
LINE
  5
DA
  8
0
  6
CONTINUOUS
 62
     8
 10
386.169381457
 20
308.1913016939
 30
0.0
 11
386.869381457
 21
308.1913016939
 31
0.0
  0
LINE
  5
DB
  8
0
  6
CONTINUOUS
 62
     8
 10
356.669381457
 20
317.1913016939
 30
0.0
 11
356.669381457
 21
337.1913016939
 31
0.0
  0
LINE
  5
DC
  8
0
  6
CONTINUOUS
 62
     8
 10
347.669381457
 20
327.1913016939
 30
0.0
 11
347.669381457
 21
317.1913016939
 31
0.0
  0
LINE
  5
DD
  8
0
  6
CONTINUOUS
 62
     8
 10
347.669381457
 20
337.1913016939
 30
0.0
 11
347.669381457
 21
334.6913016939
 31
0.0
  0
DIMENSION
  5
DE
  8
0
  6
CONTINUOUS
 62
     7
  2
_D
 10
386.169381457
 20
348.1913016939
 30
0.0
 11
210.718075935
 21
348.1913016939
 31
0.0
 70
   160
  1
Min <> - >Max 530
  3
SLDDIMSTYLE0
 13
59.2486290872
 23
327.287818899
 33
0.0
 14
386.169381457
 24
335.8913016939
 34
0.0
  0
LINE
  5
EB
  8
0
  6
CONTINUOUS
 62
     7
 10
358.619381457
 20
170.309929052
 30
0.0
 11
358.669381457
 21
170.309929052
 31
0.0
  0
LINE
  5
EC
  8
0
  6
CONTINUOUS
 62
     7
 10
358.669381457
 20
180.309929052
 30
0.0
 11
358.619381457
 21
180.309929052
 31
0.0
  0
LINE
  5
ED
  8
0
  6
CONTINUOUS
 62
     7
 10
358.619381457
 20
136.309929052
 30
0.0
 11
358.669381457
 21
136.309929052
 31
0.0
  0
LINE
  5
EE
  8
0
  6
CONTINUOUS
 62
     7
 10
358.669381457
 20
146.309929052
 30
0.0
 11
358.619381457
 21
146.309929052
 31
0.0
  0
ARC
  5
EF
  8
0
  6
CONTINUOUS
 62
     7
 10
357.919381457
 20
164.059929052
 30
0.0
 40
0.7500000000000568
 50
0.0
 51
180.0
  0
ARC
  5
F0
  8
0
  6
CONTINUOUS
 62
     7
 10
357.919381457
 20
152.559929052
 30
0.0
 40
0.7500000000000568
 50
180.0
 51
0.0
  0
LINE
  5
F1
  8
0
  6
CONTINUOUS
 62
     7
 10
356.669381457
 20
168.309929052
 30
0.0
 11
347.669381457
 21
168.309929052
 31
0.0
  0
LINE
  5
F2
  8
0
  6
CONTINUOUS
 62
     7
 10
347.669381457
 20
148.309929052
 30
0.0
 11
356.669381457
 21
148.309929052
 31
0.0
  0
ARC
  5
F3
  8
0
  6
CONTINUOUS
 62
     7
 10
347.669381457
 20
148.809929052
 30
0.0
 40
0.5
 50
180.0
 51
270.0
  0
ARC
  5
F4
  8
0
  6
CONTINUOUS
 62
     7
 10
347.669381457
 20
167.809929052
 30
0.0
 40
0.5
 50
90.0
 51
180.0
  0
ARC
  5
F5
  8
0
  6
CONTINUOUS
 62
     7
 10
356.669381457
 20
167.809929052
 30
0.0
 40
0.5
 50
0.0
 51
90.0
  0
ARC
  5
F6
  8
0
  6
CONTINUOUS
 62
     7
 10
356.669381457
 20
148.809929052
 30
0.0
 40
0.5
 50
270.0
 51
0.0
  0
LINE
  5
F7
  8
0
  6
CONTINUOUS
 62
     7
 10
60.669381457
 20
150.809929052
 30
0.0
 11
61.669381457
 21
150.809929052
 31
0.0
  0
LINE
  5
F8
  8
0
  6
CONTINUOUS
 62
     7
 10
61.669381457
 20
165.809929052
 30
0.0
 11
60.669381457
 21
165.809929052
 31
0.0
  0
ARC
  5
F9
  8
0
  6
CONTINUOUS
 62
     7
 10
79.2486290872
 20
158.2134118469
 30
0.0
 40
20.00000000000002
 50
180.0
 51
201.7263573307
  0
ARC
  5
FA
  8
0
  6
CONTINUOUS
 62
     7
 10
79.2486290872
 20
158.406446257
 30
0.0
 40
20.00000000000002
 50
158.2736426693
 51
180.0
  0
LINE
  5
FB
  8
0
  6
CONTINUOUS
 62
     7
 10
59.2486290872
 20
158.406446257
 30
0.0
 11
59.2486290872
 21
158.2134118469
 31
0.0
  0
LINE
  5
FC
  8
0
  6
CONTINUOUS
 62
     7
 10
347.169381457
 20
165.809929052
 30
0.0
 11
61.669381457
 21
165.809929052
 31
0.0
  0
LINE
  5
FD
  8
0
  6
CONTINUOUS
 62
     7
 10
61.669381457
 20
150.809929052
 30
0.0
 11
347.169381457
 21
150.809929052
 31
0.0
  0
LINE
  5
FE
  8
0
  6
CONTINUOUS
 62
     7
 10
358.619381457
 20
170.309929052
 30
0.0
 11
358.619381457
 21
180.309929052
 31
0.0
  0
LINE
  5
FF
  8
0
  6
CONTINUOUS
 62
     7
 10
358.619381457
 20
136.309929052
 30
0.0
 11
358.619381457
 21
146.309929052
 31
0.0
  0
LINE
  5
100
  8
0
  6
CONTINUOUS
 62
     7
 10
386.169381457
 20
180.809929052
 30
0.0
 11
386.869381457
 21
180.809929052
 31
0.0
  0
LINE
  5
101
  8
0
  6
CONTINUOUS
 62
     7
 10
386.869381457
 20
180.809929052
 30
0.0
 11
386.869381457
 21
173.809929052
 31
0.0
  0
LINE
  5
102
  8
0
  6
CONTINUOUS
 62
     7
 10
386.869381457
 20
142.809929052
 30
0.0
 11
386.869381457
 21
173.809929052
 31
0.0
  0
LINE
  5
103
  8
0
  6
CONTINUOUS
 62
     7
 10
386.869381457
 20
135.809929052
 30
0.0
 11
386.169381457
 21
135.809929052
 31
0.0
  0
LINE
  5
104
  8
0
  6
CONTINUOUS
 62
     7
 10
386.869381457
 20
142.809929052
 30
0.0
 11
386.869381457
 21
135.809929052
 31
0.0
  0
LINE
  5
105
  8
0
  6
CONTINUOUS
 62
     7
 10
347.169381457
 20
148.809929052
 30
0.0
 11
347.169381457
 21
167.809929052
 31
0.0
  0
LINE
  5
106
  8
0
  6
CONTINUOUS
 62
     7
 10
357.169381457
 20
167.809929052
 30
0.0
 11
357.169381457
 21
148.809929052
 31
0.0
  0
LINE
  5
107
  8
0
  6
CONTINUOUS
 62
     7
 10
60.669381457
 20
150.809929052
 30
0.0
 11
60.669381457
 21
165.809929052
 31
0.0
  0
LINE
  5
108
  8
0
  6
CONTINUOUS
 62
     7
 10
61.669381457
 20
150.809929052
 30
0.0
 11
61.669381457
 21
165.809929052
 31
0.0
  0
ARC
  5
109
  8
0
  6
CONTINUOUS
 62
     7
 10
360.669381457
 20
182.309929052
 30
0.0
 40
2.0
 50
90.0
 51
180.0
  0
LINE
  5
10A
  8
0
  6
CONTINUOUS
 62
     7
 10
360.669381457
 20
184.309929052
 30
0.0
 11
360.669381457
 21
184.009929052
 31
0.0
  0
ARC
  5
10B
  8
0
  6
CONTINUOUS
 62
     7
 10
360.669381457
 20
182.309929052
 30
0.0
 40
1.700000000000017
 50
90.0
 51
180.0
  0
LINE
  5
10C
  8
0
  6
CONTINUOUS
 62
     7
 10
358.669381457
 20
182.309929052
 30
0.0
 11
358.969381457
 21
182.309929052
 31
0.0
  0
LINE
  5
10D
  8
0
  6
CONTINUOUS
 62
     7
 10
364.369381457
 20
132.609929052
 30
0.0
 11
364.369381457
 21
184.009929052
 31
0.0
  0
LINE
  5
10E
  8
0
  6
CONTINUOUS
 62
     7
 10
364.369381457
 20
184.009929052
 30
0.0
 11
364.669381457
 21
184.009929052
 31
0.0
  0
LINE
  5
10F
  8
0
  6
CONTINUOUS
 62
     7
 10
364.669381457
 20
184.009929052
 30
0.0
 11
364.669381457
 21
132.609929052
 31
0.0
  0
LINE
  5
110
  8
0
  6
CONTINUOUS
 62
     7
 10
364.369381457
 20
132.609929052
 30
0.0
 11
364.669381457
 21
132.609929052
 31
0.0
  0
LINE
  5
111
  8
0
  6
CONTINUOUS
 62
     7
 10
360.669381457
 20
184.309929052
 30
0.0
 11
364.369381457
 21
184.309929052
 31
0.0
  0
LINE
  5
112
  8
0
  6
CONTINUOUS
 62
     7
 10
364.369381457
 20
184.309929052
 30
0.0
 11
364.369381457
 21
184.009929052
 31
0.0
  0
LINE
  5
113
  8
0
  6
CONTINUOUS
 62
     7
 10
364.369381457
 20
184.009929052
 30
0.0
 11
360.669381457
 21
184.009929052
 31
0.0
  0
ARC
  5
114
  8
0
  6
CONTINUOUS
 62
     7
 10
364.369381457
 20
184.009929052
 30
0.0
 40
0.2999999999999829
 50
0.0
 51
90.0
  0
ARC
  5
115
  8
0
  6
CONTINUOUS
 62
     7
 10
360.669381457
 20
134.309929052
 30
0.0
 40
1.700000000000017
 50
180.0
 51
270.0
  0
LINE
  5
116
  8
0
  6
CONTINUOUS
 62
     7
 10
358.969381457
 20
182.309929052
 30
0.0
 11
358.969381457
 21
134.309929052
 31
0.0
  0
LINE
  5
117
  8
0
  6
CONTINUOUS
 62
     7
 10
360.669381457
 20
132.609929052
 30
0.0
 11
364.369381457
 21
132.609929052
 31
0.0
  0
LINE
  5
118
  8
0
  6
CONTINUOUS
 62
     7
 10
358.669381457
 20
134.309929052
 30
0.0
 11
358.669381457
 21
182.309929052
 31
0.0
  0
LINE
  5
119
  8
0
  6
CONTINUOUS
 62
     7
 10
358.669381457
 20
134.309929052
 30
0.0
 11
358.969381457
 21
134.309929052
 31
0.0
  0
LINE
  5
11A
  8
0
  6
CONTINUOUS
 62
     7
 10
360.669381457
 20
132.609929052
 30
0.0
 11
360.669381457
 21
132.309929052
 31
0.0
  0
ARC
  5
11B
  8
0
  6
CONTINUOUS
 62
     7
 10
360.669381457
 20
134.309929052
 30
0.0
 40
2.0
 50
180.0
 51
270.0
  0
ARC
  5
11C
  8
0
  6
CONTINUOUS
 62
     7
 10
364.369381457
 20
132.609929052
 30
0.0
 40
0.2999999999999829
 50
270.0
 51
0.0
  0
LINE
  5
11D
  8
0
  6
CONTINUOUS
 62
     7
 10
364.369381457
 20
132.609929052
 30
0.0
 11
364.369381457
 21
132.309929052
 31
0.0
  0
LINE
  5
11E
  8
0
  6
CONTINUOUS
 62
     7
 10
364.369381457
 20
132.309929052
 30
0.0
 11
360.669381457
 21
132.309929052
 31
0.0
  0
LINE
  5
11F
  8
0
  6
CONTINUOUS
 62
     7
 10
364.669381457
 20
184.309929052
 30
0.0
 11
366.169381457
 21
184.309929052
 31
0.0
  0
LINE
  5
120
  8
0
  6
CONTINUOUS
 62
     7
 10
366.169381457
 20
184.009929052
 30
0.0
 11
364.669381457
 21
184.009929052
 31
0.0
  0
LINE
  5
121
  8
0
  6
CONTINUOUS
 62
     7
 10
366.169381457
 20
184.309929052
 30
0.0
 11
366.169381457
 21
184.009929052
 31
0.0
  0
LINE
  5
122
  8
0
  6
CONTINUOUS
 62
     7
 10
364.669381457
 20
184.009929052
 30
0.0
 11
364.669381457
 21
184.309929052
 31
0.0
  0
LINE
  5
123
  8
0
  6
CONTINUOUS
 62
     7
 10
364.669381457
 20
132.609929052
 30
0.0
 11
366.169381457
 21
132.609929052
 31
0.0
  0
LINE
  5
124
  8
0
  6
CONTINUOUS
 62
     7
 10
366.169381457
 20
132.609929052
 30
0.0
 11
366.169381457
 21
184.009929052
 31
0.0
  0
LINE
  5
125
  8
0
  6
CONTINUOUS
 62
     7
 10
366.169381457
 20
132.309929052
 30
0.0
 11
364.669381457
 21
132.309929052
 31
0.0
  0
LINE
  5
126
  8
0
  6
CONTINUOUS
 62
     7
 10
366.169381457
 20
132.609929052
 30
0.0
 11
366.169381457
 21
132.309929052
 31
0.0
  0
LINE
  5
127
  8
0
  6
CONTINUOUS
 62
     7
 10
364.669381457
 20
132.309929052
 30
0.0
 11
364.669381457
 21
132.609929052
 31
0.0
  0
LINE
  5
128
  8
0
  6
CONTINUOUS
 62
     7
 10
385.869381457
 20
132.609929052
 30
0.0
 11
385.869381457
 21
184.009929052
 31
0.0
  0
LINE
  5
129
  8
0
  6
CONTINUOUS
 62
     7
 10
385.869381457
 20
184.009929052
 30
0.0
 11
386.169381457
 21
184.009929052
 31
0.0
  0
LINE
  5
12A
  8
0
  6
CONTINUOUS
 62
     7
 10
386.169381457
 20
184.009929052
 30
0.0
 11
386.169381457
 21
132.609929052
 31
0.0
  0
LINE
  5
12B
  8
0
  6
CONTINUOUS
 62
     7
 10
385.869381457
 20
132.609929052
 30
0.0
 11
386.169381457
 21
132.609929052
 31
0.0
  0
LINE
  5
12C
  8
0
  6
CONTINUOUS
 62
     7
 10
385.869381457
 20
184.009929052
 30
0.0
 11
366.469381457
 21
184.009929052
 31
0.0
  0
LINE
  5
12D
  8
0
  6
CONTINUOUS
 62
     7
 10
366.469381457
 20
184.009929052
 30
0.0
 11
366.469381457
 21
184.309929052
 31
0.0
  0
LINE
  5
12E
  8
0
  6
CONTINUOUS
 62
     7
 10
366.469381457
 20
184.309929052
 30
0.0
 11
385.869381457
 21
184.309929052
 31
0.0
  0
LINE
  5
12F
  8
0
  6
CONTINUOUS
 62
     7
 10
385.869381457
 20
184.009929052
 30
0.0
 11
385.869381457
 21
184.309929052
 31
0.0
  0
ARC
  5
130
  8
0
  6
CONTINUOUS
 62
     7
 10
385.869381457
 20
184.009929052
 30
0.0
 40
0.3000000000000114
 50
0.0
 51
90.0
  0
LINE
  5
131
  8
0
  6
CONTINUOUS
 62
     7
 10
366.469381457
 20
184.009929052
 30
0.0
 11
366.469381457
 21
132.609929052
 31
0.0
  0
LINE
  5
132
  8
0
  6
CONTINUOUS
 62
     7
 10
366.469381457
 20
132.609929052
 30
0.0
 11
385.869381457
 21
132.609929052
 31
0.0
  0
ARC
  5
133
  8
0
  6
CONTINUOUS
 62
     7
 10
366.469381457
 20
184.009929052
 30
0.0
 40
0.3000000000000114
 50
90.0
 51
180.0
  0
LINE
  5
134
  8
0
  6
CONTINUOUS
 62
     7
 10
366.169381457
 20
184.009929052
 30
0.0
 11
366.469381457
 21
184.009929052
 31
0.0
  0
LINE
  5
135
  8
0
  6
CONTINUOUS
 62
     7
 10
366.169381457
 20
132.609929052
 30
0.0
 11
366.469381457
 21
132.609929052
 31
0.0
  0
ARC
  5
136
  8
0
  6
CONTINUOUS
 62
     7
 10
385.869381457
 20
132.609929052
 30
0.0
 40
0.3000000000000114
 50
270.0
 51
0.0
  0
LINE
  5
137
  8
0
  6
CONTINUOUS
 62
     7
 10
385.869381457
 20
132.309929052
 30
0.0
 11
385.869381457
 21
132.609929052
 31
0.0
  0
LINE
  5
138
  8
0
  6
CONTINUOUS
 62
     7
 10
385.869381457
 20
132.309929052
 30
0.0
 11
366.469381457
 21
132.309929052
 31
0.0
  0
LINE
  5
139
  8
0
  6
CONTINUOUS
 62
     7
 10
366.469381457
 20
132.309929052
 30
0.0
 11
366.469381457
 21
132.609929052
 31
0.0
  0
ARC
  5
13A
  8
0
  6
CONTINUOUS
 62
     7
 10
366.469381457
 20
132.609929052
 30
0.0
 40
0.3000000000000114
 50
180.0
 51
270.0
  0
LINE
  5
13B
  8
0
  6
CONTINUOUS
 62
     7
 10
364.369381457
 20
184.309929052
 30
0.0
 11
364.669381457
 21
184.309929052
 31
0.0
  0
LINE
  5
13C
  8
0
  6
CONTINUOUS
 62
     7
 10
366.169381457
 20
184.309929052
 30
0.0
 11
366.469381457
 21
184.309929052
 31
0.0
  0
LINE
  5
13D
  8
0
  6
CONTINUOUS
 62
     7
 10
366.469381457
 20
132.309929052
 30
0.0
 11
366.169381457
 21
132.309929052
 31
0.0
  0
LINE
  5
13E
  8
0
  6
CONTINUOUS
 62
     7
 10
364.669381457
 20
132.309929052
 30
0.0
 11
364.369381457
 21
132.309929052
 31
0.0
  0
LINE
  5
13F
  8
0
  6
CONTINUOUS
 62
     8
 10
386.869381457
 20
173.809929052
 30
0.0
 11
386.169381457
 21
173.809929052
 31
0.0
  0
LINE
  5
140
  8
0
  6
CONTINUOUS
 62
     8
 10
386.169381457
 20
142.809929052
 30
0.0
 11
386.869381457
 21
142.809929052
 31
0.0
  0
LINE
  5
141
  8
0
  6
CONTINUOUS
 62
     8
 10
356.669381457
 20
148.309929052
 30
0.0
 11
356.669381457
 21
168.309929052
 31
0.0
  0
LINE
  5
142
  8
0
  6
CONTINUOUS
 62
     8
 10
347.669381457
 20
168.309929052
 30
0.0
 11
347.669381457
 21
148.309929052
 31
0.0
  0
DIMENSION
  5
143
  8
0
  6
CONTINUOUS
 62
     7
  2
_D_1
 10
402.3890551677
 20
132.309929052
 30
0.0
 11
402.3890551677
 21
156.7496203758
 31
0.0
 70
   160
  1
<>
  3
SLDDIMSTYLE1
 13
385.869381457
 23
184.309929052
 33
0.0
 14
385.869381457
 24
132.309929052
 34
0.0
 50
90.0
  0
DIMENSION
  5
14E
  8
0
  6
CONTINUOUS
 62
     7
  2
_D_2
 10
59.2486290872
 20
194.309929052
 30
0.0
 11
191.5949681443
 21
194.309929052
 31
0.0
 70
   160
  1
<>
  3
SLDDIMSTYLE0
 13
358.669381457
 23
182.309929052
 33
0.0
 14
59.2486290872
 24
158.406446257
 34
0.0
  0
DIMENSION
  5
158
  8
0
  6
CONTINUOUS
 62
     7
  2
_D_3
 10
386.169381457
 20
194.309929052
 30
0.0
 11
371.6935429049
 21
194.309929052
 31
0.0
 70
   160
  1
<>
  3
SLDDIMSTYLE1
 13
358.669381457
 23
182.309929052
 33
0.0
 14
386.169381457
 24
184.009929052
 34
0.0
  0
LINE
  5
162
  8
0
  6
CONTINUOUS
 62
     7
 10
486.9807523593
 20
326.3195028433
 30
0.0
 11
486.9807523593
 21
328.0631007531
 31
0.0
  0
CIRCLE
  5
163
  8
0
  6
CONTINUOUS
 62
     7
 10
488.4907531395
 20
327.1913016939
 30
0.0
 40
5.0
  0
LINE
  5
164
  8
0
  6
CONTINUOUS
 62
     7
 10
490.0007530033
 20
328.0631007531
 30
0.0
 11
490.0007530033
 21
326.3195028433
 31
0.0
  0
LINE
  5
165
  8
0
  6
CONTINUOUS
 62
     7
 10
490.0007530033
 20
326.3195028433
 30
0.0
 11
488.4907522156
 21
325.4477038884
 31
0.0
  0
LINE
  5
166
  8
0
  6
CONTINUOUS
 62
     7
 10
486.9807523593
 20
328.0631007531
 30
0.0
 11
488.4907522156
 21
328.934899708
 31
0.0
  0
LINE
  5
167
  8
0
  6
CONTINUOUS
 62
     7
 10
488.4907522156
 20
328.934899708
 30
0.0
 11
490.0007530033
 21
328.0631007531
 31
0.0
  0
LINE
  5
168
  8
0
  6
CONTINUOUS
 62
     7
 10
488.4907522156
 20
325.4477038884
 30
0.0
 11
486.9807523593
 21
326.3195028433
 31
0.0
  0
ARC
  5
169
  8
0
  6
CONTINUOUS
 62
     7
 10
488.4907531395
 20
327.1913016939
 30
0.0
 40
1.509999999999991
 50
180.0
 51
240.0
  0
ARC
  5
16A
  8
0
  6
CONTINUOUS
 62
     7
 10
488.4907531395
 20
327.1913016939
 30
0.0
 40
1.509999999999991
 50
120.0
 51
180.0
  0
ARC
  5
16B
  8
0
  6
CONTINUOUS
 62
     7
 10
488.4907531395
 20
327.1913016939
 30
0.0
 40
1.50999999999999
 50
60.0
 51
120.0
  0
ARC
  5
16C
  8
0
  6
CONTINUOUS
 62
     7
 10
488.4907531395
 20
327.1913016939
 30
0.0
 40
1.509999999999991
 50
300.0
 51
0.0
  0
ARC
  5
16D
  8
0
  6
CONTINUOUS
 62
     7
 10
488.4907531395
 20
327.1913016939
 30
0.0
 40
1.50999999999999
 50
240.0
 51
300.0
  0
ARC
  5
16E
  8
0
  6
CONTINUOUS
 62
     7
 10
488.4907531395
 20
327.1913016939
 30
0.0
 40
1.509999999999991
 50
0.0
 51
60.0
  0
LINE
  5
16F
  8
0
  6
CONTINUOUS
 62
     7
 10
520.9807532757
 20
326.3195028433
 30
0.0
 11
520.9807532757
 21
328.0631007531
 31
0.0
  0
LINE
  5
170
  8
0
  6
CONTINUOUS
 62
     7
 10
522.4907540634
 20
325.4477038884
 30
0.0
 11
520.9807532757
 21
326.3195028433
 31
0.0
  0
LINE
  5
171
  8
0
  6
CONTINUOUS
 62
     7
 10
520.9807532757
 20
328.0631007531
 30
0.0
 11
522.4907540634
 21
328.934899708
 31
0.0
  0
CIRCLE
  5
172
  8
0
  6
CONTINUOUS
 62
     7
 10
522.4907531395
 20
327.1913016939
 30
0.0
 40
5.0
  0
LINE
  5
173
  8
0
  6
CONTINUOUS
 62
     7
 10
524.0007539197
 20
326.3195028433
 30
0.0
 11
522.4907540634
 21
325.4477038884
 31
0.0
  0
LINE
  5
174
  8
0
  6
CONTINUOUS
 62
     7
 10
522.4907540634
 20
328.934899708
 30
0.0
 11
524.0007539197
 21
328.0631007531
 31
0.0
  0
LINE
  5
175
  8
0
  6
CONTINUOUS
 62
     7
 10
524.0007539197
 20
328.0631007531
 30
0.0
 11
524.0007539197
 21
326.3195028433
 31
0.0
  0
ARC
  5
176
  8
0
  6
CONTINUOUS
 62
     7
 10
522.4907531395
 20
327.1913016939
 30
0.0
 40
1.509999999999991
 50
120.0
 51
180.0
  0
ARC
  5
177
  8
0
  6
CONTINUOUS
 62
     7
 10
522.4907531395
 20
327.1913016939
 30
0.0
 40
1.510000000000105
 50
300.0
 51
0.0
  0
ARC
  5
178
  8
0
  6
CONTINUOUS
 62
     7
 10
522.4907531395
 20
327.1913016939
 30
0.0
 40
1.50999999999999
 50
240.0
 51
300.0
  0
ARC
  5
179
  8
0
  6
CONTINUOUS
 62
     7
 10
522.4907531395
 20
327.1913016939
 30
0.0
 40
1.509999999999991
 50
180.0
 51
240.0
  0
ARC
  5
17A
  8
0
  6
CONTINUOUS
 62
     7
 10
522.4907531395
 20
327.1913016939
 30
0.0
 40
1.50999999999999
 50
60.0
 51
120.0
  0
ARC
  5
17B
  8
0
  6
CONTINUOUS
 62
     7
 10
522.4907531395
 20
327.1913016939
 30
0.0
 40
1.510000000000105
 50
0.0
 51
60.0
  0
CIRCLE
  5
17C
  8
0
  6
CONTINUOUS
 62
     7
 10
505.4907531395
 20
327.1913016939
 30
0.0
 40
10.0
  0
CIRCLE
  5
17D
  8
0
  6
CONTINUOUS
 62
     7
 10
505.4907531395
 20
327.1913016939
 30
0.0
 40
9.5
  0
CIRCLE
  5
17E
  8
0
  6
CONTINUOUS
 62
     7
 10
505.4907531395
 20
327.1913016939
 30
0.0
 40
7.5
  0
CIRCLE
  5
17F
  8
0
  6
CONTINUOUS
 62
     7
 10
522.4907531395
 20
327.1913016939
 30
0.0
 40
5.249999999999886
  0
LINE
  5
180
  8
0
  6
CONTINUOUS
 62
     7
 10
529.4907533481
 20
316.1913017414
 30
0.0
 11
481.4907529309
 21
316.1913017414
 31
0.0
  0
LINE
  5
181
  8
0
  6
CONTINUOUS
 62
     7
 10
481.4907529309
 20
316.1913017414
 30
0.0
 11
481.4907529309
 21
316.4913016975
 31
0.0
  0
LINE
  5
182
  8
0
  6
CONTINUOUS
 62
     7
 10
481.4907529309
 20
316.4913016975
 30
0.0
 11
529.4907533481
 21
316.4913016975
 31
0.0
  0
LINE
  5
183
  8
0
  6
CONTINUOUS
 62
     7
 10
529.4907533481
 20
316.1913017414
 30
0.0
 11
529.4907533481
 21
316.4913016975
 31
0.0
  0
LINE
  5
184
  8
0
  6
CONTINUOUS
 62
     7
 10
529.4907533481
 20
337.8913022482
 30
0.0
 11
481.4907529309
 21
337.8913022482
 31
0.0
  0
LINE
  5
185
  8
0
  6
CONTINUOUS
 62
     7
 10
529.4907533481
 20
316.4913016975
 30
0.0
 11
529.4907533481
 21
337.8913022482
 31
0.0
  0
LINE
  5
186
  8
0
  6
CONTINUOUS
 62
     7
 10
481.4907529309
 20
337.8913022482
 30
0.0
 11
481.4907529309
 21
316.4913016975
 31
0.0
  0
CIRCLE
  5
187
  8
0
  6
CONTINUOUS
 62
     7
 10
488.4907531395
 20
327.1913016939
 30
0.0
 40
5.249999999999943
  0
LINE
  5
188
  8
0
  6
CONTINUOUS
 62
     7
 10
529.4907533481
 20
338.1913017386
 30
0.0
 11
531.1907523229
 21
338.1913017386
 31
0.0
  0
ARC
  5
189
  8
0
  6
CONTINUOUS
 62
     7
 10
531.1907531395
 20
337.8913016939
 30
0.0
 40
0.3000000000000114
 50
0.0
 51
90.0
  0
LINE
  5
18A
  8
0
  6
CONTINUOUS
 62
     7
 10
531.4907536759
 20
337.8913022482
 30
0.0
 11
529.4907533481
 21
337.8913022482
 31
0.0
  0
LINE
  5
18B
  8
0
  6
CONTINUOUS
 62
     7
 10
529.4907533481
 20
337.8913022482
 30
0.0
 11
529.4907533481
 21
338.1913017386
 31
0.0
  0
LINE
  5
18C
  8
0
  6
CONTINUOUS
 62
     7
 10
481.4907529309
 20
337.8913022482
 30
0.0
 11
479.4907526031
 21
337.8913022482
 31
0.0
  0
LINE
  5
18D
  8
0
  6
CONTINUOUS
 62
     7
 10
479.4907526031
 20
316.4913016975
 30
0.0
 11
481.4907529309
 21
316.4913016975
 31
0.0
  0
LINE
  5
18E
  8
0
  6
CONTINUOUS
 62
     7
 10
479.4907526031
 20
316.4913016975
 30
0.0
 11
479.4907526031
 21
337.8913022482
 31
0.0
  0
ARC
  5
18F
  8
0
  6
CONTINUOUS
 62
     7
 10
479.7907531395
 20
337.8913016939
 30
0.0
 40
0.3000000000000114
 50
90.0
 51
180.0
  0
LINE
  5
190
  8
0
  6
CONTINUOUS
 62
     7
 10
479.7907539561
 20
338.1913017386
 30
0.0
 11
481.4907529309
 21
338.1913017386
 31
0.0
  0
LINE
  5
191
  8
0
  6
CONTINUOUS
 62
     7
 10
481.4907529309
 20
337.8913022482
 30
0.0
 11
481.4907529309
 21
338.1913017386
 31
0.0
  0
LINE
  5
192
  8
0
  6
CONTINUOUS
 62
     7
 10
481.4907529309
 20
316.1913017414
 30
0.0
 11
479.7907539561
 21
316.1913017414
 31
0.0
  0
ARC
  5
193
  8
0
  6
CONTINUOUS
 62
     7
 10
479.7907531395
 20
316.4913016939
 30
0.0
 40
0.3000000000000114
 50
180.0
 51
270.0
  0
LINE
  5
194
  8
0
  6
CONTINUOUS
 62
     7
 10
481.4907529309
 20
338.1913017386
 30
0.0
 11
529.4907533481
 21
338.1913017386
 31
0.0
  0
LINE
  5
195
  8
0
  6
CONTINUOUS
 62
     7
 10
531.1907523229
 20
316.1913017414
 30
0.0
 11
529.4907533481
 21
316.1913017414
 31
0.0
  0
LINE
  5
196
  8
0
  6
CONTINUOUS
 62
     7
 10
529.4907533481
 20
316.4913016975
 30
0.0
 11
531.4907536759
 21
316.4913016975
 31
0.0
  0
ARC
  5
197
  8
0
  6
CONTINUOUS
 62
     7
 10
531.1907531395
 20
316.4913016939
 30
0.0
 40
0.3000000000000682
 50
270.0
 51
0.0
  0
LINE
  5
198
  8
0
  6
CONTINUOUS
 62
     7
 10
531.4907536759
 20
337.8913022482
 30
0.0
 11
531.4907536759
 21
316.4913016975
 31
0.0
  0
LINE
  5
199
  8
0
  6
CONTINUOUS
 62
     7
 10
479.7907539561
 20
316.1913017414
 30
0.0
 11
479.7907539561
 21
315.6139514197
 31
0.0
  0
POLYLINE
  5
19A
  8
0
  6
CONTINUOUS
 62
     7
 66
     1
 10
0.0
 20
0.0
 30
0.0
 70
   128
  0
VERTEX
  5
1C8
  8
0
  6
CONTINUOUS
 62
     7
 10
479.7907539561
 20
315.6139514197
 30
0.0
  0
VERTEX
  5
1C9
  8
0
  6
CONTINUOUS
 62
     7
 10
479.7386594966
 20
315.6113200551
 30
0.0
  0
VERTEX
  5
1CA
  8
0
  6
CONTINUOUS
 62
     7
 10
479.6881464228
 20
315.6035058803
 30
0.0
  0
VERTEX
  5
1CB
  8
0
  6
CONTINUOUS
 62
     7
 10
479.6407532796
 20
315.5907463536
 30
0.0
  0
VERTEX
  5
1CC
  8
0
  6
CONTINUOUS
 62
     7
 10
479.5979161664
 20
315.5734291379
 30
0.0
  0
VERTEX
  5
1CD
  8
0
  6
CONTINUOUS
 62
     7
 10
479.5609389349
 20
315.5520804306
 30
0.0
  0
VERTEX
  5
1CE
  8
0
  6
CONTINUOUS
 62
     7
 10
479.5309447601
 20
315.5273488977
 30
0.0
  0
VERTEX
  5
1CF
  8
0
  6
CONTINUOUS
 62
     7
 10
479.5088444754
 20
315.499985971
 30
0.0
  0
VERTEX
  5
1D0
  8
0
  6
CONTINUOUS
 62
     7
 10
479.4953104957
 20
315.4708230889
 30
0.0
  0
VERTEX
  5
1D1
  8
0
  6
CONTINUOUS
 62
     7
 10
479.4907526031
 20
315.4407463465
 30
0.0
  0
SEQEND
  5
1DC
  8
0
  6
CONTINUOUS
 62
     7
  0
LINE
  5
19B
  8
0
  6
CONTINUOUS
 62
     7
 10
479.4907526031
 20
315.4407463465
 30
0.0
 11
479.4907526031
 21
315.891301669
 31
0.0
  0
ARC
  5
19C
  8
0
  6
CONTINUOUS
 62
     7
 10
479.7907529616
 20
315.8913013829
 30
0.0
 40
0.3000003584955948
 50
89.999810059
 51
179.999945371
  0
LINE
  5
19D
  8
0
  6
CONTINUOUS
 62
     7
 10
531.4907536759
 20
315.4407463465
 30
0.0
 11
531.4907536759
 21
312.9913017058
 31
0.0
  0
ARC
  5
19E
  8
0
  6
CONTINUOUS
 62
     7
 10
531.190753516
 20
312.9913019098
 30
0.0
 40
0.300000159988441
 50
269.9997721468
 51
359.9999610495
  0
LINE
  5
19F
  8
0
  6
CONTINUOUS
 62
     7
 10
531.1907523229
 20
312.6913017498
 30
0.0
 11
531.1907523229
 21
315.6139514197
 31
0.0
  0
POLYLINE
  5
1A0
  8
0
  6
CONTINUOUS
 62
     7
 66
     1
 10
0.0
 20
0.0
 30
0.0
 70
   128
  0
VERTEX
  5
1D2
  8
0
  6
CONTINUOUS
 62
     7
 10
531.4907536759
 20
315.4407463465
 30
0.0
  0
VERTEX
  5
1D3
  8
0
  6
CONTINUOUS
 62
     7
 10
531.4861957833
 20
315.4708230889
 30
0.0
  0
VERTEX
  5
1D4
  8
0
  6
CONTINUOUS
 62
     7
 10
531.4726618036
 20
315.499985971
 30
0.0
  0
VERTEX
  5
1D5
  8
0
  6
CONTINUOUS
 62
     7
 10
531.4505615189
 20
315.5273488977
 30
0.0
  0
VERTEX
  5
1D6
  8
0
  6
CONTINUOUS
 62
     7
 10
531.4205673441
 20
315.5520804306
 30
0.0
  0
VERTEX
  5
1D7
  8
0
  6
CONTINUOUS
 62
     7
 10
531.3835901126
 20
315.5734291379
 30
0.0
  0
VERTEX
  5
1D8
  8
0
  6
CONTINUOUS
 62
     7
 10
531.3407529994
 20
315.5907463536
 30
0.0
  0
VERTEX
  5
1D9
  8
0
  6
CONTINUOUS
 62
     7
 10
531.2933598563
 20
315.6035058803
 30
0.0
  0
VERTEX
  5
1DA
  8
0
  6
CONTINUOUS
 62
     7
 10
531.2428467825
 20
315.6113200551
 30
0.0
  0
VERTEX
  5
1DB
  8
0
  6
CONTINUOUS
 62
     7
 10
531.1907523229
 20
315.6139514197
 30
0.0
  0
SEQEND
  5
1DD
  8
0
  6
CONTINUOUS
 62
     7
  0
LINE
  5
1A1
  8
0
  6
CONTINUOUS
 62
     7
 10
531.1907523229
 20
315.6139514197
 30
0.0
 11
531.1907523229
 21
316.1913017414
 31
0.0
  0
ARC
  5
1A2
  8
0
  6
CONTINUOUS
 62
     7
 10
531.1907533175
 20
315.8913013829
 30
0.0
 40
0.3000003584956175
 50
0.000054629
 51
90.000189941
  0
LINE
  5
1A3
  8
0
  6
CONTINUOUS
 62
     7
 10
531.4907536759
 20
315.891301669
 30
0.0
 11
531.4907536759
 21
315.4407463465
 31
0.0
  0
LINE
  5
1A4
  8
0
  6
CONTINUOUS
 62
     7
 10
479.7907539561
 20
315.6139514197
 30
0.0
 11
479.7907539561
 21
312.6913017498
 31
0.0
  0
ARC
  5
1A5
  8
0
  6
CONTINUOUS
 62
     7
 10
479.7907527631
 20
312.9913019098
 30
0.0
 40
0.3000001599884979
 50
180.0000389505
 51
270.0002278532
  0
LINE
  5
1A6
  8
0
  6
CONTINUOUS
 62
     7
 10
479.4907526031
 20
312.9913017058
 30
0.0
 11
479.4907526031
 21
315.4407463465
 31
0.0
  0
LINE
  5
1A7
  8
0
  6
CONTINUOUS
 62
     7
 10
531.1907523229
 20
315.6139514197
 30
0.0
 11
479.7907539561
 21
315.6139514197
 31
0.0
  0
LINE
  5
1A8
  8
0
  6
CONTINUOUS
 62
     7
 10
479.7907539561
 20
312.6913017498
 30
0.0
 11
531.1907523229
 21
312.6913017498
 31
0.0
  0
LINE
  5
1A9
  8
0
  6
CONTINUOUS
 62
     7
 10
531.4907536759
 20
309.6913017237
 30
0.0
 11
531.1907523229
 21
309.6913017237
 31
0.0
  0
LINE
  5
1AA
  8
0
  6
CONTINUOUS
 62
     7
 10
531.1907523229
 20
309.6913017237
 30
0.0
 11
531.1907523229
 21
312.6913017498
 31
0.0
  0
LINE
  5
1AB
  8
0
  6
CONTINUOUS
 62
     7
 10
531.4907536759
 20
312.9913017058
 30
0.0
 11
531.4907536759
 21
309.6913017237
 31
0.0
  0
LINE
  5
1AC
  8
0
  6
CONTINUOUS
 62
     7
 10
479.7907539561
 20
312.6913017498
 30
0.0
 11
479.7907539561
 21
309.6913017237
 31
0.0
  0
LINE
  5
1AD
  8
0
  6
CONTINUOUS
 62
     7
 10
479.4907526031
 20
309.6913017237
 30
0.0
 11
479.7907539561
 21
309.6913017237
 31
0.0
  0
LINE
  5
1AE
  8
0
  6
CONTINUOUS
 62
     7
 10
479.4907526031
 20
309.6913017237
 30
0.0
 11
479.4907526031
 21
312.9913017058
 31
0.0
  0
LINE
  5
1AF
  8
0
  6
CONTINUOUS
 62
     7
 10
531.1907523229
 20
309.6913017237
 30
0.0
 11
479.7907539561
 21
309.6913017237
 31
0.0
  0
LINE
  5
1B0
  8
0
  6
CONTINUOUS
 62
     7
 10
479.4907526031
 20
315.891301669
 30
0.0
 11
479.4907526031
 21
316.4913016975
 31
0.0
  0
LINE
  5
1B1
  8
0
  6
CONTINUOUS
 62
     7
 10
531.4907536759
 20
294.4913014674
 30
0.0
 11
531.1907523229
 21
294.4913014674
 31
0.0
  0
LINE
  5
1B2
  8
0
  6
CONTINUOUS
 62
     7
 10
531.1907523229
 20
294.4913014674
 30
0.0
 11
531.1907523229
 21
309.6913017237
 31
0.0
  0
LINE
  5
1B3
  8
0
  6
CONTINUOUS
 62
     7
 10
531.4907536759
 20
309.6913017237
 30
0.0
 11
531.4907536759
 21
294.4913014674
 31
0.0
  0
LINE
  5
1B4
  8
0
  6
CONTINUOUS
 62
     7
 10
531.1907523229
 20
294.191301977
 30
0.0
 11
531.1907523229
 21
294.4913014674
 31
0.0
  0
ARC
  5
1B5
  8
0
  6
CONTINUOUS
 62
     7
 10
531.1907531395
 20
294.4913016939
 30
0.0
 40
0.3000000000000682
 50
270.0
 51
0.0
  0
LINE
  5
1B6
  8
0
  6
CONTINUOUS
 62
     7
 10
479.7907539561
 20
309.6913017237
 30
0.0
 11
479.7907539561
 21
294.4913014674
 31
0.0
  0
LINE
  5
1B7
  8
0
  6
CONTINUOUS
 62
     7
 10
479.4907526031
 20
294.4913014674
 30
0.0
 11
479.7907539561
 21
294.4913014674
 31
0.0
  0
LINE
  5
1B8
  8
0
  6
CONTINUOUS
 62
     7
 10
479.4907526031
 20
294.4913014674
 30
0.0
 11
479.4907526031
 21
309.6913017237
 31
0.0
  0
LINE
  5
1B9
  8
0
  6
CONTINUOUS
 62
     7
 10
531.4907536759
 20
316.4913016975
 30
0.0
 11
531.4907536759
 21
315.891301669
 31
0.0
  0
LINE
  5
1BA
  8
0
  6
CONTINUOUS
 62
     7
 10
531.1907523229
 20
294.191301977
 30
0.0
 11
479.7907539561
 21
294.191301977
 31
0.0
  0
LINE
  5
1BB
  8
0
  6
CONTINUOUS
 62
     7
 10
479.7907539561
 20
294.191301977
 30
0.0
 11
479.7907539561
 21
294.4913014674
 31
0.0
  0
LINE
  5
1BC
  8
0
  6
CONTINUOUS
 62
     7
 10
479.7907539561
 20
294.4913014674
 30
0.0
 11
531.1907523229
 21
294.4913014674
 31
0.0
  0
ARC
  5
1BD
  8
0
  6
CONTINUOUS
 62
     7
 10
479.7907531395
 20
294.4913016939
 30
0.0
 40
0.3000000000000114
 50
180.0
 51
270.0
  0
DIMENSION
  5
1BE
  8
0
  6
CONTINUOUS
 62
     7
  2
_D_4
 10
467.3556406503
 20
294.1913016939
 30
0.0
 11
467.3556406503
 21
314.6433803118
 31
0.0
 70
   160
  1
<>
  3
SLDDIMSTYLE1
 13
481.4907531395
 23
338.1913016939
 33
0.0
 14
479.7907531395
 24
294.1913016939
 34
0.0
 50
90.0
  0
ENDSEC
  0
EOF
