  0
SECTION
  2
HEADER
  9
$ACADVER
  1
AC1015
  9
$ACADMAINTVER
 70
     6
  9
$DWGCODEPAGE
  3
ANSI_1252
  9
$INSBASE
 10
0.0
 20
0.0
 30
0.0
  9
$EXTMIN
 10
0.0
 20
0.0
 30
0.0
  9
$EXTMAX
 10
594.0
 20
420.0
 30
0.0
  9
$LIMMIN
 10
0.0
 20
0.0
  9
$LIMMAX
 10
594.0
 20
420.0
  9
$ORTHOMODE
 70
     0
  9
$REGENMODE
 70
     1
  9
$FILLMODE
 70
     1
  9
$QTEXTMODE
 70
     0
  9
$MIRRTEXT
 70
     1
  9
$LTSCALE
 40
1.0
  9
$ATTMODE
 70
     1
  9
$TEXTSIZE
 40
3.5
  9
$TRACEWID
 40
1.0
  9
$TEXTSTYLE
  7
Standard
  9
$CLAYER
  8
0
  9
$CELTYPE
  6
ByLayer
  9
$CECOLOR
 62
   256
  9
$CELTSCALE
 40
1.0
  9
$DISPSILH
 70
     0
  9
$DIMSCALE
 40
1.0
  9
$DIMASZ
 40
3.5
  9
$DIMEXO
 40
1.0
  9
$DIMDLI
 40
3.75
  9
$DIMRND
 40
0.0
  9
$DIMDLE
 40
0.0
  9
$DIMEXE
 40
1.0
  9
$DIMTP
 40
0.0
  9
$DIMTM
 40
0.0
  9
$DIMTXT
 40
3.5
  9
$DIMCEN
 40
2.5
  9
$DIMTSZ
 40
0.0
  9
$DIMTOL
 70
     0
  9
$DIMLIM
 70
     0
  9
$DIMTIH
 70
     1
  9
$DIMTOH
 70
     1
  9
$DIMSE1
 70
     0
  9
$DIMSE2
 70
     0
  9
$DIMTAD
 70
     1
  9
$DIMZIN
 70
     0
  9
$DIMBLK
  1

  9
$DIMASO
 70
     1
  9
$DIMSHO
 70
     1
  9
$DIMPOST
  1

  9
$DIMAPOST
  1

  9
$DIMALT
 70
     0
  9
$DIMALTD
 70
     3
  9
$DIMALTF
 40
0.0393700787
  9
$DIMLFAC
 40
1.0
  9
$DIMTOFL
 70
     1
  9
$DIMTVP
 40
0.0
  9
$DIMTIX
 70
     0
  9
$DIMSOXD
 70
     0
  9
$DIMSAH
 70
     0
  9
$DIMBLK1
  1

  9
$DIMBLK2
  1

  9
$DIMSTYLE
  2
ISO-25
  9
$DIMCLRD
 70
     0
  9
$DIMCLRE
 70
     0
  9
$DIMCLRT
 70
     0
  9
$DIMTFAC
 40
1.0
  9
$DIMGAP
 40
4.0
  9
$DIMJUST
 70
     0
  9
$DIMSD1
 70
     0
  9
$DIMSD2
 70
     0
  9
$DIMTOLJ
 70
     0
  9
$DIMTZIN
 70
     0
  9
$DIMALTZ
 70
     0
  9
$DIMALTTZ
 70
     0
  9
$DIMUPT
 70
     0
  9
$DIMDEC
 70
     1
  9
$DIMTDEC
 70
     1
  9
$DIMALTU
 70
     2
  9
$DIMALTTD
 70
     3
  9
$DIMTXSTY
  7
Standard
  9
$DIMAUNIT
 70
     0
  9
$DIMADEC
 70
     1
  9
$DIMALTRND
 40
0.0
  9
$DIMAZIN
 70
     0
  9
$DIMDSEP
 70
    44
  9
$DIMATFIT
 70
     3
  9
$DIMFRAC
 70
     0
  9
$DIMLDRBLK
  1

  9
$DIMLUNIT
 70
     2
  9
$DIMLWD
 70
    -2
  9
$DIMLWE
 70
    -2
  9
$DIMTMOVE
 70
     0
  9
$LUNITS
 70
     2
  9
$LUPREC
 70
     1
  9
$SKETCHINC
 40
1.0
  9
$FILLETRAD
 40
10.0
  9
$AUNITS
 70
     0
  9
$AUPREC
 70
     1
  9
$MENU
  1
.
  9
$ELEVATION
 40
0.0
  9
$PELEVATION
 40
0.0
  9
$THICKNESS
 40
0.0
  9
$LIMCHECK
 70
     0
  9
$CHAMFERA
 40
10.0
  9
$CHAMFERB
 40
10.0
  9
$CHAMFERC
 40
20.0
  9
$CHAMFERD
 40
0.0
  9
$SKPOLY
 70
     0
  9
$TDCREATE
 40
2456156.449392303
  9
$TDUCREATE
 40
2456156.36605897
  9
$TDUPDATE
 40
2456156.449392315
  9
$TDUUPDATE
 40
2456156.366058982
  9
$TDINDWG
 40
0.0000000116
  9
$TDUSRTIMER
 40
0.0000000116
  9
$USRTIMER
 70
     1
  9
$ANGBASE
 50
0.0
  9
$ANGDIR
 70
     0
  9
$PDMODE
 70
     0
  9
$PDSIZE
 40
-1.0
  9
$PLINEWID
 40
0.0
  9
$SPLFRAME
 70
     0
  9
$SPLINETYPE
 70
     6
  9
$SPLINESEGS
 70
     8
  9
$HANDSEED
  5
348
  9
$SURFTAB1
 70
     6
  9
$SURFTAB2
 70
     6
  9
$SURFTYPE
 70
     6
  9
$SURFU
 70
     6
  9
$SURFV
 70
     6
  9
$UCSBASE
  2

  9
$UCSNAME
  2

  9
$UCSORG
 10
0.0
 20
0.0
 30
0.0
  9
$UCSXDIR
 10
1.0
 20
0.0
 30
0.0
  9
$UCSYDIR
 10
0.0
 20
1.0
 30
0.0
  9
$UCSORTHOREF
  2

  9
$UCSORTHOVIEW
 70
     0
  9
$UCSORGTOP
 10
0.0
 20
0.0
 30
0.0
  9
$UCSORGBOTTOM
 10
0.0
 20
0.0
 30
0.0
  9
$UCSORGLEFT
 10
0.0
 20
0.0
 30
0.0
  9
$UCSORGRIGHT
 10
0.0
 20
0.0
 30
0.0
  9
$UCSORGFRONT
 10
0.0
 20
0.0
 30
0.0
  9
$UCSORGBACK
 10
0.0
 20
0.0
 30
0.0
  9
$PUCSBASE
  2

  9
$PUCSNAME
  2

  9
$PUCSORG
 10
0.0
 20
0.0
 30
0.0
  9
$PUCSXDIR
 10
1.0
 20
0.0
 30
0.0
  9
$PUCSYDIR
 10
0.0
 20
1.0
 30
0.0
  9
$PUCSORTHOREF
  2

  9
$PUCSORTHOVIEW
 70
     0
  9
$PUCSORGTOP
 10
0.0
 20
0.0
 30
0.0
  9
$PUCSORGBOTTOM
 10
0.0
 20
0.0
 30
0.0
  9
$PUCSORGLEFT
 10
0.0
 20
0.0
 30
0.0
  9
$PUCSORGRIGHT
 10
0.0
 20
0.0
 30
0.0
  9
$PUCSORGFRONT
 10
0.0
 20
0.0
 30
0.0
  9
$PUCSORGBACK
 10
0.0
 20
0.0
 30
0.0
  9
$USERI1
 70
     0
  9
$USERI2
 70
     0
  9
$USERI3
 70
     0
  9
$USERI4
 70
     0
  9
$USERI5
 70
     0
  9
$USERR1
 40
0.0
  9
$USERR2
 40
0.0
  9
$USERR3
 40
0.0
  9
$USERR4
 40
0.0
  9
$USERR5
 40
0.0
  9
$WORLDVIEW
 70
     1
  9
$SHADEDGE
 70
     3
  9
$SHADEDIF
 70
    70
  9
$TILEMODE
 70
     1
  9
$MAXACTVP
 70
    64
  9
$PINSBASE
 10
0.0
 20
0.0
 30
0.0
  9
$PLIMCHECK
 70
     0
  9
$PEXTMIN
 10
1.0000000000E+20
 20
1.0000000000E+20
 30
1.0000000000E+20
  9
$PEXTMAX
 10
-1.0000000000E+20
 20
-1.0000000000E+20
 30
-1.0000000000E+20
  9
$PLIMMIN
 10
0.0
 20
0.0
  9
$PLIMMAX
 10
420.0
 20
297.0
  9
$UNITMODE
 70
     0
  9
$VISRETAIN
 70
     1
  9
$PLINEGEN
 70
     0
  9
$PSLTSCALE
 70
     1
  9
$TREEDEPTH
 70
  3020
  9
$CMLSTYLE
  2
Standard
  9
$CMLJUST
 70
     0
  9
$CMLSCALE
 40
20.0
  9
$PROXYGRAPHICS
 70
     1
  9
$MEASUREMENT
 70
     1
  9
$CELWEIGHT
370
    -1
  9
$ENDCAPS
280
     0
  9
$JOINSTYLE
280
     0
  9
$LWDISPLAY
290
     1
  9
$INSUNITS
 70
     4
  9
$HYPERLINKBASE
  1

  9
$STYLESHEET
  1

  9
$XEDIT
290
     1
  9
$CEPSNTYPE
380
     0
  9
$PSTYLEMODE
290
     1
  9
$FINGERPRINTGUID
  2
{38C182D7-C395-4041-BC72-45C9860C3280}
  9
$VERSIONGUID
  2
{FAEB1C32-E019-11D5-929B-00C0DF256EC4}
  9
$EXTNAMES
290
     1
  9
$PSVPSCALE
 40
0.0
  9
$OLESTARTUP
290
     0
  0
ENDSEC
  0
SECTION
  2
CLASSES
  0
CLASS
  1
ACDBDICTIONARYWDFLT
  2
AcDbDictionaryWithDefault
  3
ObjectDBX Classes
 90
        0
280
     0
281
     0
  0
CLASS
  1
VISUALSTYLE
  2
AcDbVisualStyle
  3
ObjectDBX Classes
 90
     4095
280
     0
281
     0
  0
CLASS
  1
MATERIAL
  2
AcDbMaterial
  3
ObjectDBX Classes
 90
     1153
280
     0
281
     0
  0
CLASS
  1
ACDBPLACEHOLDER
  2
AcDbPlaceHolder
  3
ObjectDBX Classes
 90
        0
280
     0
281
     0
  0
CLASS
  1
LAYOUT
  2
AcDbLayout
  3
ObjectDBX Classes
 90
        0
280
     0
281
     0
  0
ENDSEC
  0
SECTION
  2
TABLES
  0
TABLE
  2
VPORT
  5
8
330
0
100
AcDbSymbolTable
 70
     1
  0
VPORT
  5
29
330
8
100
AcDbSymbolTableRecord
100
AcDbViewportTableRecord
  2
*Active
 70
     0
 10
0.0
 20
0.0
 11
1.0
 21
1.0
 12
297.0
 22
210.0
 13
0.0
 23
0.0
 14
10.0
 24
10.0
 15
10.0
 25
10.0
 16
0.0
 26
0.0
 36
1.0
 17
0.0
 27
0.0
 37
0.0
 40
420.0
 41
1.4142857143
 42
50.0
 43
0.0
 44
0.0
 50
0.0
 51
0.0
 71
     0
 72
  2000
 73
     1
 74
     3
 75
     0
 76
     0
 77
     0
 78
     0
281
     0
 65
     1
110
0.0
120
0.0
130
0.0
111
1.0
121
0.0
131
0.0
112
0.0
122
1.0
132
0.0
 79
     0
146
0.0
  0
ENDTAB
  0
TABLE
  2
LTYPE
  5
5
330
0
100
AcDbSymbolTable
 70
     6
  0
LTYPE
  5
14
330
5
100
AcDbSymbolTableRecord
100
AcDbLinetypeTableRecord
  2
ByBlock
 70
     0
  3

 72
    65
 73
     0
 40
0.0
  0
LTYPE
  5
15
330
5
100
AcDbSymbolTableRecord
100
AcDbLinetypeTableRecord
  2
ByLayer
 70
     0
  3

 72
    65
 73
     0
 40
0.0
  0
LTYPE
  5
16
330
5
100
AcDbSymbolTableRecord
100
AcDbLinetypeTableRecord
  2
Continuous
 70
     0
  3
Solid line
 72
    65
 73
     0
 40
0.0
  0
LTYPE
  5
3F
330
5
100
AcDbSymbolTableRecord
100
AcDbLinetypeTableRecord
  2
HIDDEN
 70
     0
  3
Hidden __ __ __ __ __ __ __ __ __ __ __ __ __ __
 72
    65
 73
     2
 40
1.905
 49
1.27
 74
     0
 49
-0.635
 74
     0
  0
LTYPE
  5
40
330
5
100
AcDbSymbolTableRecord
100
AcDbLinetypeTableRecord
  2
PHANTOM
 70
     0
  3
Phantom ______  __  __  ______  __  __  ______
 72
    65
 73
     6
 40
12.7
 49
6.35
 74
     0
 49
-1.27
 74
     0
 49
1.27
 74
     0
 49
-1.27
 74
     0
 49
1.27
 74
     0
 49
-1.27
 74
     0
  0
LTYPE
  5
41
330
5
100
AcDbSymbolTableRecord
100
AcDbLinetypeTableRecord
  2
CENTER
 70
     0
  3
Center ____ _ ____ _ ____ _ ____ _ ____ _ ____
 72
    65
 73
     4
 40
10.16
 49
6.35
 74
     0
 49
-1.27
 74
     0
 49
1.27
 74
     0
 49
-1.27
 74
     0
  0
LTYPE
  5
42
330
5
100
AcDbSymbolTableRecord
100
AcDbLinetypeTableRecord
  2
CENTERX2
 70
     0
  3
Center (2x) ________  __  ________  __  _____
 72
    65
 73
     4
 40
20.32
 49
12.7
 74
     0
 49
-2.54
 74
     0
 49
2.54
 74
     0
 49
-2.54
 74
     0
  0
LTYPE
  5
43
330
5
100
AcDbSymbolTableRecord
100
AcDbLinetypeTableRecord
  2
DOT2
 70
     0
  3
Dot (.5x) ........................................
 72
    65
 73
     2
 40
0.635
 49
0.0
 74
     0
 49
-0.635
 74
     0
  0
ENDTAB
  0
TABLE
  2
LAYER
  5
2
330
0
100
AcDbSymbolTable
 70
     5
  0
LAYER
  5
10
330
2
100
AcDbSymbolTableRecord
100
AcDbLayerTableRecord
  2
0
 70
     0
 62
     7
  6
Continuous
370
    -3
390
F
  0
LAYER
  5
44
330
2
100
AcDbSymbolTableRecord
100
AcDbLayerTableRecord
  2
VORLAGE
 70
     0
 62
    -1
  6
Continuous
370
    -3
390
F
  0
LAYER
  5
45
330
2
100
AcDbSymbolTableRecord
100
AcDbLayerTableRecord
  2
RAHMEN
 70
     0
 62
   179
  6
Continuous
370
    -3
390
F
  0
LAYER
  5
46
330
2
100
AcDbSymbolTableRecord
100
AcDbLayerTableRecord
  2
KOPF
 70
     0
 62
     7
  6
Continuous
370
    -3
390
F
  0
LAYER
  5
47
330
2
100
AcDbSymbolTableRecord
100
AcDbLayerTableRecord
  2
TEMP
 70
     0
 62
    -7
  6
Continuous
370
    -3
390
F
  0
ENDTAB
  0
TABLE
  2
STYLE
  5
3
330
0
100
AcDbSymbolTable
 70
     2
  0
STYLE
  5
11
330
3
100
AcDbSymbolTableRecord
100
AcDbTextStyleTableRecord
  2
Standard
 70
     0
 40
0.0
 41
1.0
 50
0.0
 71
     0
 42
2.5
  3
txt
  4

  0
STYLE
  5
AB
330
3
100
AcDbSymbolTableRecord
100
AcDbTextStyleTableRecord
  2
SLDTEXTSTYLE0
 70
     0
 40
0.0
 41
0.605
 50
0.0
 71
     0
 42
0.2
  3
TXT
  4

  0
ENDTAB
  0
TABLE
  2
VIEW
  5
6
330
0
100
AcDbSymbolTable
 70
     0
  0
ENDTAB
  0
TABLE
  2
UCS
  5
7
330
0
100
AcDbSymbolTable
 70
     0
  0
ENDTAB
  0
TABLE
  2
APPID
  5
9
330
0
100
AcDbSymbolTable
 70
     1
  0
APPID
  5
12
330
9
100
AcDbSymbolTableRecord
100
AcDbRegAppTableRecord
  2
ACAD
 70
     0
  0
ENDTAB
  0
TABLE
  2
DIMSTYLE
  5
A
330
0
100
AcDbSymbolTable
 70
     2
100
AcDbDimStyleTable
  0
DIMSTYLE
105
27
330
A
100
AcDbSymbolTableRecord
100
AcDbDimStyleTableRecord
  2
ISO-25
 70
     0
 41
2.5
 42
0.625
 43
3.75
 44
1.25
 73
     0
 74
     0
 77
     1
 78
     8
140
2.5
141
2.5
143
0.0393700787
147
0.625
171
     3
172
     1
178
     0
271
     2
272
     2
274
     3
278
    44
283
     0
284
     8
340
11
  0
DIMSTYLE
105
AC
102
{ACAD_REACTORS
330
AA
330
16D
330
179
330
185
102
}
330
A
100
AcDbSymbolTableRecord
100
AcDbDimStyleTableRecord
  2
SLDDIMSTYLE0
 70
     0
 41
3.5
 44
0.0
 45
0.000000001
 73
     0
 74
     0
 77
     1
 78
    12
 79
     3
140
3.5
147
0.875
173
     1
178
     0
271
     1
272
     1
276
     2
284
    12
340
AB
  0
ENDTAB
  0
TABLE
  2
BLOCK_RECORD
  5
1
330
0
100
AcDbSymbolTable
 70
    11
  0
BLOCK_RECORD
  5
1F
330
1
100
AcDbSymbolTableRecord
100
AcDbBlockTableRecord
  2
*Model_Space
340
22
  0
BLOCK_RECORD
  5
1B
330
1
100
AcDbSymbolTableRecord
100
AcDbBlockTableRecord
  2
*Paper_Space
340
1E
  0
BLOCK_RECORD
  5
23
330
1
100
AcDbSymbolTableRecord
100
AcDbBlockTableRecord
  2
*Paper_Space0
340
26
  0
BLOCK_RECORD
  5
AD
330
1
100
AcDbSymbolTableRecord
100
AcDbBlockTableRecord
  2
*D1
340
0
  0
BLOCK_RECORD
  5
16E
330
1
100
AcDbSymbolTableRecord
100
AcDbBlockTableRecord
  2
*D2
340
0
  0
BLOCK_RECORD
  5
17A
330
1
100
AcDbSymbolTableRecord
100
AcDbBlockTableRecord
  2
*D3
340
0
  0
BLOCK_RECORD
  5
186
330
1
100
AcDbSymbolTableRecord
100
AcDbBlockTableRecord
  2
*D4
340
0
  0
BLOCK_RECORD
  5
191
330
1
100
AcDbSymbolTableRecord
100
AcDbBlockTableRecord
  2
SW_NOTE_0
340
0
102
{BLKREFS
331
196
102
}
  0
BLOCK_RECORD
  5
197
330
1
100
AcDbSymbolTableRecord
100
AcDbBlockTableRecord
  2
SW_CENTERMARKSYMBOL_0
340
0
102
{BLKREFS
331
1A2
102
}
  0
BLOCK_RECORD
  5
1A3
330
1
100
AcDbSymbolTableRecord
100
AcDbBlockTableRecord
  2
SW_CENTERMARKSYMBOL_1
340
0
102
{BLKREFS
331
1AE
102
}
  0
BLOCK_RECORD
  5
1AF
330
1
100
AcDbSymbolTableRecord
100
AcDbBlockTableRecord
  2
SW_CENTERMARKSYMBOL_2
340
0
102
{BLKREFS
331
1BA
102
}
  0
BLOCK_RECORD
  5
1BB
330
1
100
AcDbSymbolTableRecord
100
AcDbBlockTableRecord
  2
SW_CENTERMARKSYMBOL_3
340
0
102
{BLKREFS
331
1C6
102
}
  0
BLOCK_RECORD
  5
337
330
1
100
AcDbSymbolTableRecord
100
AcDbBlockTableRecord
  2
SW_CENTERMARKSYMBOL_4
340
0
102
{BLKREFS
331
342
102
}
  0
ENDTAB
  0
ENDSEC
  0
SECTION
  2
BLOCKS
  0
BLOCK
  5
20
330
1F
100
AcDbEntity
  8
0
100
AcDbBlockBegin
  2
*Model_Space
 70
     0
 10
0.0
 20
0.0
 30
0.0
  3
*Model_Space
  1

  0
ENDBLK
  5
21
330
1F
100
AcDbEntity
  8
0
100
AcDbBlockEnd
  0
BLOCK
  5
1C
330
1B
100
AcDbEntity
 67
     1
  8
0
100
AcDbBlockBegin
  2
*Paper_Space
 70
     0
 10
0.0
 20
0.0
 30
0.0
  3
*Paper_Space
  1

  0
ENDBLK
  5
1D
330
1B
100
AcDbEntity
 67
     1
  8
0
100
AcDbBlockEnd
  0
BLOCK
  5
24
330
23
100
AcDbEntity
  8
0
100
AcDbBlockBegin
  2
*Paper_Space0
 70
     0
 10
0.0
 20
0.0
 30
0.0
  3
*Paper_Space0
  1

  0
ENDBLK
  5
25
330
23
100
AcDbEntity
  8
0
100
AcDbBlockEnd
  0
BLOCK
  5
AE
330
AD
100
AcDbEntity
  8
0
100
AcDbBlockBegin
  2
*D1
 70
     1
 10
0.0
 20
0.0
 30
0.0
  3
*D1
  1

  0
ARC
  5
B0
330
AD
100
AcDbEntity
  8
0
  6
Continuous
 62
     7
370
     0
100
AcDbCircle
 10
485.5642411241
 20
283.1898839618
 30
0.0
 40
6.001759964177335
100
AcDbArc
 50
243.4349488229
 51
296.5650511771
  0
ARC
  5
B1
330
AD
100
AcDbEntity
  8
0
  6
Continuous
 62
     7
370
     0
100
AcDbCircle
 10
485.5642411241
 20
280.9724747465
 30
0.0
 40
6.001759964177233
100
AcDbArc
 50
63.4349488229
 51
116.5650511771
  0
SOLID
  5
B2
330
AD
100
AcDbEntity
  8
0
  6
Continuous
 62
     7
370
     0
100
AcDbTrace
 10
488.248309777
 20
305.3646660412
 30
0.0
 11
487.348309777
 21
301.8646660412
 31
0.0
 12
489.148309777
 22
301.8646660412
 32
0.0
 13
489.148309777
 23
301.8646660412
 33
0.0
  0
SOLID
  5
B3
330
AD
100
AcDbEntity
  8
0
  6
Continuous
 62
     7
370
     0
100
AcDbTrace
 10
488.248309777
 20
261.3646660412
 30
0.0
 11
489.148309777
 21
264.8646660412
 31
0.0
 12
487.348309777
 22
264.8646660412
 32
0.0
 13
487.348309777
 23
264.8646660412
 33
0.0
  0
LINE
  5
B4
330
AD
100
AcDbEntity
  8
0
  6
Continuous
 62
     7
370
     0
100
AcDbLine
 10
480.4547195091
 20
305.3646660412
 30
0.0
 11
489.248309777
 21
305.3646660412
 31
0.0
  0
LINE
  5
B5
330
AD
100
AcDbEntity
  8
0
  6
Continuous
 62
     7
370
     0
100
AcDbLine
 10
474.4547195091
 20
261.3646660412
 30
0.0
 11
489.248309777
 21
261.3646660412
 31
0.0
  0
LINE
  5
B6
330
AD
100
AcDbEntity
  8
0
  6
Continuous
 62
     7
370
     0
100
AcDbLine
 10
488.248309777
 20
305.3646660412
 30
0.0
 11
488.248309777
 21
261.3646660412
 31
0.0
  0
MTEXT
  5
B7
330
AD
100
AcDbEntity
  8
0
  6
Continuous
 62
     7
370
     0
100
AcDbMText
 10
483.736572455
 20
279.409246656
 30
0.0
 40
3.5
 41
0.0
 71
     1
 72
     1
  1
44
  7
SLDTEXTSTYLE0
 11
-7.044195017643634E-15
 21
1.0
 31
0.0
 73
     1
 44
1.0
  0
ENDBLK
  5
AF
330
AD
100
AcDbEntity
  8
0
100
AcDbBlockEnd
  0
BLOCK
  5
16F
330
16E
100
AcDbEntity
  8
0
100
AcDbBlockBegin
  2
*D2
 70
     1
 10
0.0
 20
0.0
 30
0.0
  3
*D2
  1

  0
ARC
  5
171
330
16E
100
AcDbEntity
  8
0
  6
Continuous
 62
     7
370
     0
100
AcDbCircle
 10
310.6775502442
 20
403.5225960022
 30
0.0
 40
6.001759964177309
100
AcDbArc
 50
153.4349488229
 51
206.5650511771
  0
ARC
  5
172
330
16E
100
AcDbEntity
  8
0
  6
Continuous
 62
     7
370
     0
100
AcDbCircle
 10
311.1340963863
 20
403.5225960022
 30
0.0
 40
6.001759964177309
100
AcDbArc
 50
333.4349488229
 51
26.5650511771
  0
SOLID
  5
173
330
16E
100
AcDbEntity
  8
0
  6
Continuous
 62
     7
370
     0
100
AcDbTrace
 10
129.3918604226
 20
400.8385273493
 30
0.0
 11
132.8918604226
 21
399.9385273493
 31
0.0
 12
132.8918604226
 22
401.7385273493
 32
0.0
 13
132.8918604226
 23
401.7385273493
 33
0.0
  0
SOLID
  5
174
330
16E
100
AcDbEntity
  8
0
  6
Continuous
 62
     7
370
     0
100
AcDbTrace
 10
479.7547195091
 20
400.8385273493
 30
0.0
 11
476.2547195091
 21
401.7385273493
 31
0.0
 12
476.2547195091
 22
399.9385273493
 32
0.0
 13
476.2547195091
 23
399.9385273493
 33
0.0
  0
LINE
  5
175
330
16E
100
AcDbEntity
  8
0
  6
Continuous
 62
     7
370
     0
100
AcDbLine
 10
129.3918604226
 20
396.7463745973
 30
0.0
 11
129.3918604226
 21
401.8385273493
 31
0.0
  0
LINE
  5
176
330
16E
100
AcDbEntity
  8
0
  6
Continuous
 62
     7
370
     0
100
AcDbLine
 10
479.7547195091
 20
396.7463745973
 30
0.0
 11
479.7547195091
 21
401.8385273493
 31
0.0
  0
LINE
  5
177
330
16E
100
AcDbEntity
  8
0
  6
Continuous
 62
     7
370
     0
100
AcDbLine
 10
129.3918604226
 20
400.8385273493
 30
0.0
 11
479.7547195091
 21
400.8385273493
 31
0.0
  0
MTEXT
  5
178
330
16E
100
AcDbEntity
  8
0
  6
Continuous
 62
     7
370
     0
100
AcDbMText
 10
306.8969129384
 20
405.3502646713
 30
0.0
 40
3.5
 41
0.0
 71
     1
 72
     1
  1
638
  7
SLDTEXTSTYLE0
 73
     1
 44
1.0
  0
ENDBLK
  5
170
330
16E
100
AcDbEntity
  8
0
100
AcDbBlockEnd
  0
BLOCK
  5
17B
330
17A
100
AcDbEntity
  8
0
100
AcDbBlockBegin
  2
*D3
 70
     1
 10
0.0
 20
0.0
 30
0.0
  3
*D3
  1

  0
ARC
  5
17D
330
17A
100
AcDbEntity
  8
0
  6
Continuous
 62
     7
370
     0
100
AcDbCircle
 10
310.6775502442
 20
360.510797289
 30
0.0
 40
6.001759964177309
100
AcDbArc
 50
153.4349488229
 51
206.5650511771
  0
ARC
  5
17E
330
17A
100
AcDbEntity
  8
0
  6
Continuous
 62
     7
370
     0
100
AcDbCircle
 10
311.1340963863
 20
360.510797289
 30
0.0
 40
6.001759964177309
100
AcDbArc
 50
333.4349488229
 51
26.5650511771
  0
SOLID
  5
17F
330
17A
100
AcDbEntity
  8
0
  6
Continuous
 62
     7
370
     0
100
AcDbTrace
 10
161.3918604226
 20
357.8267286361
 30
0.0
 11
164.8918604226
 21
356.9267286361
 31
0.0
 12
164.8918604226
 22
358.7267286361
 32
0.0
 13
164.8918604226
 23
358.7267286361
 33
0.0
  0
SOLID
  5
180
330
17A
100
AcDbEntity
  8
0
  6
Continuous
 62
     7
370
     0
100
AcDbTrace
 10
447.7547195091
 20
357.8267286361
 30
0.0
 11
444.2547195091
 21
358.7267286361
 31
0.0
 12
444.2547195091
 22
356.9267286361
 32
0.0
 13
444.2547195091
 23
356.9267286361
 33
0.0
  0
LINE
  5
181
330
17A
100
AcDbEntity
  8
0
  6
Continuous
 62
     7
370
     0
100
AcDbLine
 10
161.3918604226
 20
370.5463745973
 30
0.0
 11
161.3918604226
 21
356.8267286361
 31
0.0
  0
LINE
  5
182
330
17A
100
AcDbEntity
  8
0
  6
Continuous
 62
     7
370
     0
100
AcDbLine
 10
447.7547195091
 20
370.5463745973
 30
0.0
 11
447.7547195091
 21
356.8267286361
 31
0.0
  0
LINE
  5
183
330
17A
100
AcDbEntity
  8
0
  6
Continuous
 62
     7
370
     0
100
AcDbLine
 10
161.3918604226
 20
357.8267286361
 30
0.0
 11
447.7547195091
 21
357.8267286361
 31
0.0
  0
MTEXT
  5
184
330
17A
100
AcDbEntity
  8
0
  6
Continuous
 62
     7
370
     0
100
AcDbMText
 10
306.8969129384
 20
362.3384659581
 30
0.0
 40
3.5
 41
0.0
 71
     1
 72
     1
  1
574
  7
SLDTEXTSTYLE0
 73
     1
 44
1.0
  0
ENDBLK
  5
17C
330
17A
100
AcDbEntity
  8
0
100
AcDbBlockEnd
  0
BLOCK
  5
187
330
186
100
AcDbEntity
  8
0
100
AcDbBlockBegin
  2
*D4
 70
     1
 10
0.0
 20
0.0
 30
0.0
  3
*D4
  1

  0
ARC
  5
189
330
186
100
AcDbEntity
  8
0
  6
Continuous
 62
     7
370
     0
100
AcDbCircle
 10
485.0962379275
 20
364.4217952292
 30
0.0
 40
6.001759964177309
100
AcDbArc
 50
243.4349488229
 51
296.5650511771
  0
ARC
  5
18A
330
186
100
AcDbEntity
  8
0
  6
Continuous
 62
     7
370
     0
100
AcDbCircle
 10
485.0962379275
 20
362.2043860139
 30
0.0
 40
6.001759964177284
100
AcDbArc
 50
63.4349488229
 51
116.5650511771
  0
SOLID
  5
18B
330
186
100
AcDbEntity
  8
0
  6
Continuous
 62
     7
370
     0
100
AcDbTrace
 10
487.7803065804
 20
396.0463745973
 30
0.0
 11
486.8803065804
 21
392.5463745973
 31
0.0
 12
488.6803065804
 22
392.5463745973
 32
0.0
 13
488.6803065804
 23
392.5463745973
 33
0.0
  0
SOLID
  5
18C
330
186
100
AcDbEntity
  8
0
  6
Continuous
 62
     7
370
     0
100
AcDbTrace
 10
487.7803065804
 20
325.0463745973
 30
0.0
 11
488.6803065804
 21
328.5463745973
 31
0.0
 12
486.8803065804
 22
328.5463745973
 32
0.0
 13
486.8803065804
 23
328.5463745973
 33
0.0
  0
LINE
  5
18D
330
186
100
AcDbEntity
  8
0
  6
Continuous
 62
     7
370
     0
100
AcDbLine
 10
480.4547195091
 20
396.0463745973
 30
0.0
 11
488.7803065804
 21
396.0463745973
 31
0.0
  0
LINE
  5
18E
330
186
100
AcDbEntity
  8
0
  6
Continuous
 62
     7
370
     0
100
AcDbLine
 10
474.4547195091
 20
325.0463745973
 30
0.0
 11
488.7803065804
 21
325.0463745973
 31
0.0
  0
LINE
  5
18F
330
186
100
AcDbEntity
  8
0
  6
Continuous
 62
     7
370
     0
100
AcDbLine
 10
487.7803065804
 20
396.0463745973
 30
0.0
 11
487.7803065804
 21
325.0463745973
 31
0.0
  0
MTEXT
  5
190
330
186
100
AcDbEntity
  8
0
  6
Continuous
 62
     7
370
     0
100
AcDbMText
 10
483.2685692583
 20
360.6411579233
 30
0.0
 40
3.5
 41
0.0
 71
     1
 72
     1
  1
71
  7
SLDTEXTSTYLE0
 11
-7.044195017643634E-15
 21
1.0
 31
0.0
 73
     1
 44
1.0
  0
ENDBLK
  5
188
330
186
100
AcDbEntity
  8
0
100
AcDbBlockEnd
  0
BLOCK
  5
192
330
191
100
AcDbEntity
  8
0
100
AcDbBlockBegin
  2
SW_NOTE_0
 70
     0
 10
0.0
 20
0.0
 30
0.0
  3
SW_NOTE_0
  1

  0
CIRCLE
  5
194
330
191
100
AcDbEntity
  8
0
  6
Continuous
 62
     0
370
     0
100
AcDbCircle
 10
2.6701134117
 20
2.5690556996
 30
0.0
 40
3.500645655103089
  0
MTEXT
  5
195
330
191
100
AcDbEntity
  8
0
  6
Continuous
 62
     0
370
     0
100
AcDbMText
 10
0.0
 20
4.5117370892
 30
0.0
 40
3.5
 41
0.0
 71
     1
 72
     1
  1
01
  7
SLDTEXTSTYLE0
 73
     1
 44
1.0
  0
ENDBLK
  5
193
330
191
100
AcDbEntity
  8
0
100
AcDbBlockEnd
  0
BLOCK
  5
198
330
197
100
AcDbEntity
  8
0
100
AcDbBlockBegin
  2
SW_CENTERMARKSYMBOL_0
 70
     0
 10
0.0
 20
0.0
 30
0.0
  3
SW_CENTERMARKSYMBOL_0
  1

  0
LINE
  5
19A
330
197
100
AcDbEntity
  8
0
  6
Continuous
 62
     0
370
     0
100
AcDbLine
 10
0.0
 20
0.0
 30
0.0
 11
0.0
 21
2.4999994785
 31
0.0
  0
LINE
  5
19B
330
197
100
AcDbEntity
  8
0
  6
Continuous
 62
     0
370
     0
100
AcDbLine
 10
0.0
 20
0.0
 30
0.0
 11
-2.4999976158
 21
0.0
 31
0.0
  0
LINE
  5
19C
330
197
100
AcDbEntity
  8
0
  6
Continuous
 62
     0
370
     0
100
AcDbLine
 10
0.0
 20
0.0
 30
0.0
 11
0.0
 21
-2.5000004098
 31
0.0
  0
LINE
  5
19D
330
197
100
AcDbEntity
  8
0
  6
Continuous
 62
     0
370
     0
100
AcDbLine
 10
0.0
 20
0.0
 30
0.0
 11
2.4999976158
 21
0.0
 31
0.0
  0
LINE
  5
19E
330
197
100
AcDbEntity
  8
0
  6
Continuous
 62
     0
370
     0
100
AcDbLine
 10
0.0
 20
4.9999989569
 30
0.0
 11
0.0
 21
5.4999999702
 31
0.0
  0
LINE
  5
19F
330
197
100
AcDbEntity
  8
0
  6
Continuous
 62
     0
370
     0
100
AcDbLine
 10
-4.9999952316
 20
0.0
 30
0.0
 11
-5.4999887943
 21
0.0
 31
0.0
  0
LINE
  5
1A0
330
197
100
AcDbEntity
  8
0
  6
Continuous
 62
     0
370
     0
100
AcDbLine
 10
0.0
 20
-4.9999998882
 30
0.0
 11
0.0
 21
-5.4999999702
 31
0.0
  0
LINE
  5
1A1
330
197
100
AcDbEntity
  8
0
  6
Continuous
 62
     0
370
     0
100
AcDbLine
 10
4.9999952316
 20
0.0
 30
0.0
 11
5.4999887943
 21
0.0
 31
0.0
  0
ENDBLK
  5
199
330
197
100
AcDbEntity
  8
0
100
AcDbBlockEnd
  0
BLOCK
  5
1A4
330
1A3
100
AcDbEntity
  8
0
100
AcDbBlockBegin
  2
SW_CENTERMARKSYMBOL_1
 70
     0
 10
0.0
 20
0.0
 30
0.0
  3
SW_CENTERMARKSYMBOL_1
  1

  0
LINE
  5
1A6
330
1A3
100
AcDbEntity
  8
0
  6
Continuous
 62
     0
370
     0
100
AcDbLine
 10
0.0
 20
0.0
 30
0.0
 11
0.0
 21
2.4999994785
 31
0.0
  0
LINE
  5
1A7
330
1A3
100
AcDbEntity
  8
0
  6
Continuous
 62
     0
370
     0
100
AcDbLine
 10
0.0
 20
0.0
 30
0.0
 11
-2.4999976158
 21
0.0
 31
0.0
  0
LINE
  5
1A8
330
1A3
100
AcDbEntity
  8
0
  6
Continuous
 62
     0
370
     0
100
AcDbLine
 10
0.0
 20
0.0
 30
0.0
 11
0.0
 21
-2.4999994785
 31
0.0
  0
LINE
  5
1A9
330
1A3
100
AcDbEntity
  8
0
  6
Continuous
 62
     0
370
     0
100
AcDbLine
 10
0.0
 20
0.0
 30
0.0
 11
2.4999976158
 21
0.0
 31
0.0
  0
LINE
  5
1AA
330
1A3
100
AcDbEntity
  8
0
  6
Continuous
 62
     0
370
     0
100
AcDbLine
 10
0.0
 20
4.9999989569
 30
0.0
 11
0.0
 21
5.9999991208
 31
0.0
  0
LINE
  5
1AB
330
1A3
100
AcDbEntity
  8
0
  6
Continuous
 62
     0
370
     0
100
AcDbLine
 10
-4.9999952316
 20
0.0
 30
0.0
 11
-6.0000121593
 21
0.0
 31
0.0
  0
LINE
  5
1AC
330
1A3
100
AcDbEntity
  8
0
  6
Continuous
 62
     0
370
     0
100
AcDbLine
 10
0.0
 20
-4.9999989569
 30
0.0
 11
0.0
 21
-6.0000009835
 31
0.0
  0
LINE
  5
1AD
330
1A3
100
AcDbEntity
  8
0
  6
Continuous
 62
     0
370
     0
100
AcDbLine
 10
4.9999952316
 20
0.0
 30
0.0
 11
6.0000121593
 21
0.0
 31
0.0
  0
ENDBLK
  5
1A5
330
1A3
100
AcDbEntity
  8
0
100
AcDbBlockEnd
  0
BLOCK
  5
1B0
330
1AF
100
AcDbEntity
  8
0
100
AcDbBlockBegin
  2
SW_CENTERMARKSYMBOL_2
 70
     0
 10
0.0
 20
0.0
 30
0.0
  3
SW_CENTERMARKSYMBOL_2
  1

  0
LINE
  5
1B2
330
1AF
100
AcDbEntity
  8
0
  6
Continuous
 62
     0
370
     0
100
AcDbLine
 10
0.0
 20
0.0
 30
0.0
 11
0.0
 21
2.4999994785
 31
0.0
  0
LINE
  5
1B3
330
1AF
100
AcDbEntity
  8
0
  6
Continuous
 62
     0
370
     0
100
AcDbLine
 10
0.0
 20
0.0
 30
0.0
 11
-2.4999976158
 21
0.0
 31
0.0
  0
LINE
  5
1B4
330
1AF
100
AcDbEntity
  8
0
  6
Continuous
 62
     0
370
     0
100
AcDbLine
 10
0.0
 20
0.0
 30
0.0
 11
0.0
 21
-2.5000004098
 31
0.0
  0
LINE
  5
1B5
330
1AF
100
AcDbEntity
  8
0
  6
Continuous
 62
     0
370
     0
100
AcDbLine
 10
0.0
 20
0.0
 30
0.0
 11
2.4999976158
 21
0.0
 31
0.0
  0
LINE
  5
1B6
330
1AF
100
AcDbEntity
  8
0
  6
Continuous
 62
     0
370
     0
100
AcDbLine
 10
0.0
 20
4.9999989569
 30
0.0
 11
0.0
 21
5.4999999702
 31
0.0
  0
LINE
  5
1B7
330
1AF
100
AcDbEntity
  8
0
  6
Continuous
 62
     0
370
     0
100
AcDbLine
 10
-4.9999952316
 20
0.0
 30
0.0
 11
-5.4999887943
 21
0.0
 31
0.0
  0
LINE
  5
1B8
330
1AF
100
AcDbEntity
  8
0
  6
Continuous
 62
     0
370
     0
100
AcDbLine
 10
0.0
 20
-4.9999998882
 30
0.0
 11
0.0
 21
-5.4999999702
 31
0.0
  0
LINE
  5
1B9
330
1AF
100
AcDbEntity
  8
0
  6
Continuous
 62
     0
370
     0
100
AcDbLine
 10
4.9999952316
 20
0.0
 30
0.0
 11
5.4999887943
 21
0.0
 31
0.0
  0
ENDBLK
  5
1B1
330
1AF
100
AcDbEntity
  8
0
100
AcDbBlockEnd
  0
BLOCK
  5
1BC
330
1BB
100
AcDbEntity
  8
0
100
AcDbBlockBegin
  2
SW_CENTERMARKSYMBOL_3
 70
     0
 10
0.0
 20
0.0
 30
0.0
  3
SW_CENTERMARKSYMBOL_3
  1

  0
LINE
  5
1BE
330
1BB
100
AcDbEntity
  8
0
  6
Continuous
 62
     0
370
     0
100
AcDbLine
 10
0.0
 20
0.0
 30
0.0
 11
0.0
 21
2.4999994785
 31
0.0
  0
LINE
  5
1BF
330
1BB
100
AcDbEntity
  8
0
  6
Continuous
 62
     0
370
     0
100
AcDbLine
 10
0.0
 20
0.0
 30
0.0
 11
-2.4999976158
 21
0.0
 31
0.0
  0
LINE
  5
1C0
330
1BB
100
AcDbEntity
  8
0
  6
Continuous
 62
     0
370
     0
100
AcDbLine
 10
0.0
 20
0.0
 30
0.0
 11
0.0
 21
-2.4999994785
 31
0.0
  0
LINE
  5
1C1
330
1BB
100
AcDbEntity
  8
0
  6
Continuous
 62
     0
370
     0
100
AcDbLine
 10
0.0
 20
0.0
 30
0.0
 11
2.4999976158
 21
0.0
 31
0.0
  0
LINE
  5
1C2
330
1BB
100
AcDbEntity
  8
0
  6
Continuous
 62
     0
370
     0
100
AcDbLine
 10
0.0
 20
4.9999989569
 30
0.0
 11
0.0
 21
5.9999991208
 31
0.0
  0
LINE
  5
1C3
330
1BB
100
AcDbEntity
  8
0
  6
Continuous
 62
     0
370
     0
100
AcDbLine
 10
-4.9999952316
 20
0.0
 30
0.0
 11
-6.0000121593
 21
0.0
 31
0.0
  0
LINE
  5
1C4
330
1BB
100
AcDbEntity
  8
0
  6
Continuous
 62
     0
370
     0
100
AcDbLine
 10
0.0
 20
-4.9999989569
 30
0.0
 11
0.0
 21
-6.0000009835
 31
0.0
  0
LINE
  5
1C5
330
1BB
100
AcDbEntity
  8
0
  6
Continuous
 62
     0
370
     0
100
AcDbLine
 10
4.9999952316
 20
0.0
 30
0.0
 11
6.0000121593
 21
0.0
 31
0.0
  0
ENDBLK
  5
1BD
330
1BB
100
AcDbEntity
  8
0
100
AcDbBlockEnd
  0
BLOCK
  5
338
330
337
100
AcDbEntity
  8
0
100
AcDbBlockBegin
  2
SW_CENTERMARKSYMBOL_4
 70
     0
 10
0.0
 20
0.0
 30
0.0
  3
SW_CENTERMARKSYMBOL_4
  1

  0
LINE
  5
33A
330
337
100
AcDbEntity
  8
0
  6
Continuous
 62
     0
370
     0
100
AcDbLine
 10
0.0
 20
0.0
 30
0.0
 11
0.0
 21
2.5
 31
0.0
  0
LINE
  5
33B
330
337
100
AcDbEntity
  8
0
  6
Continuous
 62
     0
370
     0
100
AcDbLine
 10
0.0
 20
0.0
 30
0.0
 11
-2.5
 21
0.0
 31
0.0
  0
LINE
  5
33C
330
337
100
AcDbEntity
  8
0
  6
Continuous
 62
     0
370
     0
100
AcDbLine
 10
0.0
 20
0.0
 30
0.0
 11
0.0
 21
-2.5
 31
0.0
  0
LINE
  5
33D
330
337
100
AcDbEntity
  8
0
  6
Continuous
 62
     0
370
     0
100
AcDbLine
 10
0.0
 20
0.0
 30
0.0
 11
2.5
 21
0.0
 31
0.0
  0
LINE
  5
33E
330
337
100
AcDbEntity
  8
0
  6
Continuous
 62
     0
370
     0
100
AcDbLine
 10
0.0
 20
5.0
 30
0.0
 11
0.0
 21
13.5
 31
0.0
  0
LINE
  5
33F
330
337
100
AcDbEntity
  8
0
  6
Continuous
 62
     0
370
     0
100
AcDbLine
 10
-5.0
 20
0.0
 30
0.0
 11
-13.5
 21
0.0
 31
0.0
  0
LINE
  5
340
330
337
100
AcDbEntity
  8
0
  6
Continuous
 62
     0
370
     0
100
AcDbLine
 10
0.0
 20
-5.0
 30
0.0
 11
0.0
 21
-13.5
 31
0.0
  0
LINE
  5
341
330
337
100
AcDbEntity
  8
0
  6
Continuous
 62
     0
370
     0
100
AcDbLine
 10
5.0
 20
0.0
 30
0.0
 11
13.5
 21
0.0
 31
0.0
  0
ENDBLK
  5
339
330
337
100
AcDbEntity
  8
0
100
AcDbBlockEnd
  0
ENDSEC
  0
SECTION
  2
ENTITIES
  0
LINE
  5
48
330
1F
100
AcDbEntity
  8
0
  6
Continuous
 62
     7
370
    30
100
AcDbLine
 10
314.7659839524
 20
285.3646661362
 30
0.0
 11
415.7547147407
 21
285.3646661362
 31
0.0
  0
LINE
  5
49
330
1F
100
AcDbEntity
  8
0
  6
Continuous
 62
     7
370
    30
100
AcDbLine
 10
415.7547147407
 20
303.3646655942
 30
0.0
 11
314.7819579972
 21
303.3646655942
 31
0.0
  0
LINE
  5
4A
330
1F
100
AcDbEntity
  8
0
  6
Continuous
 62
     7
370
    30
100
AcDbLine
 10
415.7547147407
 20
283.6646660555
 30
0.0
 11
415.7547147407
 21
305.0646664316
 31
0.0
  0
ARC
  5
4B
330
1F
100
AcDbEntity
  8
0
  6
Continuous
 62
     7
370
    30
100
AcDbCircle
 10
416.054748103
 20
305.0646325609
 30
0.0
 40
0.3000333642310305
100
AcDbArc
 50
90.0082468418
 51
179.993531884
  0
ARC
  5
4C
330
1F
100
AcDbEntity
  8
0
  6
Continuous
 62
     7
370
    30
100
AcDbCircle
 10
416.0547473202
 20
283.6646986195
 30
0.0
 40
0.3000325812460173
100
AcDbArc
 50
180.0062185906
 51
269.991902632
  0
ARC
  5
4D
330
1F
100
AcDbEntity
  8
0
  6
Continuous
 62
     7
370
    30
100
AcDbCircle
 10
479.4546918736
 20
305.0646325629
 30
0.0
 40
0.3000333594340495
100
AcDbArc
 50
0.0064677366
 51
89.9974452656
  0
LINE
  5
4E
330
1F
100
AcDbEntity
  8
0
  6
Continuous
 62
     7
370
    30
100
AcDbLine
 10
479.7547252311
 20
305.0646664316
 30
0.0
 11
479.7547252311
 21
283.6646660555
 31
0.0
  0
ARC
  5
4F
330
1F
100
AcDbEntity
  8
0
  6
Continuous
 62
     7
370
    30
100
AcDbCircle
 10
479.4546926563
 20
283.6646986175
 30
0.0
 40
0.300032576581805
100
AcDbArc
 50
270.0024052712
 51
359.9937817783
  0
LINE
  5
50
330
1F
100
AcDbEntity
  8
0
  6
Continuous
 62
     7
370
    30
100
AcDbLine
 10
479.4547052516
 20
283.3646660412
 30
0.0
 11
416.0547049178
 21
283.3646660412
 31
0.0
  0
LINE
  5
51
330
1F
100
AcDbEntity
  8
0
  6
Continuous
 62
     7
370
    30
100
AcDbLine
 10
479.4547052516
 20
305.364665922
 30
0.0
 11
416.0547049178
 21
305.364665922
 31
0.0
  0
LWPOLYLINE
  5
52
330
1F
100
AcDbEntity
  8
0
  6
Continuous
 62
     7
370
    30
100
AcDbPolyline
 90
       10
 70
   128
 43
0.0
 10
422.0547170772
 20
282.7873157777
 10
422.0026226176
 20
282.784684384
 10
421.9521076812
 20
282.7768702384
 10
421.9047219886
 20
282.7641107116
 10
421.8618960513
 20
282.7467934668
 10
421.8249113692
 20
282.7254447595
 10
421.7949004306
 20
282.7007132557
 10
421.7728169097
 20
282.6733502999
 10
421.7592866554
 20
282.6441874469
 10
421.7547269
 20
282.6141106754
  0
LINE
  5
53
330
1F
100
AcDbEntity
  8
0
  6
Continuous
 62
     7
370
    30
100
AcDbLine
 10
421.7547269
 20
282.6141106754
 30
0.0
 11
421.7547269
 21
283.064666027
 31
0.0
  0
ARC
  5
54
330
1F
100
AcDbEntity
  8
0
  6
Continuous
 62
     7
370
    30
100
AcDbCircle
 10
422.0547118123
 20
283.0646811287
 30
0.0
 40
0.2999849126043817
100
AcDbArc
 50
89.9989944218
 51
180.0028843556
  0
ARC
  5
55
330
1F
100
AcDbEntity
  8
0
  6
Continuous
 62
     7
370
    30
100
AcDbCircle
 10
422.0547121296
 20
280.1646511631
 30
0.0
 40
0.299985229965974
100
AcDbArc
 50
179.9971429109
 51
270.0009449612
  0
LINE
  5
56
330
1F
100
AcDbEntity
  8
0
  6
Continuous
 62
     7
370
    30
100
AcDbLine
 10
421.7547269
 20
280.1646661221
 30
0.0
 11
421.7547269
 21
282.6141106754
 31
0.0
  0
LINE
  5
57
330
1F
100
AcDbEntity
  8
0
  6
Continuous
 62
     7
370
    30
100
AcDbLine
 10
473.7547130717
 20
282.6141106754
 30
0.0
 11
473.7547130717
 21
280.1646661221
 31
0.0
  0
ARC
  5
58
330
1F
100
AcDbEntity
  8
0
  6
Continuous
 62
     7
370
    30
100
AcDbCircle
 10
473.4547278422
 20
280.1646511631
 30
0.0
 40
0.299985229965974
100
AcDbArc
 50
269.9990550388
 51
0.0028570891
  0
LWPOLYLINE
  5
59
330
1F
100
AcDbEntity
  8
0
  6
Continuous
 62
     7
370
    30
100
AcDbPolyline
 90
       10
 70
   128
 43
0.0
 10
473.7547130717
 20
282.6141106754
 10
473.7501533164
 20
282.6441874469
 10
473.7366230621
 20
282.6733502999
 10
473.7145395412
 20
282.7007132557
 10
473.6845286025
 20
282.7254447595
 10
473.6475439204
 20
282.7467934668
 10
473.6047179832
 20
282.7641107116
 10
473.5573322906
 20
282.7768702384
 10
473.5068173541
 20
282.784684384
 10
473.4547228946
 20
282.7873157777
  0
ARC
  5
5A
330
1F
100
AcDbEntity
  8
0
  6
Continuous
 62
     7
370
    30
100
AcDbCircle
 10
473.4547281595
 20
283.0646811287
 30
0.0
 40
0.2999849126043606
100
AcDbArc
 50
359.9971156444
 51
90.0010055782
  0
LINE
  5
5B
330
1F
100
AcDbEntity
  8
0
  6
Continuous
 62
     7
370
    30
100
AcDbLine
 10
473.7547130717
 20
283.064666027
 30
0.0
 11
473.7547130717
 21
282.6141106754
 31
0.0
  0
LINE
  5
5C
330
1F
100
AcDbEntity
  8
0
  6
Continuous
 62
     7
370
    30
100
AcDbLine
 10
473.4547228946
 20
282.7873157777
 30
0.0
 11
422.0547170772
 21
282.7873157777
 31
0.0
  0
LINE
  5
5D
330
1F
100
AcDbEntity
  8
0
  6
Continuous
 62
     7
370
    30
100
AcDbLine
 10
422.0547170772
 20
279.8646659332
 30
0.0
 11
473.4547228946
 21
279.8646659332
 31
0.0
  0
LINE
  5
5E
330
1F
100
AcDbEntity
  8
0
  6
Continuous
 62
     7
370
    30
100
AcDbLine
 10
473.7547130717
 20
280.1646661221
 30
0.0
 11
473.7547130717
 21
276.8646659071
 31
0.0
  0
LINE
  5
5F
330
1F
100
AcDbEntity
  8
0
  6
Continuous
 62
     7
370
    30
100
AcDbLine
 10
421.7547269
 20
276.8646659071
 30
0.0
 11
421.7547269
 21
280.1646661221
 31
0.0
  0
LINE
  5
60
330
1F
100
AcDbEntity
  8
0
  6
Continuous
 62
     7
370
    30
100
AcDbLine
 10
421.7547269
 20
283.064666027
 30
0.0
 11
421.7547269
 21
283.3646660412
 31
0.0
  0
LINE
  5
61
330
1F
100
AcDbEntity
  8
0
  6
Continuous
 62
     7
370
    30
100
AcDbLine
 10
473.7547130717
 20
283.3646660412
 30
0.0
 11
473.7547130717
 21
283.064666027
 31
0.0
  0
LINE
  5
62
330
1F
100
AcDbEntity
  8
0
  6
Continuous
 62
     7
370
    30
100
AcDbLine
 10
473.7547130717
 20
276.8646659071
 30
0.0
 11
473.7547130717
 21
261.6646656508
 31
0.0
  0
LINE
  5
63
330
1F
100
AcDbEntity
  8
0
  6
Continuous
 62
     7
370
    30
100
AcDbLine
 10
421.7547269
 20
261.6646656508
 30
0.0
 11
421.7547269
 21
276.8646659071
 31
0.0
  0
ARC
  5
64
330
1F
100
AcDbEntity
  8
0
  6
Continuous
 62
     7
370
    30
100
AcDbCircle
 10
473.4547305909
 20
261.6646486417
 30
0.0
 40
0.2999824813534147
100
AcDbArc
 50
269.9985300323
 51
0.0032486934
  0
LINE
  5
65
330
1F
100
AcDbEntity
  8
0
  6
Continuous
 62
     7
370
    30
100
AcDbLine
 10
473.4547228946
 20
261.3646661604
 30
0.0
 11
422.0547170772
 21
261.3646661604
 31
0.0
  0
ARC
  5
66
330
1F
100
AcDbEntity
  8
0
  6
Continuous
 62
     7
370
    30
100
AcDbCircle
 10
422.0547093809
 20
261.6646486417
 30
0.0
 40
0.2999824813534909
100
AcDbArc
 50
179.9967513066
 51
270.0014699677
  0
LINE
  5
67
330
1F
100
AcDbEntity
  8
0
  6
Continuous
 62
     8
370
     0
100
AcDbLine
 10
416.0547049178
 20
305.364665922
 30
0.0
 11
416.0547049178
 21
283.3646660412
 31
0.0
  0
LINE
  5
68
330
1F
100
AcDbEntity
  8
0
  6
Continuous
 62
     8
370
     0
100
AcDbLine
 10
479.4547052516
 20
283.3646660412
 30
0.0
 11
479.4547052516
 21
305.364665922
 31
0.0
  0
LINE
  5
69
330
1F
100
AcDbEntity
  8
0
  6
Continuous
 62
     8
370
     0
100
AcDbLine
 10
422.0547170772
 20
283.3646660412
 30
0.0
 11
422.0547170772
 21
282.7873157777
 31
0.0
  0
LINE
  5
6A
330
1F
100
AcDbEntity
  8
0
  6
Continuous
 62
     8
370
     0
100
AcDbLine
 10
422.0547170772
 20
282.7873157777
 30
0.0
 11
422.0547170772
 21
279.8646659332
 31
0.0
  0
LINE
  5
6B
330
1F
100
AcDbEntity
  8
0
  6
Continuous
 62
     8
370
     0
100
AcDbLine
 10
473.4547228946
 20
279.8646659332
 30
0.0
 11
473.4547228946
 21
282.7873157777
 31
0.0
  0
LINE
  5
6C
330
1F
100
AcDbEntity
  8
0
  6
Continuous
 62
     8
370
     0
100
AcDbLine
 10
473.4547228946
 20
282.7873157777
 30
0.0
 11
473.4547228946
 21
283.3646660412
 31
0.0
  0
LINE
  5
6D
330
1F
100
AcDbEntity
  8
0
  6
Continuous
 62
     8
370
     0
100
AcDbLine
 10
473.7547130717
 20
276.8646659071
 30
0.0
 11
473.4547228946
 21
276.8646659071
 31
0.0
  0
LINE
  5
6E
330
1F
100
AcDbEntity
  8
0
  6
Continuous
 62
     8
370
     0
100
AcDbLine
 10
473.4547228946
 20
276.8646659071
 30
0.0
 11
473.4547228946
 21
279.8646659332
 31
0.0
  0
LINE
  5
6F
330
1F
100
AcDbEntity
  8
0
  6
Continuous
 62
     8
370
     0
100
AcDbLine
 10
422.0547170772
 20
279.8646659332
 30
0.0
 11
422.0547170772
 21
276.8646659071
 31
0.0
  0
LINE
  5
70
330
1F
100
AcDbEntity
  8
0
  6
Continuous
 62
     8
370
     0
100
AcDbLine
 10
421.7547269
 20
276.8646659071
 30
0.0
 11
422.0547170772
 21
276.8646659071
 31
0.0
  0
LINE
  5
71
330
1F
100
AcDbEntity
  8
0
  6
Continuous
 62
     8
370
     0
100
AcDbLine
 10
473.4547228946
 20
276.8646659071
 30
0.0
 11
422.0547170772
 21
276.8646659071
 31
0.0
  0
LINE
  5
72
330
1F
100
AcDbEntity
  8
0
  6
Continuous
 62
     8
370
     0
100
AcDbLine
 10
473.7547130717
 20
261.6646656508
 30
0.0
 11
473.4547228946
 21
261.6646656508
 31
0.0
  0
LINE
  5
73
330
1F
100
AcDbEntity
  8
0
  6
Continuous
 62
     8
370
     0
100
AcDbLine
 10
473.4547228946
 20
261.6646656508
 30
0.0
 11
473.4547228946
 21
276.8646659071
 31
0.0
  0
LINE
  5
74
330
1F
100
AcDbEntity
  8
0
  6
Continuous
 62
     8
370
     0
100
AcDbLine
 10
422.0547170772
 20
276.8646659071
 30
0.0
 11
422.0547170772
 21
261.6646656508
 31
0.0
  0
LINE
  5
75
330
1F
100
AcDbEntity
  8
0
  6
Continuous
 62
     8
370
     0
100
AcDbLine
 10
421.7547269
 20
261.6646656508
 30
0.0
 11
422.0547170772
 21
261.6646656508
 31
0.0
  0
LINE
  5
76
330
1F
100
AcDbEntity
  8
0
  6
Continuous
 62
     8
370
     0
100
AcDbLine
 10
473.4547228946
 20
261.3646661604
 30
0.0
 11
473.4547228946
 21
261.6646656508
 31
0.0
  0
LINE
  5
77
330
1F
100
AcDbEntity
  8
0
  6
Continuous
 62
     8
370
     0
100
AcDbLine
 10
422.0547170772
 20
261.6646656508
 30
0.0
 11
473.4547228946
 21
261.6646656508
 31
0.0
  0
LINE
  5
78
330
1F
100
AcDbEntity
  8
0
  6
Continuous
 62
     8
370
     0
100
AcDbLine
 10
422.0547170772
 20
261.3646661604
 30
0.0
 11
422.0547170772
 21
261.6646656508
 31
0.0
  0
LINE
  5
79
330
1F
100
AcDbEntity
  8
0
  6
Continuous
 62
     7
370
    30
100
AcDbLine
 10
193.391865191
 20
285.3646661362
 30
0.0
 11
304.7659900756
 21
285.3646661362
 31
0.0
  0
LINE
  5
7A
330
1F
100
AcDbEntity
  8
0
  6
Continuous
 62
     7
370
    30
100
AcDbLine
 10
304.7819492192
 20
303.3646655942
 30
0.0
 11
193.391865191
 21
303.3646655942
 31
0.0
  0
LINE
  5
7B
330
1F
100
AcDbEntity
  8
0
  6
Continuous
 62
     7
370
    30
100
AcDbLine
 10
129.3918547006
 20
283.6646660555
 30
0.0
 11
129.3918547006
 21
305.0646664316
 31
0.0
  0
ARC
  5
7C
330
1F
100
AcDbEntity
  8
0
  6
Continuous
 62
     7
370
    30
100
AcDbCircle
 10
129.6918880581
 20
305.0646325629
 30
0.0
 40
0.3000333594340495
100
AcDbArc
 50
90.0025547344
 51
179.9935322634
  0
ARC
  5
7D
330
1F
100
AcDbEntity
  8
0
  6
Continuous
 62
     7
370
    30
100
AcDbCircle
 10
129.6918872754
 20
283.6646986175
 30
0.0
 40
0.3000325765818243
100
AcDbArc
 50
180.0062182217
 51
269.9975947288
  0
ARC
  5
7E
330
1F
100
AcDbEntity
  8
0
  6
Continuous
 62
     7
370
    30
100
AcDbCircle
 10
193.0918318287
 20
305.0646325609
 30
0.0
 40
0.3000333642310589
100
AcDbArc
 50
0.006468116
 51
89.9917531582
  0
LINE
  5
7F
330
1F
100
AcDbEntity
  8
0
  6
Continuous
 62
     7
370
    30
100
AcDbLine
 10
193.391865191
 20
305.0646664316
 30
0.0
 11
193.391865191
 21
283.6646660555
 31
0.0
  0
ARC
  5
80
330
1F
100
AcDbEntity
  8
0
  6
Continuous
 62
     7
370
    30
100
AcDbCircle
 10
193.0918326115
 20
283.6646986195
 30
0.0
 40
0.3000325812460457
100
AcDbArc
 50
270.008097368
 51
359.9937814094
  0
LINE
  5
81
330
1F
100
AcDbEntity
  8
0
  6
Continuous
 62
     7
370
    30
100
AcDbLine
 10
193.0918750138
 20
283.3646660412
 30
0.0
 11
129.69187468
 21
283.3646660412
 31
0.0
  0
LINE
  5
82
330
1F
100
AcDbEntity
  8
0
  6
Continuous
 62
     7
370
    30
100
AcDbLine
 10
193.0918750138
 20
305.364665922
 30
0.0
 11
129.69187468
 21
305.364665922
 31
0.0
  0
ARC
  5
83
330
1F
100
AcDbEntity
  8
0
  6
Continuous
 62
     7
370
    30
100
AcDbCircle
 10
187.0918681194
 20
283.0646811287
 30
0.0
 40
0.299984912604467
100
AcDbArc
 50
359.9971156444
 51
90.0010055782
  0
LINE
  5
84
330
1F
100
AcDbEntity
  8
0
  6
Continuous
 62
     7
370
    30
100
AcDbLine
 10
187.3918530316
 20
283.064666027
 30
0.0
 11
187.3918530316
 21
282.6141106754
 31
0.0
  0
LWPOLYLINE
  5
85
330
1F
100
AcDbEntity
  8
0
  6
Continuous
 62
     7
370
    30
100
AcDbPolyline
 90
       10
 70
   128
 43
0.0
 10
187.3918530316
 20
282.6141106754
 10
187.3872932763
 20
282.6441874469
 10
187.3737630219
 20
282.6733502999
 10
187.351679501
 20
282.7007132557
 10
187.3216685624
 20
282.7254447595
 10
187.2846838803
 20
282.7467934668
 10
187.241857943
 20
282.7641107116
 10
187.1944722505
 20
282.7768702384
 10
187.143957314
 20
282.784684384
 10
187.0918628545
 20
282.7873157777
  0
ARC
  5
86
330
1F
100
AcDbEntity
  8
0
  6
Continuous
 62
     7
370
    30
100
AcDbCircle
 10
135.6918520895
 20
280.1646511631
 30
0.0
 40
0.2999852299659408
100
AcDbArc
 50
179.9971429109
 51
270.0009449612
  0
LINE
  5
87
330
1F
100
AcDbEntity
  8
0
  6
Continuous
 62
     7
370
    30
100
AcDbLine
 10
135.3918668599
 20
280.1646661221
 30
0.0
 11
135.3918668599
 21
282.6141106754
 31
0.0
  0
LWPOLYLINE
  5
88
330
1F
100
AcDbEntity
  8
0
  6
Continuous
 62
     7
370
    30
100
AcDbPolyline
 90
       10
 70
   128
 43
0.0
 10
135.6918570371
 20
282.7873157777
 10
135.6397625775
 20
282.784684384
 10
135.5892476411
 20
282.7768702384
 10
135.5418619485
 20
282.7641107116
 10
135.4990360112
 20
282.7467934668
 10
135.4620513291
 20
282.7254447595
 10
135.4320403905
 20
282.7007132557
 10
135.4099568696
 20
282.6733502999
 10
135.3964266152
 20
282.6441874469
 10
135.3918668599
 20
282.6141106754
  0
LINE
  5
89
330
1F
100
AcDbEntity
  8
0
  6
Continuous
 62
     7
370
    30
100
AcDbLine
 10
187.3918530316
 20
282.6141106754
 30
0.0
 11
187.3918530316
 21
280.1646661221
 31
0.0
  0
ARC
  5
8A
330
1F
100
AcDbEntity
  8
0
  6
Continuous
 62
     7
370
    30
100
AcDbCircle
 10
187.091867802
 20
280.1646511631
 30
0.0
 40
0.299985229965974
100
AcDbArc
 50
269.9990550388
 51
0.0028570891
  0
LINE
  5
8B
330
1F
100
AcDbEntity
  8
0
  6
Continuous
 62
     7
370
    30
100
AcDbLine
 10
135.3918668599
 20
282.6141106754
 30
0.0
 11
135.3918668599
 21
283.064666027
 31
0.0
  0
ARC
  5
8C
330
1F
100
AcDbEntity
  8
0
  6
Continuous
 62
     7
370
    30
100
AcDbCircle
 10
135.6918517721
 20
283.0646811287
 30
0.0
 40
0.2999849126043817
100
AcDbArc
 50
89.9989944218
 51
180.0028843556
  0
LINE
  5
8D
330
1F
100
AcDbEntity
  8
0
  6
Continuous
 62
     7
370
    30
100
AcDbLine
 10
187.0918628545
 20
282.7873157777
 30
0.0
 11
135.6918570371
 21
282.7873157777
 31
0.0
  0
LINE
  5
8E
330
1F
100
AcDbEntity
  8
0
  6
Continuous
 62
     7
370
    30
100
AcDbLine
 10
135.6918570371
 20
279.8646659332
 30
0.0
 11
187.0918628545
 21
279.8646659332
 31
0.0
  0
LINE
  5
8F
330
1F
100
AcDbEntity
  8
0
  6
Continuous
 62
     7
370
    30
100
AcDbLine
 10
135.3918668599
 20
276.8646659071
 30
0.0
 11
135.3918668599
 21
280.1646661221
 31
0.0
  0
LINE
  5
90
330
1F
100
AcDbEntity
  8
0
  6
Continuous
 62
     7
370
    30
100
AcDbLine
 10
187.3918530316
 20
280.1646661221
 30
0.0
 11
187.3918530316
 21
276.8646659071
 31
0.0
  0
LINE
  5
91
330
1F
100
AcDbEntity
  8
0
  6
Continuous
 62
     7
370
    30
100
AcDbLine
 10
135.3918668599
 20
283.064666027
 30
0.0
 11
135.3918668599
 21
283.3646660412
 31
0.0
  0
LINE
  5
92
330
1F
100
AcDbEntity
  8
0
  6
Continuous
 62
     7
370
    30
100
AcDbLine
 10
135.3918668599
 20
261.6646656508
 30
0.0
 11
135.3918668599
 21
276.8646659071
 31
0.0
  0
LINE
  5
93
330
1F
100
AcDbEntity
  8
0
  6
Continuous
 62
     7
370
    30
100
AcDbLine
 10
187.3918530316
 20
276.8646659071
 30
0.0
 11
187.3918530316
 21
261.6646656508
 31
0.0
  0
LINE
  5
94
330
1F
100
AcDbEntity
  8
0
  6
Continuous
 62
     7
370
    30
100
AcDbLine
 10
187.3918530316
 20
283.3646660412
 30
0.0
 11
187.3918530316
 21
283.064666027
 31
0.0
  0
ARC
  5
95
330
1F
100
AcDbEntity
  8
0
  6
Continuous
 62
     7
370
    30
100
AcDbCircle
 10
187.0918705508
 20
261.6646486417
 30
0.0
 40
0.2999824813534624
100
AcDbArc
 50
269.9985300323
 51
0.0032486934
  0
ARC
  5
96
330
1F
100
AcDbEntity
  8
0
  6
Continuous
 62
     7
370
    30
100
AcDbCircle
 10
135.6918493408
 20
261.6646486417
 30
0.0
 40
0.2999824813534147
100
AcDbArc
 50
179.9967513066
 51
270.0014699677
  0
LINE
  5
97
330
1F
100
AcDbEntity
  8
0
  6
Continuous
 62
     7
370
    30
100
AcDbLine
 10
187.0918628545
 20
261.3646661604
 30
0.0
 11
135.6918570371
 21
261.3646661604
 31
0.0
  0
LINE
  5
98
330
1F
100
AcDbEntity
  8
0
  6
Continuous
 62
     8
370
     0
100
AcDbLine
 10
129.69187468
 20
305.364665922
 30
0.0
 11
129.69187468
 21
283.3646660412
 31
0.0
  0
LINE
  5
99
330
1F
100
AcDbEntity
  8
0
  6
Continuous
 62
     8
370
     0
100
AcDbLine
 10
193.0918750138
 20
283.3646660412
 30
0.0
 11
193.0918750138
 21
305.364665922
 31
0.0
  0
LINE
  5
9A
330
1F
100
AcDbEntity
  8
0
  6
Continuous
 62
     8
370
     0
100
AcDbLine
 10
187.0918628545
 20
282.7873157777
 30
0.0
 11
187.0918628545
 21
283.3646660412
 31
0.0
  0
LINE
  5
9B
330
1F
100
AcDbEntity
  8
0
  6
Continuous
 62
     8
370
     0
100
AcDbLine
 10
135.6918570371
 20
282.7873157777
 30
0.0
 11
135.6918570371
 21
279.8646659332
 31
0.0
  0
LINE
  5
9C
330
1F
100
AcDbEntity
  8
0
  6
Continuous
 62
     8
370
     0
100
AcDbLine
 10
187.0918628545
 20
279.8646659332
 30
0.0
 11
187.0918628545
 21
282.7873157777
 31
0.0
  0
LINE
  5
9D
330
1F
100
AcDbEntity
  8
0
  6
Continuous
 62
     8
370
     0
100
AcDbLine
 10
135.6918570371
 20
283.3646660412
 30
0.0
 11
135.6918570371
 21
282.7873157777
 31
0.0
  0
LINE
  5
9E
330
1F
100
AcDbEntity
  8
0
  6
Continuous
 62
     8
370
     0
100
AcDbLine
 10
135.6918570371
 20
279.8646659332
 30
0.0
 11
135.6918570371
 21
276.8646659071
 31
0.0
  0
LINE
  5
9F
330
1F
100
AcDbEntity
  8
0
  6
Continuous
 62
     8
370
     0
100
AcDbLine
 10
135.3918668599
 20
276.8646659071
 30
0.0
 11
135.6918570371
 21
276.8646659071
 31
0.0
  0
LINE
  5
A0
330
1F
100
AcDbEntity
  8
0
  6
Continuous
 62
     8
370
     0
100
AcDbLine
 10
187.3918530316
 20
276.8646659071
 30
0.0
 11
187.0918628545
 21
276.8646659071
 31
0.0
  0
LINE
  5
A1
330
1F
100
AcDbEntity
  8
0
  6
Continuous
 62
     8
370
     0
100
AcDbLine
 10
187.0918628545
 20
276.8646659071
 30
0.0
 11
187.0918628545
 21
279.8646659332
 31
0.0
  0
LINE
  5
A2
330
1F
100
AcDbEntity
  8
0
  6
Continuous
 62
     8
370
     0
100
AcDbLine
 10
187.0918628545
 20
276.8646659071
 30
0.0
 11
135.6918570371
 21
276.8646659071
 31
0.0
  0
LINE
  5
A3
330
1F
100
AcDbEntity
  8
0
  6
Continuous
 62
     8
370
     0
100
AcDbLine
 10
135.6918570371
 20
276.8646659071
 30
0.0
 11
135.6918570371
 21
261.6646656508
 31
0.0
  0
LINE
  5
A4
330
1F
100
AcDbEntity
  8
0
  6
Continuous
 62
     8
370
     0
100
AcDbLine
 10
135.3918668599
 20
261.6646656508
 30
0.0
 11
135.6918570371
 21
261.6646656508
 31
0.0
  0
LINE
  5
A5
330
1F
100
AcDbEntity
  8
0
  6
Continuous
 62
     8
370
     0
100
AcDbLine
 10
187.3918530316
 20
261.6646656508
 30
0.0
 11
187.0918628545
 21
261.6646656508
 31
0.0
  0
LINE
  5
A6
330
1F
100
AcDbEntity
  8
0
  6
Continuous
 62
     8
370
     0
100
AcDbLine
 10
187.0918628545
 20
261.6646656508
 30
0.0
 11
187.0918628545
 21
276.8646659071
 31
0.0
  0
LINE
  5
A7
330
1F
100
AcDbEntity
  8
0
  6
Continuous
 62
     8
370
     0
100
AcDbLine
 10
187.0918628545
 20
261.3646661604
 30
0.0
 11
187.0918628545
 21
261.6646656508
 31
0.0
  0
LINE
  5
A8
330
1F
100
AcDbEntity
  8
0
  6
Continuous
 62
     8
370
     0
100
AcDbLine
 10
135.6918570371
 20
261.3646661604
 30
0.0
 11
135.6918570371
 21
261.6646656508
 31
0.0
  0
LINE
  5
A9
330
1F
100
AcDbEntity
  8
0
  6
Continuous
 62
     8
370
     0
100
AcDbLine
 10
135.6918570371
 20
261.6646656508
 30
0.0
 11
187.0918628545
 21
261.6646656508
 31
0.0
  0
DIMENSION
  5
AA
330
1F
100
AcDbEntity
  8
0
  6
Continuous
 62
     7
370
     0
100
AcDbDimension
  2
*D1
 10
488.248309777
 20
261.3646660412
 30
0.0
 11
488.248309777
 21
282.0811793542
 31
0.0
 70
   160
  1
(<>)
 71
     2
 42
-1.0
  3
SLDDIMSTYLE0
100
AcDbAlignedDimension
 13
479.4547195091
 23
305.3646660412
 33
0.0
 14
473.4547195091
 24
261.3646660412
 34
0.0
 50
90.0
100
AcDbRotatedDimension
  0
LINE
  5
B8
330
1F
100
AcDbEntity
  8
0
  6
CENTER
 62
     7
370
     0
100
AcDbLine
 10
447.5641425044
 20
318.0618125998
 30
0.0
 11
447.5641425044
 21
247.9558869031
 31
0.0
  0
LINE
  5
B9
330
1F
100
AcDbEntity
  8
0
  6
Continuous
 62
     7
370
     0
100
AcDbLine
 10
435.5641425044
 20
316.0618125998
 30
0.0
 11
447.5641425044
 21
316.0618125998
 31
0.0
  0
SOLID
  5
BA
330
1F
100
AcDbEntity
  8
0
  6
Continuous
 62
     7
370
     0
100
AcDbTrace
 10
447.5641425044
 20
316.0618125998
 30
0.0
 11
441.5641425044
 21
317.5618125998
 31
0.0
 12
441.5641425044
 22
314.5618125998
 32
0.0
 13
441.5641425044
 23
314.5618125998
 33
0.0
  0
LINE
  5
BB
330
1F
100
AcDbEntity
  8
0
  6
Continuous
 62
     7
370
     0
100
AcDbLine
 10
435.5641425044
 20
249.9558869031
 30
0.0
 11
447.5641425044
 21
249.9558869031
 31
0.0
  0
SOLID
  5
BC
330
1F
100
AcDbEntity
  8
0
  6
Continuous
 62
     7
370
     0
100
AcDbTrace
 10
447.5641425044
 20
249.9558869031
 30
0.0
 11
441.5641425044
 21
251.4558869031
 31
0.0
 12
441.5641425044
 22
248.4558869031
 32
0.0
 13
441.5641425044
 23
248.4558869031
 33
0.0
  0
MTEXT
  5
BD
330
1F
100
AcDbEntity
  8
0
  6
Continuous
 62
     7
100
AcDbMText
 10
429.7588254316
 20
318.7560118681
 30
0.0
 40
5.0
 41
0.0
 71
     1
 72
     1
  1
A
  7
SLDTEXTSTYLE0
 73
     1
 44
1.0
  0
MTEXT
  5
BE
330
1F
100
AcDbEntity
  8
0
  6
Continuous
 62
     7
100
AcDbMText
 10
429.8733043757
 20
252.5621408738
 30
0.0
 40
5.0
 41
0.0
 71
     1
 72
     1
  1
A
  7
SLDTEXTSTYLE0
 73
     1
 44
1.0
  0
LINE
  5
BF
330
1F
100
AcDbEntity
  8
0
  6
HIDDEN
 62
     7
370
     0
100
AcDbLine
 10
304.7739719184
 20
303.3646660412
 30
0.0
 11
306.7739719184
 21
300.8646660412
 31
0.0
  0
LINE
  5
C0
330
1F
100
AcDbEntity
  8
0
  6
HIDDEN
 62
     7
370
     0
100
AcDbLine
 10
306.7739719184
 20
300.8646660412
 30
0.0
 11
302.7739719184
 21
296.8646660412
 31
0.0
  0
LINE
  5
C1
330
1F
100
AcDbEntity
  8
0
  6
HIDDEN
 62
     7
370
     0
100
AcDbLine
 10
302.7739719184
 20
296.8646660412
 30
0.0
 11
306.7739719184
 21
291.8646660412
 31
0.0
  0
LINE
  5
C2
330
1F
100
AcDbEntity
  8
0
  6
HIDDEN
 62
     7
370
     0
100
AcDbLine
 10
306.7739719184
 20
291.8646660412
 30
0.0
 11
302.7739719184
 21
287.8646660412
 31
0.0
  0
LINE
  5
C3
330
1F
100
AcDbEntity
  8
0
  6
HIDDEN
 62
     7
370
     0
100
AcDbLine
 10
302.7739719184
 20
287.8646660412
 30
0.0
 11
304.7739719184
 21
285.3646660412
 31
0.0
  0
LINE
  5
C4
330
1F
100
AcDbEntity
  8
0
  6
HIDDEN
 62
     7
370
     0
100
AcDbLine
 10
314.7739719184
 20
303.3646660412
 30
0.0
 11
316.7739719184
 21
300.8646660412
 31
0.0
  0
LINE
  5
C5
330
1F
100
AcDbEntity
  8
0
  6
HIDDEN
 62
     7
370
     0
100
AcDbLine
 10
316.7739719184
 20
300.8646660412
 30
0.0
 11
312.7739719184
 21
296.8646660412
 31
0.0
  0
LINE
  5
C6
330
1F
100
AcDbEntity
  8
0
  6
HIDDEN
 62
     7
370
     0
100
AcDbLine
 10
312.7739719184
 20
296.8646660412
 30
0.0
 11
316.7739719184
 21
291.8646660412
 31
0.0
  0
LINE
  5
C7
330
1F
100
AcDbEntity
  8
0
  6
HIDDEN
 62
     7
370
     0
100
AcDbLine
 10
316.7739719184
 20
291.8646660412
 30
0.0
 11
312.7739719184
 21
287.8646660412
 31
0.0
  0
LINE
  5
C8
330
1F
100
AcDbEntity
  8
0
  6
HIDDEN
 62
     7
370
     0
100
AcDbLine
 10
312.7739719184
 20
287.8646660412
 30
0.0
 11
314.7739719184
 21
285.3646660412
 31
0.0
  0
LINE
  5
C9
330
1F
100
AcDbEntity
  8
0
  6
CENTERX2
 62
     7
370
     0
100
AcDbLine
 10
307.3332217307
 20
294.3646659816
 30
0.0
 11
127.6918706269
 21
294.3646659816
 31
0.0
  0
LINE
  5
CA
330
1F
100
AcDbEntity
  8
0
  6
CENTERX2
 62
     7
370
     0
100
AcDbLine
 10
481.4547093047
 20
294.3646659816
 30
0.0
 11
314.7739709748
 21
294.3646659816
 31
0.0
  0
ARC
  5
CB
330
1F
100
AcDbEntity
  8
0
  6
Continuous
 62
     7
370
    30
100
AcDbCircle
 10
479.4546918737
 20
395.7463408749
 30
0.0
 40
0.3000333590849476
100
AcDbArc
 50
0.0061119705
 51
89.9974452932
  0
LINE
  5
CC
330
1F
100
AcDbEntity
  8
0
  6
Continuous
 62
     7
370
    30
100
AcDbLine
 10
479.4547052516
 20
396.0463742337
 30
0.0
 11
416.0547049178
 21
396.0463742337
 31
0.0
  0
ARC
  5
CD
330
1F
100
AcDbEntity
  8
0
  6
Continuous
 62
     7
370
    30
100
AcDbCircle
 10
416.0547481029
 20
395.746340873
 30
0.0
 40
0.3000333638818347
100
AcDbArc
 50
90.0082468142
 51
179.9938876501
  0
LINE
  5
CE
330
1F
100
AcDbEntity
  8
0
  6
Continuous
 62
     7
370
    30
100
AcDbLine
 10
314.7659839524
 20
376.0463746808
 30
0.0
 11
415.7547147407
 21
376.0463746808
 31
0.0
  0
LINE
  5
CF
330
1F
100
AcDbEntity
  8
0
  6
Continuous
 62
     7
370
    30
100
AcDbLine
 10
415.7547147407
 20
394.0463739059
 30
0.0
 11
314.7819579972
 21
394.0463739059
 31
0.0
  0
LINE
  5
D0
330
1F
100
AcDbEntity
  8
0
  6
Continuous
 62
     7
370
    30
100
AcDbLine
 10
432.254710926
 20
324.3463749609
 30
0.0
 11
463.2547290458
 21
324.3463749609
 31
0.0
  0
LINE
  5
D1
330
1F
100
AcDbEntity
  8
0
  6
Continuous
 62
     7
370
    30
100
AcDbLine
 10
470.2547283305
 20
325.0463756344
 30
0.0
 11
470.2547283305
 21
324.3463749609
 31
0.0
  0
LINE
  5
D2
330
1F
100
AcDbEntity
  8
0
  6
Continuous
 62
     7
370
    30
100
AcDbLine
 10
470.2547283305
 20
324.3463749609
 30
0.0
 11
463.2547290458
 21
324.3463749609
 31
0.0
  0
LINE
  5
D3
330
1F
100
AcDbEntity
  8
0
  6
Continuous
 62
     7
370
    30
100
AcDbLine
 10
432.254710926
 20
324.3463749609
 30
0.0
 11
425.2547116412
 21
324.3463749609
 31
0.0
  0
LINE
  5
D4
330
1F
100
AcDbEntity
  8
0
  6
Continuous
 62
     7
370
    30
100
AcDbLine
 10
425.2547116412
 20
324.3463749609
 30
0.0
 11
425.2547116412
 21
325.0463756344
 31
0.0
  0
CIRCLE
  5
D5
330
1F
100
AcDbEntity
  8
0
  6
Continuous
 62
     7
370
    30
100
AcDbCircle
 10
447.7547241796
 20
332.0463892016
 30
0.0
 40
2.445486902458845
  0
CIRCLE
  5
D6
330
1F
100
AcDbEntity
  8
0
  6
Continuous
 62
     7
370
    30
100
AcDbCircle
 10
447.7547116068
 20
332.0463761864
 30
0.0
 40
2.999998062486476
  0
LINE
  5
D7
330
1F
100
AcDbEntity
  8
0
  6
Continuous
 62
     7
370
    30
100
AcDbLine
 10
448.6207456722
 20
330.546373742
 30
0.0
 11
449.4867713584
 21
332.0463749192
 31
0.0
  0
LINE
  5
D8
330
1F
100
AcDbEntity
  8
0
  6
Continuous
 62
     7
370
    30
100
AcDbLine
 10
448.6207456722
 20
333.5463742337
 30
0.0
 11
449.4867713584
 21
332.0463749192
 31
0.0
  0
LINE
  5
D9
330
1F
100
AcDbEntity
  8
0
  6
Continuous
 62
     7
370
    30
100
AcDbLine
 10
446.8886942996
 20
333.5463742337
 30
0.0
 11
448.6207456722
 21
333.5463742337
 31
0.0
  0
LINE
  5
DA
330
1F
100
AcDbEntity
  8
0
  6
Continuous
 62
     7
370
    30
100
AcDbLine
 10
446.8886942996
 20
333.5463742337
 30
0.0
 11
446.0226686134
 21
332.0463749192
 31
0.0
  0
LINE
  5
DB
330
1F
100
AcDbEntity
  8
0
  6
Continuous
 62
     7
370
    30
100
AcDbLine
 10
446.8886942996
 20
330.546373742
 30
0.0
 11
446.0226686134
 21
332.0463749192
 31
0.0
  0
LINE
  5
DC
330
1F
100
AcDbEntity
  8
0
  6
Continuous
 62
     7
370
    30
100
AcDbLine
 10
446.8886942996
 20
330.546373742
 30
0.0
 11
448.6207456722
 21
330.546373742
 31
0.0
  0
CIRCLE
  5
DD
330
1F
100
AcDbEntity
  8
0
  6
Continuous
 62
     7
370
    30
100
AcDbCircle
 10
447.754707055
 20
377.0463790462
 30
0.0
 40
2.054999617578457
  0
CIRCLE
  5
DE
330
1F
100
AcDbEntity
  8
0
  6
Continuous
 62
     7
370
    30
100
AcDbCircle
 10
447.7547111493
 20
377.0463774393
 30
0.0
 40
2.49999689800733
  0
LINE
  5
DF
330
1F
100
AcDbEntity
  8
0
  6
Continuous
 62
     7
370
    30
100
AcDbLine
 10
446.504721178
 20
376.3246873937
 30
0.0
 11
447.7547199859
 21
375.6029990113
 31
0.0
  0
LINE
  5
E0
330
1F
100
AcDbEntity
  8
0
  6
Continuous
 62
     7
370
    30
100
AcDbLine
 10
449.0047187938
 20
376.3246873937
 30
0.0
 11
447.7547199859
 21
375.6029990113
 31
0.0
  0
LINE
  5
E1
330
1F
100
AcDbEntity
  8
0
  6
Continuous
 62
     7
370
    30
100
AcDbLine
 10
449.0047187938
 20
377.7680622957
 30
0.0
 11
449.0047187938
 21
376.3246873937
 31
0.0
  0
LINE
  5
E2
330
1F
100
AcDbEntity
  8
0
  6
Continuous
 62
     7
370
    30
100
AcDbLine
 10
449.0047187938
 20
377.7680622957
 30
0.0
 11
447.7547199859
 21
378.4897497467
 31
0.0
  0
LINE
  5
E3
330
1F
100
AcDbEntity
  8
0
  6
Continuous
 62
     7
370
    30
100
AcDbLine
 10
446.504721178
 20
377.7680622957
 30
0.0
 11
447.7547199859
 21
378.4897497467
 31
0.0
  0
LINE
  5
E4
330
1F
100
AcDbEntity
  8
0
  6
Continuous
 62
     7
370
    30
100
AcDbLine
 10
446.504721178
 20
377.7680622957
 30
0.0
 11
446.504721178
 21
376.3246873937
 31
0.0
  0
CIRCLE
  5
E5
330
1F
100
AcDbEntity
  8
0
  6
Continuous
 62
     7
370
    30
100
AcDbCircle
 10
447.7547203095
 20
377.0463766718
 30
0.0
 40
3.000002492501722
  0
ARC
  5
E6
330
1F
100
AcDbEntity
  8
0
  6
Continuous
 62
     7
370
    30
100
AcDbCircle
 10
421.7547045846
 20
352.5463643458
 30
0.0
 40
5.999989843897427
100
AcDbArc
 50
179.9999025178
 51
270.0002130973
  0
ARC
  5
E7
330
1F
100
AcDbEntity
  8
0
  6
Continuous
 62
     7
370
    30
100
AcDbCircle
 10
473.7547353872
 20
352.5463643458
 30
0.0
 40
5.999989843897427
100
AcDbArc
 50
269.9997869027
 51
0.0000974822
  0
LINE
  5
E8
330
1F
100
AcDbEntity
  8
0
  6
Continuous
 62
     7
370
    30
100
AcDbLine
 10
415.7547147407
 20
352.5463745541
 30
0.0
 11
415.7547147407
 21
385.0463742933
 31
0.0
  0
LINE
  5
E9
330
1F
100
AcDbEntity
  8
0
  6
Continuous
 62
     7
370
    30
100
AcDbLine
 10
479.7547252311
 20
385.0463742933
 30
0.0
 11
479.7547252311
 21
352.5463745541
 31
0.0
  0
LINE
  5
EA
330
1F
100
AcDbEntity
  8
0
  6
Continuous
 62
     7
370
    30
100
AcDbLine
 10
479.7547252311
 20
395.7463728807
 30
0.0
 11
479.7547252311
 21
385.0463742933
 31
0.0
  0
LINE
  5
EB
330
1F
100
AcDbEntity
  8
0
  6
Continuous
 62
     7
370
    30
100
AcDbLine
 10
415.7547147407
 20
385.0463742933
 30
0.0
 11
415.7547147407
 21
395.7463728807
 31
0.0
  0
ARC
  5
EC
330
1F
100
AcDbEntity
  8
0
  6
Continuous
 62
     7
370
    30
100
AcDbCircle
 10
473.4547305909
 20
325.3463581155
 30
0.0
 40
0.2999824811830131
100
AcDbArc
 50
269.9985300188
 51
0.0028929662
  0
ARC
  5
ED
330
1F
100
AcDbEntity
  8
0
  6
Continuous
 62
     7
370
    30
100
AcDbCircle
 10
422.0547093808
 20
325.3463581155
 30
0.0
 40
0.2999824811830131
100
AcDbArc
 50
179.9971070338
 51
270.0014699812
  0
LINE
  5
EE
330
1F
100
AcDbEntity
  8
0
  6
Continuous
 62
     7
370
    30
100
AcDbLine
 10
473.7547130717
 20
344.7463747657
 30
0.0
 11
473.7547130717
 21
325.3463732622
 31
0.0
  0
LINE
  5
EF
330
1F
100
AcDbEntity
  8
0
  6
Continuous
 62
     7
370
    30
100
AcDbLine
 10
473.4547228946
 20
325.0463756344
 30
0.0
 11
422.0547170772
 21
325.0463756344
 31
0.0
  0
CIRCLE
  5
F0
330
1F
100
AcDbEntity
  8
0
  6
Continuous
 62
     7
370
    30
100
AcDbCircle
 10
447.7547151184
 20
332.0463754438
 30
0.0
 40
3.500001450211591
  0
LINE
  5
F1
330
1F
100
AcDbEntity
  8
0
  6
Continuous
 62
     7
370
    30
100
AcDbLine
 10
421.7547269
 20
325.3463732622
 30
0.0
 11
421.7547269
 21
344.7463747657
 31
0.0
  0
ARC
  5
F2
330
1F
100
AcDbEntity
  8
0
  6
Continuous
 62
     7
370
    30
100
AcDbCircle
 10
473.4547321806
 20
344.7463933645
 30
0.0
 40
0.2999808917643593
100
AcDbArc
 50
359.9964476723
 51
90.001773602
  0
ARC
  5
F3
330
1F
100
AcDbEntity
  8
0
  6
Continuous
 62
     7
370
    30
100
AcDbCircle
 10
422.0547077912
 20
344.7463933645
 30
0.0
 40
0.2999808917643593
100
AcDbArc
 50
89.998226398
 51
180.0035523277
  0
LINE
  5
F4
330
1F
100
AcDbEntity
  8
0
  6
Continuous
 62
     7
370
    30
100
AcDbLine
 10
422.0547170772
 20
345.0463742561
 30
0.0
 11
473.4547228946
 21
345.0463742561
 31
0.0
  0
LINE
  5
F5
330
1F
100
AcDbEntity
  8
0
  6
Continuous
 62
     7
370
    30
100
AcDbLine
 10
421.7547269
 20
344.7463747657
 30
0.0
 11
421.7547269
 21
348.0463747478
 31
0.0
  0
LINE
  5
F6
330
1F
100
AcDbEntity
  8
0
  6
Continuous
 62
     7
370
    30
100
AcDbLine
 10
473.7547130717
 20
348.0463747478
 30
0.0
 11
473.7547130717
 21
344.7463747657
 31
0.0
  0
ARC
  5
F7
330
1F
100
AcDbEntity
  8
0
  6
Continuous
 62
     7
370
    30
100
AcDbCircle
 10
473.4547278467
 20
348.7463896864
 30
0.0
 40
0.2999852254225868
100
AcDbArc
 50
359.9970975735
 51
90.0009458312
  0
LINE
  5
F8
330
1F
100
AcDbEntity
  8
0
  6
Continuous
 62
     7
370
    30
100
AcDbLine
 10
473.7547130717
 20
348.74637449
 30
0.0
 11
473.7547130717
 21
348.0463747478
 31
0.0
  0
LINE
  5
F9
330
1F
100
AcDbEntity
  8
0
  6
Continuous
 62
     7
370
    30
100
AcDbLine
 10
422.0547170772
 20
349.0463749117
 30
0.0
 11
473.4547228946
 21
349.0463749117
 31
0.0
  0
ARC
  5
FA
330
1F
100
AcDbEntity
  8
0
  6
Continuous
 62
     7
370
    30
100
AcDbCircle
 10
422.0547121251
 20
348.7463896864
 30
0.0
 40
0.2999852254225868
100
AcDbArc
 50
89.9990541688
 51
180.0029024265
  0
LINE
  5
FB
330
1F
100
AcDbEntity
  8
0
  6
Continuous
 62
     7
370
    30
100
AcDbLine
 10
421.7547269
 20
348.0463747478
 30
0.0
 11
421.7547269
 21
348.74637449
 31
0.0
  0
LINE
  5
FC
330
1F
100
AcDbEntity
  8
0
  6
Continuous
 62
     8
370
     0
100
AcDbLine
 10
463.2547290458
 20
324.3463749609
 30
0.0
 11
463.2547290458
 21
325.0463756344
 31
0.0
  0
LINE
  5
FD
330
1F
100
AcDbEntity
  8
0
  6
Continuous
 62
     8
370
     0
100
AcDbLine
 10
432.254710926
 20
325.0463756344
 30
0.0
 11
432.254710926
 21
324.3463749609
 31
0.0
  0
LINE
  5
FE
330
1F
100
AcDbEntity
  8
0
  6
Continuous
 62
     8
370
     0
100
AcDbLine
 10
479.4547052516
 20
352.5463745541
 30
0.0
 11
479.4547052516
 21
385.0463742933
 31
0.0
  0
ARC
  5
FF
330
1F
100
AcDbEntity
  8
0
  6
Continuous
 62
     8
370
     0
100
AcDbCircle
 10
473.7547487639
 20
352.5463314114
 30
0.0
 40
5.69995648786266
100
AcDbArc
 50
269.9996412234
 51
0.000433669
  0
ARC
  5
100
330
1F
100
AcDbEntity
  8
0
  6
Continuous
 62
     8
370
     0
100
AcDbCircle
 10
421.7547122811
 20
352.5463822869
 30
0.0
 40
5.700007363239581
100
AcDbArc
 50
180.0000777289
 51
270.000146948
  0
LINE
  5
101
330
1F
100
AcDbEntity
  8
0
  6
Continuous
 62
     8
370
     0
100
AcDbLine
 10
416.0547049178
 20
385.0463742933
 30
0.0
 11
416.0547049178
 21
352.5463745541
 31
0.0
  0
LINE
  5
102
330
1F
100
AcDbEntity
  8
0
  6
Continuous
 62
     8
370
     0
100
AcDbLine
 10
479.4547052516
 20
385.0463742933
 30
0.0
 11
416.0547049178
 21
385.0463742933
 31
0.0
  0
LINE
  5
103
330
1F
100
AcDbEntity
  8
0
  6
Continuous
 62
     8
370
     0
100
AcDbLine
 10
415.7547147407
 20
352.5463745541
 30
0.0
 11
416.0547049178
 21
352.5463745541
 31
0.0
  0
LINE
  5
104
330
1F
100
AcDbEntity
  8
0
  6
Continuous
 62
     8
370
     0
100
AcDbLine
 10
479.4547052516
 20
352.5463745541
 30
0.0
 11
479.7547252311
 21
352.5463745541
 31
0.0
  0
LINE
  5
105
330
1F
100
AcDbEntity
  8
0
  6
Continuous
 62
     8
370
     0
100
AcDbLine
 10
415.7547147407
 20
385.0463742933
 30
0.0
 11
416.0547049178
 21
385.0463742933
 31
0.0
  0
LINE
  5
106
330
1F
100
AcDbEntity
  8
0
  6
Continuous
 62
     8
370
     0
100
AcDbLine
 10
479.4547052516
 20
385.0463742933
 30
0.0
 11
479.7547252311
 21
385.0463742933
 31
0.0
  0
LINE
  5
107
330
1F
100
AcDbEntity
  8
0
  6
Continuous
 62
     8
370
     0
100
AcDbLine
 10
479.4547052516
 20
385.0463742933
 30
0.0
 11
479.4547052516
 21
396.0463742337
 31
0.0
  0
LINE
  5
108
330
1F
100
AcDbEntity
  8
0
  6
Continuous
 62
     8
370
     0
100
AcDbLine
 10
416.0547049178
 20
396.0463742337
 30
0.0
 11
416.0547049178
 21
385.0463742933
 31
0.0
  0
LINE
  5
109
330
1F
100
AcDbEntity
  8
0
  6
Continuous
 62
     8
370
     0
100
AcDbLine
 10
473.4547228946
 20
325.3463732622
 30
0.0
 11
473.7547130717
 21
325.3463732622
 31
0.0
  0
LINE
  5
10A
330
1F
100
AcDbEntity
  8
0
  6
Continuous
 62
     8
370
     0
100
AcDbLine
 10
473.4547228946
 20
325.0463756344
 30
0.0
 11
473.4547228946
 21
325.3463732622
 31
0.0
  0
LINE
  5
10B
330
1F
100
AcDbEntity
  8
0
  6
Continuous
 62
     8
370
     0
100
AcDbLine
 10
421.7547269
 20
325.3463732622
 30
0.0
 11
422.0547170772
 21
325.3463732622
 31
0.0
  0
LINE
  5
10C
330
1F
100
AcDbEntity
  8
0
  6
Continuous
 62
     8
370
     0
100
AcDbLine
 10
422.0547170772
 20
325.0463756344
 30
0.0
 11
422.0547170772
 21
325.3463732622
 31
0.0
  0
LINE
  5
10D
330
1F
100
AcDbEntity
  8
0
  6
Continuous
 62
     8
370
     0
100
AcDbLine
 10
473.4547228946
 20
325.3463732622
 30
0.0
 11
473.4547228946
 21
344.7463747657
 31
0.0
  0
LINE
  5
10E
330
1F
100
AcDbEntity
  8
0
  6
Continuous
 62
     8
370
     0
100
AcDbLine
 10
473.4547228946
 20
344.7463747657
 30
0.0
 11
473.7547130717
 21
344.7463747657
 31
0.0
  0
LINE
  5
10F
330
1F
100
AcDbEntity
  8
0
  6
Continuous
 62
     8
370
     0
100
AcDbLine
 10
422.0547170772
 20
325.3463732622
 30
0.0
 11
473.4547228946
 21
325.3463732622
 31
0.0
  0
LINE
  5
110
330
1F
100
AcDbEntity
  8
0
  6
Continuous
 62
     8
370
     0
100
AcDbLine
 10
422.0547170772
 20
344.7463747657
 30
0.0
 11
422.0547170772
 21
325.3463732622
 31
0.0
  0
LINE
  5
111
330
1F
100
AcDbEntity
  8
0
  6
Continuous
 62
     8
370
     0
100
AcDbLine
 10
473.4547228946
 20
344.7463747657
 30
0.0
 11
422.0547170772
 21
344.7463747657
 31
0.0
  0
LINE
  5
112
330
1F
100
AcDbEntity
  8
0
  6
Continuous
 62
     8
370
     0
100
AcDbLine
 10
421.7547269
 20
344.7463747657
 30
0.0
 11
422.0547170772
 21
344.7463747657
 31
0.0
  0
LINE
  5
113
330
1F
100
AcDbEntity
  8
0
  6
Continuous
 62
     8
370
     0
100
AcDbLine
 10
473.4547228946
 20
344.7463747657
 30
0.0
 11
473.4547228946
 21
345.0463742561
 31
0.0
  0
LINE
  5
114
330
1F
100
AcDbEntity
  8
0
  6
Continuous
 62
     8
370
     0
100
AcDbLine
 10
422.0547170772
 20
344.7463747657
 30
0.0
 11
422.0547170772
 21
345.0463742561
 31
0.0
  0
LINE
  5
115
330
1F
100
AcDbEntity
  8
0
  6
Continuous
 62
     8
370
     0
100
AcDbLine
 10
421.7547269
 20
348.0463747478
 30
0.0
 11
422.0547170772
 21
348.0463747478
 31
0.0
  0
LINE
  5
116
330
1F
100
AcDbEntity
  8
0
  6
Continuous
 62
     8
370
     0
100
AcDbLine
 10
422.0547170772
 20
348.0463747478
 30
0.0
 11
422.0547170772
 21
345.0463742561
 31
0.0
  0
LINE
  5
117
330
1F
100
AcDbEntity
  8
0
  6
Continuous
 62
     8
370
     0
100
AcDbLine
 10
473.4547228946
 20
345.0463742561
 30
0.0
 11
473.4547228946
 21
348.0463747478
 31
0.0
  0
LINE
  5
118
330
1F
100
AcDbEntity
  8
0
  6
Continuous
 62
     8
370
     0
100
AcDbLine
 10
473.7547130717
 20
348.0463747478
 30
0.0
 11
473.4547228946
 21
348.0463747478
 31
0.0
  0
LINE
  5
119
330
1F
100
AcDbEntity
  8
0
  6
Continuous
 62
     8
370
     0
100
AcDbLine
 10
422.0547170772
 20
348.0463747478
 30
0.0
 11
473.4547228946
 21
348.0463747478
 31
0.0
  0
LINE
  5
11A
330
1F
100
AcDbEntity
  8
0
  6
Continuous
 62
     8
370
     0
100
AcDbLine
 10
473.4547228946
 20
348.0463747478
 30
0.0
 11
473.4547228946
 21
349.0463749117
 31
0.0
  0
LINE
  5
11B
330
1F
100
AcDbEntity
  8
0
  6
Continuous
 62
     8
370
     0
100
AcDbLine
 10
422.0547170772
 20
349.0463749117
 30
0.0
 11
422.0547170772
 21
348.0463747478
 31
0.0
  0
LINE
  5
11C
330
1F
100
AcDbEntity
  8
0
  6
Continuous
 62
     7
370
    30
100
AcDbLine
 10
193.391865191
 20
376.0463746808
 30
0.0
 11
304.7659900756
 21
376.0463746808
 31
0.0
  0
LINE
  5
11D
330
1F
100
AcDbEntity
  8
0
  6
Continuous
 62
     7
370
    30
100
AcDbLine
 10
304.7819492192
 20
394.0463739059
 30
0.0
 11
193.391865191
 21
394.0463739059
 31
0.0
  0
LINE
  5
11E
330
1F
100
AcDbEntity
  8
0
  6
Continuous
 62
     7
370
    30
100
AcDbLine
 10
193.0918750138
 20
396.0463742337
 30
0.0
 11
129.69187468
 21
396.0463742337
 31
0.0
  0
ARC
  5
11F
330
1F
100
AcDbEntity
  8
0
  6
Continuous
 62
     7
370
    30
100
AcDbCircle
 10
193.0918318288
 20
395.746340873
 30
0.0
 40
0.3000333638818631
100
AcDbArc
 50
0.0061123499
 51
89.9917531858
  0
ARC
  5
120
330
1F
100
AcDbEntity
  8
0
  6
Continuous
 62
     7
370
    30
100
AcDbCircle
 10
129.6918880579
 20
395.7463408749
 30
0.0
 40
0.3000333590848908
100
AcDbArc
 50
90.0025547068
 51
179.9938880295
  0
LINE
  5
121
330
1F
100
AcDbEntity
  8
0
  6
Continuous
 62
     7
370
    30
100
AcDbLine
 10
145.8918508859
 20
324.3463749609
 30
0.0
 11
176.8918690057
 21
324.3463749609
 31
0.0
  0
LINE
  5
122
330
1F
100
AcDbEntity
  8
0
  6
Continuous
 62
     7
370
    30
100
AcDbLine
 10
138.8918516011
 20
324.3463749609
 30
0.0
 11
138.8918516011
 21
325.0463756344
 31
0.0
  0
LINE
  5
123
330
1F
100
AcDbEntity
  8
0
  6
Continuous
 62
     7
370
    30
100
AcDbLine
 10
145.8918508859
 20
324.3463749609
 30
0.0
 11
138.8918516011
 21
324.3463749609
 31
0.0
  0
LINE
  5
124
330
1F
100
AcDbEntity
  8
0
  6
Continuous
 62
     7
370
    30
100
AcDbLine
 10
183.8918682904
 20
325.0463756344
 30
0.0
 11
183.8918682904
 21
324.3463749609
 31
0.0
  0
LINE
  5
125
330
1F
100
AcDbEntity
  8
0
  6
Continuous
 62
     7
370
    30
100
AcDbLine
 10
183.8918682904
 20
324.3463749609
 30
0.0
 11
176.8918690057
 21
324.3463749609
 31
0.0
  0
CIRCLE
  5
126
330
1F
100
AcDbEntity
  8
0
  6
Continuous
 62
     7
370
    30
100
AcDbCircle
 10
161.3918641395
 20
332.0463892016
 30
0.0
 40
2.445486902458818
  0
CIRCLE
  5
127
330
1F
100
AcDbEntity
  8
0
  6
Continuous
 62
     7
370
    30
100
AcDbCircle
 10
161.3918515667
 20
332.0463761864
 30
0.0
 40
2.999998062486463
  0
LINE
  5
128
330
1F
100
AcDbEntity
  8
0
  6
Continuous
 62
     7
370
    30
100
AcDbLine
 10
162.257885632
 20
330.546373742
 30
0.0
 11
163.1239113183
 21
332.0463749192
 31
0.0
  0
LINE
  5
129
330
1F
100
AcDbEntity
  8
0
  6
Continuous
 62
     7
370
    30
100
AcDbLine
 10
162.257885632
 20
333.5463742337
 30
0.0
 11
163.1239113183
 21
332.0463749192
 31
0.0
  0
LINE
  5
12A
330
1F
100
AcDbEntity
  8
0
  6
Continuous
 62
     7
370
    30
100
AcDbLine
 10
160.5258342595
 20
333.5463742337
 30
0.0
 11
162.257885632
 21
333.5463742337
 31
0.0
  0
LINE
  5
12B
330
1F
100
AcDbEntity
  8
0
  6
Continuous
 62
     7
370
    30
100
AcDbLine
 10
160.5258342595
 20
333.5463742337
 30
0.0
 11
159.6598085732
 21
332.0463749192
 31
0.0
  0
LINE
  5
12C
330
1F
100
AcDbEntity
  8
0
  6
Continuous
 62
     7
370
    30
100
AcDbLine
 10
160.5258342595
 20
330.546373742
 30
0.0
 11
159.6598085732
 21
332.0463749192
 31
0.0
  0
LINE
  5
12D
330
1F
100
AcDbEntity
  8
0
  6
Continuous
 62
     7
370
    30
100
AcDbLine
 10
160.5258342595
 20
330.546373742
 30
0.0
 11
162.257885632
 21
330.546373742
 31
0.0
  0
CIRCLE
  5
12E
330
1F
100
AcDbEntity
  8
0
  6
Continuous
 62
     7
370
    30
100
AcDbCircle
 10
161.3918739714
 20
377.0463702875
 30
0.0
 40
2.054999617586393
  0
CIRCLE
  5
12F
330
1F
100
AcDbEntity
  8
0
  6
Continuous
 62
     7
370
    30
100
AcDbCircle
 10
161.3918511091
 20
377.0463774393
 30
0.0
 40
2.499996898007346
  0
LINE
  5
130
330
1F
100
AcDbEntity
  8
0
  6
Continuous
 62
     7
370
    30
100
AcDbLine
 10
160.1418611379
 20
376.3246873937
 30
0.0
 11
161.3918599458
 21
375.6029990113
 31
0.0
  0
LINE
  5
131
330
1F
100
AcDbEntity
  8
0
  6
Continuous
 62
     7
370
    30
100
AcDbLine
 10
162.6418587537
 20
376.3246873937
 30
0.0
 11
161.3918599458
 21
375.6029990113
 31
0.0
  0
LINE
  5
132
330
1F
100
AcDbEntity
  8
0
  6
Continuous
 62
     7
370
    30
100
AcDbLine
 10
162.6418587537
 20
377.7680622957
 30
0.0
 11
162.6418587537
 21
376.3246873937
 31
0.0
  0
LINE
  5
133
330
1F
100
AcDbEntity
  8
0
  6
Continuous
 62
     7
370
    30
100
AcDbLine
 10
162.6418587537
 20
377.7680622957
 30
0.0
 11
161.3918599458
 21
378.4897497467
 31
0.0
  0
LINE
  5
134
330
1F
100
AcDbEntity
  8
0
  6
Continuous
 62
     7
370
    30
100
AcDbLine
 10
160.1418611379
 20
377.7680622957
 30
0.0
 11
161.3918599458
 21
378.4897497467
 31
0.0
  0
LINE
  5
135
330
1F
100
AcDbEntity
  8
0
  6
Continuous
 62
     7
370
    30
100
AcDbLine
 10
160.1418611379
 20
377.7680622957
 30
0.0
 11
160.1418611379
 21
376.3246873937
 31
0.0
  0
CIRCLE
  5
136
330
1F
100
AcDbEntity
  8
0
  6
Continuous
 62
     7
370
    30
100
AcDbCircle
 10
161.3918602694
 20
377.0463766718
 30
0.0
 40
3.000002492501722
  0
ARC
  5
137
330
1F
100
AcDbEntity
  8
0
  6
Continuous
 62
     7
370
    30
100
AcDbCircle
 10
187.3918753471
 20
352.5463643458
 30
0.0
 40
5.99998984389737
100
AcDbArc
 50
269.9997869027
 51
0.0000974822
  0
ARC
  5
138
330
1F
100
AcDbEntity
  8
0
  6
Continuous
 62
     7
370
    30
100
AcDbCircle
 10
135.3918445444
 20
352.5463643458
 30
0.0
 40
5.99998984389737
100
AcDbArc
 50
179.9999025178
 51
270.0002130973
  0
LINE
  5
139
330
1F
100
AcDbEntity
  8
0
  6
Continuous
 62
     7
370
    30
100
AcDbLine
 10
193.391865191
 20
385.0463742933
 30
0.0
 11
193.391865191
 21
352.5463745541
 31
0.0
  0
LINE
  5
13A
330
1F
100
AcDbEntity
  8
0
  6
Continuous
 62
     7
370
    30
100
AcDbLine
 10
129.3918547006
 20
352.5463745541
 30
0.0
 11
129.3918547006
 21
385.0463742933
 31
0.0
  0
LINE
  5
13B
330
1F
100
AcDbEntity
  8
0
  6
Continuous
 62
     7
370
    30
100
AcDbLine
 10
193.391865191
 20
395.7463728807
 30
0.0
 11
193.391865191
 21
385.0463742933
 31
0.0
  0
LINE
  5
13C
330
1F
100
AcDbEntity
  8
0
  6
Continuous
 62
     7
370
    30
100
AcDbLine
 10
129.3918547006
 20
385.0463742933
 30
0.0
 11
129.3918547006
 21
395.7463728807
 31
0.0
  0
ARC
  5
13D
330
1F
100
AcDbEntity
  8
0
  6
Continuous
 62
     7
370
    30
100
AcDbCircle
 10
135.6918493407
 20
325.3463581155
 30
0.0
 40
0.2999824811830131
100
AcDbArc
 50
179.9971070338
 51
270.0014699812
  0
LINE
  5
13E
330
1F
100
AcDbEntity
  8
0
  6
Continuous
 62
     7
370
    30
100
AcDbLine
 10
135.3918668599
 20
325.3463732622
 30
0.0
 11
135.3918668599
 21
344.7463747657
 31
0.0
  0
LINE
  5
13F
330
1F
100
AcDbEntity
  8
0
  6
Continuous
 62
     7
370
    30
100
AcDbLine
 10
187.3918530316
 20
344.7463747657
 30
0.0
 11
187.3918530316
 21
325.3463732622
 31
0.0
  0
ARC
  5
140
330
1F
100
AcDbEntity
  8
0
  6
Continuous
 62
     7
370
    30
100
AcDbCircle
 10
187.0918705508
 20
325.3463581155
 30
0.0
 40
0.2999824811830415
100
AcDbArc
 50
269.9985300188
 51
0.0028929662
  0
LINE
  5
141
330
1F
100
AcDbEntity
  8
0
  6
Continuous
 62
     7
370
    30
100
AcDbLine
 10
187.0918628545
 20
325.0463756344
 30
0.0
 11
135.6918570371
 21
325.0463756344
 31
0.0
  0
CIRCLE
  5
142
330
1F
100
AcDbEntity
  8
0
  6
Continuous
 62
     7
370
    30
100
AcDbCircle
 10
161.3918550783
 20
332.0463754438
 30
0.0
 40
3.500001450211578
  0
LINE
  5
143
330
1F
100
AcDbEntity
  8
0
  6
Continuous
 62
     7
370
    30
100
AcDbLine
 10
135.6918570371
 20
345.0463742561
 30
0.0
 11
187.0918628545
 21
345.0463742561
 31
0.0
  0
ARC
  5
144
330
1F
100
AcDbEntity
  8
0
  6
Continuous
 62
     7
370
    30
100
AcDbCircle
 10
135.6918477511
 20
344.7463933645
 30
0.0
 40
0.2999808917643036
100
AcDbArc
 50
89.998226398
 51
180.0035523277
  0
ARC
  5
145
330
1F
100
AcDbEntity
  8
0
  6
Continuous
 62
     7
370
    30
100
AcDbCircle
 10
187.0918721404
 20
344.7463933645
 30
0.0
 40
0.299980891764332
100
AcDbArc
 50
359.9964476723
 51
90.001773602
  0
LINE
  5
146
330
1F
100
AcDbEntity
  8
0
  6
Continuous
 62
     7
370
    30
100
AcDbLine
 10
187.3918530316
 20
348.0463747478
 30
0.0
 11
187.3918530316
 21
344.7463747657
 31
0.0
  0
LINE
  5
147
330
1F
100
AcDbEntity
  8
0
  6
Continuous
 62
     7
370
    30
100
AcDbLine
 10
135.3918668599
 20
344.7463747657
 30
0.0
 11
135.3918668599
 21
348.0463747478
 31
0.0
  0
ARC
  5
148
330
1F
100
AcDbEntity
  8
0
  6
Continuous
 62
     7
370
    30
100
AcDbCircle
 10
187.0918678066
 20
348.7463896864
 30
0.0
 40
0.2999852254226436
100
AcDbArc
 50
359.9970975735
 51
90.0009458312
  0
LINE
  5
149
330
1F
100
AcDbEntity
  8
0
  6
Continuous
 62
     7
370
    30
100
AcDbLine
 10
187.3918530316
 20
348.74637449
 30
0.0
 11
187.3918530316
 21
348.0463747478
 31
0.0
  0
LINE
  5
14A
330
1F
100
AcDbEntity
  8
0
  6
Continuous
 62
     7
370
    30
100
AcDbLine
 10
135.6918570371
 20
349.0463749117
 30
0.0
 11
187.0918628545
 21
349.0463749117
 31
0.0
  0
ARC
  5
14B
330
1F
100
AcDbEntity
  8
0
  6
Continuous
 62
     7
370
    30
100
AcDbCircle
 10
135.6918520849
 20
348.7463896864
 30
0.0
 40
0.2999852254225784
100
AcDbArc
 50
89.9990541688
 51
180.0029024265
  0
LINE
  5
14C
330
1F
100
AcDbEntity
  8
0
  6
Continuous
 62
     7
370
    30
100
AcDbLine
 10
135.3918668599
 20
348.0463747478
 30
0.0
 11
135.3918668599
 21
348.74637449
 31
0.0
  0
LINE
  5
14D
330
1F
100
AcDbEntity
  8
0
  6
Continuous
 62
     8
370
     0
100
AcDbLine
 10
176.8918690057
 20
324.3463749609
 30
0.0
 11
176.8918690057
 21
325.0463756344
 31
0.0
  0
LINE
  5
14E
330
1F
100
AcDbEntity
  8
0
  6
Continuous
 62
     8
370
     0
100
AcDbLine
 10
145.8918508859
 20
325.0463756344
 30
0.0
 11
145.8918508859
 21
324.3463749609
 31
0.0
  0
LINE
  5
14F
330
1F
100
AcDbEntity
  8
0
  6
Continuous
 62
     8
370
     0
100
AcDbLine
 10
193.0918750138
 20
352.5463745541
 30
0.0
 11
193.0918750138
 21
385.0463742933
 31
0.0
  0
ARC
  5
150
330
1F
100
AcDbEntity
  8
0
  6
Continuous
 62
     8
370
     0
100
AcDbCircle
 10
187.3918676506
 20
352.5463822869
 30
0.0
 40
5.700007363239581
100
AcDbArc
 50
269.999853052
 51
359.9999222711
  0
ARC
  5
151
330
1F
100
AcDbEntity
  8
0
  6
Continuous
 62
     8
370
     0
100
AcDbCircle
 10
135.3918311677
 20
352.5463314114
 30
0.0
 40
5.69995648786266
100
AcDbArc
 50
179.999566331
 51
270.0003587766
  0
LINE
  5
152
330
1F
100
AcDbEntity
  8
0
  6
Continuous
 62
     8
370
     0
100
AcDbLine
 10
129.69187468
 20
385.0463742933
 30
0.0
 11
129.69187468
 21
352.5463745541
 31
0.0
  0
LINE
  5
153
330
1F
100
AcDbEntity
  8
0
  6
Continuous
 62
     8
370
     0
100
AcDbLine
 10
193.0918750138
 20
385.0463742933
 30
0.0
 11
129.69187468
 21
385.0463742933
 31
0.0
  0
LINE
  5
154
330
1F
100
AcDbEntity
  8
0
  6
Continuous
 62
     8
370
     0
100
AcDbLine
 10
193.0918750138
 20
352.5463745541
 30
0.0
 11
193.391865191
 21
352.5463745541
 31
0.0
  0
LINE
  5
155
330
1F
100
AcDbEntity
  8
0
  6
Continuous
 62
     8
370
     0
100
AcDbLine
 10
129.3918547006
 20
352.5463745541
 30
0.0
 11
129.69187468
 21
352.5463745541
 31
0.0
  0
LINE
  5
156
330
1F
100
AcDbEntity
  8
0
  6
Continuous
 62
     8
370
     0
100
AcDbLine
 10
193.0918750138
 20
385.0463742933
 30
0.0
 11
193.391865191
 21
385.0463742933
 31
0.0
  0
LINE
  5
157
330
1F
100
AcDbEntity
  8
0
  6
Continuous
 62
     8
370
     0
100
AcDbLine
 10
129.3918547006
 20
385.0463742933
 30
0.0
 11
129.69187468
 21
385.0463742933
 31
0.0
  0
LINE
  5
158
330
1F
100
AcDbEntity
  8
0
  6
Continuous
 62
     8
370
     0
100
AcDbLine
 10
193.0918750138
 20
385.0463742933
 30
0.0
 11
193.0918750138
 21
396.0463742337
 31
0.0
  0
LINE
  5
159
330
1F
100
AcDbEntity
  8
0
  6
Continuous
 62
     8
370
     0
100
AcDbLine
 10
129.69187468
 20
396.0463742337
 30
0.0
 11
129.69187468
 21
385.0463742933
 31
0.0
  0
LINE
  5
15A
330
1F
100
AcDbEntity
  8
0
  6
Continuous
 62
     8
370
     0
100
AcDbLine
 10
135.3918668599
 20
325.3463732622
 30
0.0
 11
135.6918570371
 21
325.3463732622
 31
0.0
  0
LINE
  5
15B
330
1F
100
AcDbEntity
  8
0
  6
Continuous
 62
     8
370
     0
100
AcDbLine
 10
135.6918570371
 20
325.0463756344
 30
0.0
 11
135.6918570371
 21
325.3463732622
 31
0.0
  0
LINE
  5
15C
330
1F
100
AcDbEntity
  8
0
  6
Continuous
 62
     8
370
     0
100
AcDbLine
 10
135.3918668599
 20
344.7463747657
 30
0.0
 11
135.6918570371
 21
344.7463747657
 31
0.0
  0
LINE
  5
15D
330
1F
100
AcDbEntity
  8
0
  6
Continuous
 62
     8
370
     0
100
AcDbLine
 10
135.6918570371
 20
344.7463747657
 30
0.0
 11
135.6918570371
 21
325.3463732622
 31
0.0
  0
LINE
  5
15E
330
1F
100
AcDbEntity
  8
0
  6
Continuous
 62
     8
370
     0
100
AcDbLine
 10
187.0918628545
 20
325.3463732622
 30
0.0
 11
187.0918628545
 21
344.7463747657
 31
0.0
  0
LINE
  5
15F
330
1F
100
AcDbEntity
  8
0
  6
Continuous
 62
     8
370
     0
100
AcDbLine
 10
187.0918628545
 20
344.7463747657
 30
0.0
 11
187.3918530316
 21
344.7463747657
 31
0.0
  0
LINE
  5
160
330
1F
100
AcDbEntity
  8
0
  6
Continuous
 62
     8
370
     0
100
AcDbLine
 10
187.0918628545
 20
325.3463732622
 30
0.0
 11
187.3918530316
 21
325.3463732622
 31
0.0
  0
LINE
  5
161
330
1F
100
AcDbEntity
  8
0
  6
Continuous
 62
     8
370
     0
100
AcDbLine
 10
187.0918628545
 20
325.0463756344
 30
0.0
 11
187.0918628545
 21
325.3463732622
 31
0.0
  0
LINE
  5
162
330
1F
100
AcDbEntity
  8
0
  6
Continuous
 62
     8
370
     0
100
AcDbLine
 10
135.6918570371
 20
325.3463732622
 30
0.0
 11
187.0918628545
 21
325.3463732622
 31
0.0
  0
LINE
  5
163
330
1F
100
AcDbEntity
  8
0
  6
Continuous
 62
     8
370
     0
100
AcDbLine
 10
187.0918628545
 20
344.7463747657
 30
0.0
 11
135.6918570371
 21
344.7463747657
 31
0.0
  0
LINE
  5
164
330
1F
100
AcDbEntity
  8
0
  6
Continuous
 62
     8
370
     0
100
AcDbLine
 10
135.6918570371
 20
344.7463747657
 30
0.0
 11
135.6918570371
 21
345.0463742561
 31
0.0
  0
LINE
  5
165
330
1F
100
AcDbEntity
  8
0
  6
Continuous
 62
     8
370
     0
100
AcDbLine
 10
187.0918628545
 20
344.7463747657
 30
0.0
 11
187.0918628545
 21
345.0463742561
 31
0.0
  0
LINE
  5
166
330
1F
100
AcDbEntity
  8
0
  6
Continuous
 62
     8
370
     0
100
AcDbLine
 10
187.0918628545
 20
345.0463742561
 30
0.0
 11
187.0918628545
 21
348.0463747478
 31
0.0
  0
LINE
  5
167
330
1F
100
AcDbEntity
  8
0
  6
Continuous
 62
     8
370
     0
100
AcDbLine
 10
187.3918530316
 20
348.0463747478
 30
0.0
 11
187.0918628545
 21
348.0463747478
 31
0.0
  0
LINE
  5
168
330
1F
100
AcDbEntity
  8
0
  6
Continuous
 62
     8
370
     0
100
AcDbLine
 10
135.3918668599
 20
348.0463747478
 30
0.0
 11
135.6918570371
 21
348.0463747478
 31
0.0
  0
LINE
  5
169
330
1F
100
AcDbEntity
  8
0
  6
Continuous
 62
     8
370
     0
100
AcDbLine
 10
135.6918570371
 20
348.0463747478
 30
0.0
 11
135.6918570371
 21
345.0463742561
 31
0.0
  0
LINE
  5
16A
330
1F
100
AcDbEntity
  8
0
  6
Continuous
 62
     8
370
     0
100
AcDbLine
 10
135.6918570371
 20
348.0463747478
 30
0.0
 11
187.0918628545
 21
348.0463747478
 31
0.0
  0
LINE
  5
16B
330
1F
100
AcDbEntity
  8
0
  6
Continuous
 62
     8
370
     0
100
AcDbLine
 10
187.0918628545
 20
348.0463747478
 30
0.0
 11
187.0918628545
 21
349.0463749117
 31
0.0
  0
LINE
  5
16C
330
1F
100
AcDbEntity
  8
0
  6
Continuous
 62
     8
370
     0
100
AcDbLine
 10
135.6918570371
 20
349.0463749117
 30
0.0
 11
135.6918570371
 21
348.0463747478
 31
0.0
  0
DIMENSION
  5
16D
330
1F
100
AcDbEntity
  8
0
  6
Continuous
 62
     7
370
     0
100
AcDbDimension
  2
*D2
 10
479.7547195091
 20
400.8385273493
 30
0.0
 11
310.9058233152
 21
400.8385273493
 31
0.0
 70
   160
  1
(638)
 71
     2
 42
-1.0
  3
SLDDIMSTYLE0
100
AcDbAlignedDimension
 13
129.3918604226
 23
395.7463745973
 33
0.0
 14
479.7547195091
 24
395.7463745973
 34
0.0
100
AcDbRotatedDimension
  0
DIMENSION
  5
179
330
1F
100
AcDbEntity
  8
0
  6
Continuous
 62
     7
370
     0
100
AcDbDimension
  2
*D3
 10
447.7547195091
 20
357.8267286361
 30
0.0
 11
310.9058233152
 21
357.8267286361
 31
0.0
 70
   160
  1
(574)
 71
     2
 42
-1.0
  3
SLDDIMSTYLE0
100
AcDbAlignedDimension
 13
161.3918604226
 23
371.5463745973
 33
0.0
 14
447.7547195091
 24
371.5463745973
 34
0.0
100
AcDbRotatedDimension
  0
DIMENSION
  5
185
330
1F
100
AcDbEntity
  8
0
  6
Continuous
 62
     7
370
     0
100
AcDbDimension
  2
*D4
 10
487.7803065804
 20
325.0463745973
 30
0.0
 11
487.7803065804
 21
363.3130906215
 31
0.0
 70
   160
  1
(<>)
 71
     2
 42
-1.0
  3
SLDDIMSTYLE0
100
AcDbAlignedDimension
 13
479.4547195091
 23
396.0463745973
 33
0.0
 14
473.4547195091
 24
325.0463745973
 34
0.0
 50
90.0
100
AcDbRotatedDimension
  0
INSERT
  5
196
330
1F
100
AcDbEntity
  8
0
  6
Continuous
 62
     7
370
     0
100
AcDbBlockReference
  2
SW_NOTE_0
 10
308.3030478807
 20
407.8531832354
 30
0.0
  0
INSERT
  5
1A2
330
1F
100
AcDbEntity
  8
0
  6
Continuous
 62
     7
370
     0
100
AcDbBlockReference
  2
SW_CENTERMARKSYMBOL_0
 10
447.7547199859
 20
377.0463748447
 30
0.0
  0
INSERT
  5
1AE
330
1F
100
AcDbEntity
  8
0
  6
Continuous
 62
     7
370
     0
100
AcDbBlockReference
  2
SW_CENTERMARKSYMBOL_1
 10
447.7547199859
 20
332.0463749192
 30
0.0
  0
INSERT
  5
1BA
330
1F
100
AcDbEntity
  8
0
  6
Continuous
 62
     7
370
     0
100
AcDbBlockReference
  2
SW_CENTERMARKSYMBOL_2
 10
161.3918599458
 20
377.0463748447
 30
0.0
  0
INSERT
  5
1C6
330
1F
100
AcDbEntity
  8
0
  6
Continuous
 62
     7
370
     0
100
AcDbBlockReference
  2
SW_CENTERMARKSYMBOL_3
 10
161.3918599458
 20
332.0463749192
 30
0.0
  0
LINE
  5
1C7
330
1F
100
AcDbEntity
  8
0
  6
HIDDEN
 62
     7
370
     0
100
AcDbLine
 10
304.7739719184
 20
394.0463745973
 30
0.0
 11
306.7739719184
 21
391.5463745973
 31
0.0
  0
LINE
  5
1C8
330
1F
100
AcDbEntity
  8
0
  6
HIDDEN
 62
     7
370
     0
100
AcDbLine
 10
306.7739719184
 20
391.5463745973
 30
0.0
 11
302.7739719184
 21
387.5463745973
 31
0.0
  0
LINE
  5
1C9
330
1F
100
AcDbEntity
  8
0
  6
HIDDEN
 62
     7
370
     0
100
AcDbLine
 10
302.7739719184
 20
387.5463745973
 30
0.0
 11
306.7739719184
 21
382.5463745973
 31
0.0
  0
LINE
  5
1CA
330
1F
100
AcDbEntity
  8
0
  6
HIDDEN
 62
     7
370
     0
100
AcDbLine
 10
306.7739719184
 20
382.5463745973
 30
0.0
 11
302.7739719184
 21
378.5463745973
 31
0.0
  0
LINE
  5
1CB
330
1F
100
AcDbEntity
  8
0
  6
HIDDEN
 62
     7
370
     0
100
AcDbLine
 10
302.7739719184
 20
378.5463745973
 30
0.0
 11
304.7739719184
 21
376.0463745973
 31
0.0
  0
LINE
  5
1CC
330
1F
100
AcDbEntity
  8
0
  6
HIDDEN
 62
     7
370
     0
100
AcDbLine
 10
314.7739719184
 20
394.0463745973
 30
0.0
 11
316.7739719184
 21
391.5463745973
 31
0.0
  0
LINE
  5
1CD
330
1F
100
AcDbEntity
  8
0
  6
HIDDEN
 62
     7
370
     0
100
AcDbLine
 10
316.7739719184
 20
391.5463745973
 30
0.0
 11
312.7739719184
 21
387.5463745973
 31
0.0
  0
LINE
  5
1CE
330
1F
100
AcDbEntity
  8
0
  6
HIDDEN
 62
     7
370
     0
100
AcDbLine
 10
312.7739719184
 20
387.5463745973
 30
0.0
 11
316.7739719184
 21
382.5463745973
 31
0.0
  0
LINE
  5
1CF
330
1F
100
AcDbEntity
  8
0
  6
HIDDEN
 62
     7
370
     0
100
AcDbLine
 10
316.7739719184
 20
382.5463745973
 30
0.0
 11
312.7739719184
 21
378.5463745973
 31
0.0
  0
LINE
  5
1D0
330
1F
100
AcDbEntity
  8
0
  6
HIDDEN
 62
     7
370
     0
100
AcDbLine
 10
312.7739719184
 20
378.5463745973
 30
0.0
 11
314.7739719184
 21
376.0463745973
 31
0.0
  0
LINE
  5
1D1
330
1F
100
AcDbEntity
  8
0
  6
CENTERX2
 62
     7
370
     0
100
AcDbLine
 10
307.3332217307
 20
385.0463742933
 30
0.0
 11
127.6918706269
 21
385.0463742933
 31
0.0
  0
LINE
  5
1D2
330
1F
100
AcDbEntity
  8
0
  6
CENTERX2
 62
     7
370
     0
100
AcDbLine
 10
481.4547093047
 20
385.0463742933
 30
0.0
 11
314.7739709748
 21
385.0463742933
 31
0.0
  0
ARC
  5
1D3
330
1F
100
AcDbEntity
  8
0
  6
Continuous
 62
     7
370
    30
100
AcDbCircle
 10
416.0547481029
 20
168.8861006639
 30
0.0
 40
0.3000333638818639
100
AcDbArc
 50
180.0061123499
 51
269.9917531858
  0
ARC
  5
1D4
330
1F
100
AcDbEntity
  8
0
  6
Continuous
 62
     7
370
    30
100
AcDbCircle
 10
479.4546918737
 20
168.886100662
 30
0.0
 40
0.3000333590848908
100
AcDbArc
 50
270.0025547068
 51
359.9938880295
  0
LINE
  5
1D5
330
1F
100
AcDbEntity
  8
0
  6
Continuous
 62
     7
370
    30
100
AcDbLine
 10
416.0547049178
 20
168.5860673032
 30
0.0
 11
479.4547052516
 21
168.5860673032
 31
0.0
  0
LINE
  5
1D6
330
1F
100
AcDbEntity
  8
0
  6
Continuous
 62
     7
370
    30
100
AcDbLine
 10
314.7659839524
 20
170.586067631
 30
0.0
 11
415.7547147407
 21
170.586067631
 31
0.0
  0
LINE
  5
1D7
330
1F
100
AcDbEntity
  8
0
  6
Continuous
 62
     7
370
    30
100
AcDbLine
 10
415.7547147407
 20
188.5860668561
 30
0.0
 11
314.7819579972
 21
188.5860668561
 31
0.0
  0
LINE
  5
1D8
330
1F
100
AcDbEntity
  8
0
  6
Continuous
 62
     7
370
    30
100
AcDbLine
 10
463.2547290458
 20
240.286066576
 30
0.0
 11
432.254710926
 21
240.286066576
 31
0.0
  0
LINE
  5
1D9
330
1F
100
AcDbEntity
  8
0
  6
Continuous
 62
     7
370
    30
100
AcDbLine
 10
470.2547283305
 20
240.286066576
 30
0.0
 11
470.2547283305
 21
239.5860659025
 31
0.0
  0
LINE
  5
1DA
330
1F
100
AcDbEntity
  8
0
  6
Continuous
 62
     7
370
    30
100
AcDbLine
 10
463.2547290458
 20
240.286066576
 30
0.0
 11
470.2547283305
 21
240.286066576
 31
0.0
  0
LINE
  5
1DB
330
1F
100
AcDbEntity
  8
0
  6
Continuous
 62
     7
370
    30
100
AcDbLine
 10
425.2547116412
 20
239.5860659025
 30
0.0
 11
425.2547116412
 21
240.286066576
 31
0.0
  0
LINE
  5
1DC
330
1F
100
AcDbEntity
  8
0
  6
Continuous
 62
     7
370
    30
100
AcDbLine
 10
425.2547116412
 20
240.286066576
 30
0.0
 11
432.254710926
 21
240.286066576
 31
0.0
  0
LINE
  5
1DD
330
1F
100
AcDbEntity
  8
0
  6
Continuous
 62
     7
370
    30
100
AcDbLine
 10
421.7547269
 20
218.086067035
 30
0.0
 11
473.7547130717
 21
218.086067035
 31
0.0
  0
ARC
  5
1DE
330
1F
100
AcDbEntity
  8
0
  6
Continuous
 62
     7
370
    30
100
AcDbCircle
 10
473.7547353872
 20
212.0860771911
 30
0.0
 40
5.99998984389737
100
AcDbArc
 50
359.9999025178
 51
90.0002130973
  0
ARC
  5
1DF
330
1F
100
AcDbEntity
  8
0
  6
Continuous
 62
     7
370
    30
100
AcDbCircle
 10
421.7547045846
 20
212.0860771911
 30
0.0
 40
5.999989843897412
100
AcDbArc
 50
89.9997869027
 51
180.0000974822
  0
LINE
  5
1E0
330
1F
100
AcDbEntity
  8
0
  6
Continuous
 62
     7
370
    30
100
AcDbLine
 10
415.7547147407
 20
179.5860672436
 30
0.0
 11
415.7547147407
 21
212.0860669828
 31
0.0
  0
LINE
  5
1E1
330
1F
100
AcDbEntity
  8
0
  6
Continuous
 62
     7
370
    30
100
AcDbLine
 10
479.7547252311
 20
212.0860669828
 30
0.0
 11
479.7547252311
 21
179.5860672436
 31
0.0
  0
LINE
  5
1E2
330
1F
100
AcDbEntity
  8
0
  6
Continuous
 62
     7
370
    30
100
AcDbLine
 10
415.7547147407
 20
168.8860686562
 30
0.0
 11
415.7547147407
 21
179.5860672436
 31
0.0
  0
LINE
  5
1E3
330
1F
100
AcDbEntity
  8
0
  6
Continuous
 62
     7
370
    30
100
AcDbLine
 10
479.7547252311
 20
179.5860672436
 30
0.0
 11
479.7547252311
 21
168.8860686562
 31
0.0
  0
LINE
  5
1E4
330
1F
100
AcDbEntity
  8
0
  6
Continuous
 62
     7
370
    30
100
AcDbLine
 10
473.4547228946
 20
219.5860672808
 30
0.0
 11
422.0547170772
 21
219.5860672808
 31
0.0
  0
LINE
  5
1E5
330
1F
100
AcDbEntity
  8
0
  6
Continuous
 62
     7
370
    30
100
AcDbLine
 10
473.4547228946
 20
219.5860672808
 30
0.0
 11
473.7547130717
 21
219.5860672808
 31
0.0
  0
LINE
  5
1E6
330
1F
100
AcDbEntity
  8
0
  6
Continuous
 62
     7
370
    30
100
AcDbLine
 10
473.7547130717
 20
219.5860672808
 30
0.0
 11
473.7547130717
 21
218.086067035
 31
0.0
  0
LINE
  5
1E7
330
1F
100
AcDbEntity
  8
0
  6
Continuous
 62
     7
370
    30
100
AcDbLine
 10
421.7547269
 20
218.086067035
 30
0.0
 11
421.7547269
 21
219.5860672808
 31
0.0
  0
LINE
  5
1E8
330
1F
100
AcDbEntity
  8
0
  6
Continuous
 62
     7
370
    30
100
AcDbLine
 10
421.7547269
 20
219.5860672808
 30
0.0
 11
422.0547170772
 21
219.5860672808
 31
0.0
  0
ARC
  5
1E9
330
1F
100
AcDbEntity
  8
0
  6
Continuous
 62
     7
370
    30
100
AcDbCircle
 10
473.4547305909
 20
239.2860834214
 30
0.0
 40
0.2999824811830283
100
AcDbArc
 50
359.9971070338
 51
90.0014699812
  0
LINE
  5
1EA
330
1F
100
AcDbEntity
  8
0
  6
Continuous
 62
     7
370
    30
100
AcDbLine
 10
421.7547269
 20
219.8860667712
 30
0.0
 11
421.7547269
 21
239.2860682747
 31
0.0
  0
ARC
  5
1EB
330
1F
100
AcDbEntity
  8
0
  6
Continuous
 62
     7
370
    30
100
AcDbCircle
 10
422.0547093808
 20
239.2860834214
 30
0.0
 40
0.2999824811830131
100
AcDbArc
 50
89.9985300188
 51
180.0028929662
  0
LINE
  5
1EC
330
1F
100
AcDbEntity
  8
0
  6
Continuous
 62
     7
370
    30
100
AcDbLine
 10
422.0547170772
 20
239.5860659025
 30
0.0
 11
473.4547228946
 21
239.5860659025
 31
0.0
  0
LINE
  5
1ED
330
1F
100
AcDbEntity
  8
0
  6
Continuous
 62
     7
370
    30
100
AcDbLine
 10
473.7547130717
 20
239.2860682747
 30
0.0
 11
473.7547130717
 21
219.8860667712
 31
0.0
  0
ARC
  5
1EE
330
1F
100
AcDbEntity
  8
0
  6
Continuous
 62
     7
370
    30
100
AcDbCircle
 10
422.0547077912
 20
219.8860481724
 30
0.0
 40
0.299980891764332
100
AcDbArc
 50
179.9964476723
 51
270.001773602
  0
ARC
  5
1EF
330
1F
100
AcDbEntity
  8
0
  6
Continuous
 62
     7
370
    30
100
AcDbCircle
 10
473.4547321806
 20
219.8860481724
 30
0.0
 40
0.299980891764332
100
AcDbArc
 50
269.998226398
 51
0.0035523277
  0
LINE
  5
1F0
330
1F
100
AcDbEntity
  8
0
  6
Continuous
 62
     7
370
    30
100
AcDbLine
 10
473.7547130717
 20
219.8860667712
 30
0.0
 11
473.7547130717
 21
219.5860672808
 31
0.0
  0
LINE
  5
1F1
330
1F
100
AcDbEntity
  8
0
  6
Continuous
 62
     7
370
    30
100
AcDbLine
 10
421.7547269
 20
219.5860672808
 30
0.0
 11
421.7547269
 21
219.8860667712
 31
0.0
  0
LINE
  5
1F2
330
1F
100
AcDbEntity
  8
0
  6
Continuous
 62
     8
370
     0
100
AcDbLine
 10
432.254710926
 20
240.286066576
 30
0.0
 11
432.254710926
 21
239.5860659025
 31
0.0
  0
LINE
  5
1F3
330
1F
100
AcDbEntity
  8
0
  6
Continuous
 62
     8
370
     0
100
AcDbLine
 10
463.2547290458
 20
239.5860659025
 30
0.0
 11
463.2547290458
 21
240.286066576
 31
0.0
  0
LINE
  5
1F4
330
1F
100
AcDbEntity
  8
0
  6
Continuous
 62
     8
370
     0
100
AcDbLine
 10
473.7547130717
 20
218.086067035
 30
0.0
 11
473.7547130717
 21
217.7860666132
 31
0.0
  0
LINE
  5
1F5
330
1F
100
AcDbEntity
  8
0
  6
Continuous
 62
     8
370
     0
100
AcDbLine
 10
473.7547130717
 20
217.7860666132
 30
0.0
 11
421.7547269
 21
217.7860666132
 31
0.0
  0
LINE
  5
1F6
330
1F
100
AcDbEntity
  8
0
  6
Continuous
 62
     8
370
     0
100
AcDbLine
 10
421.7547269
 20
218.086067035
 30
0.0
 11
421.7547269
 21
217.7860666132
 31
0.0
  0
ARC
  5
1F7
330
1F
100
AcDbEntity
  8
0
  6
Continuous
 62
     8
370
     0
100
AcDbCircle
 10
473.7547487639
 20
212.0861101255
 30
0.0
 40
5.699956487862687
100
AcDbArc
 50
359.999566331
 51
90.0003587766
  0
LINE
  5
1F8
330
1F
100
AcDbEntity
  8
0
  6
Continuous
 62
     8
370
     0
100
AcDbLine
 10
479.4547052516
 20
212.0860669828
 30
0.0
 11
479.7547252311
 21
212.0860669828
 31
0.0
  0
ARC
  5
1F9
330
1F
100
AcDbEntity
  8
0
  6
Continuous
 62
     8
370
     0
100
AcDbCircle
 10
421.7547122811
 20
212.08605925
 30
0.0
 40
5.700007363239524
100
AcDbArc
 50
89.999853052
 51
179.9999222711
  0
LINE
  5
1FA
330
1F
100
AcDbEntity
  8
0
  6
Continuous
 62
     8
370
     0
100
AcDbLine
 10
415.7547147407
 20
212.0860669828
 30
0.0
 11
416.0547049178
 21
212.0860669828
 31
0.0
  0
LINE
  5
1FB
330
1F
100
AcDbEntity
  8
0
  6
Continuous
 62
     8
370
     0
100
AcDbLine
 10
479.4547052516
 20
179.5860672436
 30
0.0
 11
479.4547052516
 21
212.0860669828
 31
0.0
  0
LINE
  5
1FC
330
1F
100
AcDbEntity
  8
0
  6
Continuous
 62
     8
370
     0
100
AcDbLine
 10
479.4547052516
 20
179.5860672436
 30
0.0
 11
416.0547049178
 21
179.5860672436
 31
0.0
  0
LINE
  5
1FD
330
1F
100
AcDbEntity
  8
0
  6
Continuous
 62
     8
370
     0
100
AcDbLine
 10
416.0547049178
 20
212.0860669828
 30
0.0
 11
416.0547049178
 21
179.5860672436
 31
0.0
  0
LINE
  5
1FE
330
1F
100
AcDbEntity
  8
0
  6
Continuous
 62
     8
370
     0
100
AcDbLine
 10
415.7547147407
 20
179.5860672436
 30
0.0
 11
416.0547049178
 21
179.5860672436
 31
0.0
  0
LINE
  5
1FF
330
1F
100
AcDbEntity
  8
0
  6
Continuous
 62
     8
370
     0
100
AcDbLine
 10
479.4547052516
 20
179.5860672436
 30
0.0
 11
479.7547252311
 21
179.5860672436
 31
0.0
  0
LINE
  5
200
330
1F
100
AcDbEntity
  8
0
  6
Continuous
 62
     8
370
     0
100
AcDbLine
 10
416.0547049178
 20
179.5860672436
 30
0.0
 11
416.0547049178
 21
168.5860673032
 31
0.0
  0
LINE
  5
201
330
1F
100
AcDbEntity
  8
0
  6
Continuous
 62
     8
370
     0
100
AcDbLine
 10
479.4547052516
 20
168.5860673032
 30
0.0
 11
479.4547052516
 21
179.5860672436
 31
0.0
  0
LINE
  5
202
330
1F
100
AcDbEntity
  8
0
  6
Continuous
 62
     8
370
     0
100
AcDbLine
 10
422.0547170772
 20
219.5860672808
 30
0.0
 11
422.0547170772
 21
218.086067035
 31
0.0
  0
LINE
  5
203
330
1F
100
AcDbEntity
  8
0
  6
Continuous
 62
     8
370
     0
100
AcDbLine
 10
473.4547228946
 20
218.086067035
 30
0.0
 11
473.4547228946
 21
219.5860672808
 31
0.0
  0
LINE
  5
204
330
1F
100
AcDbEntity
  8
0
  6
Continuous
 62
     8
370
     0
100
AcDbLine
 10
473.7547130717
 20
239.2860682747
 30
0.0
 11
473.4547228946
 21
239.2860682747
 31
0.0
  0
LINE
  5
205
330
1F
100
AcDbEntity
  8
0
  6
Continuous
 62
     8
370
     0
100
AcDbLine
 10
473.4547228946
 20
239.2860682747
 30
0.0
 11
473.4547228946
 21
239.5860659025
 31
0.0
  0
LINE
  5
206
330
1F
100
AcDbEntity
  8
0
  6
Continuous
 62
     8
370
     0
100
AcDbLine
 10
422.0547170772
 20
239.2860682747
 30
0.0
 11
422.0547170772
 21
219.8860667712
 31
0.0
  0
LINE
  5
207
330
1F
100
AcDbEntity
  8
0
  6
Continuous
 62
     8
370
     0
100
AcDbLine
 10
422.0547170772
 20
219.8860667712
 30
0.0
 11
421.7547269
 21
219.8860667712
 31
0.0
  0
LINE
  5
208
330
1F
100
AcDbEntity
  8
0
  6
Continuous
 62
     8
370
     0
100
AcDbLine
 10
422.0547170772
 20
239.2860682747
 30
0.0
 11
421.7547269
 21
239.2860682747
 31
0.0
  0
LINE
  5
209
330
1F
100
AcDbEntity
  8
0
  6
Continuous
 62
     8
370
     0
100
AcDbLine
 10
422.0547170772
 20
239.2860682747
 30
0.0
 11
422.0547170772
 21
239.5860659025
 31
0.0
  0
LINE
  5
20A
330
1F
100
AcDbEntity
  8
0
  6
Continuous
 62
     8
370
     0
100
AcDbLine
 10
473.4547228946
 20
239.2860682747
 30
0.0
 11
422.0547170772
 21
239.2860682747
 31
0.0
  0
LINE
  5
20B
330
1F
100
AcDbEntity
  8
0
  6
Continuous
 62
     8
370
     0
100
AcDbLine
 10
473.7547130717
 20
219.8860667712
 30
0.0
 11
473.4547228946
 21
219.8860667712
 31
0.0
  0
LINE
  5
20C
330
1F
100
AcDbEntity
  8
0
  6
Continuous
 62
     8
370
     0
100
AcDbLine
 10
473.4547228946
 20
219.8860667712
 30
0.0
 11
473.4547228946
 21
239.2860682747
 31
0.0
  0
LINE
  5
20D
330
1F
100
AcDbEntity
  8
0
  6
Continuous
 62
     8
370
     0
100
AcDbLine
 10
422.0547170772
 20
219.8860667712
 30
0.0
 11
473.4547228946
 21
219.8860667712
 31
0.0
  0
LINE
  5
20E
330
1F
100
AcDbEntity
  8
0
  6
Continuous
 62
     8
370
     0
100
AcDbLine
 10
422.0547170772
 20
219.5860672808
 30
0.0
 11
422.0547170772
 21
219.8860667712
 31
0.0
  0
LINE
  5
20F
330
1F
100
AcDbEntity
  8
0
  6
Continuous
 62
     8
370
     0
100
AcDbLine
 10
473.4547228946
 20
219.5860672808
 30
0.0
 11
473.4547228946
 21
219.8860667712
 31
0.0
  0
LINE
  5
210
330
1F
100
AcDbEntity
  8
0
  6
Continuous
 62
     7
370
    30
100
AcDbLine
 10
193.391865191
 20
170.586067631
 30
0.0
 11
304.7659900756
 21
170.586067631
 31
0.0
  0
LINE
  5
211
330
1F
100
AcDbEntity
  8
0
  6
Continuous
 62
     7
370
    30
100
AcDbLine
 10
304.7819492192
 20
188.5860668561
 30
0.0
 11
193.391865191
 21
188.5860668561
 31
0.0
  0
ARC
  5
212
330
1F
100
AcDbEntity
  8
0
  6
Continuous
 62
     7
370
    30
100
AcDbCircle
 10
129.6918880579
 20
168.886100662
 30
0.0
 40
0.3000333590849192
100
AcDbArc
 50
180.0061119705
 51
269.9974452932
  0
ARC
  5
213
330
1F
100
AcDbEntity
  8
0
  6
Continuous
 62
     7
370
    30
100
AcDbCircle
 10
193.0918318288
 20
168.8861006639
 30
0.0
 40
0.3000333638818639
100
AcDbArc
 50
270.0082468142
 51
359.9938876501
  0
LINE
  5
214
330
1F
100
AcDbEntity
  8
0
  6
Continuous
 62
     7
370
    30
100
AcDbLine
 10
129.69187468
 20
168.5860673032
 30
0.0
 11
193.0918750138
 21
168.5860673032
 31
0.0
  0
LINE
  5
215
330
1F
100
AcDbEntity
  8
0
  6
Continuous
 62
     7
370
    30
100
AcDbLine
 10
138.8918516011
 20
239.5860659025
 30
0.0
 11
138.8918516011
 21
240.286066576
 31
0.0
  0
LINE
  5
216
330
1F
100
AcDbEntity
  8
0
  6
Continuous
 62
     7
370
    30
100
AcDbLine
 10
138.8918516011
 20
240.286066576
 30
0.0
 11
145.8918508859
 21
240.286066576
 31
0.0
  0
LINE
  5
217
330
1F
100
AcDbEntity
  8
0
  6
Continuous
 62
     7
370
    30
100
AcDbLine
 10
176.8918690057
 20
240.286066576
 30
0.0
 11
145.8918508859
 21
240.286066576
 31
0.0
  0
LINE
  5
218
330
1F
100
AcDbEntity
  8
0
  6
Continuous
 62
     7
370
    30
100
AcDbLine
 10
183.8918682904
 20
240.286066576
 30
0.0
 11
183.8918682904
 21
239.5860659025
 31
0.0
  0
LINE
  5
219
330
1F
100
AcDbEntity
  8
0
  6
Continuous
 62
     7
370
    30
100
AcDbLine
 10
176.8918690057
 20
240.286066576
 30
0.0
 11
183.8918682904
 21
240.286066576
 31
0.0
  0
ARC
  5
21A
330
1F
100
AcDbEntity
  8
0
  6
Continuous
 62
     7
370
    30
100
AcDbCircle
 10
187.3918753471
 20
212.0860771911
 30
0.0
 40
5.99998984389737
100
AcDbArc
 50
359.9999025178
 51
90.0002130973
  0
LINE
  5
21B
330
1F
100
AcDbEntity
  8
0
  6
Continuous
 62
     7
370
    30
100
AcDbLine
 10
135.3918668599
 20
218.086067035
 30
0.0
 11
187.3918530316
 21
218.086067035
 31
0.0
  0
ARC
  5
21C
330
1F
100
AcDbEntity
  8
0
  6
Continuous
 62
     7
370
    30
100
AcDbCircle
 10
135.3918445444
 20
212.0860771911
 30
0.0
 40
5.99998984389737
100
AcDbArc
 50
89.9997869027
 51
180.0000974822
  0
LINE
  5
21D
330
1F
100
AcDbEntity
  8
0
  6
Continuous
 62
     7
370
    30
100
AcDbLine
 10
193.391865191
 20
212.0860669828
 30
0.0
 11
193.391865191
 21
179.5860672436
 31
0.0
  0
LINE
  5
21E
330
1F
100
AcDbEntity
  8
0
  6
Continuous
 62
     7
370
    30
100
AcDbLine
 10
129.3918547006
 20
179.5860672436
 30
0.0
 11
129.3918547006
 21
212.0860669828
 31
0.0
  0
LINE
  5
21F
330
1F
100
AcDbEntity
  8
0
  6
Continuous
 62
     7
370
    30
100
AcDbLine
 10
129.3918547006
 20
168.8860686562
 30
0.0
 11
129.3918547006
 21
179.5860672436
 31
0.0
  0
LINE
  5
220
330
1F
100
AcDbEntity
  8
0
  6
Continuous
 62
     7
370
    30
100
AcDbLine
 10
193.391865191
 20
179.5860672436
 30
0.0
 11
193.391865191
 21
168.8860686562
 31
0.0
  0
LINE
  5
221
330
1F
100
AcDbEntity
  8
0
  6
Continuous
 62
     7
370
    30
100
AcDbLine
 10
187.0918628545
 20
219.5860672808
 30
0.0
 11
135.6918570371
 21
219.5860672808
 31
0.0
  0
LINE
  5
222
330
1F
100
AcDbEntity
  8
0
  6
Continuous
 62
     7
370
    30
100
AcDbLine
 10
187.0918628545
 20
219.5860672808
 30
0.0
 11
187.3918530316
 21
219.5860672808
 31
0.0
  0
LINE
  5
223
330
1F
100
AcDbEntity
  8
0
  6
Continuous
 62
     7
370
    30
100
AcDbLine
 10
187.3918530316
 20
219.5860672808
 30
0.0
 11
187.3918530316
 21
218.086067035
 31
0.0
  0
LINE
  5
224
330
1F
100
AcDbEntity
  8
0
  6
Continuous
 62
     7
370
    30
100
AcDbLine
 10
135.3918668599
 20
218.086067035
 30
0.0
 11
135.3918668599
 21
219.5860672808
 31
0.0
  0
LINE
  5
225
330
1F
100
AcDbEntity
  8
0
  6
Continuous
 62
     7
370
    30
100
AcDbLine
 10
135.3918668599
 20
219.5860672808
 30
0.0
 11
135.6918570371
 21
219.5860672808
 31
0.0
  0
LINE
  5
226
330
1F
100
AcDbEntity
  8
0
  6
Continuous
 62
     7
370
    30
100
AcDbLine
 10
135.6918570371
 20
239.5860659025
 30
0.0
 11
187.0918628545
 21
239.5860659025
 31
0.0
  0
ARC
  5
227
330
1F
100
AcDbEntity
  8
0
  6
Continuous
 62
     7
370
    30
100
AcDbCircle
 10
135.6918493407
 20
239.2860834214
 30
0.0
 40
0.2999824811830131
100
AcDbArc
 50
89.9985300188
 51
180.0028929662
  0
LINE
  5
228
330
1F
100
AcDbEntity
  8
0
  6
Continuous
 62
     7
370
    30
100
AcDbLine
 10
135.3918668599
 20
219.8860667712
 30
0.0
 11
135.3918668599
 21
239.2860682747
 31
0.0
  0
ARC
  5
229
330
1F
100
AcDbEntity
  8
0
  6
Continuous
 62
     7
370
    30
100
AcDbCircle
 10
187.0918705508
 20
239.2860834214
 30
0.0
 40
0.2999824811830415
100
AcDbArc
 50
359.9971070338
 51
90.0014699812
  0
LINE
  5
22A
330
1F
100
AcDbEntity
  8
0
  6
Continuous
 62
     7
370
    30
100
AcDbLine
 10
187.3918530316
 20
239.2860682747
 30
0.0
 11
187.3918530316
 21
219.8860667712
 31
0.0
  0
ARC
  5
22B
330
1F
100
AcDbEntity
  8
0
  6
Continuous
 62
     7
370
    30
100
AcDbCircle
 10
135.6918477511
 20
219.8860481724
 30
0.0
 40
0.299980891764332
100
AcDbArc
 50
179.9964476723
 51
270.001773602
  0
ARC
  5
22C
330
1F
100
AcDbEntity
  8
0
  6
Continuous
 62
     7
370
    30
100
AcDbCircle
 10
187.0918721404
 20
219.8860481724
 30
0.0
 40
0.299980891764332
100
AcDbArc
 50
269.998226398
 51
0.0035523277
  0
LINE
  5
22D
330
1F
100
AcDbEntity
  8
0
  6
Continuous
 62
     7
370
    30
100
AcDbLine
 10
135.3918668599
 20
219.5860672808
 30
0.0
 11
135.3918668599
 21
219.8860667712
 31
0.0
  0
LINE
  5
22E
330
1F
100
AcDbEntity
  8
0
  6
Continuous
 62
     7
370
    30
100
AcDbLine
 10
187.3918530316
 20
219.8860667712
 30
0.0
 11
187.3918530316
 21
219.5860672808
 31
0.0
  0
LINE
  5
22F
330
1F
100
AcDbEntity
  8
0
  6
Continuous
 62
     8
370
     0
100
AcDbLine
 10
145.8918508859
 20
240.286066576
 30
0.0
 11
145.8918508859
 21
239.5860659025
 31
0.0
  0
LINE
  5
230
330
1F
100
AcDbEntity
  8
0
  6
Continuous
 62
     8
370
     0
100
AcDbLine
 10
176.8918690057
 20
239.5860659025
 30
0.0
 11
176.8918690057
 21
240.286066576
 31
0.0
  0
ARC
  5
231
330
1F
100
AcDbEntity
  8
0
  6
Continuous
 62
     8
370
     0
100
AcDbCircle
 10
187.3918676506
 20
212.08605925
 30
0.0
 40
5.700007363239552
100
AcDbArc
 50
0.0000777289
 51
90.000146948
  0
LINE
  5
232
330
1F
100
AcDbEntity
  8
0
  6
Continuous
 62
     8
370
     0
100
AcDbLine
 10
187.3918530316
 20
218.086067035
 30
0.0
 11
187.3918530316
 21
217.7860666132
 31
0.0
  0
LINE
  5
233
330
1F
100
AcDbEntity
  8
0
  6
Continuous
 62
     8
370
     0
100
AcDbLine
 10
193.0918750138
 20
212.0860669828
 30
0.0
 11
193.391865191
 21
212.0860669828
 31
0.0
  0
LINE
  5
234
330
1F
100
AcDbEntity
  8
0
  6
Continuous
 62
     8
370
     0
100
AcDbLine
 10
187.3918530316
 20
217.7860666132
 30
0.0
 11
135.3918668599
 21
217.7860666132
 31
0.0
  0
LINE
  5
235
330
1F
100
AcDbEntity
  8
0
  6
Continuous
 62
     8
370
     0
100
AcDbLine
 10
135.3918668599
 20
218.086067035
 30
0.0
 11
135.3918668599
 21
217.7860666132
 31
0.0
  0
LINE
  5
236
330
1F
100
AcDbEntity
  8
0
  6
Continuous
 62
     8
370
     0
100
AcDbLine
 10
193.0918750138
 20
179.5860672436
 30
0.0
 11
193.0918750138
 21
212.0860669828
 31
0.0
  0
LINE
  5
237
330
1F
100
AcDbEntity
  8
0
  6
Continuous
 62
     8
370
     0
100
AcDbLine
 10
193.0918750138
 20
179.5860672436
 30
0.0
 11
129.69187468
 21
179.5860672436
 31
0.0
  0
LINE
  5
238
330
1F
100
AcDbEntity
  8
0
  6
Continuous
 62
     8
370
     0
100
AcDbLine
 10
129.69187468
 20
212.0860669828
 30
0.0
 11
129.69187468
 21
179.5860672436
 31
0.0
  0
ARC
  5
239
330
1F
100
AcDbEntity
  8
0
  6
Continuous
 62
     8
370
     0
100
AcDbCircle
 10
135.3918311677
 20
212.0861101255
 30
0.0
 40
5.699956487862655
100
AcDbArc
 50
89.9996412234
 51
180.000433669
  0
LINE
  5
23A
330
1F
100
AcDbEntity
  8
0
  6
Continuous
 62
     8
370
     0
100
AcDbLine
 10
129.3918547006
 20
212.0860669828
 30
0.0
 11
129.69187468
 21
212.0860669828
 31
0.0
  0
LINE
  5
23B
330
1F
100
AcDbEntity
  8
0
  6
Continuous
 62
     8
370
     0
100
AcDbLine
 10
193.0918750138
 20
179.5860672436
 30
0.0
 11
193.391865191
 21
179.5860672436
 31
0.0
  0
LINE
  5
23C
330
1F
100
AcDbEntity
  8
0
  6
Continuous
 62
     8
370
     0
100
AcDbLine
 10
129.3918547006
 20
179.5860672436
 30
0.0
 11
129.69187468
 21
179.5860672436
 31
0.0
  0
LINE
  5
23D
330
1F
100
AcDbEntity
  8
0
  6
Continuous
 62
     8
370
     0
100
AcDbLine
 10
129.69187468
 20
179.5860672436
 30
0.0
 11
129.69187468
 21
168.5860673032
 31
0.0
  0
LINE
  5
23E
330
1F
100
AcDbEntity
  8
0
  6
Continuous
 62
     8
370
     0
100
AcDbLine
 10
193.0918750138
 20
168.5860673032
 30
0.0
 11
193.0918750138
 21
179.5860672436
 31
0.0
  0
LINE
  5
23F
330
1F
100
AcDbEntity
  8
0
  6
Continuous
 62
     8
370
     0
100
AcDbLine
 10
135.6918570371
 20
219.5860672808
 30
0.0
 11
135.6918570371
 21
218.086067035
 31
0.0
  0
LINE
  5
240
330
1F
100
AcDbEntity
  8
0
  6
Continuous
 62
     8
370
     0
100
AcDbLine
 10
187.0918628545
 20
218.086067035
 30
0.0
 11
187.0918628545
 21
219.5860672808
 31
0.0
  0
LINE
  5
241
330
1F
100
AcDbEntity
  8
0
  6
Continuous
 62
     8
370
     0
100
AcDbLine
 10
187.0918628545
 20
239.2860682747
 30
0.0
 11
135.6918570371
 21
239.2860682747
 31
0.0
  0
LINE
  5
242
330
1F
100
AcDbEntity
  8
0
  6
Continuous
 62
     8
370
     0
100
AcDbLine
 10
135.6918570371
 20
239.2860682747
 30
0.0
 11
135.6918570371
 21
239.5860659025
 31
0.0
  0
LINE
  5
243
330
1F
100
AcDbEntity
  8
0
  6
Continuous
 62
     8
370
     0
100
AcDbLine
 10
187.0918628545
 20
239.2860682747
 30
0.0
 11
187.0918628545
 21
239.5860659025
 31
0.0
  0
LINE
  5
244
330
1F
100
AcDbEntity
  8
0
  6
Continuous
 62
     8
370
     0
100
AcDbLine
 10
135.6918570371
 20
239.2860682747
 30
0.0
 11
135.3918668599
 21
239.2860682747
 31
0.0
  0
LINE
  5
245
330
1F
100
AcDbEntity
  8
0
  6
Continuous
 62
     8
370
     0
100
AcDbLine
 10
135.6918570371
 20
239.2860682747
 30
0.0
 11
135.6918570371
 21
219.8860667712
 31
0.0
  0
LINE
  5
246
330
1F
100
AcDbEntity
  8
0
  6
Continuous
 62
     8
370
     0
100
AcDbLine
 10
135.6918570371
 20
219.8860667712
 30
0.0
 11
135.3918668599
 21
219.8860667712
 31
0.0
  0
LINE
  5
247
330
1F
100
AcDbEntity
  8
0
  6
Continuous
 62
     8
370
     0
100
AcDbLine
 10
187.3918530316
 20
239.2860682747
 30
0.0
 11
187.0918628545
 21
239.2860682747
 31
0.0
  0
LINE
  5
248
330
1F
100
AcDbEntity
  8
0
  6
Continuous
 62
     8
370
     0
100
AcDbLine
 10
187.3918530316
 20
219.8860667712
 30
0.0
 11
187.0918628545
 21
219.8860667712
 31
0.0
  0
LINE
  5
249
330
1F
100
AcDbEntity
  8
0
  6
Continuous
 62
     8
370
     0
100
AcDbLine
 10
187.0918628545
 20
219.8860667712
 30
0.0
 11
187.0918628545
 21
239.2860682747
 31
0.0
  0
LINE
  5
24A
330
1F
100
AcDbEntity
  8
0
  6
Continuous
 62
     8
370
     0
100
AcDbLine
 10
135.6918570371
 20
219.8860667712
 30
0.0
 11
187.0918628545
 21
219.8860667712
 31
0.0
  0
LINE
  5
24B
330
1F
100
AcDbEntity
  8
0
  6
Continuous
 62
     8
370
     0
100
AcDbLine
 10
135.6918570371
 20
219.5860672808
 30
0.0
 11
135.6918570371
 21
219.8860667712
 31
0.0
  0
LINE
  5
24C
330
1F
100
AcDbEntity
  8
0
  6
Continuous
 62
     8
370
     0
100
AcDbLine
 10
187.0918628545
 20
219.5860672808
 30
0.0
 11
187.0918628545
 21
219.8860667712
 31
0.0
  0
LINE
  5
24D
330
1F
100
AcDbEntity
  8
0
  6
HIDDEN
 62
     7
370
     0
100
AcDbLine
 10
304.7739719184
 20
188.5860669396
 30
0.0
 11
306.7739719184
 21
186.0860669396
 31
0.0
  0
LINE
  5
24E
330
1F
100
AcDbEntity
  8
0
  6
HIDDEN
 62
     7
370
     0
100
AcDbLine
 10
306.7739719184
 20
186.0860669396
 30
0.0
 11
302.7739719184
 21
182.0860669396
 31
0.0
  0
LINE
  5
24F
330
1F
100
AcDbEntity
  8
0
  6
HIDDEN
 62
     7
370
     0
100
AcDbLine
 10
302.7739719184
 20
182.0860669396
 30
0.0
 11
306.7739719184
 21
177.0860669396
 31
0.0
  0
LINE
  5
250
330
1F
100
AcDbEntity
  8
0
  6
HIDDEN
 62
     7
370
     0
100
AcDbLine
 10
306.7739719184
 20
177.0860669396
 30
0.0
 11
302.7739719184
 21
173.0860669396
 31
0.0
  0
LINE
  5
251
330
1F
100
AcDbEntity
  8
0
  6
HIDDEN
 62
     7
370
     0
100
AcDbLine
 10
302.7739719184
 20
173.0860669396
 30
0.0
 11
304.7739719184
 21
170.5860669396
 31
0.0
  0
LINE
  5
252
330
1F
100
AcDbEntity
  8
0
  6
HIDDEN
 62
     7
370
     0
100
AcDbLine
 10
314.7739719184
 20
188.5860669396
 30
0.0
 11
316.7739719184
 21
186.0860669396
 31
0.0
  0
LINE
  5
253
330
1F
100
AcDbEntity
  8
0
  6
HIDDEN
 62
     7
370
     0
100
AcDbLine
 10
316.7739719184
 20
186.0860669396
 30
0.0
 11
312.7739719184
 21
182.0860669396
 31
0.0
  0
LINE
  5
254
330
1F
100
AcDbEntity
  8
0
  6
HIDDEN
 62
     7
370
     0
100
AcDbLine
 10
312.7739719184
 20
182.0860669396
 30
0.0
 11
316.7739719184
 21
177.0860669396
 31
0.0
  0
LINE
  5
255
330
1F
100
AcDbEntity
  8
0
  6
HIDDEN
 62
     7
370
     0
100
AcDbLine
 10
316.7739719184
 20
177.0860669396
 30
0.0
 11
312.7739719184
 21
173.0860669396
 31
0.0
  0
LINE
  5
256
330
1F
100
AcDbEntity
  8
0
  6
HIDDEN
 62
     7
370
     0
100
AcDbLine
 10
312.7739719184
 20
173.0860669396
 30
0.0
 11
314.7739719184
 21
170.5860669396
 31
0.0
  0
LINE
  5
257
330
1F
100
AcDbEntity
  8
0
  6
CENTERX2
 62
     7
370
     0
100
AcDbLine
 10
307.3332217307
 20
179.5860672436
 30
0.0
 11
127.6918706269
 21
179.5860672436
 31
0.0
  0
LINE
  5
258
330
1F
100
AcDbEntity
  8
0
  6
CENTERX2
 62
     7
370
     0
100
AcDbLine
 10
481.4547093047
 20
179.5860672436
 30
0.0
 11
314.7739709748
 21
179.5860672436
 31
0.0
  0
LINE
  5
259
330
1F
100
AcDbEntity
  8
0
  6
Continuous
 62
     7
370
    30
100
AcDbLine
 10
103.4201238736
 20
275.3646658251
 30
0.0
 11
103.4201238736
 21
268.3646656091
 31
0.0
  0
LINE
  5
25A
330
1F
100
AcDbEntity
  8
0
  6
Continuous
 62
     7
370
    30
100
AcDbLine
 10
103.4201238736
 20
268.3646656091
 30
0.0
 11
102.7201238986
 21
268.3646656091
 31
0.0
  0
LINE
  5
25B
330
1F
100
AcDbEntity
  8
0
  6
Continuous
 62
     7
370
    30
100
AcDbLine
 10
102.7201238986
 20
300.3646652664
 30
0.0
 11
103.4201238736
 21
300.3646652664
 31
0.0
  0
LINE
  5
25C
330
1F
100
AcDbEntity
  8
0
  6
Continuous
 62
     7
370
    30
100
AcDbLine
 10
103.4201238736
 20
300.3646652664
 30
0.0
 11
103.4201238736
 21
293.3646659816
 31
0.0
  0
LINE
  5
25D
330
1F
100
AcDbEntity
  8
0
  6
Continuous
 62
     7
370
    30
100
AcDbLine
 10
103.4201238736
 20
275.3646658251
 30
0.0
 11
103.4201238736
 21
293.3646659816
 31
0.0
  0
LINE
  5
25E
330
1F
100
AcDbEntity
  8
0
  6
Continuous
 62
     7
370
    30
100
AcDbLine
 10
75.2201240476
 20
283.3646660887
 30
0.0
 11
42.7201252397
 21
283.3646660887
 31
0.0
  0
LINE
  5
25F
330
1F
100
AcDbEntity
  8
0
  6
Continuous
 62
     7
370
    30
100
AcDbLine
 10
75.2201240476
 20
305.3646660859
 30
0.0
 11
80.920123678
 21
305.3646660859
 31
0.0
  0
ARC
  5
260
330
1F
100
AcDbEntity
  8
0
  6
Continuous
 62
     7
370
    30
100
AcDbCircle
 10
80.9201238986
 20
305.0646660412
 30
0.0
 40
0.3000000000000114
100
AcDbArc
 50
0.0
 51
90.0
  0
LINE
  5
261
330
1F
100
AcDbEntity
  8
0
  6
Continuous
 62
     7
370
    30
100
AcDbLine
 10
42.7201252397
 20
305.3646660859
 30
0.0
 11
75.2201240476
 21
305.3646660859
 31
0.0
  0
LINE
  5
262
330
1F
100
AcDbEntity
  8
0
  6
Continuous
 62
     7
370
    30
100
AcDbLine
 10
81.2201231684
 20
305.0646665955
 30
0.0
 11
81.2201231684
 21
283.6646660448
 31
0.0
  0
LINE
  5
263
330
1F
100
AcDbEntity
  8
0
  6
Continuous
 62
     7
370
    30
100
AcDbLine
 10
80.920123678
 20
283.3646660887
 30
0.0
 11
75.2201240476
 21
283.3646660887
 31
0.0
  0
ARC
  5
264
330
1F
100
AcDbEntity
  8
0
  6
Continuous
 62
     7
370
    30
100
AcDbCircle
 10
80.9201238986
 20
283.6646660412
 30
0.0
 40
0.3000000000000114
100
AcDbArc
 50
270.0
 51
0.0
  0
ARC
  5
265
330
1F
100
AcDbEntity
  8
0
  6
Continuous
 62
     7
370
    30
100
AcDbCircle
 10
42.7201238986
 20
294.3646660412
 30
0.0
 40
11.0
100
AcDbArc
 50
90.0
 51
270.0
  0
LINE
  5
266
330
1F
100
AcDbEntity
  8
0
  6
Continuous
 62
     7
370
    30
100
AcDbLine
 10
81.2201231684
 20
303.3646657581
 30
0.0
 11
82.7201243456
 21
303.3646657581
 31
0.0
  0
LINE
  5
267
330
1F
100
AcDbEntity
  8
0
  6
Continuous
 62
     7
370
    30
100
AcDbLine
 10
82.7201243456
 20
303.3646657581
 30
0.0
 11
82.7201243456
 21
303.0646662677
 31
0.0
  0
LINE
  5
268
330
1F
100
AcDbEntity
  8
0
  6
Continuous
 62
     7
370
    30
100
AcDbLine
 10
82.7201243456
 20
283.6646660448
 30
0.0
 11
82.7201243456
 21
283.3646660887
 31
0.0
  0
LINE
  5
269
330
1F
100
AcDbEntity
  8
0
  6
Continuous
 62
     7
370
    30
100
AcDbLine
 10
82.7201243456
 20
283.3646660887
 30
0.0
 11
81.2201231684
 21
283.3646660887
 31
0.0
  0
LINE
  5
26A
330
1F
100
AcDbEntity
  8
0
  6
Continuous
 62
     7
370
    30
100
AcDbLine
 10
81.2201231684
 20
283.3646660887
 30
0.0
 11
81.2201231684
 21
283.6646660448
 31
0.0
  0
LINE
  5
26B
330
1F
100
AcDbEntity
  8
0
  6
Continuous
 62
     7
370
    30
100
AcDbLine
 10
81.2201231684
 20
283.6646660448
 30
0.0
 11
81.2201231684
 21
303.0646662677
 31
0.0
  0
LINE
  5
26C
330
1F
100
AcDbEntity
  8
0
  6
Continuous
 62
     7
370
    30
100
AcDbLine
 10
82.7201243456
 20
283.6646660448
 30
0.0
 11
82.7201243456
 21
303.0646662677
 31
0.0
  0
LINE
  5
26D
330
1F
100
AcDbEntity
  8
0
  6
Continuous
 62
     7
370
    30
100
AcDbLine
 10
102.7201238986
 20
303.0646662677
 30
0.0
 11
102.7201238986
 21
261.6646658147
 31
0.0
  0
LINE
  5
26E
330
1F
100
AcDbEntity
  8
0
  6
Continuous
 62
     7
370
    30
100
AcDbLine
 10
83.020123836
 20
303.3646657581
 30
0.0
 11
102.4201238843
 21
303.3646657581
 31
0.0
  0
LINE
  5
26F
330
1F
100
AcDbEntity
  8
0
  6
Continuous
 62
     7
370
    30
100
AcDbLine
 10
102.4201238843
 20
261.3646663243
 30
0.0
 11
83.020123836
 21
261.3646663243
 31
0.0
  0
LWPOLYLINE
  5
270
330
1F
100
AcDbEntity
  8
0
  6
Continuous
 62
     7
370
    30
100
AcDbPolyline
 90
        9
 70
   128
 43
0.0
 10
79.0201231803
 20
280.1646660531
 10
78.9615970071
 20
280.1061389486
 10
78.9053190465
 20
280.049860988
 10
78.8534536924
 20
279.9979949354
 10
78.8079921122
 20
279.9525340537
 10
78.7706833299
 20
279.9152252714
 10
78.7429597195
 20
279.8875021266
 10
78.7258885767
 20
279.8704305182
 10
78.7201236899
 20
279.8646660971
  0
LINE
  5
271
330
1F
100
AcDbEntity
  8
0
  6
Continuous
 62
     7
370
    30
100
AcDbLine
 10
78.7201236899
 20
279.8646660971
 30
0.0
 11
78.7201236899
 21
282.787315767
 31
0.0
  0
LWPOLYLINE
  5
272
330
1F
100
AcDbEntity
  8
0
  6
Continuous
 62
     7
370
    30
100
AcDbPolyline
 90
       10
 70
   128
 43
0.0
 10
79.0201231803
 20
282.6141106938
 10
78.9680287208
 20
282.6441874362
 10
78.9175175096
 20
282.6733503183
 10
78.8701243664
 20
282.700713245
 10
78.8272872533
 20
282.7254447779
 10
78.7903100218
 20
282.7467934852
 10
78.760315847
 20
282.7641107009
 10
78.7382155623
 20
282.7768702276
 10
78.7246815826
 20
282.7846844024
 10
78.7201236899
 20
282.787315767
  0
ARC
  5
273
330
1F
100
AcDbEntity
  8
0
  6
Continuous
 62
     7
370
    30
100
AcDbCircle
 10
79.7201238986
 20
276.8646660412
 30
0.0
 40
3.0
100
AcDbArc
 50
0.0
 51
90.0
  0
ARC
  5
274
330
1F
100
AcDbEntity
  8
0
  6
Continuous
 62
     7
370
    30
100
AcDbCircle
 10
102.4201238986
 20
261.6646660412
 30
0.0
 40
0.3000000000000682
100
AcDbArc
 50
270.0
 51
0.0
  0
LINE
  5
275
330
1F
100
AcDbEntity
  8
0
  6
Continuous
 62
     7
370
    30
100
AcDbLine
 10
78.7201236899
 20
282.787315767
 30
0.0
 11
79.7201238538
 21
283.3646660887
 31
0.0
  0
LWPOLYLINE
  5
276
330
1F
100
AcDbEntity
  8
0
  6
Continuous
 62
     7
370
    30
100
AcDbPolyline
 90
        9
 70
   128
 43
0.0
 10
79.7201238538
 20
283.3646660887
 10
79.7216679867
 20
283.3589016676
 10
79.7262426432
 20
283.3418299428
 10
79.733670872
 20
283.3141069144
 10
79.7436676885
 20
283.2767980739
 10
79.7558493878
 20
283.231337134
 10
79.7697465833
 20
283.1794710813
 10
79.7848265584
 20
283.1231931208
 10
79.8005081679
 20
283.0646660163
  0
LINE
  5
277
330
1F
100
AcDbEntity
  8
0
  6
Continuous
 62
     7
370
    30
100
AcDbLine
 10
82.7201243456
 20
261.6646658147
 30
0.0
 11
82.7201243456
 21
276.864666071
 31
0.0
  0
LINE
  5
278
330
1F
100
AcDbEntity
  8
0
  6
Continuous
 62
     7
370
    30
100
AcDbLine
 10
79.7201238538
 20
279.8646660971
 30
0.0
 11
78.7201236899
 21
279.8646660971
 31
0.0
  0
ARC
  5
279
330
1F
100
AcDbEntity
  8
0
  6
Continuous
 62
     7
370
    30
100
AcDbCircle
 10
102.4201238986
 20
303.0646660412
 30
0.0
 40
0.3000000000000114
100
AcDbArc
 50
0.0
 51
90.0
  0
LINE
  5
27A
330
1F
100
AcDbEntity
  8
0
  6
Continuous
 62
     7
370
    30
100
AcDbLine
 10
80.920123678
 20
283.3646660887
 30
0.0
 11
82.7201243456
 21
283.3646660887
 31
0.0
  0
LWPOLYLINE
  5
27B
330
1F
100
AcDbEntity
  8
0
  6
Continuous
 62
     7
370
    30
100
AcDbPolyline
 90
        9
 70
   128
 43
0.0
 10
82.7201243456
 20
283.3646660887
 10
82.7258892323
 20
283.3589016676
 10
82.7429603751
 20
283.3418299428
 10
82.7706821229
 20
283.3141069144
 10
82.8079927679
 20
283.2767980739
 10
82.8534524854
 20
283.231337134
 10
82.9053197022
 20
283.1794710813
 10
82.9615976627
 20
283.1231931208
 10
83.020123836
 20
283.0646660163
  0
ARC
  5
27C
330
1F
100
AcDbEntity
  8
0
  6
Continuous
 62
     7
370
    30
100
AcDbCircle
 10
83.0201238986
 20
303.0646660412
 30
0.0
 40
0.3000000000000114
100
AcDbArc
 50
90.0
 51
180.0
  0
ARC
  5
27D
330
1F
100
AcDbEntity
  8
0
  6
Continuous
 62
     7
370
    30
100
AcDbCircle
 10
83.0201238986
 20
261.6646660412
 30
0.0
 40
0.3000000000000682
100
AcDbArc
 50
180.0
 51
270.0
  0
LINE
  5
27E
330
1F
100
AcDbEntity
  8
0
  6
Continuous
 62
     8
370
     0
100
AcDbLine
 10
102.7201238986
 20
275.3646658251
 30
0.0
 11
103.4201238736
 21
275.3646658251
 31
0.0
  0
LINE
  5
27F
330
1F
100
AcDbEntity
  8
0
  6
Continuous
 62
     8
370
     0
100
AcDbLine
 10
103.4201238736
 20
293.3646659816
 30
0.0
 11
102.7201238986
 21
293.3646659816
 31
0.0
  0
LINE
  5
280
330
1F
100
AcDbEntity
  8
0
  6
Continuous
 62
     8
370
     0
100
AcDbLine
 10
42.7201252397
 20
283.3646660887
 30
0.0
 11
42.7201252397
 21
283.6646660448
 31
0.0
  0
LINE
  5
281
330
1F
100
AcDbEntity
  8
0
  6
Continuous
 62
     8
370
     0
100
AcDbLine
 10
42.7201252397
 20
283.6646660448
 30
0.0
 11
75.2201240476
 21
283.6646660448
 31
0.0
  0
LINE
  5
282
330
1F
100
AcDbEntity
  8
0
  6
Continuous
 62
     8
370
     0
100
AcDbLine
 10
75.2201240476
 20
283.3646660887
 30
0.0
 11
75.2201240476
 21
283.6646660448
 31
0.0
  0
LINE
  5
283
330
1F
100
AcDbEntity
  8
0
  6
Continuous
 62
     8
370
     0
100
AcDbLine
 10
81.2201231684
 20
305.0646665955
 30
0.0
 11
75.2201240476
 21
305.0646665955
 31
0.0
  0
LINE
  5
284
330
1F
100
AcDbEntity
  8
0
  6
Continuous
 62
     8
370
     0
100
AcDbLine
 10
75.2201240476
 20
305.3646660859
 30
0.0
 11
75.2201240476
 21
305.0646665955
 31
0.0
  0
LINE
  5
285
330
1F
100
AcDbEntity
  8
0
  6
Continuous
 62
     8
370
     0
100
AcDbLine
 10
75.2201240476
 20
305.0646665955
 30
0.0
 11
42.7201252397
 21
305.0646665955
 31
0.0
  0
LINE
  5
286
330
1F
100
AcDbEntity
  8
0
  6
Continuous
 62
     8
370
     0
100
AcDbLine
 10
75.2201240476
 20
283.6646660448
 30
0.0
 11
75.2201240476
 21
305.0646665955
 31
0.0
  0
ARC
  5
287
330
1F
100
AcDbEntity
  8
0
  6
Continuous
 62
     8
370
     0
100
AcDbCircle
 10
42.7201238986
 20
294.3646660412
 30
0.0
 40
10.70000000000005
100
AcDbArc
 50
90.0
 51
270.0
  0
LINE
  5
288
330
1F
100
AcDbEntity
  8
0
  6
Continuous
 62
     8
370
     0
100
AcDbLine
 10
42.7201252397
 20
305.3646660859
 30
0.0
 11
42.7201252397
 21
305.0646665955
 31
0.0
  0
LINE
  5
289
330
1F
100
AcDbEntity
  8
0
  6
Continuous
 62
     8
370
     0
100
AcDbLine
 10
75.2201240476
 20
283.6646660448
 30
0.0
 11
81.2201231684
 21
283.6646660448
 31
0.0
  0
LINE
  5
28A
330
1F
100
AcDbEntity
  8
0
  6
Continuous
 62
     8
370
     0
100
AcDbLine
 10
82.7201243456
 20
303.0646662677
 30
0.0
 11
81.2201231684
 21
303.0646662677
 31
0.0
  0
LINE
  5
28B
330
1F
100
AcDbEntity
  8
0
  6
Continuous
 62
     8
370
     0
100
AcDbLine
 10
81.2201231684
 20
283.6646660448
 30
0.0
 11
82.7201243456
 21
283.6646660448
 31
0.0
  0
LINE
  5
28C
330
1F
100
AcDbEntity
  8
0
  6
Continuous
 62
     8
370
     0
100
AcDbLine
 10
102.7201238986
 20
261.6646658147
 30
0.0
 11
102.4201238843
 21
261.6646658147
 31
0.0
  0
LINE
  5
28D
330
1F
100
AcDbEntity
  8
0
  6
Continuous
 62
     8
370
     0
100
AcDbLine
 10
102.4201238843
 20
261.6646658147
 30
0.0
 11
102.4201238843
 21
303.0646662677
 31
0.0
  0
LINE
  5
28E
330
1F
100
AcDbEntity
  8
0
  6
Continuous
 62
     8
370
     0
100
AcDbLine
 10
102.7201238986
 20
303.0646662677
 30
0.0
 11
102.4201238843
 21
303.0646662677
 31
0.0
  0
LINE
  5
28F
330
1F
100
AcDbEntity
  8
0
  6
Continuous
 62
     8
370
     0
100
AcDbLine
 10
79.0201231803
 20
280.1646660531
 30
0.0
 11
79.7201238538
 21
280.1646660531
 31
0.0
  0
LINE
  5
290
330
1F
100
AcDbEntity
  8
0
  6
Continuous
 62
     8
370
     0
100
AcDbLine
 10
79.0201231803
 20
282.6141106938
 30
0.0
 11
79.0201231803
 21
280.1646660531
 31
0.0
  0
LINE
  5
291
330
1F
100
AcDbEntity
  8
0
  6
Continuous
 62
     8
370
     0
100
AcDbLine
 10
79.8005081679
 20
283.0646660163
 30
0.0
 11
79.0201231803
 21
282.6141106938
 31
0.0
  0
LINE
  5
292
330
1F
100
AcDbEntity
  8
0
  6
Continuous
 62
     8
370
     0
100
AcDbLine
 10
83.020123836
 20
283.0646660163
 30
0.0
 11
79.8005081679
 21
283.0646660163
 31
0.0
  0
LINE
  5
293
330
1F
100
AcDbEntity
  8
0
  6
Continuous
 62
     8
370
     0
100
AcDbLine
 10
83.020123836
 20
303.0646662677
 30
0.0
 11
83.020123836
 21
283.0646660163
 31
0.0
  0
LINE
  5
294
330
1F
100
AcDbEntity
  8
0
  6
Continuous
 62
     8
370
     0
100
AcDbLine
 10
102.4201238843
 20
303.0646662677
 30
0.0
 11
83.020123836
 21
303.0646662677
 31
0.0
  0
LINE
  5
295
330
1F
100
AcDbEntity
  8
0
  6
Continuous
 62
     8
370
     0
100
AcDbLine
 10
83.020123836
 20
261.6646658147
 30
0.0
 11
102.4201238843
 21
261.6646658147
 31
0.0
  0
LINE
  5
296
330
1F
100
AcDbEntity
  8
0
  6
Continuous
 62
     8
370
     0
100
AcDbLine
 10
83.020123836
 20
276.864666071
 30
0.0
 11
83.020123836
 21
261.6646658147
 31
0.0
  0
ARC
  5
297
330
1F
100
AcDbEntity
  8
0
  6
Continuous
 62
     8
370
     0
100
AcDbCircle
 10
79.7201238986
 20
276.8646660412
 30
0.0
 40
3.300000000000011
100
AcDbArc
 50
0.0
 51
90.0
  0
LINE
  5
298
330
1F
100
AcDbEntity
  8
0
  6
Continuous
 62
     8
370
     0
100
AcDbLine
 10
83.020123836
 20
303.0646662677
 30
0.0
 11
83.020123836
 21
303.3646657581
 31
0.0
  0
LINE
  5
299
330
1F
100
AcDbEntity
  8
0
  6
Continuous
 62
     8
370
     0
100
AcDbLine
 10
102.4201238843
 20
303.0646662677
 30
0.0
 11
102.4201238843
 21
303.3646657581
 31
0.0
  0
LINE
  5
29A
330
1F
100
AcDbEntity
  8
0
  6
Continuous
 62
     8
370
     0
100
AcDbLine
 10
83.020123836
 20
261.3646663243
 30
0.0
 11
83.020123836
 21
261.6646658147
 31
0.0
  0
LINE
  5
29B
330
1F
100
AcDbEntity
  8
0
  6
Continuous
 62
     8
370
     0
100
AcDbLine
 10
102.4201238843
 20
261.3646663243
 30
0.0
 11
102.4201238843
 21
261.6646658147
 31
0.0
  0
LINE
  5
29C
330
1F
100
AcDbEntity
  8
0
  6
Continuous
 62
     8
370
     0
100
AcDbLine
 10
83.020123836
 20
276.864666071
 30
0.0
 11
82.7201243456
 21
276.864666071
 31
0.0
  0
LINE
  5
29D
330
1F
100
AcDbEntity
  8
0
  6
Continuous
 62
     8
370
     0
100
AcDbLine
 10
79.7201238538
 20
280.1646660531
 30
0.0
 11
79.7201238538
 21
279.8646660971
 31
0.0
  0
LINE
  5
29E
330
1F
100
AcDbEntity
  8
0
  6
Continuous
 62
     8
370
     0
100
AcDbLine
 10
83.020123836
 20
261.6646658147
 30
0.0
 11
82.7201243456
 21
261.6646658147
 31
0.0
  0
LINE
  5
29F
330
1F
100
AcDbEntity
  8
0
  6
Continuous
 62
     8
370
     0
100
AcDbLine
 10
82.7201243456
 20
303.0646662677
 30
0.0
 11
83.020123836
 21
303.0646662677
 31
0.0
  0
LINE
  5
2A0
330
1F
100
AcDbEntity
  8
0
  6
Continuous
 62
     7
370
    30
100
AcDbLine
 10
518.8907802025
 20
268.3646656091
 30
0.0
 11
518.0813575084
 21
269.1740892345
 31
0.0
  0
LINE
  5
2A1
330
1F
100
AcDbEntity
  8
0
  6
Continuous
 62
     7
370
    30
100
AcDbLine
 10
513.7002033102
 20
269.1740892345
 30
0.0
 11
512.890780616
 21
268.3646656091
 31
0.0
  0
LINE
  5
2A2
330
1F
100
AcDbEntity
  8
0
  6
Continuous
 62
     7
370
    30
100
AcDbLine
 10
512.890780616
 20
261.6848065967
 30
0.0
 11
513.4452802981
 21
261.3646663243
 31
0.0
  0
LINE
  5
2A3
330
1F
100
AcDbEntity
  8
0
  6
Continuous
 62
     7
370
    30
100
AcDbLine
 10
518.3362800548
 20
261.3646663243
 30
0.0
 11
518.8907802025
 21
261.6848065967
 31
0.0
  0
LINE
  5
2A4
330
1F
100
AcDbEntity
  8
0
  6
Continuous
 62
     7
370
    30
100
AcDbLine
 10
518.8907802025
 20
261.6848065967
 30
0.0
 11
518.8907802025
 21
261.864665475
 31
0.0
  0
LINE
  5
2A5
330
1F
100
AcDbEntity
  8
0
  6
Continuous
 62
     7
370
    30
100
AcDbLine
 10
518.8907802025
 20
265.8646661306
 30
0.0
 11
518.8907802025
 21
268.3646656091
 31
0.0
  0
LINE
  5
2A6
330
1F
100
AcDbEntity
  8
0
  6
Continuous
 62
     7
370
    30
100
AcDbLine
 10
512.890780616
 20
268.3646656091
 30
0.0
 11
512.890780616
 21
265.8646661306
 31
0.0
  0
LINE
  5
2A7
330
1F
100
AcDbEntity
  8
0
  6
Continuous
 62
     7
370
    30
100
AcDbLine
 10
512.890780616
 20
261.864665475
 30
0.0
 11
512.890780616
 21
261.6848065967
 31
0.0
  0
LINE
  5
2A8
330
1F
100
AcDbEntity
  8
0
  6
Continuous
 62
     7
370
    30
100
AcDbLine
 10
524.890781186
 20
299.3646669651
 30
0.0
 11
522.4417418162
 21
299.107262444
 31
0.0
  0
LINE
  5
2A9
330
1F
100
AcDbEntity
  8
0
  6
Continuous
 62
     7
370
    30
100
AcDbLine
 10
522.4417418162
 20
289.6220703127
 30
0.0
 11
524.890781186
 21
289.3646662573
 31
0.0
  0
ARC
  5
2AA
330
1F
100
AcDbEntity
  8
0
  6
Continuous
 62
     7
370
    30
100
AcDbCircle
 10
530.090780426
 20
294.3646660412
 30
0.0
 40
9.000000000000048
100
AcDbArc
 50
148.2000483175
 51
165.5224878141
  0
ARC
  5
2AB
330
1F
100
AcDbEntity
  8
0
  6
Continuous
 62
     7
370
    30
100
AcDbCircle
 10
530.090780426
 20
294.3646660412
 30
0.0
 40
9.000000000000078
100
AcDbArc
 50
194.4775121859
 51
211.7999516825
  0
SPLINE
  5
2AC
330
1F
100
AcDbEntity
  8
0
  6
Continuous
 62
     7
370
    30
100
AcDbSpline
210
0.0
220
0.0
230
1.0
 70
     8
 71
     3
 72
     9
 73
     5
 74
     0
 42
0.00000001
 43
0.00000001
 40
0.0
 40
0.0
 40
0.0
 40
0.0
 40
0.4999997773377478
 40
1.0
 40
1.0
 40
1.0
 40
1.0
 10
562.982114769004
 20
287.273331590224
 30
0.0
 10
562.2850038342
 20
288.3189986133116
 30
0.0
 10
560.8907813437104
 20
290.4103335908097
 30
0.0
 10
559.4965569905761
 20
288.3189992341934
 30
0.0
 10
558.7994445035679
 20
287.273331590224
 30
0.0
  0
LINE
  5
2AD
330
1F
100
AcDbEntity
  8
0
  6
Continuous
 62
     7
370
    30
100
AcDbLine
 10
558.3907801578
 20
283.6215869042
 30
0.0
 11
558.8357809851
 21
283.3646660887
 31
0.0
  0
LINE
  5
2AE
330
1F
100
AcDbEntity
  8
0
  6
Continuous
 62
     7
370
    30
100
AcDbLine
 10
562.9457820127
 20
283.3646660887
 30
0.0
 11
563.3907791147
 21
283.6215869042
 31
0.0
  0
LINE
  5
2AF
330
1F
100
AcDbEntity
  8
0
  6
Continuous
 62
     7
370
    30
100
AcDbLine
 10
563.3907791147
 20
283.6215869042
 30
0.0
 11
563.3907791147
 21
283.8646660543
 31
0.0
  0
LINE
  5
2B0
330
1F
100
AcDbEntity
  8
0
  6
Continuous
 62
     7
370
    30
100
AcDbLine
 10
558.3907801578
 20
283.8646660543
 30
0.0
 11
558.3907801578
 21
283.6215869042
 31
0.0
  0
LINE
  5
2B1
330
1F
100
AcDbEntity
  8
0
  6
Continuous
 62
     7
370
    30
100
AcDbLine
 10
511.3907803702
 20
268.3646656091
 30
0.0
 11
508.190780451
 21
268.3646656091
 31
0.0
  0
LINE
  5
2B2
330
1F
100
AcDbEntity
  8
0
  6
Continuous
 62
     7
370
    30
100
AcDbLine
 10
508.190780451
 20
300.3646652664
 30
0.0
 11
508.190780451
 21
268.3646656091
 31
0.0
  0
LINE
  5
2B3
330
1F
100
AcDbEntity
  8
0
  6
Continuous
 62
     7
370
    30
100
AcDbLine
 10
508.190780451
 20
300.3646652664
 30
0.0
 11
511.3907803702
 21
300.3646652664
 31
0.0
  0
LINE
  5
2B4
330
1F
100
AcDbEntity
  8
0
  6
Continuous
 62
     7
370
    30
100
AcDbLine
 10
511.3907803702
 20
300.3646652664
 30
0.0
 11
511.3907803702
 21
268.3646656091
 31
0.0
  0
LINE
  5
2B5
330
1F
100
AcDbEntity
  8
0
  6
Continuous
 62
     7
370
    30
100
AcDbLine
 10
518.0813575084
 20
269.1740892345
 30
0.0
 11
519.8907803664
 21
269.1740892345
 31
0.0
  0
LINE
  5
2B6
330
1F
100
AcDbEntity
  8
0
  6
Continuous
 62
     7
370
    30
100
AcDbLine
 10
518.0813575084
 20
269.1740892345
 30
0.0
 11
515.8907806421
 21
271.3646661008
 31
0.0
  0
LINE
  5
2B7
330
1F
100
AcDbEntity
  8
0
  6
Continuous
 62
     7
370
    30
100
AcDbLine
 10
515.8907806421
 20
271.3646661008
 30
0.0
 11
513.7002033102
 21
269.1740892345
 31
0.0
  0
LINE
  5
2B8
330
1F
100
AcDbEntity
  8
0
  6
Continuous
 62
     7
370
    30
100
AcDbLine
 10
511.3907803702
 20
269.1740892345
 30
0.0
 11
513.7002033102
 21
269.1740892345
 31
0.0
  0
LINE
  5
2B9
330
1F
100
AcDbEntity
  8
0
  6
Continuous
 62
     7
370
    30
100
AcDbLine
 10
511.3907803702
 20
269.1740892345
 30
0.0
 11
511.3907803702
 21
299.5552435035
 31
0.0
  0
LINE
  5
2BA
330
1F
100
AcDbEntity
  8
0
  6
Continuous
 62
     7
370
    30
100
AcDbLine
 10
513.7002033102
 20
299.5552435035
 30
0.0
 11
511.3907803702
 21
299.5552435035
 31
0.0
  0
LINE
  5
2BB
330
1F
100
AcDbEntity
  8
0
  6
Continuous
 62
     7
370
    30
100
AcDbLine
 10
513.7002033102
 20
299.5552435035
 30
0.0
 11
515.8907806421
 21
297.3646657059
 31
0.0
  0
LINE
  5
2BC
330
1F
100
AcDbEntity
  8
0
  6
Continuous
 62
     7
370
    30
100
AcDbLine
 10
515.8907806421
 20
297.3646657059
 30
0.0
 11
518.0813575084
 21
299.5552435035
 31
0.0
  0
LINE
  5
2BD
330
1F
100
AcDbEntity
  8
0
  6
Continuous
 62
     7
370
    30
100
AcDbLine
 10
519.8907803664
 20
299.5552435035
 30
0.0
 11
518.0813575084
 21
299.5552435035
 31
0.0
  0
LINE
  5
2BE
330
1F
100
AcDbEntity
  8
0
  6
Continuous
 62
     7
370
    30
100
AcDbLine
 10
519.8907803664
 20
299.5552435035
 30
0.0
 11
519.8907803664
 21
298.157559287
 31
0.0
  0
ARC
  5
2BF
330
1F
100
AcDbEntity
  8
0
  6
Continuous
 62
     7
370
    30
100
AcDbCircle
 10
517.390780426
 20
298.15755926
 30
0.0
 40
2.5
100
AcDbArc
 50
315.0
 51
0.0
  0
LINE
  5
2C0
330
1F
100
AcDbEntity
  8
0
  6
Continuous
 62
     7
370
    30
100
AcDbLine
 10
519.1585475499
 20
296.3897926251
 30
0.0
 11
517.476566873
 21
294.7078119481
 31
0.0
  0
ARC
  5
2C1
330
1F
100
AcDbEntity
  8
0
  6
Continuous
 62
     7
370
    30
100
AcDbCircle
 10
518.890780426
 20
293.2935982293
 30
0.0
 40
2.0
100
AcDbArc
 50
135.0
 51
180.0
  0
LINE
  5
2C2
330
1F
100
AcDbEntity
  8
0
  6
Continuous
 62
     7
370
    30
100
AcDbLine
 10
516.890780806
 20
293.2935986186
 30
0.0
 11
516.890780806
 21
279.3569067011
 31
0.0
  0
LINE
  5
2C3
330
1F
100
AcDbEntity
  8
0
  6
Continuous
 62
     7
370
    30
100
AcDbLine
 10
516.7907800446
 20
279.3569067011
 30
0.0
 11
516.890780806
 21
279.3569067011
 31
0.0
  0
LINE
  5
2C4
330
1F
100
AcDbEntity
  8
0
  6
Continuous
 62
     7
370
    30
100
AcDbLine
 10
516.7907800446
 20
279.2126958242
 30
0.0
 11
516.7907800446
 21
279.3569067011
 31
0.0
  0
LINE
  5
2C5
330
1F
100
AcDbEntity
  8
0
  6
Continuous
 62
     7
370
    30
100
AcDbLine
 10
516.890780806
 20
279.2126958242
 30
0.0
 11
516.7907800446
 21
279.2126958242
 31
0.0
  0
LINE
  5
2C6
330
1F
100
AcDbEntity
  8
0
  6
Continuous
 62
     7
370
    30
100
AcDbLine
 10
516.890780806
 20
279.2126958242
 30
0.0
 11
516.890780806
 21
278.415090915
 31
0.0
  0
LINE
  5
2C7
330
1F
100
AcDbEntity
  8
0
  6
Continuous
 62
     7
370
    30
100
AcDbLine
 10
516.7907800446
 20
278.415090915
 30
0.0
 11
516.890780806
 21
278.415090915
 31
0.0
  0
LINE
  5
2C8
330
1F
100
AcDbEntity
  8
0
  6
Continuous
 62
     7
370
    30
100
AcDbLine
 10
516.7907800446
 20
278.2801236475
 30
0.0
 11
516.7907800446
 21
278.415090915
 31
0.0
  0
LINE
  5
2C9
330
1F
100
AcDbEntity
  8
0
  6
Continuous
 62
     7
370
    30
100
AcDbLine
 10
516.890780806
 20
278.2801236475
 30
0.0
 11
516.7907800446
 21
278.2801236475
 31
0.0
  0
LINE
  5
2CA
330
1F
100
AcDbEntity
  8
0
  6
Continuous
 62
     7
370
    30
100
AcDbLine
 10
516.890780806
 20
278.2801236475
 30
0.0
 11
516.890780806
 21
277.5005782472
 31
0.0
  0
LINE
  5
2CB
330
1F
100
AcDbEntity
  8
0
  6
Continuous
 62
     7
370
    30
100
AcDbLine
 10
516.7907800446
 20
277.5005782472
 30
0.0
 11
516.890780806
 21
277.5005782472
 31
0.0
  0
LINE
  5
2CC
330
1F
100
AcDbEntity
  8
0
  6
Continuous
 62
     7
370
    30
100
AcDbLine
 10
516.7907800446
 20
277.3680389377
 30
0.0
 11
516.7907800446
 21
277.5005782472
 31
0.0
  0
LINE
  5
2CD
330
1F
100
AcDbEntity
  8
0
  6
Continuous
 62
     7
370
    30
100
AcDbLine
 10
516.890780806
 20
277.3680389377
 30
0.0
 11
516.7907800446
 21
277.3680389377
 31
0.0
  0
LINE
  5
2CE
330
1F
100
AcDbEntity
  8
0
  6
Continuous
 62
     7
370
    30
100
AcDbLine
 10
516.890780806
 20
277.3680389377
 30
0.0
 11
516.890780806
 21
275.4357336538
 31
0.0
  0
ARC
  5
2CF
330
1F
100
AcDbEntity
  8
0
  6
Continuous
 62
     7
370
    30
100
AcDbCircle
 10
518.890780426
 20
275.4357338531
 30
0.0
 40
2.0
100
AcDbArc
 50
180.0
 51
225.0
  0
LINE
  5
2D0
330
1F
100
AcDbEntity
  8
0
  6
Continuous
 62
     7
370
    30
100
AcDbLine
 10
517.476566873
 20
274.0215198586
 30
0.0
 11
519.1585475499
 21
272.339540113
 31
0.0
  0
ARC
  5
2D1
330
1F
100
AcDbEntity
  8
0
  6
Continuous
 62
     7
370
    30
100
AcDbCircle
 10
517.390780426
 20
270.5717728224
 30
0.0
 40
2.50000000000006
100
AcDbArc
 50
0.0
 51
45.0
  0
LINE
  5
2D2
330
1F
100
AcDbEntity
  8
0
  6
Continuous
 62
     7
370
    30
100
AcDbLine
 10
519.8907803664
 20
270.5717725197
 30
0.0
 11
519.8907803664
 21
269.1740892345
 31
0.0
  0
SPLINE
  5
2D3
330
1F
100
AcDbEntity
  8
0
  6
Continuous
 62
     7
370
    30
100
AcDbSpline
210
0.0
220
0.0
230
1.0
 70
    24
 71
     3
 72
     9
 73
     5
 74
     0
 42
0.00000001
 43
0.00000001
 40
0.0
 40
0.0
 40
0.0
 40
0.0
 40
0.5598735056941618
 40
1.0
 40
1.0
 40
1.0
 40
1.0
 10
516.8907808060271
 20
279.3569067011065
 30
0.0
 10
516.8907808060271
 20
279.3376844066673
 30
0.0
 10
516.8907808060271
 20
279.3033511255892
 30
0.0
 10
516.8907808060271
 20
279.2451295718798
 30
0.0
 10
516.8907808060271
 20
279.2195047235525
 30
0.0
  0
LINE
  5
2D4
330
1F
100
AcDbEntity
  8
0
  6
Continuous
 62
     7
370
    30
100
AcDbLine
 10
516.7907800446
 20
279.2195047236
 30
0.0
 11
516.890780806
 21
279.2195047236
 31
0.0
  0
SPLINE
  5
2D5
330
1F
100
AcDbEntity
  8
0
  6
Continuous
 62
     7
370
    30
100
AcDbSpline
210
0.0
220
0.0
230
1.0
 70
    24
 71
     3
 72
     9
 73
     5
 74
     0
 42
0.00000001
 43
0.00000001
 40
0.0
 40
0.0
 40
0.0
 40
0.0
 40
0.5600867632516485
 40
1.0
 40
1.0
 40
1.0
 40
1.0
 10
516.8907808060271
 20
278.4150909150428
 30
0.0
 10
516.8907808060271
 20
278.4073095959321
 30
0.0
 10
516.8907808060271
 20
278.3934165357469
 30
0.0
 10
516.8907808060271
 20
278.3709995361586
 30
0.0
 10
516.8907808060271
 20
278.3611380013115
 30
0.0
  0
LINE
  5
2D6
330
1F
100
AcDbEntity
  8
0
  6
Continuous
 62
     7
370
    30
100
AcDbLine
 10
516.890780806
 20
278.3611380013
 30
0.0
 11
516.890780806
 21
278.3211437503
 31
0.0
  0
LINE
  5
2D7
330
1F
100
AcDbEntity
  8
0
  6
Continuous
 62
     7
370
    30
100
AcDbLine
 10
519.8907803664
 20
268.3646656091
 30
0.0
 11
518.8907802025
 21
268.3646656091
 31
0.0
  0
LINE
  5
2D8
330
1F
100
AcDbEntity
  8
0
  6
Continuous
 62
     7
370
    30
100
AcDbLine
 10
519.8907803664
 20
268.3646656091
 30
0.0
 11
519.8907803664
 21
269.1740892345
 31
0.0
  0
LINE
  5
2D9
330
1F
100
AcDbEntity
  8
0
  6
Continuous
 62
     7
370
    30
100
AcDbLine
 10
511.3907803702
 20
268.3646656091
 30
0.0
 11
512.890780616
 21
268.3646656091
 31
0.0
  0
LINE
  5
2DA
330
1F
100
AcDbEntity
  8
0
  6
Continuous
 62
     7
370
    30
100
AcDbLine
 10
512.890780616
 20
300.3646652664
 30
0.0
 11
511.3907803702
 21
300.3646652664
 31
0.0
  0
LINE
  5
2DB
330
1F
100
AcDbEntity
  8
0
  6
Continuous
 62
     7
370
    30
100
AcDbLine
 10
519.8907803664
 20
300.3646652664
 30
0.0
 11
518.8907802025
 21
300.3646652664
 31
0.0
  0
LINE
  5
2DC
330
1F
100
AcDbEntity
  8
0
  6
Continuous
 62
     7
370
    30
100
AcDbLine
 10
519.8907803664
 20
299.5552435035
 30
0.0
 11
519.8907803664
 21
300.3646652664
 31
0.0
  0
LINE
  5
2DD
330
1F
100
AcDbEntity
  8
0
  6
Continuous
 62
     7
370
    30
100
AcDbLine
 10
516.890780806
 20
279.2195047236
 30
0.0
 11
516.890780806
 21
279.2126958242
 31
0.0
  0
ARC
  5
2DE
330
1F
100
AcDbEntity
  8
0
  6
Continuous
 62
     7
370
    30
100
AcDbCircle
 10
530.690780426
 20
305.0646660412
 30
0.0
 40
0.3000000000000114
100
AcDbArc
 50
90.0
 51
180.0
  0
LINE
  5
2DF
330
1F
100
AcDbEntity
  8
0
  6
Continuous
 62
     7
370
    30
100
AcDbLine
 10
530.6907806466
 20
305.3646660859
 30
0.0
 11
568.8907790849
 21
305.3646660859
 31
0.0
  0
ARC
  5
2E0
330
1F
100
AcDbEntity
  8
0
  6
Continuous
 62
     7
370
    30
100
AcDbCircle
 10
568.890780426
 20
294.3646660412
 30
0.0
 40
11.0
100
AcDbArc
 50
270.0
 51
90.0
  0
LINE
  5
2E1
330
1F
100
AcDbEntity
  8
0
  6
Continuous
 62
     7
370
    30
100
AcDbLine
 10
568.8907790849
 20
283.3646660887
 30
0.0
 11
563.884722806
 21
283.3646660887
 31
0.0
  0
LINE
  5
2E2
330
1F
100
AcDbEntity
  8
0
  6
Continuous
 62
     7
370
    30
100
AcDbLine
 10
563.884722806
 20
283.3646660887
 30
0.0
 11
563.3907791147
 21
283.8571805491
 31
0.0
  0
LINE
  5
2E3
330
1F
100
AcDbEntity
  8
0
  6
Continuous
 62
     7
370
    30
100
AcDbLine
 10
562.982114769
 20
287.2646660993
 30
0.0
 11
562.982114769
 21
287.3646659295
 31
0.0
  0
LINE
  5
2E4
330
1F
100
AcDbEntity
  8
0
  6
Continuous
 62
     7
370
    30
100
AcDbLine
 10
562.982114769
 20
287.3646659295
 30
0.0
 11
563.2339257667
 21
287.3646659295
 31
0.0
  0
ARC
  5
2E5
330
1F
100
AcDbEntity
  8
0
  6
Continuous
 62
     7
370
    30
100
AcDbCircle
 10
568.890780426
 20
294.3646660412
 30
0.0
 40
9.000000000000028
100
AcDbArc
 50
231.057558731
 51
128.942441269
  0
LINE
  5
2E6
330
1F
100
AcDbEntity
  8
0
  6
Continuous
 62
     7
370
    30
100
AcDbLine
 10
563.2339257667
 20
301.3646654303
 30
0.0
 11
530.3907811562
 21
301.3646654303
 31
0.0
  0
LINE
  5
2E7
330
1F
100
AcDbEntity
  8
0
  6
Continuous
 62
     7
370
    30
100
AcDbLine
 10
530.3907811562
 20
301.3646654303
 30
0.0
 11
530.3907811562
 21
305.0646665955
 31
0.0
  0
LINE
  5
2E8
330
1F
100
AcDbEntity
  8
0
  6
Continuous
 62
     7
370
    30
100
AcDbLine
 10
558.7994445036
 20
287.3646659295
 30
0.0
 11
558.7994445036
 21
287.2646660993
 31
0.0
  0
SPLINE
  5
2E9
330
1F
100
AcDbEntity
  8
0
  6
Continuous
 62
     7
370
    30
100
AcDbSpline
210
0.0
220
0.0
230
1.0
 70
     8
 71
     3
 72
     9
 73
     5
 74
     0
 42
0.00000001
 43
0.00000001
 40
0.0
 40
0.0
 40
0.0
 40
0.0
 40
0.2945785612039024
 40
1.0
 40
1.0
 40
1.0
 40
1.0
 10
558.3907801578266
 20
283.8573352650217
 30
0.0
 10
558.342258467948
 20
283.808979044222
 30
0.0
 10
558.1775428495397
 20
283.6448251404144
 30
0.0
 10
558.012948543821
 20
283.4805495863901
 30
0.0
 10
557.8968401918632
 20
283.3646660887114
 30
0.0
  0
LINE
  5
2EA
330
1F
100
AcDbEntity
  8
0
  6
Continuous
 62
     7
370
    30
100
AcDbLine
 10
557.8968401919
 20
283.3646660887
 30
0.0
 11
530.6907806466
 21
283.3646660887
 31
0.0
  0
ARC
  5
2EB
330
1F
100
AcDbEntity
  8
0
  6
Continuous
 62
     7
370
    30
100
AcDbCircle
 10
530.690780426
 20
283.6646660412
 30
0.0
 40
0.3000000000000114
100
AcDbArc
 50
180.0
 51
270.0
  0
LINE
  5
2EC
330
1F
100
AcDbEntity
  8
0
  6
Continuous
 62
     7
370
    30
100
AcDbLine
 10
530.3907811562
 20
283.6646660448
 30
0.0
 11
530.3907811562
 21
287.3646659295
 31
0.0
  0
LINE
  5
2ED
330
1F
100
AcDbEntity
  8
0
  6
Continuous
 62
     7
370
    30
100
AcDbLine
 10
530.3907811562
 20
287.3646659295
 30
0.0
 11
558.7994445036
 21
287.3646659295
 31
0.0
  0
LINE
  5
2EE
330
1F
100
AcDbEntity
  8
0
  6
Continuous
 62
     7
370
    30
100
AcDbLine
 10
557.8968401919
 20
283.3646660887
 30
0.0
 11
558.8357809851
 21
283.3646660887
 31
0.0
  0
LINE
  5
2EF
330
1F
100
AcDbEntity
  8
0
  6
Continuous
 62
     7
370
    30
100
AcDbLine
 10
562.9457820127
 20
283.3646660887
 30
0.0
 11
563.884722806
 21
283.3646660887
 31
0.0
  0
LINE
  5
2F0
330
1F
100
AcDbEntity
  8
0
  6
Continuous
 62
     7
370
    30
100
AcDbLine
 10
558.7994445036
 20
287.3646659295
 30
0.0
 11
558.8907811711
 21
287.3646659295
 31
0.0
  0
LINE
  5
2F1
330
1F
100
AcDbEntity
  8
0
  6
Continuous
 62
     7
370
    30
100
AcDbLine
 10
562.8907818268
 20
287.3646659295
 30
0.0
 11
562.982114769
 21
287.3646659295
 31
0.0
  0
LINE
  5
2F2
330
1F
100
AcDbEntity
  8
0
  6
Continuous
 62
     7
370
    30
100
AcDbLine
 10
528.890779979
 20
303.3646657581
 30
0.0
 11
528.890779979
 21
283.3646660887
 31
0.0
  0
LINE
  5
2F3
330
1F
100
AcDbEntity
  8
0
  6
Continuous
 62
     7
370
    30
100
AcDbLine
 10
528.890779979
 20
303.3646657581
 30
0.0
 11
530.3907811562
 21
303.3646657581
 31
0.0
  0
LINE
  5
2F4
330
1F
100
AcDbEntity
  8
0
  6
Continuous
 62
     7
370
    30
100
AcDbLine
 10
530.3907811562
 20
303.3646657581
 30
0.0
 11
530.3907811562
 21
283.3646660887
 31
0.0
  0
LINE
  5
2F5
330
1F
100
AcDbEntity
  8
0
  6
Continuous
 62
     7
370
    30
100
AcDbLine
 10
530.3907811562
 20
283.3646660887
 30
0.0
 11
528.890779979
 21
283.3646660887
 31
0.0
  0
LINE
  5
2F6
330
1F
100
AcDbEntity
  8
0
  6
Continuous
 62
     7
370
    30
100
AcDbLine
 10
528.890779979
 20
283.3646660887
 30
0.0
 11
531.8907804708
 21
283.3646660887
 31
0.0
  0
LINE
  5
2F7
330
1F
100
AcDbEntity
  8
0
  6
Continuous
 62
     7
370
    30
100
AcDbLine
 10
532.8907806347
 20
282.787315767
 30
0.0
 11
531.8907804708
 21
283.3646660887
 31
0.0
  0
LINE
  5
2F8
330
1F
100
AcDbEntity
  8
0
  6
Continuous
 62
     7
370
    30
100
AcDbLine
 10
532.8907806347
 20
282.787315767
 30
0.0
 11
532.8907806347
 21
279.8646660971
 31
0.0
  0
LINE
  5
2F9
330
1F
100
AcDbEntity
  8
0
  6
Continuous
 62
     7
370
    30
100
AcDbLine
 10
532.8907806347
 20
279.8646660971
 30
0.0
 11
531.8907804708
 21
279.8646660971
 31
0.0
  0
ARC
  5
2FA
330
1F
100
AcDbEntity
  8
0
  6
Continuous
 62
     7
370
    30
100
AcDbCircle
 10
531.890780426
 20
276.8646660412
 30
0.0
 40
3.0
100
AcDbArc
 50
90.0
 51
180.0
  0
LINE
  5
2FB
330
1F
100
AcDbEntity
  8
0
  6
Continuous
 62
     7
370
    30
100
AcDbLine
 10
528.890779979
 20
276.864666071
 30
0.0
 11
528.890779979
 21
261.6646658147
 31
0.0
  0
ARC
  5
2FC
330
1F
100
AcDbEntity
  8
0
  6
Continuous
 62
     7
370
    30
100
AcDbCircle
 10
528.590780426
 20
261.6646660412
 30
0.0
 40
0.3000000000000682
100
AcDbArc
 50
270.0
 51
0.0
  0
LINE
  5
2FD
330
1F
100
AcDbEntity
  8
0
  6
Continuous
 62
     7
370
    30
100
AcDbLine
 10
519.3855881611
 20
261.3646663243
 30
0.0
 11
518.8907802025
 21
261.8584461028
 31
0.0
  0
LINE
  5
2FE
330
1F
100
AcDbEntity
  8
0
  6
Continuous
 62
     7
370
    30
100
AcDbLine
 10
518.8847210179
 20
265.8646661306
 30
0.0
 11
523.8907800908
 21
265.8646661306
 31
0.0
  0
LINE
  5
2FF
330
1F
100
AcDbEntity
  8
0
  6
Continuous
 62
     7
370
    30
100
AcDbLine
 10
524.890781186
 20
266.8646662945
 30
0.0
 11
524.890781186
 21
300.3646652664
 31
0.0
  0
LINE
  5
300
330
1F
100
AcDbEntity
  8
0
  6
Continuous
 62
     7
370
    30
100
AcDbLine
 10
519.8907803664
 20
301.3646654303
 30
0.0
 11
516.890780806
 21
298.3646668012
 31
0.0
  0
LINE
  5
301
330
1F
100
AcDbEntity
  8
0
  6
Continuous
 62
     7
370
    30
100
AcDbLine
 10
516.890780806
 20
298.3646668012
 30
0.0
 11
514.8907804782
 21
298.3646668012
 31
0.0
  0
LINE
  5
302
330
1F
100
AcDbEntity
  8
0
  6
Continuous
 62
     7
370
    30
100
AcDbLine
 10
508.890780426
 20
301.3646654303
 30
0.0
 11
508.890780426
 21
303.0646662677
 31
0.0
  0
ARC
  5
303
330
1F
100
AcDbEntity
  8
0
  6
Continuous
 62
     7
370
    30
100
AcDbCircle
 10
528.590780426
 20
303.0646660412
 30
0.0
 40
0.3000000000000114
100
AcDbArc
 50
0.0
 51
90.0
  0
LINE
  5
304
330
1F
100
AcDbEntity
  8
0
  6
Continuous
 62
     7
370
    30
100
AcDbLine
 10
528.890779979
 20
303.0646662677
 30
0.0
 11
528.890779979
 21
283.3646660887
 31
0.0
  0
ARC
  5
305
330
1F
100
AcDbEntity
  8
0
  6
Continuous
 62
     7
370
    30
100
AcDbCircle
 10
523.890780426
 20
300.3646660412
 30
0.0
 40
1.0
100
AcDbArc
 50
0.0
 51
90.0
  0
LINE
  5
306
330
1F
100
AcDbEntity
  8
0
  6
Continuous
 62
     7
370
    30
100
AcDbLine
 10
511.8907804521
 20
301.3646654303
 30
0.0
 11
508.890780426
 21
301.3646654303
 31
0.0
  0
LINE
  5
307
330
1F
100
AcDbEntity
  8
0
  6
Continuous
 62
     7
370
    30
100
AcDbLine
 10
509.1907804403
 20
303.3646657581
 30
0.0
 11
528.5907804886
 21
303.3646657581
 31
0.0
  0
ARC
  5
308
330
1F
100
AcDbEntity
  8
0
  6
Continuous
 62
     7
370
    30
100
AcDbCircle
 10
509.190780426
 20
303.0646660412
 30
0.0
 40
0.3000000000000114
100
AcDbArc
 50
90.0
 51
180.0
  0
ARC
  5
309
330
1F
100
AcDbEntity
  8
0
  6
Continuous
 62
     7
370
    30
100
AcDbCircle
 10
523.890780426
 20
266.8646660412
 30
0.0
 40
1.0
100
AcDbArc
 50
270.0
 51
0.0
  0
LINE
  5
30A
330
1F
100
AcDbEntity
  8
0
  6
Continuous
 62
     7
370
    30
100
AcDbLine
 10
523.8907800908
 20
301.3646654303
 30
0.0
 11
519.8907803664
 21
301.3646654303
 31
0.0
  0
LINE
  5
30B
330
1F
100
AcDbEntity
  8
0
  6
Continuous
 62
     7
370
    30
100
AcDbLine
 10
528.5907804886
 20
261.3646663243
 30
0.0
 11
519.3855881611
 21
261.3646663243
 31
0.0
  0
LINE
  5
30C
330
1F
100
AcDbEntity
  8
0
  6
Continuous
 62
     7
370
    30
100
AcDbLine
 10
514.8907804782
 20
298.3646668012
 30
0.0
 11
511.8907804521
 21
301.3646654303
 31
0.0
  0
LINE
  5
30D
330
1F
100
AcDbEntity
  8
0
  6
Continuous
 62
     7
370
    30
100
AcDbLine
 10
508.890780426
 20
265.8646661306
 30
0.0
 11
512.8968398007
 21
265.8646661306
 31
0.0
  0
LINE
  5
30E
330
1F
100
AcDbEntity
  8
0
  6
Continuous
 62
     7
370
    30
100
AcDbLine
 10
512.890780616
 20
261.8584963942
 30
0.0
 11
512.3959728903
 21
261.3646663243
 31
0.0
  0
LINE
  5
30F
330
1F
100
AcDbEntity
  8
0
  6
Continuous
 62
     7
370
    30
100
AcDbLine
 10
508.890780426
 20
261.6646658147
 30
0.0
 11
508.890780426
 21
265.8646661306
 31
0.0
  0
LINE
  5
310
330
1F
100
AcDbEntity
  8
0
  6
Continuous
 62
     7
370
    30
100
AcDbLine
 10
512.3959728903
 20
261.3646663243
 30
0.0
 11
509.1907804403
 21
261.3646663243
 31
0.0
  0
ARC
  5
311
330
1F
100
AcDbEntity
  8
0
  6
Continuous
 62
     7
370
    30
100
AcDbCircle
 10
509.190780426
 20
261.6646660412
 30
0.0
 40
0.3000000000000682
100
AcDbArc
 50
180.0
 51
270.0
  0
LINE
  5
312
330
1F
100
AcDbEntity
  8
0
  6
Continuous
 62
     7
370
    30
100
AcDbLine
 10
512.3959728903
 20
261.3646663243
 30
0.0
 11
513.4452802981
 21
261.3646663243
 31
0.0
  0
LINE
  5
313
330
1F
100
AcDbEntity
  8
0
  6
Continuous
 62
     7
370
    30
100
AcDbLine
 10
518.3362800548
 20
261.3646663243
 30
0.0
 11
519.3855881611
 21
261.3646663243
 31
0.0
  0
LINE
  5
314
330
1F
100
AcDbEntity
  8
0
  6
Continuous
 62
     7
370
    30
100
AcDbLine
 10
511.8907804521
 20
301.3646654303
 30
0.0
 11
511.8907804521
 21
300.3646652664
 31
0.0
  0
LINE
  5
315
330
1F
100
AcDbEntity
  8
0
  6
Continuous
 62
     7
370
    30
100
AcDbLine
 10
508.890780426
 20
300.3646652664
 30
0.0
 11
508.890780426
 21
301.3646654303
 31
0.0
  0
LINE
  5
316
330
1F
100
AcDbEntity
  8
0
  6
Continuous
 62
     7
370
    30
100
AcDbLine
 10
508.890780426
 20
265.8646661306
 30
0.0
 11
508.890780426
 21
268.3646656091
 31
0.0
  0
CIRCLE
  5
317
330
1F
100
AcDbEntity
  8
0
  6
Continuous
 62
     7
370
    30
100
AcDbCircle
 10
568.890780426
 20
294.3646660412
 30
0.0
 40
8.25
  0
CIRCLE
  5
318
330
1F
100
AcDbEntity
  8
0
  6
Continuous
 62
     7
370
    30
100
AcDbCircle
 10
568.890780426
 20
294.3646660412
 30
0.0
 40
9.000000000000114
  0
LINE
  5
319
330
1F
100
AcDbEntity
  8
0
  6
Continuous
 62
     7
370
    30
100
AcDbLine
 10
515.8907806421
 20
268.3646656091
 30
0.0
 11
512.890780616
 21
268.3646656091
 31
0.0
  0
LINE
  5
31A
330
1F
100
AcDbEntity
  8
0
  6
Continuous
 62
     7
370
    30
100
AcDbLine
 10
518.8907802025
 20
268.3646656091
 30
0.0
 11
515.8907806421
 21
268.3646656091
 31
0.0
  0
LINE
  5
31B
330
1F
100
AcDbEntity
  8
0
  6
Continuous
 62
     7
370
    30
100
AcDbLine
 10
515.8907806421
 20
261.3646663243
 30
0.0
 11
513.4452802981
 21
261.3646663243
 31
0.0
  0
LINE
  5
31C
330
1F
100
AcDbEntity
  8
0
  6
Continuous
 62
     7
370
    30
100
AcDbLine
 10
518.3362800548
 20
261.3646663243
 30
0.0
 11
515.8907806421
 21
261.3646663243
 31
0.0
  0
LINE
  5
31D
330
1F
100
AcDbEntity
  8
0
  6
Continuous
 62
     7
370
    30
100
AcDbLine
 10
515.8907806421
 20
261.6848065967
 30
0.0
 11
512.890780616
 21
261.6848065967
 31
0.0
  0
LINE
  5
31E
330
1F
100
AcDbEntity
  8
0
  6
Continuous
 62
     7
370
    30
100
AcDbLine
 10
518.8907802025
 20
261.6848065967
 30
0.0
 11
515.8907806421
 21
261.6848065967
 31
0.0
  0
LINE
  5
31F
330
1F
100
AcDbEntity
  8
0
  6
Continuous
 62
     7
370
    30
100
AcDbLine
 10
522.4417418162
 20
289.6220703127
 30
0.0
 11
522.4417418162
 21
299.107262444
 31
0.0
  0
LINE
  5
320
330
1F
100
AcDbEntity
  8
0
  6
Continuous
 62
     7
370
    30
100
AcDbLine
 10
521.3765676985
 20
294.3646661455
 30
0.0
 11
521.3765676985
 21
296.3132230083
 31
0.0
  0
LINE
  5
321
330
1F
100
AcDbEntity
  8
0
  6
Continuous
 62
     7
370
    30
100
AcDbLine
 10
521.3765676985
 20
296.3132230083
 30
0.0
 11
521.3765676985
 21
296.6146660487
 31
0.0
  0
LINE
  5
322
330
1F
100
AcDbEntity
  8
0
  6
Continuous
 62
     7
370
    30
100
AcDbLine
 10
521.3765676985
 20
292.1146662424
 30
0.0
 11
521.3765676985
 21
292.4161092828
 31
0.0
  0
LINE
  5
323
330
1F
100
AcDbEntity
  8
0
  6
Continuous
 62
     7
370
    30
100
AcDbLine
 10
521.3765676985
 20
292.4161092828
 30
0.0
 11
521.3765676985
 21
294.3646661455
 31
0.0
  0
LINE
  5
324
330
1F
100
AcDbEntity
  8
0
  6
Continuous
 62
     7
370
    30
100
AcDbLine
 10
563.3835073481
 20
286.8646658475
 30
0.0
 11
558.3980556498
 21
286.8646658475
 31
0.0
  0
LINE
  5
325
330
1F
100
AcDbEntity
  8
0
  6
Continuous
 62
     7
370
    30
100
AcDbLine
 10
562.9457820127
 20
283.3646660887
 30
0.0
 11
558.8357809851
 21
283.3646660887
 31
0.0
  0
LINE
  5
326
330
1F
100
AcDbEntity
  8
0
  6
Continuous
 62
     7
370
    30
100
AcDbLine
 10
563.3907791147
 20
283.6215869042
 30
0.0
 11
558.3907801578
 21
283.6215869042
 31
0.0
  0
LINE
  5
327
330
1F
100
AcDbEntity
  8
0
  6
Continuous
 62
     8
370
     0
100
AcDbLine
 10
516.7907800446
 20
278.3611380013
 30
0.0
 11
516.890780806
 21
278.3611380013
 31
0.0
  0
LINE
  5
328
330
1F
100
AcDbEntity
  8
0
  6
Continuous
 62
     8
370
     0
100
AcDbLine
 10
523.8907800908
 20
299.2595616246
 30
0.0
 11
523.8907800908
 21
301.3646654303
 31
0.0
  0
LINE
  5
329
330
1F
100
AcDbEntity
  8
0
  6
Continuous
 62
     8
370
     0
100
AcDbLine
 10
521.3765676985
 20
294.3646661455
 30
0.0
 11
517.201753139
 21
294.3646661455
 31
0.0
  0
LINE
  5
32A
330
1F
100
AcDbEntity
  8
0
  6
Continuous
 62
     8
370
     0
100
AcDbLine
 10
523.8907800908
 20
265.8646661306
 30
0.0
 11
523.8907800908
 21
268.3646656091
 31
0.0
  0
LINE
  5
32B
330
1F
100
AcDbEntity
  8
0
  6
Continuous
 62
     8
370
     0
100
AcDbLine
 10
523.8907800908
 20
268.3646656091
 30
0.0
 11
524.890781186
 21
268.3646656091
 31
0.0
  0
LINE
  5
32C
330
1F
100
AcDbEntity
  8
0
  6
Continuous
 62
     8
370
     0
100
AcDbLine
 10
519.8907803664
 20
268.3646656091
 30
0.0
 11
523.8907800908
 21
268.3646656091
 31
0.0
  0
LINE
  5
32D
330
1F
100
AcDbEntity
  8
0
  6
Continuous
 62
     8
370
     0
100
AcDbLine
 10
523.8907800908
 20
268.3646656091
 30
0.0
 11
523.8907800908
 21
289.4697702008
 31
0.0
  0
HATCH
  5
32E
330
1F
100
AcDbEntity
  8
0
  6
Continuous
 62
     7
370
     0
100
AcDbHatch
 10
0.0
 20
0.0
 30
0.0
210
0.0
220
0.0
230
1.0
  2
ANSI33
 70
     0
 71
     0
 91
        2
 92
        0
 93
        1
 72
     2
 10
568.8907804260456
 20
294.3646660412139
 40
9.0
 50
0.0
 51
360.0
 73
     1
 97
        0
 92
        0
 93
        1
 72
     2
 10
568.8907804260456
 20
294.3646660412139
 40
8.249999999999998
 50
0.0
 51
360.0
 73
     1
 97
        0
 75
     0
 76
     1
 52
0.0
 41
1.0
 77
     0
 78
     2
 53
45.0
 43
0.0
 44
0.0
 45
-4.490128060534576
 46
4.490128060534577
 79
     0
 53
45.0
 43
4.49013
 44
0.0
 45
-4.490128060534576
 46
4.490128060534577
 79
     2
 49
3.175
 49
-1.5875
 98
        1
 10
0.0
 20
0.0
  0
HATCH
  5
32F
330
1F
100
AcDbEntity
  8
0
  6
Continuous
 62
     7
370
     0
100
AcDbHatch
 10
0.0
 20
0.0
 30
0.0
210
0.0
220
0.0
230
1.0
  2
ANSI31
 70
     0
 71
     0
 91
        1
 92
        0
 93
       24
 72
     1
 10
528.8907804260456
 20
283.3646660412139
 11
528.8907804260456
 21
303.0646660412139
 72
     2
 10
528.5907804260456
 20
303.0646660412139
 40
0.3
 50
0.0
 51
90.0
 73
     1
 72
     1
 10
528.5907804260456
 20
303.3646660412139
 11
509.1907804260455
 21
303.3646660412139
 72
     2
 10
509.1907804260455
 20
303.0646660412139
 40
0.3
 50
90.0
 51
180.0
 73
     1
 72
     1
 10
508.8907804260455
 20
303.0646660412139
 11
508.8907804260455
 21
301.3646660412139
 72
     1
 10
508.8907804260455
 20
301.3646660412139
 11
511.8907804260455
 21
301.3646660412139
 72
     1
 10
511.8907804260455
 20
301.3646660412139
 11
514.8907804260456
 21
298.3646660412139
 72
     1
 10
514.8907804260456
 20
298.3646660412139
 11
516.8907804260456
 21
298.3646660412139
 72
     1
 10
516.8907804260456
 20
298.3646660412139
 11
519.8907804260456
 21
301.3646660412139
 72
     1
 10
519.8907804260456
 20
301.3646660412139
 11
523.8907804260456
 21
301.3646660412139
 72
     2
 10
523.8907804260456
 20
300.3646660412139
 40
1.0
 50
270.0000000000008
 51
360.0000000000008
 73
     0
 72
     1
 10
524.8907804260456
 20
300.3646660412139
 11
524.8907804260456
 21
266.8646660412139
 72
     2
 10
523.8907804260456
 20
266.8646660412139
 40
1.0
 50
0.0
 51
90.0
 73
     0
 72
     1
 10
523.8907804260456
 20
265.8646660412139
 11
518.3835059234277
 21
265.8646660412139
 72
     1
 10
518.3835059234277
 20
265.8646660412139
 11
518.3835059234277
 21
262.3646660412139
 72
     4
 94
        3
 73
     1
 74
     0
 95
        8
 96
        4
 40
0.014247913921916
 40
0.014247913921916
 40
0.014247913921916
 40
0.014247913921916
 40
0.015662988839671
 40
0.015662988839671
 40
0.015662988839671
 40
0.015662988839671
 10
518.3835059234277
 20
262.3646660412139
 42
1.0
 10
518.7176722847664
 20
262.0314720375034
 42
1.0
 10
519.0516599195315
 20
261.6980987893025
 42
1.0
 10
519.3855880609948
 20
261.3646660412139
 42
1.0
 72
     1
 10
519.3855880609948
 20
261.3646660412139
 11
528.5907804260455
 21
261.3646660412139
 72
     2
 10
528.5907804260455
 20
261.6646660412139
 40
0.3
 50
270.0000000000008
 51
360.0000000000008
 73
     1
 72
     1
 10
528.8907804260456
 20
261.6646660412139
 11
528.8907804260456
 21
276.8646660412139
 72
     2
 10
531.8907804260456
 20
276.8646660412139
 40
3.0
 50
180.0
 51
270.0000000000008
 73
     0
 72
     1
 10
531.8907804260456
 20
279.8646660412139
 11
532.8907804260456
 21
279.8646660412139
 72
     1
 10
532.8907804260456
 20
279.8646660412139
 11
532.8907804260456
 21
282.7873157720243
 72
     1
 10
532.8907804260456
 20
282.7873157720243
 11
531.8907804260456
 21
283.3646660412139
 72
     1
 10
531.8907804260456
 20
283.3646660412139
 11
528.8907804260456
 21
283.3646660412139
 97
        0
 75
     0
 76
     1
 52
0.0
 41
1.0
 77
     0
 78
     1
 53
45.0
 43
0.0
 44
0.0
 45
-2.245064030267288
 46
2.245064030267288
 79
     0
 98
        1
 10
0.0
 20
0.0
  0
HATCH
  5
330
330
1F
100
AcDbEntity
  8
0
  6
Continuous
 62
     7
370
     0
100
AcDbHatch
 10
0.0
 20
0.0
 30
0.0
210
0.0
220
0.0
230
1.0
  2
ANSI31
 70
     0
 71
     0
 91
        1
 92
        0
 93
        6
 72
     1
 10
508.8907804260455
 20
265.8646660412139
 11
508.8907804260455
 21
261.6646660412139
 72
     2
 10
509.1907804260455
 20
261.6646660412139
 40
0.3
 50
180.0
 51
270.0000000000008
 73
     1
 72
     1
 10
509.1907804260455
 20
261.3646660412139
 11
512.3959727910963
 21
261.3646660412139
 72
     4
 94
        3
 73
     1
 74
     0
 95
       11
 96
        7
 40
0.0060022960242024
 40
0.0060022960242024
 40
0.0060022960242024
 40
0.0060022960242024
 40
0.0072315553614709
 40
0.0072315553614709
 40
0.0072315553614709
 40
0.0074179824525683
 40
0.0074179824525683
 40
0.0074179824525683
 40
0.0074179824525683
 10
512.3959727910963
 20
261.3646660412139
 42
1.0
 10
512.6859270364902
 20
261.6541901299535
 42
1.0
 10
512.9759288748328
 20
261.9436665975417
 42
1.0
 10
513.2660487403687
 20
262.2330247251343
 42
1.0
 10
513.3100477570633
 20
262.2769082181285
 42
1.0
 10
513.3540496592061
 20
262.320788818336
 42
1.0
 10
513.3980549286633
 20
262.3646660412139
 42
1.0
 72
     1
 10
513.3980549286633
 20
262.3646660412139
 11
513.3980549286633
 21
265.8646660412139
 72
     1
 10
513.3980549286633
 20
265.8646660412139
 11
508.8907804260455
 21
265.8646660412139
 97
        0
 75
     0
 76
     1
 52
0.0
 41
1.0
 77
     0
 78
     1
 53
45.0
 43
0.0
 44
0.0
 45
-2.245064030267288
 46
2.245064030267288
 79
     0
 98
        1
 10
0.0
 20
0.0
  0
HATCH
  5
331
330
1F
100
AcDbEntity
  8
0
  6
Continuous
 62
     7
370
     0
100
AcDbHatch
 10
0.0
 20
0.0
 30
0.0
210
0.0
220
0.0
230
1.0
  2
NET
 70
     0
 71
     0
 91
        1
 92
        0
 93
        4
 72
     1
 10
528.8907804260456
 20
283.3646660412139
 11
530.3907804260455
 21
283.3646660412139
 72
     1
 10
530.3907804260455
 20
283.3646660412139
 11
530.3907804260455
 21
303.3646660412139
 72
     1
 10
530.3907804260455
 20
303.3646660412139
 11
528.8907804260456
 21
303.3646660412139
 72
     1
 10
528.8907804260456
 20
303.3646660412139
 11
528.8907804260456
 21
283.3646660412139
 97
        0
 75
     0
 76
     1
 52
134.999991007
 41
1.0
 77
     0
 78
     2
 53
134.9999910069555
 43
0.0
 44
0.0
 45
-2.24506438264855
 46
-2.245063677885971
 79
     0
 53
224.9999910069555
 43
0.0
 44
0.0
 45
2.245063677885971
 46
-2.24506438264855
 79
     0
 98
        1
 10
0.0
 20
0.0
  0
HATCH
  5
332
330
1F
100
AcDbEntity
  8
0
  6
Continuous
 62
     7
370
     0
100
AcDbHatch
 10
0.0
 20
0.0
 30
0.0
210
0.0
220
0.0
230
1.0
  2
ANSI33
 70
     0
 71
     0
 91
        1
 92
        0
 93
       10
 72
     1
 10
530.3907804260455
 20
305.0646660412139
 11
530.3907804260455
 21
301.3646660412139
 72
     1
 10
530.3907804260455
 20
301.3646660412139
 11
563.2339261765532
 21
301.3646660412139
 72
     2
 10
568.8907804260455
 20
294.3646660412139
 40
8.999999999999998
 50
231.0575587310198
 51
488.9424412689819
 73
     0
 72
     1
 10
563.2339261765532
 20
287.3646660412139
 11
562.9821150251232
 21
287.3646660412139
 72
     1
 10
562.9821150251232
 20
287.3646660412139
 11
562.9821150251232
 21
284.2646660412139
 72
     4
 94
        3
 73
     1
 74
     0
 95
        8
 96
        4
 40
0.0121040688591968
 40
0.0121040688591968
 40
0.0121040688591968
 40
0.0121040688591968
 40
0.0133698933616578
 40
0.0133698933616578
 40
0.0133698933616578
 40
0.0133698933616578
 10
562.9821150251232
 20
284.2646660412139
 42
1.0
 10
563.2831701671296
 20
283.9648531675433
 42
1.0
 10
563.5839828297231
 20
283.6647968228454
 42
1.0
 10
563.8847210409041
 20
283.3646660412139
 42
1.0
 72
     1
 10
563.8847210409041
 20
283.3646660412139
 11
568.8907804260455
 21
283.3646660412139
 72
     2
 10
568.8907804260455
 20
294.3646660412139
 40
11.0
 50
270.0000000000008
 51
450.0000000000008
 73
     1
 72
     1
 10
568.8907804260455
 20
305.3646660412139
 11
530.6907804260455
 21
305.3646660412139
 72
     2
 10
530.6907804260455
 20
305.0646660412139
 40
0.3
 50
90.0
 51
180.0
 73
     1
 97
        0
 75
     0
 76
     1
 52
0.0
 41
1.0
 77
     0
 78
     2
 53
45.0
 43
0.0
 44
0.0
 45
-4.490128060534576
 46
4.490128060534577
 79
     0
 53
45.0
 43
4.49013
 44
0.0
 45
-4.490128060534576
 46
4.490128060534577
 79
     2
 49
3.175
 49
-1.5875
 98
        1
 10
0.0
 20
0.0
  0
HATCH
  5
333
330
1F
100
AcDbEntity
  8
0
  6
Continuous
 62
     7
370
     0
100
AcDbHatch
 10
0.0
 20
0.0
 30
0.0
210
0.0
220
0.0
230
1.0
  2
ANSI33
 70
     0
 71
     0
 91
        1
 92
        0
 93
        6
 72
     1
 10
530.3907804260455
 20
287.3646660412139
 11
530.3907804260455
 21
283.6646660412139
 72
     2
 10
530.6907804260455
 20
283.6646660412139
 40
0.3
 50
180.0
 51
270.0000000000008
 73
     1
 72
     1
 10
530.6907804260455
 20
283.3646660412139
 11
557.896839811187
 21
283.3646660412139
 72
     4
 94
        3
 73
     1
 74
     0
 95
       11
 96
        7
 40
0.0051507597417169
 40
0.0051507597417169
 40
0.0051507597417169
 40
0.0051507597417169
 40
0.0056428892525896
 40
0.0056428892525896
 40
0.0056428892525896
 40
0.0064253965870194
 40
0.0064253965870194
 40
0.0064253965870194
 40
0.0064253965870194
 10
557.896839811187
 20
283.3646660412139
 42
1.0
 10
558.0129530753655
 20
283.4805447803967
 42
1.0
 10
558.1290797083476
 20
283.5964101268784
 42
1.0
 10
558.2452257670266
 20
283.7122559958859
 42
1.0
 10
558.4299028672825
 20
283.8964557819849
 42
1.0
 10
558.6146263056452
 20
284.0806091557249
 42
1.0
 10
558.7994458269678
 20
284.2646660412139
 42
1.0
 72
     1
 10
558.7994458269678
 20
284.2646660412139
 11
558.7994458269678
 21
287.3646660412139
 72
     1
 10
558.7994458269678
 20
287.3646660412139
 11
530.3907804260455
 21
287.3646660412139
 97
        0
 75
     0
 76
     1
 52
0.0
 41
1.0
 77
     0
 78
     2
 53
45.0
 43
0.0
 44
0.0
 45
-4.490128060534576
 46
4.490128060534577
 79
     0
 53
45.0
 43
4.49013
 44
0.0
 45
-4.490128060534576
 46
4.490128060534577
 79
     2
 49
3.175
 49
-1.5875
 98
        1
 10
0.0
 20
0.0
  0
HATCH
  5
334
330
1F
100
AcDbEntity
  8
0
  6
Continuous
 62
     7
370
     0
100
AcDbHatch
 10
0.0
 20
0.0
 30
0.0
210
0.0
220
0.0
230
1.0
  2
ANSI33
 70
     0
 71
     0
 91
        1
 92
        0
 93
       30
 72
     1
 10
519.8907804260456
 20
269.1740890365662
 11
519.8907804260456
 21
270.5717728224005
 72
     2
 10
517.3907804260455
 20
270.5717728224005
 40
2.5
 50
0.0
 51
44.99999999999908
 73
     1
 72
     1
 10
519.1585473790119
 20
272.3395397753669
 11
517.4765668636724
 21
274.0215202907063
 72
     2
 10
518.8907804260456
 20
275.4357338530794
 40
2.0
 50
135.0000000000023
 51
180.0
 73
     0
 72
     1
 10
516.8907804260456
 20
275.4357338530794
 11
516.8907804260456
 21
277.3680387171582
 72
     1
 10
516.8907804260456
 20
277.3680387171582
 11
516.7907804260456
 21
277.3680387200031
 72
     1
 10
516.7907804260456
 20
277.3680387200031
 11
516.7907804260456
 21
277.5005784157311
 72
     1
 10
516.7907804260456
 20
277.5005784157311
 11
516.8907804260456
 21
277.5005784190069
 72
     1
 10
516.8907804260456
 20
277.5005784190069
 11
516.8907804260456
 21
278.2801235653379
 72
     1
 10
516.8907804260456
 20
278.2801235653379
 11
516.7907804260456
 21
278.2801235628634
 72
     1
 10
516.7907804260456
 20
278.2801235628634
 11
516.7907804260456
 21
278.4150907030074
 72
     1
 10
516.7907804260456
 20
278.4150907030074
 11
516.8907804260456
 21
278.4150907048307
 72
     1
 10
516.8907804260456
 20
278.4150907048307
 11
516.8907804260456
 21
279.2126957340362
 72
     1
 10
516.8907804260456
 20
279.2126957340362
 11
516.7907804260456
 21
279.2126957340491
 72
     1
 10
516.7907804260456
 20
279.2126957340491
 11
516.7907804260456
 21
279.3569066571347
 72
     1
 10
516.7907804260456
 20
279.3569066571347
 11
516.8907804260456
 21
279.3569066540053
 72
     1
 10
516.8907804260456
 20
279.3569066540053
 11
516.8907804260456
 21
293.2935982293484
 72
     2
 10
518.8907804260456
 20
293.2935982293484
 40
2.0
 50
180.0
 51
224.9999999999985
 73
     0
 72
     1
 10
517.4765668636724
 20
294.7078117917215
 11
519.1585473790119
 21
296.389792307061
 72
     2
 10
517.3907804260455
 20
298.1575592600273
 40
2.5
 50
315.0000000000026
 51
360.0000000000008
 73
     1
 72
     1
 10
519.8907804260456
 20
298.1575592600273
 11
519.8907804260456
 21
299.5552430458616
 72
     1
 10
519.8907804260456
 20
299.5552430458616
 11
518.0813574306933
 21
299.5552430458617
 72
     1
 10
518.0813574306933
 20
299.5552430458617
 11
515.8907804260456
 21
297.3646660412139
 72
     1
 10
515.8907804260456
 20
297.3646660412139
 11
513.7002034213978
 21
299.5552430458616
 72
     1
 10
513.7002034213978
 20
299.5552430458616
 11
511.3907804260455
 21
299.5552430458616
 72
     1
 10
511.3907804260455
 20
299.5552430458616
 11
511.3907804260455
 21
269.1740890365662
 72
     1
 10
511.3907804260455
 20
269.1740890365662
 11
513.7002034213978
 21
269.1740890365662
 72
     1
 10
513.7002034213978
 20
269.1740890365662
 11
515.8907804260456
 21
271.3646660412139
 72
     1
 10
515.8907804260456
 20
271.3646660412139
 11
518.0813574306933
 21
269.1740890365662
 72
     1
 10
518.0813574306933
 20
269.1740890365662
 11
519.8907804260456
 21
269.1740890365662
 97
        0
 75
     0
 76
     1
 52
90.0
 41
1.0
 77
     0
 78
     2
 53
135.0000000000002
 43
0.0
 44
0.0
 45
-4.490128060534562
 46
-4.490128060534592
 79
     0
 53
135.0000000000002
 43
-0.0000000000000157
 44
4.49013
 45
-4.490128060534562
 46
-4.490128060534592
 79
     2
 49
3.175
 49
-1.5875
 98
        1
 10
0.0
 20
0.0
  0
HATCH
  5
335
330
1F
100
AcDbEntity
  8
0
  6
Continuous
 62
     7
370
     0
100
AcDbHatch
 10
0.0
 20
0.0
 30
0.0
210
0.0
220
0.0
230
1.0
  2
ANSI37
 70
     0
 71
     0
 91
        1
 92
        0
 93
        4
 72
     1
 10
511.3907804260455
 20
268.3646660412139
 11
511.3907804260455
 21
300.3646660412139
 72
     1
 10
511.3907804260455
 20
300.3646660412139
 11
508.1907804260455
 21
300.3646660412139
 72
     1
 10
508.1907804260455
 20
300.3646660412139
 11
508.1907804260455
 21
268.3646660412139
 72
     1
 10
508.1907804260455
 20
268.3646660412139
 11
511.3907804260455
 21
268.3646660412139
 97
        0
 75
     0
 76
     1
 52
0.0
 41
1.0
 77
     0
 78
     2
 53
45.0
 43
0.0
 44
0.0
 45
-2.245064030267288
 46
2.245064030267288
 79
     0
 53
135.0
 43
0.0
 44
0.0
 45
-2.245064030267288
 46
-2.245064030267288
 79
     0
 98
        1
 10
0.0
 20
0.0
  0
MTEXT
  5
336
330
1F
100
AcDbEntity
  8
0
  6
Continuous
 62
     7
370
     0
100
AcDbMText
 10
546.2115047784
 20
320.3284781301
 30
0.0
 40
5.0
 41
0.0
 71
     2
 72
     1
  1
A-A
  7
SLDTEXTSTYLE0
 73
     1
 44
1.0
  0
INSERT
  5
342
330
1F
100
AcDbEntity
  8
0
  6
Continuous
 62
     7
370
     0
100
AcDbBlockReference
  2
SW_CENTERMARKSYMBOL_4
 10
568.890780426
 20
294.3646660412
 30
0.0
  0
LINE
  5
343
330
1F
100
AcDbEntity
  8
0
  6
CENTERX2
 62
     7
370
     0
100
AcDbLine
 10
560.890780426
 20
281.3646660412
 30
0.0
 11
560.890780426
 21
291.3646660412
 31
0.0
  0
LINE
  5
344
330
1F
100
AcDbEntity
  8
0
  6
CENTERX2
 62
     7
370
     0
100
AcDbLine
 10
556.4244655902
 20
294.3646660412
 30
0.0
 11
509.890780426
 21
294.3646660412
 31
0.0
  0
LINE
  5
345
330
1F
100
AcDbEntity
  8
0
  6
CENTERX2
 62
     7
370
     0
100
AcDbLine
 10
506.190780426
 20
284.3646660412
 30
0.0
 11
513.390780426
 21
284.3646660412
 31
0.0
  0
LINE
  5
346
330
1F
100
AcDbEntity
  8
0
  6
CENTERX2
 62
     7
370
     0
100
AcDbLine
 10
518.890780426
 20
284.3646660412
 30
0.0
 11
513.390780426
 21
284.3646660412
 31
0.0
  0
LINE
  5
347
330
1F
100
AcDbEntity
  8
0
  6
CENTERX2
 62
     7
370
     0
100
AcDbLine
 10
515.890780426
 20
259.3646660412
 30
0.0
 11
515.890780426
 21
273.3646660412
 31
0.0
  0
ENDSEC
  0
SECTION
  2
OBJECTS
  0
DICTIONARY
  5
C
330
0
100
AcDbDictionary
281
     1
  3
ACAD_GROUP
350
D
  3
ACAD_LAYOUT
350
1A
  3
ACAD_MLINESTYLE
350
17
  3
ACAD_PLOTSETTINGS
350
19
  3
ACAD_PLOTSTYLENAME
350
E
  0
DICTIONARY
  5
D
102
{ACAD_REACTORS
330
C
102
}
330
C
100
AcDbDictionary
281
     1
  0
DICTIONARY
  5
1A
102
{ACAD_REACTORS
330
C
102
}
330
C
100
AcDbDictionary
281
     1
  3
Layout1
350
1E
  3
Layout2
350
26
  3
Model
350
22
  0
DICTIONARY
  5
17
102
{ACAD_REACTORS
330
C
102
}
330
C
100
AcDbDictionary
281
     1
  3
Standard
350
18
  0
DICTIONARY
  5
19
102
{ACAD_REACTORS
330
C
102
}
330
C
100
AcDbDictionary
281
     1
  0
ACDBDICTIONARYWDFLT
  5
E
102
{ACAD_REACTORS
330
C
102
}
330
C
100
AcDbDictionary
281
     1
  3
Normal
350
F
100
AcDbDictionaryWithDefault
340
F
  0
LAYOUT
  5
1E
102
{ACAD_REACTORS
330
1A
102
}
330
1A
100
AcDbPlotSettings
  1

  2
none_device
  4

  6

 40
0.0
 41
0.0
 42
0.0
 43
0.0
 44
0.0
 45
0.0
 46
0.0
 47
0.0
 48
0.0
 49
0.0
140
0.0
141
0.0
142
1.0
143
1.0
 70
   688
 72
     0
 73
     0
 74
     5
  7

 75
    16
147
1.0
148
0.0
149
0.0
100
AcDbLayout
  1
Layout1
 70
     1
 71
     1
 10
0.0
 20
0.0
 11
420.0
 21
297.0
 12
0.0
 22
0.0
 32
0.0
 14
1.0000000000E+20
 24
1.0000000000E+20
 34
1.0000000000E+20
 15
-1.0000000000E+20
 25
-1.0000000000E+20
 35
-1.0000000000E+20
146
0.0
 13
0.0
 23
0.0
 33
0.0
 16
1.0
 26
0.0
 36
0.0
 17
0.0
 27
1.0
 37
0.0
 76
     0
330
1B
  0
LAYOUT
  5
26
102
{ACAD_REACTORS
330
1A
102
}
330
1A
100
AcDbPlotSettings
  1

  2
none_device
  4

  6

 40
0.0
 41
0.0
 42
0.0
 43
0.0
 44
0.0
 45
0.0
 46
0.0
 47
0.0
 48
0.0
 49
0.0
140
0.0
141
0.0
142
1.0
143
1.0
 70
   688
 72
     0
 73
     0
 74
     5
  7

 75
    16
147
1.0
148
0.0
149
0.0
100
AcDbLayout
  1
Layout2
 70
     1
 71
     2
 10
0.0
 20
0.0
 11
0.0
 21
0.0
 12
0.0
 22
0.0
 32
0.0
 14
0.0
 24
0.0
 34
0.0
 15
0.0
 25
0.0
 35
0.0
146
0.0
 13
0.0
 23
0.0
 33
0.0
 16
1.0
 26
0.0
 36
0.0
 17
0.0
 27
1.0
 37
0.0
 76
     0
330
23
  0
LAYOUT
  5
22
102
{ACAD_REACTORS
330
1A
102
}
330
1A
100
AcDbPlotSettings
  1

  2
none_device
  4

  6

 40
0.0
 41
0.0
 42
0.0
 43
0.0
 44
0.0
 45
0.0
 46
0.0
 47
0.0
 48
0.0
 49
0.0
140
0.0
141
0.0
142
1.0
143
1.0
 70
  1712
 72
     0
 73
     0
 74
     0
  7

 75
     0
147
1.0
148
0.0
149
0.0
100
AcDbLayout
  1
Model
 70
     1
 71
     0
 10
0.0
 20
0.0
 11
594.0
 21
420.0
 12
0.0
 22
0.0
 32
0.0
 14
0.0
 24
0.0
 34
0.0
 15
594.0
 25
420.0
 35
0.0
146
0.0
 13
0.0
 23
0.0
 33
0.0
 16
1.0
 26
0.0
 36
0.0
 17
0.0
 27
1.0
 37
0.0
 76
     0
330
1F
331
29
  0
MLINESTYLE
  5
18
102
{ACAD_REACTORS
330
17
102
}
330
17
100
AcDbMlineStyle
  2
Standard
 70
     0
  3

 62
   256
 51
90.0
 52
90.0
 71
     2
 49
0.5
 62
   256
  6
BYLAYER
 49
-0.5
 62
   256
  6
BYLAYER
  0
ACDBPLACEHOLDER
  5
F
102
{ACAD_REACTORS
330
E
102
}
330
E
  0
ENDSEC
  0
EOF
