  0
SECTION
  2
HEADER
  9
$ACADVER
  1
AC1015
  9
$ACADMAINTVER
 70
     6
  9
$DWGCODEPAGE
  3
ANSI_1252
  9
$INSBASE
 10
0.0
 20
0.0
 30
0.0
  9
$EXTMIN
 10
0.0
 20
0.0
 30
0.0
  9
$EXTMAX
 10
420.0
 20
297.0
 30
0.0
  9
$LIMMIN
 10
0.0
 20
0.0
  9
$LIMMAX
 10
420.0
 20
297.0
  9
$ORTHOMODE
 70
     0
  9
$REGENMODE
 70
     1
  9
$FILLMODE
 70
     1
  9
$QTEXTMODE
 70
     0
  9
$MIRRTEXT
 70
     1
  9
$LTSCALE
 40
1.0
  9
$ATTMODE
 70
     1
  9
$TEXTSIZE
 40
3.5
  9
$TRACEWID
 40
1.0
  9
$TEXTSTYLE
  7
Standard
  9
$CLAYER
  8
0
  9
$CELTYPE
  6
ByLayer
  9
$CECOLOR
 62
   256
  9
$CELTSCALE
 40
1.0
  9
$DISPSILH
 70
     0
  9
$DIMSCALE
 40
1.0
  9
$DIMASZ
 40
6.0
  9
$DIMEXO
 40
1.0
  9
$DIMDLI
 40
3.75
  9
$DIMRND
 40
0.0
  9
$DIMDLE
 40
0.0
  9
$DIMEXE
 40
1.0
  9
$DIMTP
 40
0.0
  9
$DIMTM
 40
0.0
  9
$DIMTXT
 40
3.5
  9
$DIMCEN
 40
2.5
  9
$DIMTSZ
 40
0.0
  9
$DIMTOL
 70
     0
  9
$DIMLIM
 70
     0
  9
$DIMTIH
 70
     1
  9
$DIMTOH
 70
     1
  9
$DIMSE1
 70
     0
  9
$DIMSE2
 70
     0
  9
$DIMTAD
 70
     1
  9
$DIMZIN
 70
     0
  9
$DIMBLK
  1

  9
$DIMASO
 70
     1
  9
$DIMSHO
 70
     1
  9
$DIMPOST
  1

  9
$DIMAPOST
  1

  9
$DIMALT
 70
     0
  9
$DIMALTD
 70
     3
  9
$DIMALTF
 40
0.0393700787
  9
$DIMLFAC
 40
1.0
  9
$DIMTOFL
 70
     1
  9
$DIMTVP
 40
0.0
  9
$DIMTIX
 70
     0
  9
$DIMSOXD
 70
     0
  9
$DIMSAH
 70
     0
  9
$DIMBLK1
  1

  9
$DIMBLK2
  1

  9
$DIMSTYLE
  2
ISO-25
  9
$DIMCLRD
 70
     0
  9
$DIMCLRE
 70
     0
  9
$DIMCLRT
 70
     0
  9
$DIMTFAC
 40
1.0
  9
$DIMGAP
 40
1.524
  9
$DIMJUST
 70
     0
  9
$DIMSD1
 70
     0
  9
$DIMSD2
 70
     0
  9
$DIMTOLJ
 70
     0
  9
$DIMTZIN
 70
     0
  9
$DIMALTZ
 70
     0
  9
$DIMALTTZ
 70
     0
  9
$DIMUPT
 70
     0
  9
$DIMDEC
 70
     1
  9
$DIMTDEC
 70
     1
  9
$DIMALTU
 70
     2
  9
$DIMALTTD
 70
     3
  9
$DIMTXSTY
  7
Standard
  9
$DIMAUNIT
 70
     0
  9
$DIMADEC
 70
     1
  9
$DIMALTRND
 40
0.0
  9
$DIMAZIN
 70
     0
  9
$DIMDSEP
 70
    44
  9
$DIMATFIT
 70
     3
  9
$DIMFRAC
 70
     0
  9
$DIMLDRBLK
  1

  9
$DIMLUNIT
 70
     2
  9
$DIMLWD
 70
    -2
  9
$DIMLWE
 70
    -2
  9
$DIMTMOVE
 70
     0
  9
$LUNITS
 70
     2
  9
$LUPREC
 70
     1
  9
$SKETCHINC
 40
1.0
  9
$FILLETRAD
 40
10.0
  9
$AUNITS
 70
     0
  9
$AUPREC
 70
     1
  9
$MENU
  1
.
  9
$ELEVATION
 40
0.0
  9
$PELEVATION
 40
0.0
  9
$THICKNESS
 40
0.0
  9
$LIMCHECK
 70
     0
  9
$CHAMFERA
 40
10.0
  9
$CHAMFERB
 40
10.0
  9
$CHAMFERC
 40
20.0
  9
$CHAMFERD
 40
0.0
  9
$SKPOLY
 70
     0
  9
$TDCREATE
 40
2456156.566427674
  9
$TDUCREATE
 40
2456156.48309434
  9
$TDUPDATE
 40
2456156.566427685
  9
$TDUUPDATE
 40
2456156.483094352
  9
$TDINDWG
 40
0.0000000116
  9
$TDUSRTIMER
 40
0.0000000116
  9
$USRTIMER
 70
     1
  9
$ANGBASE
 50
0.0
  9
$ANGDIR
 70
     0
  9
$PDMODE
 70
     0
  9
$PDSIZE
 40
-1.0
  9
$PLINEWID
 40
0.0
  9
$SPLFRAME
 70
     0
  9
$SPLINETYPE
 70
     6
  9
$SPLINESEGS
 70
     8
  9
$HANDSEED
  5
180
  9
$SURFTAB1
 70
     6
  9
$SURFTAB2
 70
     6
  9
$SURFTYPE
 70
     6
  9
$SURFU
 70
     6
  9
$SURFV
 70
     6
  9
$UCSBASE
  2

  9
$UCSNAME
  2

  9
$UCSORG
 10
0.0
 20
0.0
 30
0.0
  9
$UCSXDIR
 10
1.0
 20
0.0
 30
0.0
  9
$UCSYDIR
 10
0.0
 20
1.0
 30
0.0
  9
$UCSORTHOREF
  2

  9
$UCSORTHOVIEW
 70
     0
  9
$UCSORGTOP
 10
0.0
 20
0.0
 30
0.0
  9
$UCSORGBOTTOM
 10
0.0
 20
0.0
 30
0.0
  9
$UCSORGLEFT
 10
0.0
 20
0.0
 30
0.0
  9
$UCSORGRIGHT
 10
0.0
 20
0.0
 30
0.0
  9
$UCSORGFRONT
 10
0.0
 20
0.0
 30
0.0
  9
$UCSORGBACK
 10
0.0
 20
0.0
 30
0.0
  9
$PUCSBASE
  2

  9
$PUCSNAME
  2

  9
$PUCSORG
 10
0.0
 20
0.0
 30
0.0
  9
$PUCSXDIR
 10
1.0
 20
0.0
 30
0.0
  9
$PUCSYDIR
 10
0.0
 20
1.0
 30
0.0
  9
$PUCSORTHOREF
  2

  9
$PUCSORTHOVIEW
 70
     0
  9
$PUCSORGTOP
 10
0.0
 20
0.0
 30
0.0
  9
$PUCSORGBOTTOM
 10
0.0
 20
0.0
 30
0.0
  9
$PUCSORGLEFT
 10
0.0
 20
0.0
 30
0.0
  9
$PUCSORGRIGHT
 10
0.0
 20
0.0
 30
0.0
  9
$PUCSORGFRONT
 10
0.0
 20
0.0
 30
0.0
  9
$PUCSORGBACK
 10
0.0
 20
0.0
 30
0.0
  9
$USERI1
 70
     0
  9
$USERI2
 70
     0
  9
$USERI3
 70
     0
  9
$USERI4
 70
     0
  9
$USERI5
 70
     0
  9
$USERR1
 40
0.0
  9
$USERR2
 40
0.0
  9
$USERR3
 40
0.0
  9
$USERR4
 40
0.0
  9
$USERR5
 40
0.0
  9
$WORLDVIEW
 70
     1
  9
$SHADEDGE
 70
     3
  9
$SHADEDIF
 70
    70
  9
$TILEMODE
 70
     1
  9
$MAXACTVP
 70
    64
  9
$PINSBASE
 10
0.0
 20
0.0
 30
0.0
  9
$PLIMCHECK
 70
     0
  9
$PEXTMIN
 10
1.0000000000E+20
 20
1.0000000000E+20
 30
1.0000000000E+20
  9
$PEXTMAX
 10
-1.0000000000E+20
 20
-1.0000000000E+20
 30
-1.0000000000E+20
  9
$PLIMMIN
 10
0.0
 20
0.0
  9
$PLIMMAX
 10
420.0
 20
297.0
  9
$UNITMODE
 70
     0
  9
$VISRETAIN
 70
     1
  9
$PLINEGEN
 70
     0
  9
$PSLTSCALE
 70
     1
  9
$TREEDEPTH
 70
  3020
  9
$CMLSTYLE
  2
Standard
  9
$CMLJUST
 70
     0
  9
$CMLSCALE
 40
20.0
  9
$PROXYGRAPHICS
 70
     1
  9
$MEASUREMENT
 70
     1
  9
$CELWEIGHT
370
    -1
  9
$ENDCAPS
280
     0
  9
$JOINSTYLE
280
     0
  9
$LWDISPLAY
290
     1
  9
$INSUNITS
 70
     4
  9
$HYPERLINKBASE
  1

  9
$STYLESHEET
  1

  9
$XEDIT
290
     1
  9
$CEPSNTYPE
380
     0
  9
$PSTYLEMODE
290
     1
  9
$FINGERPRINTGUID
  2
{27FD98E3-4149-4943-B9C6-E6D51A59B666}
  9
$VERSIONGUID
  2
{FAEB1C32-E019-11D5-929B-00C0DF256EC4}
  9
$EXTNAMES
290
     1
  9
$PSVPSCALE
 40
0.0
  9
$OLESTARTUP
290
     0
  0
ENDSEC
  0
SECTION
  2
CLASSES
  0
CLASS
  1
ACDBDICTIONARYWDFLT
  2
AcDbDictionaryWithDefault
  3
ObjectDBX Classes
 90
        0
280
     0
281
     0
  0
CLASS
  1
VISUALSTYLE
  2
AcDbVisualStyle
  3
ObjectDBX Classes
 90
     4095
280
     0
281
     0
  0
CLASS
  1
MATERIAL
  2
AcDbMaterial
  3
ObjectDBX Classes
 90
     1153
280
     0
281
     0
  0
CLASS
  1
ACDBPLACEHOLDER
  2
AcDbPlaceHolder
  3
ObjectDBX Classes
 90
        0
280
     0
281
     0
  0
CLASS
  1
LAYOUT
  2
AcDbLayout
  3
ObjectDBX Classes
 90
        0
280
     0
281
     0
  0
ENDSEC
  0
SECTION
  2
TABLES
  0
TABLE
  2
VPORT
  5
8
330
0
100
AcDbSymbolTable
 70
     1
  0
VPORT
  5
29
330
8
100
AcDbSymbolTableRecord
100
AcDbViewportTableRecord
  2
*Active
 70
     0
 10
0.0
 20
0.0
 11
1.0
 21
1.0
 12
210.0
 22
148.5
 13
0.0
 23
0.0
 14
10.0
 24
10.0
 15
10.0
 25
10.0
 16
0.0
 26
0.0
 36
1.0
 17
0.0
 27
0.0
 37
0.0
 40
297.0
 41
1.4141414141
 42
50.0
 43
0.0
 44
0.0
 50
0.0
 51
0.0
 71
     0
 72
  2000
 73
     1
 74
     3
 75
     0
 76
     0
 77
     0
 78
     0
281
     0
 65
     1
110
0.0
120
0.0
130
0.0
111
1.0
121
0.0
131
0.0
112
0.0
122
1.0
132
0.0
 79
     0
146
0.0
  0
ENDTAB
  0
TABLE
  2
LTYPE
  5
5
330
0
100
AcDbSymbolTable
 70
     6
  0
LTYPE
  5
14
330
5
100
AcDbSymbolTableRecord
100
AcDbLinetypeTableRecord
  2
ByBlock
 70
     0
  3

 72
    65
 73
     0
 40
0.0
  0
LTYPE
  5
15
330
5
100
AcDbSymbolTableRecord
100
AcDbLinetypeTableRecord
  2
ByLayer
 70
     0
  3

 72
    65
 73
     0
 40
0.0
  0
LTYPE
  5
16
330
5
100
AcDbSymbolTableRecord
100
AcDbLinetypeTableRecord
  2
Continuous
 70
     0
  3
Solid line
 72
    65
 73
     0
 40
0.0
  0
LTYPE
  5
3F
330
5
100
AcDbSymbolTableRecord
100
AcDbLinetypeTableRecord
  2
HIDDEN
 70
     0
  3
Hidden __ __ __ __ __ __ __ __ __ __ __ __ __ __
 72
    65
 73
     2
 40
1.905
 49
1.27
 74
     0
 49
-0.635
 74
     0
  0
LTYPE
  5
40
330
5
100
AcDbSymbolTableRecord
100
AcDbLinetypeTableRecord
  2
PHANTOM
 70
     0
  3
Phantom ______  __  __  ______  __  __  ______
 72
    65
 73
     6
 40
12.7
 49
6.35
 74
     0
 49
-1.27
 74
     0
 49
1.27
 74
     0
 49
-1.27
 74
     0
 49
1.27
 74
     0
 49
-1.27
 74
     0
  0
LTYPE
  5
41
330
5
100
AcDbSymbolTableRecord
100
AcDbLinetypeTableRecord
  2
CENTER
 70
     0
  3
Center ____ _ ____ _ ____ _ ____ _ ____ _ ____
 72
    65
 73
     4
 40
10.16
 49
6.35
 74
     0
 49
-1.27
 74
     0
 49
1.27
 74
     0
 49
-1.27
 74
     0
  0
LTYPE
  5
42
330
5
100
AcDbSymbolTableRecord
100
AcDbLinetypeTableRecord
  2
CENTERX2
 70
     0
  3
Center (2x) ________  __  ________  __  _____
 72
    65
 73
     4
 40
20.32
 49
12.7
 74
     0
 49
-2.54
 74
     0
 49
2.54
 74
     0
 49
-2.54
 74
     0
  0
LTYPE
  5
43
330
5
100
AcDbSymbolTableRecord
100
AcDbLinetypeTableRecord
  2
DOT2
 70
     0
  3
Dot (.5x) ........................................
 72
    65
 73
     2
 40
0.635
 49
0.0
 74
     0
 49
-0.635
 74
     0
  0
ENDTAB
  0
TABLE
  2
LAYER
  5
2
330
0
100
AcDbSymbolTable
 70
     5
  0
LAYER
  5
10
330
2
100
AcDbSymbolTableRecord
100
AcDbLayerTableRecord
  2
0
 70
     0
 62
     7
  6
Continuous
370
    -3
390
F
  0
LAYER
  5
44
330
2
100
AcDbSymbolTableRecord
100
AcDbLayerTableRecord
  2
VORLAGE
 70
     0
 62
    -1
  6
Continuous
370
    -3
390
F
  0
LAYER
  5
45
330
2
100
AcDbSymbolTableRecord
100
AcDbLayerTableRecord
  2
RAHMEN
 70
     0
 62
   179
  6
Continuous
370
    -3
390
F
  0
LAYER
  5
46
330
2
100
AcDbSymbolTableRecord
100
AcDbLayerTableRecord
  2
KOPF
 70
     0
 62
     7
  6
Continuous
370
    -3
390
F
  0
LAYER
  5
47
330
2
100
AcDbSymbolTableRecord
100
AcDbLayerTableRecord
  2
TEMP
 70
     0
 62
    -7
  6
Continuous
370
    -3
390
F
  0
ENDTAB
  0
TABLE
  2
STYLE
  5
3
330
0
100
AcDbSymbolTable
 70
     2
  0
STYLE
  5
11
330
3
100
AcDbSymbolTableRecord
100
AcDbTextStyleTableRecord
  2
Standard
 70
     0
 40
0.0
 41
1.0
 50
0.0
 71
     0
 42
2.5
  3
txt
  4

  0
STYLE
  5
72
330
3
100
AcDbSymbolTableRecord
100
AcDbTextStyleTableRecord
  2
SLDTEXTSTYLE0
 70
     0
 40
0.0
 41
0.75
 50
0.0
 71
     0
 42
0.2
  3
TXT
  4

  0
ENDTAB
  0
TABLE
  2
VIEW
  5
6
330
0
100
AcDbSymbolTable
 70
     0
  0
ENDTAB
  0
TABLE
  2
UCS
  5
7
330
0
100
AcDbSymbolTable
 70
     0
  0
ENDTAB
  0
TABLE
  2
APPID
  5
9
330
0
100
AcDbSymbolTable
 70
     1
  0
APPID
  5
12
330
9
100
AcDbSymbolTableRecord
100
AcDbRegAppTableRecord
  2
ACAD
 70
     0
  0
ENDTAB
  0
TABLE
  2
DIMSTYLE
  5
A
330
0
100
AcDbSymbolTable
 70
     4
100
AcDbDimStyleTable
  0
DIMSTYLE
105
27
330
A
100
AcDbSymbolTableRecord
100
AcDbDimStyleTableRecord
  2
ISO-25
 70
     0
 41
2.5
 42
0.625
 43
3.75
 44
1.25
 73
     0
 74
     0
 77
     1
 78
     8
140
2.5
141
2.5
143
0.0393700787
147
0.625
171
     3
172
     1
178
     0
271
     2
272
     2
274
     3
278
    44
283
     0
284
     8
340
11
  0
DIMSTYLE
105
73
102
{ACAD_REACTORS
330
71
330
7D
102
}
330
A
100
AcDbSymbolTableRecord
100
AcDbDimStyleTableRecord
  2
SLDDIMSTYLE0
 70
     0
 41
6.0
 44
0.0
 45
0.000000001
 73
     0
 74
     0
 77
     1
 78
    12
 79
     3
140
3.5
147
0.875
173
     1
178
     0
271
     1
272
     1
276
     2
284
    12
340
72
  0
DIMSTYLE
105
88
102
{ACAD_REACTORS
330
87
102
}
330
A
100
AcDbSymbolTableRecord
100
AcDbDimStyleTableRecord
  2
SLDDIMSTYLE1
 70
     0
 41
6.0
 44
0.0
 45
0.000000001
 73
     0
 74
     0
 77
     1
 78
    12
 79
     3
140
3.5
141
0.0
147
0.875
173
     1
178
     0
271
     1
272
     1
276
     2
284
    12
340
72
  0
DIMSTYLE
105
92
102
{ACAD_REACTORS
330
91
330
9E
330
E2
330
EE
330
173
102
}
330
A
100
AcDbSymbolTableRecord
100
AcDbDimStyleTableRecord
  2
SLDDIMSTYLE2
 70
     0
 41
6.0
 44
0.0
 45
0.000000001
 73
     0
 74
     0
 77
     1
 78
    12
 79
     3
140
3.5
147
0.875
172
     1
173
     1
178
     0
271
     1
272
     1
276
     2
284
    12
289
     0
340
72
  0
ENDTAB
  0
TABLE
  2
BLOCK_RECORD
  5
1
330
0
100
AcDbSymbolTable
 70
     9
  0
BLOCK_RECORD
  5
1F
330
1
100
AcDbSymbolTableRecord
100
AcDbBlockTableRecord
  2
*Model_Space
340
22
  0
BLOCK_RECORD
  5
1B
330
1
100
AcDbSymbolTableRecord
100
AcDbBlockTableRecord
  2
*Paper_Space
340
1E
  0
BLOCK_RECORD
  5
23
330
1
100
AcDbSymbolTableRecord
100
AcDbBlockTableRecord
  2
*Paper_Space0
340
26
  0
BLOCK_RECORD
  5
74
330
1
100
AcDbSymbolTableRecord
100
AcDbBlockTableRecord
  2
*D1
340
0
  0
BLOCK_RECORD
  5
7E
330
1
100
AcDbSymbolTableRecord
100
AcDbBlockTableRecord
  2
*D2
340
0
  0
BLOCK_RECORD
  5
89
330
1
100
AcDbSymbolTableRecord
100
AcDbBlockTableRecord
  2
*D3
340
0
  0
BLOCK_RECORD
  5
93
330
1
100
AcDbSymbolTableRecord
100
AcDbBlockTableRecord
  2
*D4
340
0
  0
BLOCK_RECORD
  5
9F
330
1
100
AcDbSymbolTableRecord
100
AcDbBlockTableRecord
  2
*D5
340
0
  0
BLOCK_RECORD
  5
E3
330
1
100
AcDbSymbolTableRecord
100
AcDbBlockTableRecord
  2
*D6
340
0
  0
BLOCK_RECORD
  5
EF
330
1
100
AcDbSymbolTableRecord
100
AcDbBlockTableRecord
  2
*D7
340
0
  0
BLOCK_RECORD
  5
174
330
1
100
AcDbSymbolTableRecord
100
AcDbBlockTableRecord
  2
*D8
340
0
  0
ENDTAB
  0
ENDSEC
  0
SECTION
  2
BLOCKS
  0
BLOCK
  5
20
330
1F
100
AcDbEntity
  8
0
100
AcDbBlockBegin
  2
*Model_Space
 70
     0
 10
0.0
 20
0.0
 30
0.0
  3
*Model_Space
  1

  0
ENDBLK
  5
21
330
1F
100
AcDbEntity
  8
0
100
AcDbBlockEnd
  0
BLOCK
  5
1C
330
1B
100
AcDbEntity
 67
     1
  8
0
100
AcDbBlockBegin
  2
*Paper_Space
 70
     0
 10
0.0
 20
0.0
 30
0.0
  3
*Paper_Space
  1

  0
ENDBLK
  5
1D
330
1B
100
AcDbEntity
 67
     1
  8
0
100
AcDbBlockEnd
  0
BLOCK
  5
24
330
23
100
AcDbEntity
  8
0
100
AcDbBlockBegin
  2
*Paper_Space0
 70
     0
 10
0.0
 20
0.0
 30
0.0
  3
*Paper_Space0
  1

  0
ENDBLK
  5
25
330
23
100
AcDbEntity
  8
0
100
AcDbBlockEnd
  0
BLOCK
  5
75
330
74
100
AcDbEntity
  8
0
100
AcDbBlockBegin
  2
*D1
 70
     1
 10
0.0
 20
0.0
 30
0.0
  3
*D1
  1

  0
SOLID
  5
77
330
74
100
AcDbEntity
  8
0
  6
Continuous
 62
     7
370
     0
100
AcDbTrace
 10
63.4570881208
 20
279.3914477232
 30
0.0
 11
69.4570881208
 21
278.4914477232
 31
0.0
 12
69.4570881208
 22
280.2914477232
 32
0.0
 13
69.4570881208
 23
280.2914477232
 33
0.0
  0
SOLID
  5
78
330
74
100
AcDbEntity
  8
0
  6
Continuous
 62
     7
370
     0
100
AcDbTrace
 10
115.4570881208
 20
279.3914477232
 30
0.0
 11
109.4570881208
 21
280.2914477232
 31
0.0
 12
109.4570881208
 22
278.4914477232
 32
0.0
 13
109.4570881208
 23
278.4914477232
 33
0.0
  0
LINE
  5
79
330
74
100
AcDbEntity
  8
0
  6
Continuous
 62
     7
370
     0
100
AcDbLine
 10
63.4570881208
 20
246.3914477232
 30
0.0
 11
63.4570881208
 21
280.3914477232
 31
0.0
  0
LINE
  5
7A
330
74
100
AcDbEntity
  8
0
  6
Continuous
 62
     7
370
     0
100
AcDbLine
 10
115.4570881208
 20
246.3914477232
 30
0.0
 11
115.4570881208
 21
280.3914477232
 31
0.0
  0
LINE
  5
7B
330
74
100
AcDbEntity
  8
0
  6
Continuous
 62
     7
370
     0
100
AcDbLine
 10
63.4570881208
 20
279.3914477232
 30
0.0
 11
115.4570881208
 21
279.3914477232
 31
0.0
  0
MTEXT
  5
7C
330
74
100
AcDbEntity
  8
0
  6
Continuous
 62
     7
370
     0
100
AcDbMText
 10
87.171917034
 20
283.9031846378
 30
0.0
 40
3.5
 41
0.0
 71
     1
 72
     1
  1
52
  7
SLDTEXTSTYLE0
 73
     1
 44
1.0
  0
ENDBLK
  5
76
330
74
100
AcDbEntity
  8
0
100
AcDbBlockEnd
  0
BLOCK
  5
7F
330
7E
100
AcDbEntity
  8
0
100
AcDbBlockBegin
  2
*D2
 70
     1
 10
0.0
 20
0.0
 30
0.0
  3
*D2
  1

  0
SOLID
  5
81
330
7E
100
AcDbEntity
  8
0
  6
Continuous
 62
     7
370
     0
100
AcDbTrace
 10
53.459846988
 20
205.3914477232
 30
0.0
 11
54.359846988
 21
211.3914477232
 31
0.0
 12
52.559846988
 22
211.3914477232
 32
0.0
 13
52.559846988
 23
211.3914477232
 33
0.0
  0
SOLID
  5
82
330
7E
100
AcDbEntity
  8
0
  6
Continuous
 62
     7
370
     0
100
AcDbTrace
 10
53.459846988
 20
245.3914477232
 30
0.0
 11
52.559846988
 21
239.3914477232
 31
0.0
 12
54.359846988
 22
239.3914477232
 32
0.0
 13
54.359846988
 23
239.3914477232
 33
0.0
  0
LINE
  5
83
330
7E
100
AcDbEntity
  8
0
  6
Continuous
 62
     7
370
     0
100
AcDbLine
 10
62.4570881208
 20
205.3914477232
 30
0.0
 11
52.459846988
 21
205.3914477232
 31
0.0
  0
LINE
  5
84
330
7E
100
AcDbEntity
  8
0
  6
Continuous
 62
     7
370
     0
100
AcDbLine
 10
62.4570881208
 20
245.3914477232
 30
0.0
 11
52.459846988
 21
245.3914477232
 31
0.0
  0
LINE
  5
85
330
7E
100
AcDbEntity
  8
0
  6
Continuous
 62
     7
370
     0
100
AcDbLine
 10
53.459846988
 20
205.3914477232
 30
0.0
 11
53.459846988
 21
245.3914477232
 31
0.0
  0
MTEXT
  5
86
330
7E
100
AcDbEntity
  8
0
  6
Continuous
 62
     7
370
     0
100
AcDbMText
 10
48.9481100735
 20
222.8067173411
 30
0.0
 40
3.5
 41
0.0
 71
     1
 72
     1
  1
40
  7
SLDTEXTSTYLE0
 11
-1.608122649676637E-16
 21
1.0
 31
0.0
 73
     1
 44
1.0
  0
ENDBLK
  5
80
330
7E
100
AcDbEntity
  8
0
100
AcDbBlockEnd
  0
BLOCK
  5
8A
330
89
100
AcDbEntity
  8
0
100
AcDbBlockBegin
  2
*D3
 70
     1
 10
0.0
 20
0.0
 30
0.0
  3
*D3
  1

  0
SOLID
  5
8C
330
89
100
AcDbEntity
  8
0
  6
Continuous
 62
     7
370
     0
100
AcDbTrace
 10
115.3109355063
 20
245.2447068742
 30
0.0
 11
120.1929706042
 21
248.8468913924
 31
0.0
 12
118.9212376606
 22
250.1207419802
 32
0.0
 13
118.9212376606
 23
250.1207419802
 33
0.0
  0
LINE
  5
8D
330
89
100
AcDbEntity
  8
0
  6
Continuous
 62
     7
370
     0
100
AcDbLine
 10
115.3109355063
 20
245.2447068742
 30
0.0
 11
129.7883774947
 21
259.6980816201
 31
0.0
  0
LINE
  5
8E
330
89
100
AcDbEntity
  8
0
  6
Continuous
 62
     7
370
     0
100
AcDbLine
 10
115.3109355063
 20
245.2447068742
 30
0.0
 11
114.9570881208
 21
244.8914477232
 31
0.0
  0
MTEXT
  5
8F
330
89
100
AcDbEntity
  8
0
  6
Continuous
 62
     7
370
     0
100
AcDbMText
 10
118.9326451679
 20
255.1698821008
 30
0.0
 40
3.5
 41
0.0
 71
     1
 72
     1
  1
R
  7
SLDTEXTSTYLE0
 11
0.7076947710131344
 21
0.7065183020139445
 31
0.0
 73
     1
 44
1.0
  0
MTEXT
  5
90
330
89
100
AcDbEntity
  8
0
  6
Continuous
 62
     7
370
     0
100
AcDbMText
 10
120.9366733234
 20
257.1705787679
 30
0.0
 40
3.5
 41
0.0
 71
     1
 72
     1
  1
0.5
  7
SLDTEXTSTYLE0
 11
0.7076947710131344
 21
0.7065183020139445
 31
0.0
 73
     1
 44
1.0
  0
ENDBLK
  5
8B
330
89
100
AcDbEntity
  8
0
100
AcDbBlockEnd
  0
BLOCK
  5
94
330
93
100
AcDbEntity
  8
0
100
AcDbBlockBegin
  2
*D4
 70
     1
 10
0.0
 20
0.0
 30
0.0
  3
*D4
  1

  0
SOLID
  5
96
330
93
100
AcDbEntity
  8
0
  6
Continuous
 62
     7
370
     0
100
AcDbTrace
 10
80.4570881208
 20
270.4941617083
 30
0.0
 11
74.4570881208
 21
271.3941617083
 31
0.0
 12
74.4570881208
 22
269.5941617083
 32
0.0
 13
74.4570881208
 23
269.5941617083
 33
0.0
  0
SOLID
  5
97
330
93
100
AcDbEntity
  8
0
  6
Continuous
 62
     7
370
     0
100
AcDbTrace
 10
98.4570881208
 20
270.4941617083
 30
0.0
 11
104.4570881208
 21
269.5941617083
 31
0.0
 12
104.4570881208
 22
271.3941617083
 32
0.0
 13
104.4570881208
 23
271.3941617083
 33
0.0
  0
LINE
  5
98
330
93
100
AcDbEntity
  8
0
  6
Continuous
 62
     7
370
     0
100
AcDbLine
 10
80.4570881208
 20
245.8914477232
 30
0.0
 11
80.4570881208
 21
271.4941617083
 31
0.0
  0
LINE
  5
99
330
93
100
AcDbEntity
  8
0
  6
Continuous
 62
     7
370
     0
100
AcDbLine
 10
98.4570881208
 20
245.8914477232
 30
0.0
 11
98.4570881208
 21
271.4941617083
 31
0.0
  0
LINE
  5
9A
330
93
100
AcDbEntity
  8
0
  6
Continuous
 62
     7
370
     0
100
AcDbLine
 10
80.4570881208
 20
270.4941617083
 30
0.0
 11
68.4570881208
 21
270.4941617083
 31
0.0
  0
LINE
  5
9B
330
93
100
AcDbEntity
  8
0
  6
Continuous
 62
     7
370
     0
100
AcDbLine
 10
80.4570881208
 20
270.4941617083
 30
0.0
 11
98.4570881208
 21
270.4941617083
 31
0.0
  0
LINE
  5
9C
330
93
100
AcDbEntity
  8
0
  6
Continuous
 62
     7
370
     0
100
AcDbLine
 10
98.4570881208
 20
270.4941617083
 30
0.0
 11
110.4570881208
 21
270.4941617083
 31
0.0
  0
MTEXT
  5
9D
330
93
100
AcDbEntity
  8
0
  6
Continuous
 62
     7
370
     0
100
AcDbMText
 10
87.171917034
 20
275.0058986229
 30
0.0
 40
3.5
 41
0.0
 71
     1
 72
     1
  1
18
  7
SLDTEXTSTYLE0
 73
     1
 44
1.0
  0
ENDBLK
  5
95
330
93
100
AcDbEntity
  8
0
100
AcDbBlockEnd
  0
BLOCK
  5
A0
330
9F
100
AcDbEntity
  8
0
100
AcDbBlockBegin
  2
*D5
 70
     1
 10
0.0
 20
0.0
 30
0.0
  3
*D5
  1

  0
SOLID
  5
A2
330
9F
100
AcDbEntity
  8
0
  6
Continuous
 62
     7
370
     0
100
AcDbTrace
 10
131.4570881208
 20
214.8914477232
 30
0.0
 11
130.5570881208
 21
208.8914477232
 31
0.0
 12
132.3570881208
 22
208.8914477232
 32
0.0
 13
132.3570881208
 23
208.8914477232
 33
0.0
  0
SOLID
  5
A3
330
9F
100
AcDbEntity
  8
0
  6
Continuous
 62
     7
370
     0
100
AcDbTrace
 10
131.4570881208
 20
244.8914477232
 30
0.0
 11
132.3570881208
 21
250.8914477232
 31
0.0
 12
130.5570881208
 22
250.8914477232
 32
0.0
 13
130.5570881208
 23
250.8914477232
 33
0.0
  0
LINE
  5
A4
330
9F
100
AcDbEntity
  8
0
  6
Continuous
 62
     7
370
     0
100
AcDbLine
 10
99.4570881208
 20
214.8914477232
 30
0.0
 11
132.4570881208
 21
214.8914477232
 31
0.0
  0
LINE
  5
A5
330
9F
100
AcDbEntity
  8
0
  6
Continuous
 62
     7
370
     0
100
AcDbLine
 10
99.4570881208
 20
244.8914477232
 30
0.0
 11
132.4570881208
 21
244.8914477232
 31
0.0
  0
LINE
  5
A6
330
9F
100
AcDbEntity
  8
0
  6
Continuous
 62
     7
370
     0
100
AcDbLine
 10
131.4570881208
 20
214.8914477232
 30
0.0
 11
131.4570881208
 21
202.8914477232
 31
0.0
  0
LINE
  5
A7
330
9F
100
AcDbEntity
  8
0
  6
Continuous
 62
     7
370
     0
100
AcDbLine
 10
131.4570881208
 20
214.8914477232
 30
0.0
 11
131.4570881208
 21
244.8914477232
 31
0.0
  0
LINE
  5
A8
330
9F
100
AcDbEntity
  8
0
  6
Continuous
 62
     7
370
     0
100
AcDbLine
 10
131.4570881208
 20
244.8914477232
 30
0.0
 11
131.4570881208
 21
256.8914477232
 31
0.0
  0
MTEXT
  5
A9
330
9F
100
AcDbEntity
  8
0
  6
Continuous
 62
     7
370
     0
100
AcDbMText
 10
126.9453512062
 20
228.3873750855
 30
0.0
 40
3.5
 41
0.0
 71
     1
 72
     1
  1
30
  7
SLDTEXTSTYLE0
 11
-1.608122649676637E-16
 21
1.0
 31
0.0
 73
     1
 44
1.0
  0
ENDBLK
  5
A1
330
9F
100
AcDbEntity
  8
0
100
AcDbBlockEnd
  0
BLOCK
  5
E4
330
E3
100
AcDbEntity
  8
0
100
AcDbBlockBegin
  2
*D6
 70
     1
 10
0.0
 20
0.0
 30
0.0
  3
*D6
  1

  0
SOLID
  5
E6
330
E3
100
AcDbEntity
  8
0
  6
Continuous
 62
     7
370
     0
100
AcDbTrace
 10
121.0284911675
 20
150.4915565842
 30
0.0
 11
121.9284911675
 21
156.4915565842
 31
0.0
 12
120.1284911675
 22
156.4915565842
 32
0.0
 13
120.1284911675
 23
156.4915565842
 33
0.0
  0
SOLID
  5
E7
330
E3
100
AcDbEntity
  8
0
  6
Continuous
 62
     7
370
     0
100
AcDbTrace
 10
121.0284911675
 20
141.4915565842
 30
0.0
 11
120.1284911675
 21
135.4915565842
 31
0.0
 12
121.9284911675
 22
135.4915565842
 32
0.0
 13
121.9284911675
 23
135.4915565842
 33
0.0
  0
LINE
  5
E8
330
E3
100
AcDbEntity
  8
0
  6
Continuous
 62
     7
370
     0
100
AcDbLine
 10
118.7830467674
 20
150.4915565842
 30
0.0
 11
122.0284911675
 21
150.4915565842
 31
0.0
  0
LINE
  5
E9
330
E3
100
AcDbEntity
  8
0
  6
Continuous
 62
     7
370
     0
100
AcDbLine
 10
116.4570881208
 20
141.4915565842
 30
0.0
 11
122.0284911675
 21
141.4915565842
 31
0.0
  0
LINE
  5
EA
330
E3
100
AcDbEntity
  8
0
  6
Continuous
 62
     7
370
     0
100
AcDbLine
 10
121.0284911675
 20
150.4915565842
 30
0.0
 11
121.0284911675
 21
163.8707159505
 31
0.0
  0
LINE
  5
EB
330
E3
100
AcDbEntity
  8
0
  6
Continuous
 62
     7
370
     0
100
AcDbLine
 10
121.0284911675
 20
150.4915565842
 30
0.0
 11
121.0284911675
 21
141.4915565842
 31
0.0
  0
LINE
  5
EC
330
E3
100
AcDbEntity
  8
0
  6
Continuous
 62
     7
370
     0
100
AcDbLine
 10
121.0284911675
 20
141.4915565842
 30
0.0
 11
121.0284911675
 21
129.4915565842
 31
0.0
  0
MTEXT
  5
ED
330
E3
100
AcDbEntity
  8
0
  6
Continuous
 62
     7
370
     0
100
AcDbMText
 10
116.5167542529
 20
159.699897218
 30
0.0
 40
3.5
 41
0.0
 71
     1
 72
     1
  1
9
  7
SLDTEXTSTYLE0
 11
-7.044195017643634E-15
 21
1.0
 31
0.0
 73
     1
 44
1.0
  0
ENDBLK
  5
E5
330
E3
100
AcDbEntity
  8
0
100
AcDbBlockEnd
  0
BLOCK
  5
F0
330
EF
100
AcDbEntity
  8
0
100
AcDbBlockBegin
  2
*D7
 70
     1
 10
0.0
 20
0.0
 30
0.0
  3
*D7
  1

  0
SOLID
  5
F2
330
EF
100
AcDbEntity
  8
0
  6
Continuous
 62
     7
370
     0
100
AcDbTrace
 10
128.8513354578
 20
141.4915565842
 30
0.0
 11
129.7513354578
 21
147.4915565842
 31
0.0
 12
127.9513354578
 22
147.4915565842
 32
0.0
 13
127.9513354578
 23
147.4915565842
 33
0.0
  0
SOLID
  5
F3
330
EF
100
AcDbEntity
  8
0
  6
Continuous
 62
     7
370
     0
100
AcDbTrace
 10
128.8513354578
 20
111.4915565842
 30
0.0
 11
127.9513354578
 21
105.4915565842
 31
0.0
 12
129.7513354578
 22
105.4915565842
 32
0.0
 13
129.7513354578
 23
105.4915565842
 33
0.0
  0
LINE
  5
F4
330
EF
100
AcDbEntity
  8
0
  6
Continuous
 62
     7
370
     0
100
AcDbLine
 10
99.4570881208
 20
141.4915565842
 30
0.0
 11
129.8513354578
 21
141.4915565842
 31
0.0
  0
LINE
  5
F5
330
EF
100
AcDbEntity
  8
0
  6
Continuous
 62
     7
370
     0
100
AcDbLine
 10
99.4570881208
 20
111.4915565842
 30
0.0
 11
129.8513354578
 21
111.4915565842
 31
0.0
  0
LINE
  5
F6
330
EF
100
AcDbEntity
  8
0
  6
Continuous
 62
     7
370
     0
100
AcDbLine
 10
128.8513354578
 20
141.4915565842
 30
0.0
 11
128.8513354578
 21
153.4915565842
 31
0.0
  0
LINE
  5
F7
330
EF
100
AcDbEntity
  8
0
  6
Continuous
 62
     7
370
     0
100
AcDbLine
 10
128.8513354578
 20
141.4915565842
 30
0.0
 11
128.8513354578
 21
111.4915565842
 31
0.0
  0
LINE
  5
F8
330
EF
100
AcDbEntity
  8
0
  6
Continuous
 62
     7
370
     0
100
AcDbLine
 10
128.8513354578
 20
111.4915565842
 30
0.0
 11
128.8513354578
 21
99.4915565842
 31
0.0
  0
MTEXT
  5
F9
330
EF
100
AcDbEntity
  8
0
  6
Continuous
 62
     7
370
     0
100
AcDbMText
 10
124.3395985433
 20
124.4762622924
 30
0.0
 40
3.5
 41
0.0
 71
     1
 72
     1
  1
30
  7
SLDTEXTSTYLE0
 11
-7.044195017643634E-15
 21
1.0
 31
0.0
 73
     1
 44
1.0
  0
ENDBLK
  5
F1
330
EF
100
AcDbEntity
  8
0
100
AcDbBlockEnd
  0
BLOCK
  5
175
330
174
100
AcDbEntity
  8
0
100
AcDbBlockBegin
  2
*D8
 70
     1
 10
0.0
 20
0.0
 30
0.0
  3
*D8
  1

  0
SOLID
  5
177
330
174
100
AcDbEntity
  8
0
  6
Continuous
 62
     7
370
     0
100
AcDbTrace
 10
199.9612311236
 20
261.3914477232
 30
0.0
 11
193.9612311236
 21
262.2914477232
 31
0.0
 12
193.9612311236
 22
260.4914477232
 32
0.0
 13
193.9612311236
 23
260.4914477232
 33
0.0
  0
SOLID
  5
178
330
174
100
AcDbEntity
  8
0
  6
Continuous
 62
     7
370
     0
100
AcDbTrace
 10
205.9612311236
 20
261.3914477232
 30
0.0
 11
211.9612311236
 21
260.4914477232
 31
0.0
 12
211.9612311236
 22
262.2914477232
 32
0.0
 13
211.9612311236
 23
262.2914477232
 33
0.0
  0
LINE
  5
179
330
174
100
AcDbEntity
  8
0
  6
Continuous
 62
     7
370
     0
100
AcDbLine
 10
199.9612311236
 20
245.8914477232
 30
0.0
 11
199.9612311236
 21
262.3914477232
 31
0.0
  0
LINE
  5
17A
330
174
100
AcDbEntity
  8
0
  6
Continuous
 62
     7
370
     0
100
AcDbLine
 10
205.9612311236
 20
245.8914477232
 30
0.0
 11
205.9612311236
 21
262.3914477232
 31
0.0
  0
LINE
  5
17B
330
174
100
AcDbEntity
  8
0
  6
Continuous
 62
     7
370
     0
100
AcDbLine
 10
199.9612311236
 20
261.3914477232
 30
0.0
 11
187.9612311236
 21
261.3914477232
 31
0.0
  0
LINE
  5
17C
330
174
100
AcDbEntity
  8
0
  6
Continuous
 62
     7
370
     0
100
AcDbLine
 10
199.9612311236
 20
261.3914477232
 30
0.0
 11
205.9612311236
 21
261.3914477232
 31
0.0
  0
LINE
  5
17D
330
174
100
AcDbEntity
  8
0
  6
Continuous
 62
     7
370
     0
100
AcDbLine
 10
205.9612311236
 20
261.3914477232
 30
0.0
 11
218.8403904898
 21
261.3914477232
 31
0.0
  0
MTEXT
  5
17E
330
174
100
AcDbEntity
  8
0
  6
Continuous
 62
     7
370
     0
100
AcDbMText
 10
214.6695717573
 20
265.9031846378
 30
0.0
 40
3.5
 41
0.0
 71
     1
 72
     1
  1
6
  7
SLDTEXTSTYLE0
 73
     1
 44
1.0
  0
ENDBLK
  5
176
330
174
100
AcDbEntity
  8
0
100
AcDbBlockEnd
  0
ENDSEC
  0
SECTION
  2
ENTITIES
  0
LINE
  5
48
330
1F
100
AcDbEntity
  8
0
  6
Continuous
 62
     7
370
    15
100
AcDbLine
 10
80.9570881208
 20
244.8914477232
 30
0.0
 11
97.9570881208
 21
244.8914477232
 31
0.0
  0
LINE
  5
49
330
1F
100
AcDbEntity
  8
0
  6
Continuous
 62
     7
370
    15
100
AcDbLine
 10
98.4570881208
 20
244.3914477232
 30
0.0
 11
98.4570881208
 21
215.3914477232
 31
0.0
  0
ARC
  5
4A
330
1F
100
AcDbEntity
  8
0
  6
Continuous
 62
     7
370
    15
100
AcDbCircle
 10
80.9570881208
 20
244.3914477232
 30
0.0
 40
0.5
100
AcDbArc
 50
90.0
 51
180.0
  0
ARC
  5
4B
330
1F
100
AcDbEntity
  8
0
  6
Continuous
 62
     7
370
    15
100
AcDbCircle
 10
97.9570881208
 20
244.3914477232
 30
0.0
 40
0.5000000000000142
100
AcDbArc
 50
0.0
 51
90.0
  0
LINE
  5
4C
330
1F
100
AcDbEntity
  8
0
  6
Continuous
 62
     7
370
    15
100
AcDbLine
 10
80.4570881208
 20
215.3914477232
 30
0.0
 11
80.4570881208
 21
244.3914477232
 31
0.0
  0
ARC
  5
4D
330
1F
100
AcDbEntity
  8
0
  6
Continuous
 62
     7
370
    15
100
AcDbCircle
 10
80.9570881208
 20
215.3914477232
 30
0.0
 40
0.5
100
AcDbArc
 50
180.0
 51
270.0
  0
ARC
  5
4E
330
1F
100
AcDbEntity
  8
0
  6
Continuous
 62
     7
370
    15
100
AcDbCircle
 10
97.9570881208
 20
215.3914477232
 30
0.0
 40
0.5
100
AcDbArc
 50
270.0
 51
0.0
  0
LINE
  5
4F
330
1F
100
AcDbEntity
  8
0
  6
Continuous
 62
     7
370
    15
100
AcDbLine
 10
97.9570881208
 20
214.8914477232
 30
0.0
 11
80.9570881208
 21
214.8914477232
 31
0.0
  0
ARC
  5
50
330
1F
100
AcDbEntity
  8
0
  6
Continuous
 62
     7
370
    15
100
AcDbCircle
 10
63.9570881208
 20
244.8914477232
 30
0.0
 40
0.5000000000000071
100
AcDbArc
 50
90.0
 51
180.0
  0
LINE
  5
51
330
1F
100
AcDbEntity
  8
0
  6
Continuous
 62
     7
370
    15
100
AcDbLine
 10
63.4570881208
 20
205.8914477232
 30
0.0
 11
63.4570881208
 21
244.8914477232
 31
0.0
  0
LINE
  5
52
330
1F
100
AcDbEntity
  8
0
  6
Continuous
 62
     7
370
    15
100
AcDbLine
 10
114.9570881208
 20
205.3914477232
 30
0.0
 11
63.9570881208
 21
205.3914477232
 31
0.0
  0
ARC
  5
53
330
1F
100
AcDbEntity
  8
0
  6
Continuous
 62
     7
370
    15
100
AcDbCircle
 10
63.9570881208
 20
205.8914477232
 30
0.0
 40
0.5000000000000284
100
AcDbArc
 50
180.0
 51
270.0
  0
LINE
  5
54
330
1F
100
AcDbEntity
  8
0
  6
Continuous
 62
     7
370
    15
100
AcDbLine
 10
115.4570881208
 20
244.8914477232
 30
0.0
 11
115.4570881208
 21
205.8914477232
 31
0.0
  0
LINE
  5
55
330
1F
100
AcDbEntity
  8
0
  6
Continuous
 62
     7
370
    15
100
AcDbLine
 10
63.9570881208
 20
245.3914477232
 30
0.0
 11
114.9570881208
 21
245.3914477232
 31
0.0
  0
ARC
  5
56
330
1F
100
AcDbEntity
  8
0
  6
Continuous
 62
     7
370
    15
100
AcDbCircle
 10
114.9570881208
 20
244.8914477232
 30
0.0
 40
0.5
100
AcDbArc
 50
0.0
 51
90.0
  0
ARC
  5
57
330
1F
100
AcDbEntity
  8
0
  6
Continuous
 62
     7
370
    15
100
AcDbCircle
 10
114.9570881208
 20
205.8914477232
 30
0.0
 40
0.5000000000000284
100
AcDbArc
 50
270.0
 51
0.0
  0
LINE
  5
58
330
1F
100
AcDbEntity
  8
0
  6
Continuous
 62
     8
370
     0
100
AcDbLine
 10
97.9570881208
 20
244.3914477232
 30
0.0
 11
80.9570881208
 21
244.3914477232
 31
0.0
  0
LINE
  5
59
330
1F
100
AcDbEntity
  8
0
  6
Continuous
 62
     8
370
     0
100
AcDbLine
 10
80.9570881208
 20
244.3914477232
 30
0.0
 11
80.9570881208
 21
244.8914477232
 31
0.0
  0
LINE
  5
5A
330
1F
100
AcDbEntity
  8
0
  6
Continuous
 62
     8
370
     0
100
AcDbLine
 10
97.9570881208
 20
244.8914477232
 30
0.0
 11
97.9570881208
 21
244.3914477232
 31
0.0
  0
LINE
  5
5B
330
1F
100
AcDbEntity
  8
0
  6
Continuous
 62
     8
370
     0
100
AcDbLine
 10
98.4570881208
 20
215.3914477232
 30
0.0
 11
97.9570881208
 21
215.3914477232
 31
0.0
  0
LINE
  5
5C
330
1F
100
AcDbEntity
  8
0
  6
Continuous
 62
     8
370
     0
100
AcDbLine
 10
97.9570881208
 20
215.3914477232
 30
0.0
 11
97.9570881208
 21
244.3914477232
 31
0.0
  0
LINE
  5
5D
330
1F
100
AcDbEntity
  8
0
  6
Continuous
 62
     8
370
     0
100
AcDbLine
 10
98.4570881208
 20
244.3914477232
 30
0.0
 11
97.9570881208
 21
244.3914477232
 31
0.0
  0
LINE
  5
5E
330
1F
100
AcDbEntity
  8
0
  6
Continuous
 62
     8
370
     0
100
AcDbLine
 10
80.9570881208
 20
244.3914477232
 30
0.0
 11
80.4570881208
 21
244.3914477232
 31
0.0
  0
LINE
  5
5F
330
1F
100
AcDbEntity
  8
0
  6
Continuous
 62
     8
370
     0
100
AcDbLine
 10
80.9570881208
 20
215.3914477232
 30
0.0
 11
97.9570881208
 21
215.3914477232
 31
0.0
  0
LINE
  5
60
330
1F
100
AcDbEntity
  8
0
  6
Continuous
 62
     8
370
     0
100
AcDbLine
 10
80.9570881208
 20
244.3914477232
 30
0.0
 11
80.9570881208
 21
215.3914477232
 31
0.0
  0
LINE
  5
61
330
1F
100
AcDbEntity
  8
0
  6
Continuous
 62
     8
370
     0
100
AcDbLine
 10
80.9570881208
 20
215.3914477232
 30
0.0
 11
80.4570881208
 21
215.3914477232
 31
0.0
  0
LINE
  5
62
330
1F
100
AcDbEntity
  8
0
  6
Continuous
 62
     8
370
     0
100
AcDbLine
 10
80.9570881208
 20
215.3914477232
 30
0.0
 11
80.9570881208
 21
214.8914477232
 31
0.0
  0
LINE
  5
63
330
1F
100
AcDbEntity
  8
0
  6
Continuous
 62
     8
370
     0
100
AcDbLine
 10
97.9570881208
 20
214.8914477232
 30
0.0
 11
97.9570881208
 21
215.3914477232
 31
0.0
  0
LINE
  5
64
330
1F
100
AcDbEntity
  8
0
  6
Continuous
 62
     8
370
     0
100
AcDbLine
 10
63.9570881208
 20
245.3914477232
 30
0.0
 11
63.9570881208
 21
244.8914477232
 31
0.0
  0
LINE
  5
65
330
1F
100
AcDbEntity
  8
0
  6
Continuous
 62
     8
370
     0
100
AcDbLine
 10
63.4570881208
 20
244.8914477232
 30
0.0
 11
63.9570881208
 21
244.8914477232
 31
0.0
  0
LINE
  5
66
330
1F
100
AcDbEntity
  8
0
  6
Continuous
 62
     8
370
     0
100
AcDbLine
 10
63.9570881208
 20
244.8914477232
 30
0.0
 11
63.9570881208
 21
205.8914477232
 31
0.0
  0
LINE
  5
67
330
1F
100
AcDbEntity
  8
0
  6
Continuous
 62
     8
370
     0
100
AcDbLine
 10
63.4570881208
 20
205.8914477232
 30
0.0
 11
63.9570881208
 21
205.8914477232
 31
0.0
  0
LINE
  5
68
330
1F
100
AcDbEntity
  8
0
  6
Continuous
 62
     8
370
     0
100
AcDbLine
 10
63.9570881208
 20
205.8914477232
 30
0.0
 11
114.9570881208
 21
205.8914477232
 31
0.0
  0
LINE
  5
69
330
1F
100
AcDbEntity
  8
0
  6
Continuous
 62
     8
370
     0
100
AcDbLine
 10
114.9570881208
 20
205.8914477232
 30
0.0
 11
114.9570881208
 21
205.3914477232
 31
0.0
  0
LINE
  5
6A
330
1F
100
AcDbEntity
  8
0
  6
Continuous
 62
     8
370
     0
100
AcDbLine
 10
63.9570881208
 20
205.8914477232
 30
0.0
 11
63.9570881208
 21
205.3914477232
 31
0.0
  0
LINE
  5
6B
330
1F
100
AcDbEntity
  8
0
  6
Continuous
 62
     8
370
     0
100
AcDbLine
 10
114.9570881208
 20
205.8914477232
 30
0.0
 11
114.9570881208
 21
244.8914477232
 31
0.0
  0
LINE
  5
6C
330
1F
100
AcDbEntity
  8
0
  6
Continuous
 62
     8
370
     0
100
AcDbLine
 10
114.9570881208
 20
244.8914477232
 30
0.0
 11
115.4570881208
 21
244.8914477232
 31
0.0
  0
LINE
  5
6D
330
1F
100
AcDbEntity
  8
0
  6
Continuous
 62
     8
370
     0
100
AcDbLine
 10
114.9570881208
 20
205.8914477232
 30
0.0
 11
115.4570881208
 21
205.8914477232
 31
0.0
  0
LINE
  5
6E
330
1F
100
AcDbEntity
  8
0
  6
Continuous
 62
     8
370
     0
100
AcDbLine
 10
114.9570881208
 20
245.3914477232
 30
0.0
 11
114.9570881208
 21
244.8914477232
 31
0.0
  0
LINE
  5
6F
330
1F
100
AcDbEntity
  8
0
  6
Continuous
 62
     8
370
     0
100
AcDbLine
 10
114.9570881208
 20
244.8914477232
 30
0.0
 11
97.9570881208
 21
244.8914477232
 31
0.0
  0
LINE
  5
70
330
1F
100
AcDbEntity
  8
0
  6
Continuous
 62
     8
370
     0
100
AcDbLine
 10
80.9570881208
 20
244.8914477232
 30
0.0
 11
63.9570881208
 21
244.8914477232
 31
0.0
  0
DIMENSION
  5
71
330
1F
100
AcDbEntity
  8
0
  6
Continuous
 62
     7
370
     0
100
AcDbDimension
  2
*D1
 10
115.4570881208
 20
279.3914477232
 30
0.0
 11
89.7566474161
 21
279.3914477232
 31
0.0
 70
   160
 71
     2
 42
-1.0
  3
SLDDIMSTYLE0
100
AcDbAlignedDimension
 13
63.4570881208
 23
245.3914477232
 33
0.0
 14
115.4570881208
 24
245.3914477232
 34
0.0
100
AcDbRotatedDimension
  0
DIMENSION
  5
7D
330
1F
100
AcDbEntity
  8
0
  6
Continuous
 62
     7
370
     0
100
AcDbDimension
  2
*D2
 10
53.459846988
 20
245.3914477232
 30
0.0
 11
53.459846988
 21
225.3914477232
 31
0.0
 70
   160
 71
     2
 42
-1.0
  3
SLDDIMSTYLE0
100
AcDbAlignedDimension
 13
63.4570881208
 23
205.3914477232
 33
0.0
 14
63.4570881208
 24
245.3914477232
 34
0.0
 50
90.0
100
AcDbRotatedDimension
  0
DIMENSION
  5
87
330
1F
100
AcDbEntity
  8
0
  6
Continuous
 62
     7
370
     0
100
AcDbDimension
  2
*D3
 10
114.9570881208
 20
244.8914477232
 30
0.0
 11
125.5537918858
 21
255.4705355862
 31
0.0
 70
   164
  1
<>
 71
     1
 42
-1.0
  3
SLDDIMSTYLE1
100
AcDbRadialDimension
 15
115.3109355063
 25
245.2447068742
 35
0.0
 40
0.0
  0
DIMENSION
  5
91
330
1F
100
AcDbEntity
  8
0
  6
Continuous
 62
     7
370
     0
100
AcDbDimension
  2
*D4
 10
98.4570881208
 20
270.4941617083
 30
0.0
 11
89.7566474161
 21
270.4941617083
 31
0.0
 70
   160
 71
     2
 42
-1.0
  3
SLDDIMSTYLE2
100
AcDbAlignedDimension
 13
80.4570881208
 23
244.8914477232
 33
0.0
 14
98.4570881208
 24
244.8914477232
 34
0.0
100
AcDbRotatedDimension
  0
DIMENSION
  5
9E
330
1F
100
AcDbEntity
  8
0
  6
Continuous
 62
     7
370
     0
100
AcDbDimension
  2
*D5
 10
131.4570881208
 20
244.8914477232
 30
0.0
 11
131.4570881208
 21
230.9721054676
 31
0.0
 70
   160
 71
     2
 42
-1.0
  3
SLDDIMSTYLE2
100
AcDbAlignedDimension
 13
98.4570881208
 23
214.8914477232
 33
0.0
 14
98.4570881208
 24
244.8914477232
 34
0.0
 50
90.0
100
AcDbRotatedDimension
  0
LINE
  5
AA
330
1F
100
AcDbEntity
  8
0
  6
CENTER
 62
     7
370
     0
100
AcDbLine
 10
89.4570881208
 20
258.1340229112
 30
0.0
 11
89.4570881208
 21
190.9405642645
 31
0.0
  0
LINE
  5
AB
330
1F
100
AcDbEntity
  8
0
  6
Continuous
 62
     7
370
     0
100
AcDbLine
 10
77.4570881208
 20
256.1340229112
 30
0.0
 11
89.4570881208
 21
256.1340229112
 31
0.0
  0
SOLID
  5
AC
330
1F
100
AcDbEntity
  8
0
  6
Continuous
 62
     7
370
     0
100
AcDbTrace
 10
89.4570881208
 20
256.1340229112
 30
0.0
 11
83.4570881208
 21
257.6340229112
 31
0.0
 12
83.4570881208
 22
254.6340229112
 32
0.0
 13
83.4570881208
 23
254.6340229112
 33
0.0
  0
LINE
  5
AD
330
1F
100
AcDbEntity
  8
0
  6
Continuous
 62
     7
370
     0
100
AcDbLine
 10
77.4570881208
 20
192.9405642645
 30
0.0
 11
89.4570881208
 21
192.9405642645
 31
0.0
  0
SOLID
  5
AE
330
1F
100
AcDbEntity
  8
0
  6
Continuous
 62
     7
370
     0
100
AcDbTrace
 10
89.4570881208
 20
192.9405642645
 30
0.0
 11
83.4570881208
 21
194.4405642645
 31
0.0
 12
83.4570881208
 22
191.4405642645
 32
0.0
 13
83.4570881208
 23
191.4405642645
 33
0.0
  0
MTEXT
  5
AF
330
1F
100
AcDbEntity
  8
0
  6
Continuous
 62
     7
100
AcDbMText
 10
77.4570881208
 20
266.2216708142
 30
0.0
 40
6.35
 41
0.0
 71
     1
 72
     1
  1
A
  7
SLDTEXTSTYLE0
 73
     1
 44
1.0
  0
MTEXT
  5
B0
330
1F
100
AcDbEntity
  8
0
  6
Continuous
 62
     7
100
AcDbMText
 10
77.4570881208
 20
203.0282121676
 30
0.0
 40
6.35
 41
0.0
 71
     1
 72
     1
  1
A
  7
SLDTEXTSTYLE0
 73
     1
 44
1.0
  0
LINE
  5
B1
330
1F
100
AcDbEntity
  8
0
  6
Continuous
 62
     7
370
    15
100
AcDbLine
 10
108.7570881208
 20
150.4915565842
 30
0.0
 11
108.7570881208
 21
150.9915565842
 31
0.0
  0
LINE
  5
B2
330
1F
100
AcDbEntity
  8
0
  6
Continuous
 62
     7
370
    15
100
AcDbLine
 10
70.1570881208
 20
150.9915565842
 30
0.0
 11
70.1570881208
 21
150.4915565842
 31
0.0
  0
LINE
  5
B3
330
1F
100
AcDbEntity
  8
0
  6
Continuous
 62
     7
370
    15
100
AcDbLine
 10
70.1570881208
 20
150.9915565842
 30
0.0
 11
108.7570881208
 21
150.9915565842
 31
0.0
  0
ARC
  5
B4
330
1F
100
AcDbEntity
  8
0
  6
Continuous
 62
     7
370
    15
100
AcDbCircle
 10
80.9570881208
 20
116.9915565842
 30
0.0
 40
0.5
100
AcDbArc
 50
90.0
 51
180.0
  0
ARC
  5
B5
330
1F
100
AcDbEntity
  8
0
  6
Continuous
 62
     7
370
    15
100
AcDbCircle
 10
97.9570881208
 20
116.9915565842
 30
0.0
 40
0.5000000000000142
100
AcDbArc
 50
0.0
 51
90.0
  0
LINE
  5
B6
330
1F
100
AcDbEntity
  8
0
  6
Continuous
 62
     7
370
    15
100
AcDbLine
 10
80.9570881208
 20
117.4915565842
 30
0.0
 11
97.9570881208
 21
117.4915565842
 31
0.0
  0
LINE
  5
B7
330
1F
100
AcDbEntity
  8
0
  6
Continuous
 62
     7
370
    15
100
AcDbLine
 10
80.4570881208
 20
111.9915565842
 30
0.0
 11
80.4570881208
 21
116.9915565842
 31
0.0
  0
LINE
  5
B8
330
1F
100
AcDbEntity
  8
0
  6
Continuous
 62
     7
370
    15
100
AcDbLine
 10
98.4570881208
 20
116.9915565842
 30
0.0
 11
98.4570881208
 21
111.9915565842
 31
0.0
  0
LINE
  5
B9
330
1F
100
AcDbEntity
  8
0
  6
Continuous
 62
     7
370
    15
100
AcDbLine
 10
97.9570881208
 20
111.4915565842
 30
0.0
 11
80.9570881208
 21
111.4915565842
 31
0.0
  0
ARC
  5
BA
330
1F
100
AcDbEntity
  8
0
  6
Continuous
 62
     7
370
    15
100
AcDbCircle
 10
80.9570881208
 20
111.9915565842
 30
0.0
 40
0.5
100
AcDbArc
 50
180.0
 51
270.0
  0
ARC
  5
BB
330
1F
100
AcDbEntity
  8
0
  6
Continuous
 62
     7
370
    15
100
AcDbCircle
 10
97.9570881208
 20
111.9915565842
 30
0.0
 40
0.5
100
AcDbArc
 50
270.0
 51
0.0
  0
LINE
  5
BC
330
1F
100
AcDbEntity
  8
0
  6
Continuous
 62
     7
370
    15
100
AcDbLine
 10
80.4570881208
 20
117.9915565842
 30
0.0
 11
80.4570881208
 21
116.9915565842
 31
0.0
  0
LINE
  5
BD
330
1F
100
AcDbEntity
  8
0
  6
Continuous
 62
     7
370
    15
100
AcDbLine
 10
98.4570881208
 20
116.9915565842
 30
0.0
 11
98.4570881208
 21
117.9915565842
 31
0.0
  0
LINE
  5
BE
330
1F
100
AcDbEntity
  8
0
  6
Continuous
 62
     7
370
    15
100
AcDbLine
 10
80.4570881208
 20
117.9915565842
 30
0.0
 11
80.4570881208
 21
141.4915565842
 31
0.0
  0
LINE
  5
BF
330
1F
100
AcDbEntity
  8
0
  6
Continuous
 62
     7
370
    15
100
AcDbLine
 10
98.4570881208
 20
141.4915565842
 30
0.0
 11
98.4570881208
 21
117.9915565842
 31
0.0
  0
LINE
  5
C0
330
1F
100
AcDbEntity
  8
0
  6
Continuous
 62
     7
370
    15
100
AcDbLine
 10
114.9570881208
 20
150.4915565842
 30
0.0
 11
63.9570881208
 21
150.4915565842
 31
0.0
  0
LINE
  5
C1
330
1F
100
AcDbEntity
  8
0
  6
Continuous
 62
     7
370
    15
100
AcDbLine
 10
63.4570881208
 20
141.9915565842
 30
0.0
 11
63.4570881208
 21
150.4915565842
 31
0.0
  0
LINE
  5
C2
330
1F
100
AcDbEntity
  8
0
  6
Continuous
 62
     7
370
    15
100
AcDbLine
 10
63.4570881208
 20
150.4915565842
 30
0.0
 11
63.9570881208
 21
150.4915565842
 31
0.0
  0
LINE
  5
C3
330
1F
100
AcDbEntity
  8
0
  6
Continuous
 62
     7
370
    15
100
AcDbLine
 10
115.4570881208
 20
150.4915565842
 30
0.0
 11
115.4570881208
 21
141.9915565842
 31
0.0
  0
LINE
  5
C4
330
1F
100
AcDbEntity
  8
0
  6
Continuous
 62
     7
370
    15
100
AcDbLine
 10
114.9570881208
 20
150.4915565842
 30
0.0
 11
115.4570881208
 21
150.4915565842
 31
0.0
  0
ARC
  5
C5
330
1F
100
AcDbEntity
  8
0
  6
Continuous
 62
     7
370
    15
100
AcDbCircle
 10
63.9570881208
 20
141.9915565842
 30
0.0
 40
0.5000000000000071
100
AcDbArc
 50
180.0
 51
270.0
  0
LINE
  5
C6
330
1F
100
AcDbEntity
  8
0
  6
Continuous
 62
     7
370
    15
100
AcDbLine
 10
114.9570881208
 20
141.4915565842
 30
0.0
 11
63.9570881208
 21
141.4915565842
 31
0.0
  0
ARC
  5
C7
330
1F
100
AcDbEntity
  8
0
  6
Continuous
 62
     7
370
    15
100
AcDbCircle
 10
114.9570881208
 20
141.9915565842
 30
0.0
 40
0.5
100
AcDbArc
 50
270.0
 51
0.0
  0
LINE
  5
C8
330
1F
100
AcDbEntity
  8
0
  6
Continuous
 62
     8
370
     0
100
AcDbLine
 10
80.9570881208
 20
116.9915565842
 30
0.0
 11
80.4570881208
 21
116.9915565842
 31
0.0
  0
LINE
  5
C9
330
1F
100
AcDbEntity
  8
0
  6
Continuous
 62
     8
370
     0
100
AcDbLine
 10
80.9570881208
 20
116.9915565842
 30
0.0
 11
80.9570881208
 21
117.4915565842
 31
0.0
  0
LINE
  5
CA
330
1F
100
AcDbEntity
  8
0
  6
Continuous
 62
     8
370
     0
100
AcDbLine
 10
98.4570881208
 20
116.9915565842
 30
0.0
 11
97.9570881208
 21
116.9915565842
 31
0.0
  0
LINE
  5
CB
330
1F
100
AcDbEntity
  8
0
  6
Continuous
 62
     8
370
     0
100
AcDbLine
 10
97.9570881208
 20
117.4915565842
 30
0.0
 11
97.9570881208
 21
116.9915565842
 31
0.0
  0
LINE
  5
CC
330
1F
100
AcDbEntity
  8
0
  6
Continuous
 62
     8
370
     0
100
AcDbLine
 10
97.9570881208
 20
116.9915565842
 30
0.0
 11
80.9570881208
 21
116.9915565842
 31
0.0
  0
LINE
  5
CD
330
1F
100
AcDbEntity
  8
0
  6
Continuous
 62
     8
370
     0
100
AcDbLine
 10
97.9570881208
 20
111.9915565842
 30
0.0
 11
97.9570881208
 21
116.9915565842
 31
0.0
  0
LINE
  5
CE
330
1F
100
AcDbEntity
  8
0
  6
Continuous
 62
     8
370
     0
100
AcDbLine
 10
80.9570881208
 20
111.9915565842
 30
0.0
 11
97.9570881208
 21
111.9915565842
 31
0.0
  0
LINE
  5
CF
330
1F
100
AcDbEntity
  8
0
  6
Continuous
 62
     8
370
     0
100
AcDbLine
 10
80.9570881208
 20
116.9915565842
 30
0.0
 11
80.9570881208
 21
111.9915565842
 31
0.0
  0
LINE
  5
D0
330
1F
100
AcDbEntity
  8
0
  6
Continuous
 62
     8
370
     0
100
AcDbLine
 10
80.9570881208
 20
111.9915565842
 30
0.0
 11
80.4570881208
 21
111.9915565842
 31
0.0
  0
LINE
  5
D1
330
1F
100
AcDbEntity
  8
0
  6
Continuous
 62
     8
370
     0
100
AcDbLine
 10
98.4570881208
 20
111.9915565842
 30
0.0
 11
97.9570881208
 21
111.9915565842
 31
0.0
  0
LINE
  5
D2
330
1F
100
AcDbEntity
  8
0
  6
Continuous
 62
     8
370
     0
100
AcDbLine
 10
80.9570881208
 20
111.4915565842
 30
0.0
 11
80.9570881208
 21
111.9915565842
 31
0.0
  0
LINE
  5
D3
330
1F
100
AcDbEntity
  8
0
  6
Continuous
 62
     8
370
     0
100
AcDbLine
 10
97.9570881208
 20
111.9915565842
 30
0.0
 11
97.9570881208
 21
111.4915565842
 31
0.0
  0
LINE
  5
D4
330
1F
100
AcDbEntity
  8
0
  6
Continuous
 62
     8
370
     0
100
AcDbLine
 10
80.9570881208
 20
117.4915565842
 30
0.0
 11
80.9570881208
 21
117.9915565842
 31
0.0
  0
LINE
  5
D5
330
1F
100
AcDbEntity
  8
0
  6
Continuous
 62
     8
370
     0
100
AcDbLine
 10
80.9570881208
 20
117.9915565842
 30
0.0
 11
80.4570881208
 21
117.9915565842
 31
0.0
  0
LINE
  5
D6
330
1F
100
AcDbEntity
  8
0
  6
Continuous
 62
     8
370
     0
100
AcDbLine
 10
97.9570881208
 20
117.9915565842
 30
0.0
 11
97.9570881208
 21
117.4915565842
 31
0.0
  0
LINE
  5
D7
330
1F
100
AcDbEntity
  8
0
  6
Continuous
 62
     8
370
     0
100
AcDbLine
 10
98.4570881208
 20
117.9915565842
 30
0.0
 11
97.9570881208
 21
117.9915565842
 31
0.0
  0
LINE
  5
D8
330
1F
100
AcDbEntity
  8
0
  6
Continuous
 62
     8
370
     0
100
AcDbLine
 10
80.9570881208
 20
117.9915565842
 30
0.0
 11
97.9570881208
 21
117.9915565842
 31
0.0
  0
LINE
  5
D9
330
1F
100
AcDbEntity
  8
0
  6
Continuous
 62
     8
370
     0
100
AcDbLine
 10
80.9570881208
 20
141.4915565842
 30
0.0
 11
80.9570881208
 21
117.9915565842
 31
0.0
  0
LINE
  5
DA
330
1F
100
AcDbEntity
  8
0
  6
Continuous
 62
     8
370
     0
100
AcDbLine
 10
97.9570881208
 20
117.9915565842
 30
0.0
 11
97.9570881208
 21
141.4915565842
 31
0.0
  0
LINE
  5
DB
330
1F
100
AcDbEntity
  8
0
  6
Continuous
 62
     8
370
     0
100
AcDbLine
 10
63.9570881208
 20
150.4915565842
 30
0.0
 11
63.9570881208
 21
141.9915565842
 31
0.0
  0
LINE
  5
DC
330
1F
100
AcDbEntity
  8
0
  6
Continuous
 62
     8
370
     0
100
AcDbLine
 10
114.9570881208
 20
141.9915565842
 30
0.0
 11
114.9570881208
 21
150.4915565842
 31
0.0
  0
LINE
  5
DD
330
1F
100
AcDbEntity
  8
0
  6
Continuous
 62
     8
370
     0
100
AcDbLine
 10
63.9570881208
 20
141.9915565842
 30
0.0
 11
114.9570881208
 21
141.9915565842
 31
0.0
  0
LINE
  5
DE
330
1F
100
AcDbEntity
  8
0
  6
Continuous
 62
     8
370
     0
100
AcDbLine
 10
63.9570881208
 20
141.9915565842
 30
0.0
 11
63.4570881208
 21
141.9915565842
 31
0.0
  0
LINE
  5
DF
330
1F
100
AcDbEntity
  8
0
  6
Continuous
 62
     8
370
     0
100
AcDbLine
 10
114.9570881208
 20
141.9915565842
 30
0.0
 11
115.4570881208
 21
141.9915565842
 31
0.0
  0
LINE
  5
E0
330
1F
100
AcDbEntity
  8
0
  6
Continuous
 62
     8
370
     0
100
AcDbLine
 10
63.9570881208
 20
141.9915565842
 30
0.0
 11
63.9570881208
 21
141.4915565842
 31
0.0
  0
LINE
  5
E1
330
1F
100
AcDbEntity
  8
0
  6
Continuous
 62
     8
370
     0
100
AcDbLine
 10
114.9570881208
 20
141.9915565842
 30
0.0
 11
114.9570881208
 21
141.4915565842
 31
0.0
  0
DIMENSION
  5
E2
330
1F
100
AcDbEntity
  8
0
  6
Continuous
 62
     7
370
     0
100
AcDbDimension
  2
*D6
 10
121.0284911675
 20
141.4915565842
 30
0.0
 11
121.0284911675
 21
160.9915565842
 31
0.0
 70
   160
 71
     2
 42
-1.0
  3
SLDDIMSTYLE2
100
AcDbAlignedDimension
 13
115.4570881208
 23
150.4915565842
 33
0.0
 14
115.4570881208
 24
141.4915565842
 34
0.0
 50
90.0
100
AcDbRotatedDimension
  0
DIMENSION
  5
EE
330
1F
100
AcDbEntity
  8
0
  6
Continuous
 62
     7
370
     0
100
AcDbDimension
  2
*D7
 10
128.8513354578
 20
111.4915565842
 30
0.0
 11
128.8513354578
 21
127.0609926745
 31
0.0
 70
   160
 71
     2
 42
-1.0
  3
SLDDIMSTYLE2
100
AcDbAlignedDimension
 13
98.4570881208
 23
141.4915565842
 33
0.0
 14
98.4570881208
 24
111.4915565842
 34
0.0
 50
90.0
100
AcDbRotatedDimension
  0
LINE
  5
FA
330
1F
100
AcDbEntity
  8
0
  6
Continuous
 62
     7
370
    15
100
AcDbLine
 10
179.7112311236
 20
231.8914477232
 30
0.0
 11
170.9612311236
 21
231.8914477232
 31
0.0
  0
LINE
  5
FB
330
1F
100
AcDbEntity
  8
0
  6
Continuous
 62
     7
370
    15
100
AcDbLine
 10
170.9612311236
 20
218.8914477232
 30
0.0
 11
179.7112311236
 21
218.8914477232
 31
0.0
  0
LINE
  5
FC
330
1F
100
AcDbEntity
  8
0
  6
Continuous
 62
     7
370
    15
100
AcDbLine
 10
179.9612311236
 20
229.3914477232
 30
0.0
 11
170.9612311236
 21
229.3914477232
 31
0.0
  0
LINE
  5
FD
330
1F
100
AcDbEntity
  8
0
  6
Continuous
 62
     7
370
    15
100
AcDbLine
 10
170.9612311236
 20
221.3914477232
 30
0.0
 11
179.9612311236
 21
221.3914477232
 31
0.0
  0
LINE
  5
FE
330
1F
100
AcDbEntity
  8
0
  6
Continuous
 62
     7
370
    15
100
AcDbLine
 10
179.7112311236
 20
218.8914477232
 30
0.0
 11
181.7112311236
 21
220.8914477232
 31
0.0
  0
LINE
  5
FF
330
1F
100
AcDbEntity
  8
0
  6
Continuous
 62
     7
370
    15
100
AcDbLine
 10
179.9612311236
 20
221.3914477232
 30
0.0
 11
179.9612311236
 21
221.9914477232
 31
0.0
  0
LINE
  5
100
330
1F
100
AcDbEntity
  8
0
  6
Continuous
 62
     7
370
    15
100
AcDbLine
 10
179.9612311236
 20
221.9914477232
 30
0.0
 11
186.4612311236
 21
221.9914477232
 31
0.0
  0
LINE
  5
101
330
1F
100
AcDbEntity
  8
0
  6
Continuous
 62
     7
370
    15
100
AcDbLine
 10
186.4612311236
 20
219.8914477232
 30
0.0
 11
186.4612311236
 21
221.9914477232
 31
0.0
  0
LINE
  5
102
330
1F
100
AcDbEntity
  8
0
  6
Continuous
 62
     7
370
    15
100
AcDbLine
 10
185.4612311236
 20
218.8914477232
 30
0.0
 11
186.4612311236
 21
219.8914477232
 31
0.0
  0
LINE
  5
103
330
1F
100
AcDbEntity
  8
0
  6
Continuous
 62
     7
370
    15
100
AcDbLine
 10
183.7112311236
 20
218.8914477232
 30
0.0
 11
185.4612311236
 21
218.8914477232
 31
0.0
  0
LINE
  5
104
330
1F
100
AcDbEntity
  8
0
  6
Continuous
 62
     7
370
    15
100
AcDbLine
 10
181.7112311236
 20
220.8914477232
 30
0.0
 11
183.7112311236
 21
218.8914477232
 31
0.0
  0
LINE
  5
105
330
1F
100
AcDbEntity
  8
0
  6
Continuous
 62
     7
370
    15
100
AcDbLine
 10
170.9612311236
 20
221.3914477232
 30
0.0
 11
170.9612311236
 21
218.8914477232
 31
0.0
  0
LINE
  5
106
330
1F
100
AcDbEntity
  8
0
  6
Continuous
 62
     7
370
    15
100
AcDbLine
 10
186.4612311236
 20
228.7914477232
 30
0.0
 11
186.4612311236
 21
230.8914477232
 31
0.0
  0
LINE
  5
107
330
1F
100
AcDbEntity
  8
0
  6
Continuous
 62
     7
370
    15
100
AcDbLine
 10
186.4612311236
 20
228.7914477232
 30
0.0
 11
179.9612311236
 21
228.7914477232
 31
0.0
  0
LINE
  5
108
330
1F
100
AcDbEntity
  8
0
  6
Continuous
 62
     7
370
    15
100
AcDbLine
 10
179.9612311236
 20
228.7914477232
 30
0.0
 11
179.9612311236
 21
229.3914477232
 31
0.0
  0
LINE
  5
109
330
1F
100
AcDbEntity
  8
0
  6
Continuous
 62
     7
370
    15
100
AcDbLine
 10
181.7112311236
 20
229.8914477232
 30
0.0
 11
179.7112311236
 21
231.8914477232
 31
0.0
  0
LINE
  5
10A
330
1F
100
AcDbEntity
  8
0
  6
Continuous
 62
     7
370
    15
100
AcDbLine
 10
183.7112311236
 20
231.8914477232
 30
0.0
 11
181.7112311236
 21
229.8914477232
 31
0.0
  0
LINE
  5
10B
330
1F
100
AcDbEntity
  8
0
  6
Continuous
 62
     7
370
    15
100
AcDbLine
 10
185.4612311236
 20
231.8914477232
 30
0.0
 11
183.7112311236
 21
231.8914477232
 31
0.0
  0
LINE
  5
10C
330
1F
100
AcDbEntity
  8
0
  6
Continuous
 62
     7
370
    15
100
AcDbLine
 10
186.4612311236
 20
230.8914477232
 30
0.0
 11
185.4612311236
 21
231.8914477232
 31
0.0
  0
LINE
  5
10D
330
1F
100
AcDbEntity
  8
0
  6
Continuous
 62
     7
370
    15
100
AcDbLine
 10
170.9612311236
 20
231.8914477232
 30
0.0
 11
170.9612311236
 21
229.3914477232
 31
0.0
  0
LINE
  5
10E
330
1F
100
AcDbEntity
  8
0
  6
Continuous
 62
     7
370
    15
100
AcDbLine
 10
186.4612311236
 20
221.9914477232
 30
0.0
 11
186.4612311236
 21
228.7914477232
 31
0.0
  0
LINE
  5
10F
330
1F
100
AcDbEntity
  8
0
  6
Continuous
 62
     7
370
    15
100
AcDbLine
 10
179.9612311236
 20
228.7914477232
 30
0.0
 11
179.9612311236
 21
228.5914477232
 31
0.0
  0
LINE
  5
110
330
1F
100
AcDbEntity
  8
0
  6
Continuous
 62
     7
370
    15
100
AcDbLine
 10
179.9612311236
 20
222.1914477232
 30
0.0
 11
179.9612311236
 21
221.9914477232
 31
0.0
  0
LINE
  5
111
330
1F
100
AcDbEntity
  8
0
  6
Continuous
 62
     7
370
    15
100
AcDbLine
 10
170.9612311236
 20
244.6914477232
 30
0.0
 11
167.6612311236
 21
244.6914477232
 31
0.0
  0
LINE
  5
112
330
1F
100
AcDbEntity
  8
0
  6
Continuous
 62
     7
370
    15
100
AcDbLine
 10
170.9612311236
 20
206.0914477232
 30
0.0
 11
170.9612311236
 21
244.6914477232
 31
0.0
  0
LINE
  5
113
330
1F
100
AcDbEntity
  8
0
  6
Continuous
 62
     7
370
    15
100
AcDbLine
 10
167.6612311236
 20
206.0914477232
 30
0.0
 11
170.9612311236
 21
206.0914477232
 31
0.0
  0
LINE
  5
114
330
1F
100
AcDbEntity
  8
0
  6
Continuous
 62
     7
370
    15
100
AcDbLine
 10
167.6612311236
 20
206.0914477232
 30
0.0
 11
167.6612311236
 21
244.6914477232
 31
0.0
  0
LINE
  5
115
330
1F
100
AcDbEntity
  8
0
  6
Continuous
 62
     7
370
    15
100
AcDbLine
 10
167.6612311236
 20
206.0914477232
 30
0.0
 11
166.4612311236
 21
206.0914477232
 31
0.0
  0
LINE
  5
116
330
1F
100
AcDbEntity
  8
0
  6
Continuous
 62
     7
370
    15
100
AcDbLine
 10
166.4612311236
 20
244.6914477232
 30
0.0
 11
167.6612311236
 21
244.6914477232
 31
0.0
  0
LINE
  5
117
330
1F
100
AcDbEntity
  8
0
  6
Continuous
 62
     7
370
    15
100
AcDbLine
 10
167.6612311236
 20
210.0914477232
 30
0.0
 11
166.4612311236
 21
210.0914477232
 31
0.0
  0
LINE
  5
118
330
1F
100
AcDbEntity
  8
0
  6
Continuous
 62
     7
370
    15
100
AcDbLine
 10
166.4612311236
 20
240.6914477232
 30
0.0
 11
167.6612311236
 21
240.6914477232
 31
0.0
  0
LINE
  5
119
330
1F
100
AcDbEntity
  8
0
  6
Continuous
 62
     7
370
    15
100
AcDbLine
 10
166.4612311236
 20
240.6914477232
 30
0.0
 11
166.4612311236
 21
210.0914477232
 31
0.0
  0
LINE
  5
11A
330
1F
100
AcDbEntity
  8
0
  6
Continuous
 62
     7
370
    15
100
AcDbLine
 10
167.6612311236
 20
210.0914477232
 30
0.0
 11
167.6612311236
 21
206.0914477232
 31
0.0
  0
LINE
  5
11B
330
1F
100
AcDbEntity
  8
0
  6
Continuous
 62
     7
370
    15
100
AcDbLine
 10
166.4612311236
 20
210.0914477232
 30
0.0
 11
166.4612311236
 21
206.0914477232
 31
0.0
  0
LINE
  5
11C
330
1F
100
AcDbEntity
  8
0
  6
Continuous
 62
     7
370
    15
100
AcDbLine
 10
167.6612311236
 20
244.6914477232
 30
0.0
 11
167.6612311236
 21
240.6914477232
 31
0.0
  0
LINE
  5
11D
330
1F
100
AcDbEntity
  8
0
  6
Continuous
 62
     7
370
    15
100
AcDbLine
 10
166.4612311236
 20
244.6914477232
 30
0.0
 11
166.4612311236
 21
240.6914477232
 31
0.0
  0
LINE
  5
11E
330
1F
100
AcDbEntity
  8
0
  6
Continuous
 62
     7
370
    15
100
AcDbLine
 10
179.1612311236
 20
229.3914477232
 30
0.0
 11
170.9612311236
 21
229.3914477232
 31
0.0
  0
LINE
  5
11F
330
1F
100
AcDbEntity
  8
0
  6
Continuous
 62
     7
370
    15
100
AcDbLine
 10
170.9612311236
 20
221.3914477232
 30
0.0
 11
179.1612311236
 21
221.3914477232
 31
0.0
  0
LINE
  5
120
330
1F
100
AcDbEntity
  8
0
  6
Continuous
 62
     7
370
    15
100
AcDbLine
 10
179.9612311236
 20
228.5914477232
 30
0.0
 11
179.1612311236
 21
229.3914477232
 31
0.0
  0
LINE
  5
121
330
1F
100
AcDbEntity
  8
0
  6
Continuous
 62
     7
370
    15
100
AcDbLine
 10
179.9612311236
 20
222.1914477232
 30
0.0
 11
179.9612311236
 21
228.5914477232
 31
0.0
  0
LINE
  5
122
330
1F
100
AcDbEntity
  8
0
  6
Continuous
 62
     7
370
    15
100
AcDbLine
 10
179.1612311236
 20
221.3914477232
 30
0.0
 11
179.9612311236
 21
222.1914477232
 31
0.0
  0
LINE
  5
123
330
1F
100
AcDbEntity
  8
0
  6
Continuous
 62
     7
370
    15
100
AcDbLine
 10
170.9612311236
 20
229.3914477232
 30
0.0
 11
170.9612311236
 21
221.3914477232
 31
0.0
  0
LINE
  5
124
330
1F
100
AcDbEntity
  8
0
  6
Continuous
 62
     7
370
    15
100
AcDbLine
 10
179.4612311236
 20
218.3914477232
 30
0.0
 11
179.4612311236
 21
215.148368593
 31
0.0
  0
LINE
  5
125
330
1F
100
AcDbEntity
  8
0
  6
Continuous
 62
     7
370
    15
100
AcDbLine
 10
181.9612311236
 20
220.8914477232
 30
0.0
 11
179.4612311236
 21
218.3914477232
 31
0.0
  0
LINE
  5
126
330
1F
100
AcDbEntity
  8
0
  6
Continuous
 62
     7
370
    15
100
AcDbLine
 10
184.4612311236
 20
218.3914477232
 30
0.0
 11
181.9612311236
 21
220.8914477232
 31
0.0
  0
LINE
  5
127
330
1F
100
AcDbEntity
  8
0
  6
Continuous
 62
     7
370
    15
100
AcDbLine
 10
184.4612311236
 20
215.148368593
 30
0.0
 11
184.4612311236
 21
218.3914477232
 31
0.0
  0
LINE
  5
128
330
1F
100
AcDbEntity
  8
0
  6
Continuous
 62
     7
370
    15
100
AcDbLine
 10
184.0162311236
 20
214.8914477232
 30
0.0
 11
184.4612311236
 21
215.148368593
 31
0.0
  0
LINE
  5
129
330
1F
100
AcDbEntity
  8
0
  6
Continuous
 62
     7
370
    15
100
AcDbLine
 10
183.4046067965
 20
214.8914477232
 30
0.0
 11
184.0162311236
 21
214.8914477232
 31
0.0
  0
LINE
  5
12A
330
1F
100
AcDbEntity
  8
0
  6
Continuous
 62
     7
370
    15
100
AcDbLine
 10
183.4046067965
 20
214.8914477232
 30
0.0
 11
183.4046067965
 21
217.8914477232
 31
0.0
  0
LINE
  5
12B
330
1F
100
AcDbEntity
  8
0
  6
Continuous
 62
     7
370
    15
100
AcDbLine
 10
183.4046067965
 20
217.8914477232
 30
0.0
 11
180.5178554506
 21
217.8914477232
 31
0.0
  0
LINE
  5
12C
330
1F
100
AcDbEntity
  8
0
  6
Continuous
 62
     7
370
    15
100
AcDbLine
 10
180.5178554506
 20
217.8914477232
 30
0.0
 11
180.5178554506
 21
214.8914477232
 31
0.0
  0
LINE
  5
12D
330
1F
100
AcDbEntity
  8
0
  6
Continuous
 62
     7
370
    15
100
AcDbLine
 10
179.9062311236
 20
214.8914477232
 30
0.0
 11
180.5178554506
 21
214.8914477232
 31
0.0
  0
LINE
  5
12E
330
1F
100
AcDbEntity
  8
0
  6
Continuous
 62
     7
370
    15
100
AcDbLine
 10
179.4612311236
 20
215.148368593
 30
0.0
 11
179.9062311236
 21
214.8914477232
 31
0.0
  0
LINE
  5
12F
330
1F
100
AcDbEntity
  8
0
  6
Continuous
 62
     7
370
    15
100
AcDbLine
 10
181.2395432871
 20
217.8914477232
 30
0.0
 11
181.2395432871
 21
214.8914477232
 31
0.0
  0
LINE
  5
130
330
1F
100
AcDbEntity
  8
0
  6
Continuous
 62
     7
370
    15
100
AcDbLine
 10
181.2395432871
 20
214.8914477232
 30
0.0
 11
180.5178554506
 21
214.8914477232
 31
0.0
  0
LINE
  5
131
330
1F
100
AcDbEntity
  8
0
  6
Continuous
 62
     7
370
    15
100
AcDbLine
 10
182.6829189601
 20
217.8914477232
 30
0.0
 11
182.6829189601
 21
214.8914477232
 31
0.0
  0
LINE
  5
132
330
1F
100
AcDbEntity
  8
0
  6
Continuous
 62
     7
370
    15
100
AcDbLine
 10
182.6829189601
 20
214.8914477232
 30
0.0
 11
183.4046067965
 21
214.8914477232
 31
0.0
  0
LINE
  5
133
330
1F
100
AcDbEntity
  8
0
  6
Continuous
 62
     7
370
    15
100
AcDbLine
 10
182.6829189601
 20
214.8914477232
 30
0.0
 11
181.2395432871
 21
214.8914477232
 31
0.0
  0
LINE
  5
134
330
1F
100
AcDbEntity
  8
0
  6
Continuous
 62
     7
370
    15
100
AcDbLine
 10
186.9612311236
 20
231.9914477232
 30
0.0
 11
176.4612311236
 21
231.9914477232
 31
0.0
  0
LINE
  5
135
330
1F
100
AcDbEntity
  8
0
  6
Continuous
 62
     7
370
    15
100
AcDbLine
 10
186.9612311236
 20
231.9914477232
 30
0.0
 11
186.9612311236
 21
218.7914477232
 31
0.0
  0
LINE
  5
136
330
1F
100
AcDbEntity
  8
0
  6
Continuous
 62
     7
370
    15
100
AcDbLine
 10
184.0612311236
 20
218.7914477232
 30
0.0
 11
186.9612311236
 21
218.7914477232
 31
0.0
  0
LINE
  5
137
330
1F
100
AcDbEntity
  8
0
  6
Continuous
 62
     7
370
    15
100
AcDbLine
 10
176.4612311236
 20
218.7914477232
 30
0.0
 11
179.8612311236
 21
218.7914477232
 31
0.0
  0
LINE
  5
138
330
1F
100
AcDbEntity
  8
0
  6
Continuous
 62
     7
370
    15
100
AcDbLine
 10
176.4612311236
 20
231.9914477232
 30
0.0
 11
176.4612311236
 21
231.8914477232
 31
0.0
  0
LINE
  5
139
330
1F
100
AcDbEntity
  8
0
  6
Continuous
 62
     7
370
    15
100
AcDbLine
 10
176.4612311236
 20
218.8914477232
 30
0.0
 11
176.4612311236
 21
218.7914477232
 31
0.0
  0
LINE
  5
13A
330
1F
100
AcDbEntity
  8
0
  6
Continuous
 62
     7
370
    15
100
AcDbLine
 10
179.8612311236
 20
218.7914477232
 30
0.0
 11
179.8612311236
 21
215.5414477232
 31
0.0
  0
LINE
  5
13B
330
1F
100
AcDbEntity
  8
0
  6
Continuous
 62
     7
370
    15
100
AcDbLine
 10
184.0612311236
 20
215.5414477232
 30
0.0
 11
184.0612311236
 21
218.7914477232
 31
0.0
  0
ARC
  5
13C
330
1F
100
AcDbEntity
  8
0
  6
Continuous
 62
     7
370
    15
100
AcDbCircle
 10
205.4612311236
 20
215.3914477232
 30
0.0
 40
0.5
100
AcDbArc
 50
270.0
 51
0.0
  0
LINE
  5
13D
330
1F
100
AcDbEntity
  8
0
  6
Continuous
 62
     7
370
    15
100
AcDbLine
 10
205.4612311236
 20
214.8914477232
 30
0.0
 11
184.7112311236
 21
214.8914477232
 31
0.0
  0
LINE
  5
13E
330
1F
100
AcDbEntity
  8
0
  6
Continuous
 62
     7
370
    15
100
AcDbLine
 10
184.7112311236
 20
214.8914477232
 30
0.0
 11
184.0612311236
 21
215.5414477232
 31
0.0
  0
LINE
  5
13F
330
1F
100
AcDbEntity
  8
0
  6
Continuous
 62
     7
370
    15
100
AcDbLine
 10
186.9612311236
 20
218.7914477232
 30
0.0
 11
190.9269112092
 21
225.3914477232
 31
0.0
  0
LINE
  5
140
330
1F
100
AcDbEntity
  8
0
  6
Continuous
 62
     7
370
    15
100
AcDbLine
 10
190.9269112092
 20
225.3914477232
 30
0.0
 11
186.9612311236
 21
231.9914477232
 31
0.0
  0
LINE
  5
141
330
1F
100
AcDbEntity
  8
0
  6
Continuous
 62
     7
370
    15
100
AcDbLine
 10
175.9612311236
 20
232.4914477232
 30
0.0
 11
176.4612311236
 21
231.9914477232
 31
0.0
  0
LINE
  5
142
330
1F
100
AcDbEntity
  8
0
  6
Continuous
 62
     7
370
    15
100
AcDbLine
 10
175.9612311236
 20
236.8914477232
 30
0.0
 11
175.9612311236
 21
232.4914477232
 31
0.0
  0
LINE
  5
143
330
1F
100
AcDbEntity
  8
0
  6
Continuous
 62
     7
370
    15
100
AcDbLine
 10
175.9612311236
 20
236.8914477232
 30
0.0
 11
199.4612311236
 21
236.8914477232
 31
0.0
  0
ARC
  5
144
330
1F
100
AcDbEntity
  8
0
  6
Continuous
 62
     7
370
    15
100
AcDbCircle
 10
199.4612311236
 20
237.3914477232
 30
0.0
 40
0.5
100
AcDbArc
 50
270.0
 51
0.0
  0
LINE
  5
145
330
1F
100
AcDbEntity
  8
0
  6
Continuous
 62
     7
370
    15
100
AcDbLine
 10
199.9612311236
 20
237.3914477232
 30
0.0
 11
199.9612311236
 21
244.3914477232
 31
0.0
  0
ARC
  5
146
330
1F
100
AcDbEntity
  8
0
  6
Continuous
 62
     7
370
    15
100
AcDbCircle
 10
200.4612311236
 20
244.3914477232
 30
0.0
 40
0.5
100
AcDbArc
 50
90.0
 51
180.0
  0
LINE
  5
147
330
1F
100
AcDbEntity
  8
0
  6
Continuous
 62
     7
370
    15
100
AcDbLine
 10
200.4612311236
 20
244.8914477232
 30
0.0
 11
205.4612311236
 21
244.8914477232
 31
0.0
  0
ARC
  5
148
330
1F
100
AcDbEntity
  8
0
  6
Continuous
 62
     7
370
    15
100
AcDbCircle
 10
205.4612311236
 20
244.3914477232
 30
0.0
 40
0.5
100
AcDbArc
 50
0.0
 51
90.0
  0
LINE
  5
149
330
1F
100
AcDbEntity
  8
0
  6
Continuous
 62
     7
370
    15
100
AcDbLine
 10
205.9612311236
 20
244.3914477232
 30
0.0
 11
205.9612311236
 21
215.3914477232
 31
0.0
  0
LINE
  5
14A
330
1F
100
AcDbEntity
  8
0
  6
Continuous
 62
     7
370
    15
100
AcDbLine
 10
176.4612311236
 20
218.7914477232
 30
0.0
 11
175.9612311236
 21
218.2914477232
 31
0.0
  0
LINE
  5
14B
330
1F
100
AcDbEntity
  8
0
  6
Continuous
 62
     7
370
    15
100
AcDbLine
 10
179.2112311236
 20
214.8914477232
 30
0.0
 11
175.9612311236
 21
214.8914477232
 31
0.0
  0
LINE
  5
14C
330
1F
100
AcDbEntity
  8
0
  6
Continuous
 62
     7
370
    15
100
AcDbLine
 10
179.8612311236
 20
215.5414477232
 30
0.0
 11
179.2112311236
 21
214.8914477232
 31
0.0
  0
LINE
  5
14D
330
1F
100
AcDbEntity
  8
0
  6
Continuous
 62
     7
370
    15
100
AcDbLine
 10
175.9612311236
 20
218.2914477232
 30
0.0
 11
175.9612311236
 21
214.8914477232
 31
0.0
  0
LINE
  5
14E
330
1F
100
AcDbEntity
  8
0
  6
Continuous
 62
     7
370
    15
100
AcDbLine
 10
179.2112311236
 20
214.8914477232
 30
0.0
 11
179.9062311236
 21
214.8914477232
 31
0.0
  0
LINE
  5
14F
330
1F
100
AcDbEntity
  8
0
  6
Continuous
 62
     7
370
    15
100
AcDbLine
 10
184.0162311236
 20
214.8914477232
 30
0.0
 11
184.7112311236
 21
214.8914477232
 31
0.0
  0
LINE
  5
150
330
1F
100
AcDbEntity
  8
0
  6
Continuous
 62
     7
370
    15
100
AcDbLine
 10
170.9612311236
 20
244.8914477232
 30
0.0
 11
166.9612311236
 21
244.8914477232
 31
0.0
  0
LINE
  5
151
330
1F
100
AcDbEntity
  8
0
  6
Continuous
 62
     7
370
    15
100
AcDbLine
 10
166.9612311236
 20
205.8914477232
 30
0.0
 11
170.9612311236
 21
205.8914477232
 31
0.0
  0
LINE
  5
152
330
1F
100
AcDbEntity
  8
0
  6
Continuous
 62
     7
370
    15
100
AcDbLine
 10
166.9612311236
 20
244.8914477232
 30
0.0
 11
166.9612311236
 21
244.6914477232
 31
0.0
  0
LINE
  5
153
330
1F
100
AcDbEntity
  8
0
  6
Continuous
 62
     7
370
    15
100
AcDbLine
 10
166.9612311236
 20
206.0914477232
 30
0.0
 11
166.9612311236
 21
205.8914477232
 31
0.0
  0
LINE
  5
154
330
1F
100
AcDbEntity
  8
0
  6
Continuous
 62
     7
370
    15
100
AcDbLine
 10
175.9612311236
 20
232.3914477232
 30
0.0
 11
174.9612311236
 21
232.3914477232
 31
0.0
  0
LINE
  5
155
330
1F
100
AcDbEntity
  8
0
  6
Continuous
 62
     7
370
    15
100
AcDbLine
 10
174.9612311236
 20
243.3914477232
 30
0.0
 11
174.9612311236
 21
232.3914477232
 31
0.0
  0
LINE
  5
156
330
1F
100
AcDbEntity
  8
0
  6
Continuous
 62
     7
370
    15
100
AcDbLine
 10
174.9612311236
 20
243.3914477232
 30
0.0
 11
170.9612311236
 21
243.3914477232
 31
0.0
  0
LINE
  5
157
330
1F
100
AcDbEntity
  8
0
  6
Continuous
 62
     7
370
    15
100
AcDbLine
 10
170.9612311236
 20
244.8914477232
 30
0.0
 11
170.9612311236
 21
243.3914477232
 31
0.0
  0
ARC
  5
158
330
1F
100
AcDbEntity
  8
0
  6
Continuous
 62
     7
370
    15
100
AcDbCircle
 10
175.4612311236
 20
244.8914477232
 30
0.0
 40
0.5
100
AcDbArc
 50
0.0
 51
90.0
  0
LINE
  5
159
330
1F
100
AcDbEntity
  8
0
  6
Continuous
 62
     7
370
    15
100
AcDbLine
 10
175.9612311236
 20
244.8914477232
 30
0.0
 11
175.9612311236
 21
232.3914477232
 31
0.0
  0
LINE
  5
15A
330
1F
100
AcDbEntity
  8
0
  6
Continuous
 62
     7
370
    15
100
AcDbLine
 10
166.9612311236
 20
245.3914477232
 30
0.0
 11
175.4612311236
 21
245.3914477232
 31
0.0
  0
LINE
  5
15B
330
1F
100
AcDbEntity
  8
0
  6
Continuous
 62
     7
370
    15
100
AcDbLine
 10
166.9612311236
 20
245.3914477232
 30
0.0
 11
166.9612311236
 21
244.8914477232
 31
0.0
  0
ARC
  5
15C
330
1F
100
AcDbEntity
  8
0
  6
Continuous
 62
     7
370
    15
100
AcDbCircle
 10
175.4612311236
 20
205.8914477232
 30
0.0
 40
0.5000000000000284
100
AcDbArc
 50
270.0
 51
0.0
  0
LINE
  5
15D
330
1F
100
AcDbEntity
  8
0
  6
Continuous
 62
     7
370
    15
100
AcDbLine
 10
170.9612311236
 20
207.3914477232
 30
0.0
 11
170.9612311236
 21
205.8914477232
 31
0.0
  0
LINE
  5
15E
330
1F
100
AcDbEntity
  8
0
  6
Continuous
 62
     7
370
    15
100
AcDbLine
 10
170.9612311236
 20
207.3914477232
 30
0.0
 11
174.9612311236
 21
207.3914477232
 31
0.0
  0
LINE
  5
15F
330
1F
100
AcDbEntity
  8
0
  6
Continuous
 62
     7
370
    15
100
AcDbLine
 10
174.9612311236
 20
218.3914477232
 30
0.0
 11
174.9612311236
 21
207.3914477232
 31
0.0
  0
LINE
  5
160
330
1F
100
AcDbEntity
  8
0
  6
Continuous
 62
     7
370
    15
100
AcDbLine
 10
174.9612311236
 20
218.3914477232
 30
0.0
 11
175.9612311236
 21
218.3914477232
 31
0.0
  0
LINE
  5
161
330
1F
100
AcDbEntity
  8
0
  6
Continuous
 62
     7
370
    15
100
AcDbLine
 10
175.9612311236
 20
218.3914477232
 30
0.0
 11
175.9612311236
 21
205.8914477232
 31
0.0
  0
LINE
  5
162
330
1F
100
AcDbEntity
  8
0
  6
Continuous
 62
     7
370
    15
100
AcDbLine
 10
175.4612311236
 20
205.3914477232
 30
0.0
 11
166.9612311236
 21
205.3914477232
 31
0.0
  0
LINE
  5
163
330
1F
100
AcDbEntity
  8
0
  6
Continuous
 62
     7
370
    15
100
AcDbLine
 10
166.9612311236
 20
205.8914477232
 30
0.0
 11
166.9612311236
 21
205.3914477232
 31
0.0
  0
LINE
  5
164
330
1F
100
AcDbEntity
  8
0
  6
Continuous
 62
     7
370
    15
100
AcDbLine
 10
175.9612311236
 20
232.3914477232
 30
0.0
 11
175.9612311236
 21
231.8914477232
 31
0.0
  0
LINE
  5
165
330
1F
100
AcDbEntity
  8
0
  6
Continuous
 62
     7
370
    15
100
AcDbLine
 10
175.9612311236
 20
218.8914477232
 30
0.0
 11
175.9612311236
 21
218.3914477232
 31
0.0
  0
LINE
  5
166
330
1F
100
AcDbEntity
  8
0
  6
Continuous
 62
     7
370
    15
100
AcDbLine
 10
174.9612311236
 20
218.3914477232
 30
0.0
 11
174.9612311236
 21
218.8914477232
 31
0.0
  0
LINE
  5
167
330
1F
100
AcDbEntity
  8
0
  6
Continuous
 62
     7
370
    15
100
AcDbLine
 10
174.9612311236
 20
231.8914477232
 30
0.0
 11
174.9612311236
 21
232.3914477232
 31
0.0
  0
HATCH
  5
168
330
1F
100
AcDbEntity
  8
0
  6
Continuous
 62
     7
370
     0
100
AcDbHatch
 10
0.0
 20
0.0
 30
0.0
210
0.0
220
0.0
230
1.0
  2
ANSI33
 70
     0
 71
     0
 91
        1
 92
        0
 93
        9
 72
     1
 10
175.9612311235727
 20
205.8914477231829
 11
175.9612311235727
 21
218.3914477231829
 72
     1
 10
175.9612311235727
 20
218.3914477231829
 11
174.9612311235727
 21
218.3914477231829
 72
     1
 10
174.9612311235727
 20
218.3914477231829
 11
174.9612311235727
 21
207.3914477231829
 72
     1
 10
174.9612311235727
 20
207.3914477231829
 11
170.9612311235727
 21
207.3914477231829
 72
     1
 10
170.9612311235727
 20
207.3914477231829
 11
170.9612311235727
 21
205.8914477231829
 72
     1
 10
170.9612311235727
 20
205.8914477231829
 11
166.9612311235727
 21
205.8914477231829
 72
     1
 10
166.9612311235727
 20
205.8914477231829
 11
166.9612311235727
 21
205.3914477231829
 72
     1
 10
166.9612311235727
 20
205.3914477231829
 11
175.4612311235727
 21
205.3914477231829
 72
     2
 10
175.4612311235727
 20
205.8914477231829
 40
0.5
 50
270.0000000000008
 51
360.0000000000008
 73
     1
 97
        0
 75
     0
 76
     1
 52
0.0
 41
1.0
 77
     0
 78
     2
 53
45.0
 43
0.0
 44
0.0
 45
-4.490128060534576
 46
4.490128060534577
 79
     0
 53
45.0
 43
4.49013
 44
0.0
 45
-4.490128060534576
 46
4.490128060534577
 79
     2
 49
3.175
 49
-1.5875
 98
        1
 10
0.0
 20
0.0
  0
HATCH
  5
169
330
1F
100
AcDbEntity
  8
0
  6
Continuous
 62
     7
370
     0
100
AcDbHatch
 10
0.0
 20
0.0
 30
0.0
210
0.0
220
0.0
230
1.0
  2
ANSI33
 70
     0
 71
     0
 91
        1
 92
        0
 93
        9
 72
     1
 10
175.9612311235727
 20
232.3914477231829
 11
175.9612311235727
 21
244.8914477231829
 72
     2
 10
175.4612311235727
 20
244.8914477231829
 40
0.5
 50
0.0
 51
90.0
 73
     1
 72
     1
 10
175.4612311235727
 20
245.3914477231829
 11
166.9612311235727
 21
245.3914477231829
 72
     1
 10
166.9612311235727
 20
245.3914477231829
 11
166.9612311235727
 21
244.8914477231829
 72
     1
 10
166.9612311235727
 20
244.8914477231829
 11
170.9612311235727
 21
244.8914477231829
 72
     1
 10
170.9612311235727
 20
244.8914477231829
 11
170.9612311235727
 21
243.3914477231829
 72
     1
 10
170.9612311235727
 20
243.3914477231829
 11
174.9612311235727
 21
243.3914477231829
 72
     1
 10
174.9612311235727
 20
243.3914477231829
 11
174.9612311235727
 21
232.3914477231829
 72
     1
 10
174.9612311235727
 20
232.3914477231829
 11
175.9612311235727
 21
232.3914477231829
 97
        0
 75
     0
 76
     1
 52
0.0
 41
1.0
 77
     0
 78
     2
 53
45.0
 43
0.0
 44
0.0
 45
-4.490128060534576
 46
4.490128060534577
 79
     0
 53
45.0
 43
4.49013
 44
0.0
 45
-4.490128060534576
 46
4.490128060534577
 79
     2
 49
3.175
 49
-1.5875
 98
        1
 10
0.0
 20
0.0
  0
HATCH
  5
16A
330
1F
100
AcDbEntity
  8
0
  6
Continuous
 62
     7
370
     0
100
AcDbHatch
 10
0.0
 20
0.0
 30
0.0
210
0.0
220
0.0
230
1.0
  2
ANSI33
 70
     0
 71
     0
 91
        1
 92
        0
 93
        6
 72
     1
 10
179.2112311235727
 20
214.8914477231829
 11
179.8612311235727
 21
215.5414477231829
 72
     1
 10
179.8612311235727
 20
215.5414477231829
 11
179.8612311235727
 21
218.7914477231829
 72
     1
 10
179.8612311235727
 20
218.7914477231829
 11
176.4612311235726
 21
218.7914477231829
 72
     1
 10
176.4612311235726
 20
218.7914477231829
 11
175.9612311235727
 21
218.2914477231829
 72
     1
 10
175.9612311235727
 20
218.2914477231829
 11
175.9612311235727
 21
214.8914477231829
 72
     1
 10
175.9612311235727
 20
214.8914477231829
 11
179.2112311235727
 21
214.8914477231829
 97
        0
 75
     0
 76
     1
 52
0.0
 41
1.0
 77
     0
 78
     2
 53
45.0
 43
0.0
 44
0.0
 45
-4.490128060534576
 46
4.490128060534577
 79
     0
 53
45.0
 43
4.49013
 44
0.0
 45
-4.490128060534576
 46
4.490128060534577
 79
     2
 49
3.175
 49
-1.5875
 98
        1
 10
0.0
 20
0.0
  0
HATCH
  5
16B
330
1F
100
AcDbEntity
  8
0
  6
Continuous
 62
     7
370
     0
100
AcDbHatch
 10
0.0
 20
0.0
 30
0.0
210
0.0
220
0.0
230
1.0
  2
ANSI33
 70
     0
 71
     0
 91
        1
 92
        0
 93
       17
 72
     1
 10
205.9612311235727
 20
215.3914477231829
 11
205.9612311235727
 21
244.3914477231829
 72
     2
 10
205.4612311235727
 20
244.3914477231829
 40
0.5
 50
0.0
 51
90.0
 73
     1
 72
     1
 10
205.4612311235727
 20
244.8914477231829
 11
200.4612311235727
 21
244.8914477231829
 72
     2
 10
200.4612311235727
 20
244.3914477231829
 40
0.5
 50
90.0
 51
180.0
 73
     1
 72
     1
 10
199.9612311235727
 20
244.3914477231829
 11
199.9612311235727
 21
237.3914477231829
 72
     2
 10
199.4612311235727
 20
237.3914477231829
 40
0.5
 50
0.0
 51
90.0
 73
     0
 72
     1
 10
199.4612311235727
 20
236.8914477231829
 11
175.9612311235727
 21
236.8914477231829
 72
     1
 10
175.9612311235727
 20
236.8914477231829
 11
175.9612311235727
 21
232.4914477231829
 72
     1
 10
175.9612311235727
 20
232.4914477231829
 11
176.4612311235726
 21
231.9914477231829
 72
     1
 10
176.4612311235726
 20
231.9914477231829
 11
186.9612311235726
 21
231.9914477231829
 72
     1
 10
186.9612311235726
 20
231.9914477231829
 11
190.9269112091546
 21
225.3914477231829
 72
     1
 10
190.9269112091546
 20
225.3914477231829
 11
186.9612311235726
 21
218.7914477231829
 72
     1
 10
186.9612311235726
 20
218.7914477231829
 11
184.0612311235727
 21
218.7914477231829
 72
     1
 10
184.0612311235727
 20
218.7914477231829
 11
184.0612311235727
 21
215.5414477231829
 72
     1
 10
184.0612311235727
 20
215.5414477231829
 11
184.7112311235726
 21
214.8914477231829
 72
     1
 10
184.7112311235726
 20
214.8914477231829
 11
205.4612311235727
 21
214.8914477231829
 72
     2
 10
205.4612311235727
 20
215.3914477231829
 40
0.5
 50
270.0000000000008
 51
360.0000000000008
 73
     1
 97
        0
 75
     0
 76
     1
 52
0.0
 41
1.0
 77
     0
 78
     2
 53
45.0
 43
0.0
 44
0.0
 45
-4.490128060534576
 46
4.490128060534577
 79
     0
 53
45.0
 43
4.49013
 44
0.0
 45
-4.490128060534576
 46
4.490128060534577
 79
     2
 49
3.175
 49
-1.5875
 98
        1
 10
0.0
 20
0.0
  0
HATCH
  5
16C
330
1F
100
AcDbEntity
  8
0
  6
Continuous
 62
     7
370
     0
100
AcDbHatch
 10
0.0
 20
0.0
 30
0.0
210
0.0
220
0.0
230
1.0
  2
ANSI32
 70
     0
 71
     0
 91
        1
 92
        0
 93
       11
 72
     1
 10
179.4612311235727
 20
215.1483685929723
 11
179.9062311235727
 21
214.8914477231829
 72
     1
 10
179.9062311235727
 20
214.8914477231829
 11
180.5178554505986
 21
214.8914477231829
 72
     1
 10
180.5178554505986
 20
214.8914477231829
 11
180.5178554505986
 21
217.8914477231829
 72
     1
 10
180.5178554505986
 20
217.8914477231829
 11
183.4046067965467
 21
217.8914477231829
 72
     1
 10
183.4046067965467
 20
217.8914477231829
 11
183.4046067965467
 21
214.8914477231829
 72
     1
 10
183.4046067965467
 20
214.8914477231829
 11
184.0162311235727
 21
214.8914477231829
 72
     1
 10
184.0162311235727
 20
214.8914477231829
 11
184.4612311235726
 21
215.1483685929723
 72
     1
 10
184.4612311235726
 20
215.1483685929723
 11
184.4612311235726
 21
218.3914477231829
 72
     1
 10
184.4612311235726
 20
218.3914477231829
 11
181.9612311235727
 21
220.8914477231829
 72
     1
 10
181.9612311235727
 20
220.8914477231829
 11
179.4612311235727
 21
218.3914477231829
 72
     1
 10
179.4612311235727
 20
218.3914477231829
 11
179.4612311235727
 21
215.1483685929723
 97
        0
 75
     0
 76
     1
 52
0.0
 41
1.0
 77
     0
 78
     2
 53
45.0
 43
0.0
 44
0.0
 45
-6.735192090801865
 46
6.735192090801866
 79
     0
 53
45.0
 43
4.49013
 44
0.0
 45
-6.735192090801865
 46
6.735192090801866
 79
     0
 98
        1
 10
0.0
 20
0.0
  0
HATCH
  5
16D
330
1F
100
AcDbEntity
  8
0
  6
Continuous
 62
     7
370
     0
100
AcDbHatch
 10
0.0
 20
0.0
 30
0.0
210
0.0
220
0.0
230
1.0
  2
ANSI33
 70
     0
 71
     0
 91
        1
 92
        0
 93
        6
 72
     1
 10
179.1612311235727
 20
221.3914477231829
 11
179.9612311235726
 21
222.1914477231829
 72
     1
 10
179.9612311235726
 20
222.1914477231829
 11
179.9612311235726
 21
228.5914477231829
 72
     1
 10
179.9612311235726
 20
228.5914477231829
 11
179.1612311235727
 21
229.3914477231829
 72
     1
 10
179.1612311235727
 20
229.3914477231829
 11
170.9612311235727
 21
229.3914477231829
 72
     1
 10
170.9612311235727
 20
229.3914477231829
 11
170.9612311235727
 21
221.3914477231829
 72
     1
 10
170.9612311235727
 20
221.3914477231829
 11
179.1612311235727
 21
221.3914477231829
 97
        0
 75
     0
 76
     1
 52
0.0
 41
1.0
 77
     0
 78
     2
 53
45.0
 43
0.0
 44
0.0
 45
-4.490128060534576
 46
4.490128060534577
 79
     0
 53
45.0
 43
4.49013
 44
0.0
 45
-4.490128060534576
 46
4.490128060534577
 79
     2
 49
3.175
 49
-1.5875
 98
        1
 10
0.0
 20
0.0
  0
HATCH
  5
16E
330
1F
100
AcDbEntity
  8
0
  6
Continuous
 62
     7
370
     0
100
AcDbHatch
 10
0.0
 20
0.0
 30
0.0
210
0.0
220
0.0
230
1.0
  2
ANSI33
 70
     0
 71
     0
 91
        1
 92
        0
 93
        4
 72
     1
 10
166.4612311235727
 20
206.0914477231829
 11
167.6612311235727
 21
206.0914477231829
 72
     1
 10
167.6612311235727
 20
206.0914477231829
 11
167.6612311235727
 21
210.0914477231829
 72
     1
 10
167.6612311235727
 20
210.0914477231829
 11
166.4612311235727
 21
210.0914477231829
 72
     1
 10
166.4612311235727
 20
210.0914477231829
 11
166.4612311235727
 21
206.0914477231829
 97
        0
 75
     0
 76
     1
 52
0.0
 41
1.0
 77
     0
 78
     2
 53
45.0
 43
0.0
 44
0.0
 45
-4.490128060534576
 46
4.490128060534577
 79
     0
 53
45.0
 43
4.49013
 44
0.0
 45
-4.490128060534576
 46
4.490128060534577
 79
     2
 49
3.175
 49
-1.5875
 98
        1
 10
0.0
 20
0.0
  0
HATCH
  5
16F
330
1F
100
AcDbEntity
  8
0
  6
Continuous
 62
     7
370
     0
100
AcDbHatch
 10
0.0
 20
0.0
 30
0.0
210
0.0
220
0.0
230
1.0
  2
ANSI33
 70
     0
 71
     0
 91
        1
 92
        0
 93
        4
 72
     1
 10
167.6612311235727
 20
244.6914477231829
 11
166.4612311235727
 21
244.6914477231829
 72
     1
 10
166.4612311235727
 20
244.6914477231829
 11
166.4612311235727
 21
240.6914477231829
 72
     1
 10
166.4612311235727
 20
240.6914477231829
 11
167.6612311235727
 21
240.6914477231829
 72
     1
 10
167.6612311235727
 20
240.6914477231829
 11
167.6612311235727
 21
244.6914477231829
 97
        0
 75
     0
 76
     1
 52
0.0
 41
1.0
 77
     0
 78
     2
 53
45.0
 43
0.0
 44
0.0
 45
-4.490128060534576
 46
4.490128060534577
 79
     0
 53
45.0
 43
4.49013
 44
0.0
 45
-4.490128060534576
 46
4.490128060534577
 79
     2
 49
3.175
 49
-1.5875
 98
        1
 10
0.0
 20
0.0
  0
HATCH
  5
170
330
1F
100
AcDbEntity
  8
0
  6
Continuous
 62
     7
370
     0
100
AcDbHatch
 10
0.0
 20
0.0
 30
0.0
210
0.0
220
0.0
230
1.0
  2
ANSI33
 70
     0
 71
     0
 91
        1
 92
        0
 93
        4
 72
     1
 10
167.6612311235727
 20
244.6914477231829
 11
167.6612311235727
 21
206.0914477231829
 72
     1
 10
167.6612311235727
 20
206.0914477231829
 11
170.9612311235727
 21
206.0914477231829
 72
     1
 10
170.9612311235727
 20
206.0914477231829
 11
170.9612311235727
 21
244.6914477231829
 72
     1
 10
170.9612311235727
 20
244.6914477231829
 11
167.6612311235727
 21
244.6914477231829
 97
        0
 75
     0
 76
     1
 52
0.0
 41
1.0
 77
     0
 78
     2
 53
45.0
 43
0.0
 44
0.0
 45
-4.490128060534576
 46
4.490128060534577
 79
     0
 53
45.0
 43
4.49013
 44
0.0
 45
-4.490128060534576
 46
4.490128060534577
 79
     2
 49
3.175
 49
-1.5875
 98
        1
 10
0.0
 20
0.0
  0
HATCH
  5
171
330
1F
100
AcDbEntity
  8
0
  6
Continuous
 62
     7
370
     0
100
AcDbHatch
 10
0.0
 20
0.0
 30
0.0
210
0.0
220
0.0
230
1.0
  2
ANSI33
 70
     0
 71
     0
 91
        1
 92
        0
 93
       10
 72
     1
 10
186.4612311235726
 20
230.8914477231829
 11
185.4612311235726
 21
231.8914477231829
 72
     1
 10
185.4612311235726
 20
231.8914477231829
 11
183.7112311235726
 21
231.8914477231829
 72
     1
 10
183.7112311235726
 20
231.8914477231829
 11
181.7112311235727
 21
229.8914477231829
 72
     1
 10
181.7112311235727
 20
229.8914477231829
 11
179.7112311235726
 21
231.8914477231829
 72
     1
 10
179.7112311235726
 20
231.8914477231829
 11
170.9612311235727
 21
231.8914477231829
 72
     1
 10
170.9612311235727
 20
231.8914477231829
 11
170.9612311235727
 21
229.3914477231829
 72
     1
 10
170.9612311235727
 20
229.3914477231829
 11
179.9612311235727
 21
229.3914477231829
 72
     1
 10
179.9612311235727
 20
229.3914477231829
 11
179.9612311235727
 21
228.7914477231829
 72
     1
 10
179.9612311235727
 20
228.7914477231829
 11
186.4612311235726
 21
228.7914477231829
 72
     1
 10
186.4612311235726
 20
228.7914477231829
 11
186.4612311235726
 21
230.8914477231829
 97
        0
 75
     0
 76
     1
 52
0.0
 41
1.0
 77
     0
 78
     2
 53
45.0
 43
0.0
 44
0.0
 45
-4.490128060534576
 46
4.490128060534577
 79
     0
 53
45.0
 43
4.49013
 44
0.0
 45
-4.490128060534576
 46
4.490128060534577
 79
     2
 49
3.175
 49
-1.5875
 98
        1
 10
0.0
 20
0.0
  0
HATCH
  5
172
330
1F
100
AcDbEntity
  8
0
  6
Continuous
 62
     7
370
     0
100
AcDbHatch
 10
0.0
 20
0.0
 30
0.0
210
0.0
220
0.0
230
1.0
  2
ANSI33
 70
     0
 71
     0
 91
        1
 92
        0
 93
       10
 72
     1
 10
181.7112311235727
 20
220.8914477231829
 11
183.7112311235726
 21
218.8914477231829
 72
     1
 10
183.7112311235726
 20
218.8914477231829
 11
185.4612311235726
 21
218.8914477231829
 72
     1
 10
185.4612311235726
 20
218.8914477231829
 11
186.4612311235726
 21
219.8914477231829
 72
     1
 10
186.4612311235726
 20
219.8914477231829
 11
186.4612311235726
 21
221.9914477231829
 72
     1
 10
186.4612311235726
 20
221.9914477231829
 11
179.9612311235727
 21
221.9914477231829
 72
     1
 10
179.9612311235727
 20
221.9914477231829
 11
179.9612311235727
 21
221.3914477231829
 72
     1
 10
179.9612311235727
 20
221.3914477231829
 11
170.9612311235727
 21
221.3914477231829
 72
     1
 10
170.9612311235727
 20
221.3914477231829
 11
170.9612311235727
 21
218.8914477231829
 72
     1
 10
170.9612311235727
 20
218.8914477231829
 11
179.7112311235726
 21
218.8914477231829
 72
     1
 10
179.7112311235726
 20
218.8914477231829
 11
181.7112311235727
 21
220.8914477231829
 97
        0
 75
     0
 76
     1
 52
0.0
 41
1.0
 77
     0
 78
     2
 53
45.0
 43
0.0
 44
0.0
 45
-4.490128060534576
 46
4.490128060534577
 79
     0
 53
45.0
 43
4.49013
 44
0.0
 45
-4.490128060534576
 46
4.490128060534577
 79
     2
 49
3.175
 49
-1.5875
 98
        1
 10
0.0
 20
0.0
  0
DIMENSION
  5
173
330
1F
100
AcDbEntity
  8
0
  6
Continuous
 62
     7
370
     0
100
AcDbDimension
  2
*D8
 10
205.9612311236
 20
261.3914477232
 30
0.0
 11
215.9612311236
 21
261.3914477232
 31
0.0
 70
   160
 71
     2
 42
-1.0
  3
SLDDIMSTYLE2
100
AcDbAlignedDimension
 13
199.9612311236
 23
244.8914477232
 33
0.0
 14
205.9612311236
 24
244.8914477232
 34
0.0
100
AcDbRotatedDimension
  0
MTEXT
  5
17F
330
1F
100
AcDbEntity
  8
0
  6
Continuous
 62
     7
370
     0
100
AcDbMText
 10
185.9219953305
 20
197.8874902819
 30
0.0
 40
3.5
 41
0.0
 71
     2
 72
     1
  1
A-A
  7
SLDTEXTSTYLE0
 73
     1
 44
1.0
  0
ENDSEC
  0
SECTION
  2
OBJECTS
  0
DICTIONARY
  5
C
330
0
100
AcDbDictionary
281
     1
  3
ACAD_GROUP
350
D
  3
ACAD_LAYOUT
350
1A
  3
ACAD_MLINESTYLE
350
17
  3
ACAD_PLOTSETTINGS
350
19
  3
ACAD_PLOTSTYLENAME
350
E
  0
DICTIONARY
  5
D
102
{ACAD_REACTORS
330
C
102
}
330
C
100
AcDbDictionary
281
     1
  0
DICTIONARY
  5
1A
102
{ACAD_REACTORS
330
C
102
}
330
C
100
AcDbDictionary
281
     1
  3
Layout1
350
1E
  3
Layout2
350
26
  3
Model
350
22
  0
DICTIONARY
  5
17
102
{ACAD_REACTORS
330
C
102
}
330
C
100
AcDbDictionary
281
     1
  3
Standard
350
18
  0
DICTIONARY
  5
19
102
{ACAD_REACTORS
330
C
102
}
330
C
100
AcDbDictionary
281
     1
  0
ACDBDICTIONARYWDFLT
  5
E
102
{ACAD_REACTORS
330
C
102
}
330
C
100
AcDbDictionary
281
     1
  3
Normal
350
F
100
AcDbDictionaryWithDefault
340
F
  0
LAYOUT
  5
1E
102
{ACAD_REACTORS
330
1A
102
}
330
1A
100
AcDbPlotSettings
  1

  2
none_device
  4

  6

 40
0.0
 41
0.0
 42
0.0
 43
0.0
 44
0.0
 45
0.0
 46
0.0
 47
0.0
 48
0.0
 49
0.0
140
0.0
141
0.0
142
1.0
143
1.0
 70
   688
 72
     0
 73
     0
 74
     5
  7

 75
    16
147
1.0
148
0.0
149
0.0
100
AcDbLayout
  1
Layout1
 70
     1
 71
     1
 10
0.0
 20
0.0
 11
420.0
 21
297.0
 12
0.0
 22
0.0
 32
0.0
 14
1.0000000000E+20
 24
1.0000000000E+20
 34
1.0000000000E+20
 15
-1.0000000000E+20
 25
-1.0000000000E+20
 35
-1.0000000000E+20
146
0.0
 13
0.0
 23
0.0
 33
0.0
 16
1.0
 26
0.0
 36
0.0
 17
0.0
 27
1.0
 37
0.0
 76
     0
330
1B
  0
LAYOUT
  5
26
102
{ACAD_REACTORS
330
1A
102
}
330
1A
100
AcDbPlotSettings
  1

  2
none_device
  4

  6

 40
0.0
 41
0.0
 42
0.0
 43
0.0
 44
0.0
 45
0.0
 46
0.0
 47
0.0
 48
0.0
 49
0.0
140
0.0
141
0.0
142
1.0
143
1.0
 70
   688
 72
     0
 73
     0
 74
     5
  7

 75
    16
147
1.0
148
0.0
149
0.0
100
AcDbLayout
  1
Layout2
 70
     1
 71
     2
 10
0.0
 20
0.0
 11
0.0
 21
0.0
 12
0.0
 22
0.0
 32
0.0
 14
0.0
 24
0.0
 34
0.0
 15
0.0
 25
0.0
 35
0.0
146
0.0
 13
0.0
 23
0.0
 33
0.0
 16
1.0
 26
0.0
 36
0.0
 17
0.0
 27
1.0
 37
0.0
 76
     0
330
23
  0
LAYOUT
  5
22
102
{ACAD_REACTORS
330
1A
102
}
330
1A
100
AcDbPlotSettings
  1

  2
none_device
  4

  6

 40
0.0
 41
0.0
 42
0.0
 43
0.0
 44
0.0
 45
0.0
 46
0.0
 47
0.0
 48
0.0
 49
0.0
140
0.0
141
0.0
142
1.0
143
1.0
 70
  1712
 72
     0
 73
     0
 74
     0
  7

 75
     0
147
1.0
148
0.0
149
0.0
100
AcDbLayout
  1
Model
 70
     1
 71
     0
 10
0.0
 20
0.0
 11
420.0
 21
297.0
 12
0.0
 22
0.0
 32
0.0
 14
0.0
 24
0.0
 34
0.0
 15
420.0
 25
297.0
 35
0.0
146
0.0
 13
0.0
 23
0.0
 33
0.0
 16
1.0
 26
0.0
 36
0.0
 17
0.0
 27
1.0
 37
0.0
 76
     0
330
1F
331
29
  0
MLINESTYLE
  5
18
102
{ACAD_REACTORS
330
17
102
}
330
17
100
AcDbMlineStyle
  2
Standard
 70
     0
  3

 62
   256
 51
90.0
 52
90.0
 71
     2
 49
0.5
 62
   256
  6
BYLAYER
 49
-0.5
 62
   256
  6
BYLAYER
  0
ACDBPLACEHOLDER
  5
F
102
{ACAD_REACTORS
330
E
102
}
330
E
  0
ENDSEC
  0
EOF
