  0
SECTION
  2
HEADER
  9
$ACADVER
  1
AC1009
  9
$DWGCODEPAGE
  3
ansi_1252
  9
$INSBASE
 10
0.0
 20
0.0
 30
0.0
  9
$EXTMIN
 10
0.0
 20
0.0
 30
0.0
  9
$EXTMAX
 10
420.0
 20
297.0
 30
0.0
  9
$LIMMIN
 10
0.0
 20
0.0
  9
$LIMMAX
 10
420.0
 20
297.0
  9
$ORTHOMODE
 70
     0
  9
$REGENMODE
 70
     1
  9
$FILLMODE
 70
     1
  9
$QTEXTMODE
 70
     0
  9
$MIRRTEXT
 70
     1
  9
$DRAGMODE
 70
     2
  9
$LTSCALE
 40
1.0
  9
$OSMODE
 70
    37
  9
$ATTMODE
 70
     1
  9
$TEXTSIZE
 40
3.5
  9
$TRACEWID
 40
1.0
  9
$TEXTSTYLE
  7
STANDARD
  9
$CLAYER
  8
0
  9
$CELTYPE
  6
BYLAYER
  9
$CECOLOR
 62
   256
  9
$DIMSCALE
 40
1.0
  9
$DIMASZ
 40
3.302
  9
$DIMEXO
 40
1.0
  9
$DIMDLI
 40
3.75
  9
$DIMRND
 40
0.0
  9
$DIMDLE
 40
0.0
  9
$DIMEXE
 40
1.0
  9
$DIMTP
 40
0.0
  9
$DIMTM
 40
0.0
  9
$DIMTXT
 40
3.5
  9
$DIMCEN
 40
2.5
  9
$DIMTSZ
 40
0.0
  9
$DIMTOL
 70
     0
  9
$DIMLIM
 70
     0
  9
$DIMTIH
 70
     1
  9
$DIMTOH
 70
     1
  9
$DIMSE1
 70
     0
  9
$DIMSE2
 70
     0
  9
$DIMTAD
 70
     1
  9
$DIMZIN
 70
     0
  9
$DIMBLK
  1

  9
$DIMASO
 70
     1
  9
$DIMSHO
 70
     1
  9
$DIMPOST
  1

  9
$DIMAPOST
  1

  9
$DIMALT
 70
     0
  9
$DIMALTD
 70
     3
  9
$DIMALTF
 40
0.0393700787
  9
$DIMLFAC
 40
1.0
  9
$DIMTOFL
 70
     1
  9
$DIMTVP
 40
0.0
  9
$DIMTIX
 70
     0
  9
$DIMSOXD
 70
     0
  9
$DIMSAH
 70
     0
  9
$DIMBLK1
  1

  9
$DIMBLK2
  1

  9
$DIMSTYLE
  2
ISO-25
  9
$DIMCLRD
 70
     0
  9
$DIMCLRE
 70
     0
  9
$DIMCLRT
 70
     0
  9
$DIMTFAC
 40
1.0
  9
$DIMGAP
 40
1.524
  9
$LUNITS
 70
     2
  9
$LUPREC
 70
     2
  9
$SKETCHINC
 40
1.0
  9
$FILLETRAD
 40
10.0
  9
$AUNITS
 70
     0
  9
$AUPREC
 70
     2
  9
$MENU
  1
.
  9
$ELEVATION
 40
0.0
  9
$PELEVATION
 40
0.0
  9
$THICKNESS
 40
0.0
  9
$LIMCHECK
 70
     0
  9
$CHAMFERA
 40
0.0
  9
$CHAMFERB
 40
0.0
  9
$SKPOLY
 70
     0
  9
$TDCREATE
 40
2457605.598509375
  9
$TDUPDATE
 40
2457605.598509734
  9
$TDINDWG
 40
0.0000000116
  9
$TDUSRTIMER
 40
0.0000000116
  9
$USRTIMER
 70
     1
  9
$ANGBASE
 50
0.0
  9
$ANGDIR
 70
     0
  9
$PDMODE
 70
     0
  9
$PDSIZE
 40
-1.0
  9
$PLINEWID
 40
0.0
  9
$COORDS
 70
     1
  9
$SPLFRAME
 70
     0
  9
$SPLINETYPE
 70
     6
  9
$SPLINESEGS
 70
     8
  9
$ATTDIA
 70
     0
  9
$ATTREQ
 70
     1
  9
$HANDLING
 70
     1
  9
$HANDSEED
  5
180
  9
$SURFTAB1
 70
     6
  9
$SURFTAB2
 70
     6
  9
$SURFTYPE
 70
     6
  9
$SURFU
 70
     6
  9
$SURFV
 70
     6
  9
$UCSNAME
  2

  9
$UCSORG
 10
0.0
 20
0.0
 30
0.0
  9
$UCSXDIR
 10
1.0
 20
0.0
 30
0.0
  9
$UCSYDIR
 10
0.0
 20
1.0
 30
0.0
  9
$PUCSNAME
  2

  9
$PUCSORG
 10
0.0
 20
0.0
 30
0.0
  9
$PUCSXDIR
 10
1.0
 20
0.0
 30
0.0
  9
$PUCSYDIR
 10
0.0
 20
1.0
 30
0.0
  9
$USERI1
 70
     0
  9
$USERI2
 70
     0
  9
$USERI3
 70
     0
  9
$USERI4
 70
     0
  9
$USERI5
 70
     0
  9
$USERR1
 40
0.0
  9
$USERR2
 40
0.0
  9
$USERR3
 40
0.0
  9
$USERR4
 40
0.0
  9
$USERR5
 40
0.0
  9
$WORLDVIEW
 70
     1
  9
$SHADEDGE
 70
     3
  9
$SHADEDIF
 70
    70
  9
$TILEMODE
 70
     1
  9
$MAXACTVP
 70
    64
  9
$PLIMCHECK
 70
     0
  9
$PEXTMIN
 10
1.0000000000E+20
 20
1.0000000000E+20
 30
1.0000000000E+20
  9
$PEXTMAX
 10
-1.0000000000E+20
 20
-1.0000000000E+20
 30
-1.0000000000E+20
  9
$PLIMMIN
 10
0.0
 20
0.0
  9
$PLIMMAX
 10
420.0
 20
297.0
  9
$UNITMODE
 70
     0
  9
$VISRETAIN
 70
     1
  9
$PLINEGEN
 70
     0
  9
$PSLTSCALE
 70
     1
  0
ENDSEC
  0
SECTION
  2
TABLES
  0
TABLE
  2
VPORT
 70
     1
  0
VPORT
  2
*ACTIVE
 70
     0
 10
0.0
 20
0.0
 11
1.0
 21
1.0
 12
210.0
 22
148.5
 13
0.0
 23
0.0
 14
10.0
 24
10.0
 15
10.0
 25
10.0
 16
0.0
 26
0.0
 36
1.0
 17
0.0
 27
0.0
 37
0.0
 40
297.0
 41
1.4141414141
 42
50.0
 43
0.0
 44
0.0
 50
0.0
 51
0.0
 71
     0
 72
  2000
 73
     1
 74
     3
 75
     0
 76
     0
 77
     0
 78
     0
  0
ENDTAB
  0
TABLE
  2
LTYPE
 70
     6
  0
LTYPE
  2
CONTINUOUS
 70
     0
  3
Solid line
 72
    65
 73
     0
 40
0.0
  0
LTYPE
  2
HIDDEN
 70
     0
  3
Hidden __ __ __ __ __ __ __ __ __ __ __ __ __ __
 72
    65
 73
     2
 40
1.905
 49
1.27
 49
-0.635
  0
LTYPE
  2
PHANTOM
 70
     0
  3
Phantom ______  __  __  ______  __  __  ______
 72
    65
 73
     6
 40
12.7
 49
6.35
 49
-1.27
 49
1.27
 49
-1.27
 49
1.27
 49
-1.27
  0
LTYPE
  2
CENTER
 70
     0
  3
Center ____ _ ____ _ ____ _ ____ _ ____ _ ____
 72
    65
 73
     4
 40
10.16
 49
6.35
 49
-1.27
 49
1.27
 49
-1.27
  0
LTYPE
  2
CENTERX2
 70
     0
  3
Center (2x) ________  __  ________  __  _____
 72
    65
 73
     4
 40
20.32
 49
12.7
 49
-2.54
 49
2.54
 49
-2.54
  0
LTYPE
  2
DOT2
 70
     0
  3
Dot (.5x) ........................................
 72
    65
 73
     2
 40
0.635
 49
0.0
 49
-0.635
  0
ENDTAB
  0
TABLE
  2
LAYER
 70
     5
  0
LAYER
  2
0
 70
     0
 62
     7
  6
CONTINUOUS
  0
LAYER
  2
FORMAT
 70
     0
 62
     7
  6
CONTINUOUS
  0
LAYER
  2
RAHMEN
 70
     0
 62
   179
  6
CONTINUOUS
  0
LAYER
  2
KOPF
 70
     0
 62
     7
  6
CONTINUOUS
  0
LAYER
  2
TEMP
 70
     0
 62
     7
  6
CONTINUOUS
  0
ENDTAB
  0
TABLE
  2
STYLE
 70
     1
  0
STYLE
  2
STANDARD
 70
     0
 40
0.0
 41
1.0
 50
0.0
 71
     0
 42
3.5
  3
txt
  4

  0
ENDTAB
  0
TABLE
  2
VIEW
 70
     0
  0
ENDTAB
  0
TABLE
  2
UCS
 70
     0
  0
ENDTAB
  0
TABLE
  2
APPID
 70
     1
  0
APPID
  2
ACAD
 70
     0
  0
ENDTAB
  0
TABLE
  2
DIMSTYLE
 70
     3
  0
DIMSTYLE
  2
ISO-25
 70
     0
  3

  4

  5

  6

  7

 40
1.0
 41
2.5
 42
0.625
 43
3.75
 44
1.25
 45
0.0
 46
0.0
 47
0.0
 48
0.0
140
2.5
141
2.5
142
0.0
143
0.0393700787
144
1.0
145
0.0
146
1.0
147
0.625
 71
     0
 72
     0
 73
     0
 74
     0
 75
     0
 76
     0
 77
     1
 78
     8
170
     0
171
     3
172
     1
173
     0
174
     0
175
     0
176
     0
177
     0
178
     0
  0
DIMSTYLE
  2
SLDDIMSTYLE0
 70
     0
  3

  4

  5

  6
CLOSED
  7
CLOSED
 40
1.0
 41
3.302
 42
0.0625
 43
0.38
 44
0.0
 45
0.000000001
 46
0.0
 47
0.0
 48
0.0
140
3.5
141
0.09
142
0.0
143
25.4
144
1.0
145
0.0
146
1.0
147
0.875
 71
     0
 72
     0
 73
     0
 74
     0
 75
     0
 76
     0
 77
     1
 78
    12
170
     0
171
     2
172
     0
173
     1
174
     0
175
     0
176
     0
177
     0
178
     0
  0
DIMSTYLE
  2
SLDDIMSTYLE1
 70
     0
  3

  4

  5

  6
CLOSED
  7
CLOSED
 40
1.0
 41
3.302
 42
0.0625
 43
0.38
 44
0.0
 45
0.000000001
 46
0.0
 47
0.0
 48
0.0
140
3.5
141
0.09
142
0.0
143
25.4
144
1.0
145
0.0
146
1.0
147
0.875
 71
     0
 72
     0
 73
     0
 74
     0
 75
     0
 76
     0
 77
     1
 78
    12
170
     0
171
     2
172
     0
173
     1
174
     0
175
     0
176
     0
177
     0
178
     0
  0
ENDTAB
  0
ENDSEC
  0
SECTION
  2
BLOCKS
  0
BLOCK
  8
0
  2
$MODEL_SPACE
 70
     0
 10
0.0
 20
0.0
 30
0.0
  3
$MODEL_SPACE
  1

  0
ENDBLK
  5
21
  8
0
  0
BLOCK
 67
     1
  8
0
  2
$PAPER_SPACE
 70
     0
 10
0.0
 20
0.0
 30
0.0
  3
$PAPER_SPACE
  1

  0
ENDBLK
  5
1D
 67
     1
  8
0
  0
BLOCK
  8
0
  2
_CLOSED
 70
     0
 10
0.0
 20
0.0
 30
0.0
  3
_CLOSED
  1

  0
LINE
  5
B6
  8
0
  6
BYBLOCK
 62
     0
 10
-1.0
 20
0.166667
 30
0.0
 11
0.0
 21
0.0
 31
0.0
  0
LINE
  5
B7
  8
0
  6
BYBLOCK
 62
     0
 10
0.0
 20
0.0
 30
0.0
 11
-1.0
 21
-0.166667
 31
0.0
  0
LINE
  5
B8
  8
0
  6
BYBLOCK
 62
     0
 10
-1.0
 20
0.166667
 30
0.0
 11
-1.0
 21
-0.166667
 31
0.0
  0
LINE
  5
B9
  8
0
  6
BYBLOCK
 62
     0
 10
0.0
 20
0.0
 30
0.0
 11
-1.0
 21
0.0
 31
0.0
  0
ENDBLK
  5
B5
  8
0
  0
BLOCK
  8
0
  2
_D
 70
     0
 10
0.0
 20
0.0
 30
0.0
  3
_D
  1

  0
ARC
  5
BD
  8
0
  6
CONTINUOUS
 62
     7
 10
154.3195953576
 20
149.3650796777
 30
0.0
 40
6.21085647642114
 50
153.4349488229
 51
206.5650511771
  0
ARC
  5
BE
  8
0
  6
CONTINUOUS
 62
     7
 10
151.5561088413
 20
149.3650796777
 30
0.0
 40
6.210856476421115
 50
333.4349488229
 51
26.5650511771
  0
INSERT
  5
BF
  8
0
  6
CONTINUOUS
 62
     7
  2
_CLOSED
 10
133.5926890531
 20
146.5875002217
 30
-0.2837362388
 41
3.302
 42
3.302
 50
180.0
  0
INSERT
  5
C0
  8
0
  6
CONTINUOUS
 62
     7
  2
_CLOSED
 10
173.5926890531
 20
146.5875002217
 30
-0.2837362388
 41
3.302
 42
3.302
 50
0.0
  0
LINE
  5
C1
  8
0
  6
CONTINUOUS
 62
     7
 10
133.5926890531
 20
162.6769262006
 30
0.0
 11
133.5926890531
 21
145.5875002217
 31
0.0
  0
LINE
  5
C2
  8
0
  6
CONTINUOUS
 62
     7
 10
173.5926890531
 20
162.6769262006
 30
0.0
 11
173.5926890531
 21
145.5875002217
 31
0.0
  0
LINE
  5
C3
  8
0
  6
CONTINUOUS
 62
     7
 10
133.5926890531
 20
146.5875002217
 30
0.0
 11
173.5926890531
 21
146.5875002217
 31
0.0
  0
TEXT
  5
C4
  8
0
  6
CONTINUOUS
 62
     7
 10
150.3519364457
 20
147.8239102638
 30
0.0
 40
3.5
  1
40
 41
0.7
 11
150.3519364457
 21
146.5875000471
 31
0.0
 73
     1
  0
ENDBLK
  5
BC
  8
0
  0
BLOCK
  8
0
  2
_D_1
 70
     0
 10
0.0
 20
0.0
 30
0.0
  3
_D_1
  1

  0
INSERT
  5
CA
  8
0
  6
CONTINUOUS
 62
     7
  2
_CLOSED
 10
113.5926890531
 20
276.1769262006
 30
-0.2837362388
 41
3.302
 42
3.302
 50
90.0
  0
INSERT
  5
CB
  8
0
  6
CONTINUOUS
 62
     7
  2
_CLOSED
 10
113.5926890531
 20
158.6769262006
 30
-0.2837362388
 41
3.302
 42
3.302
 50
270.0
  0
LINE
  5
CC
  8
0
  6
CONTINUOUS
 62
     7
 10
152.5926890531
 20
276.1769262006
 30
0.0
 11
112.5926890531
 21
276.1769262006
 31
0.0
  0
LINE
  5
CD
  8
0
  6
CONTINUOUS
 62
     7
 10
123.5926890531
 20
158.6769262006
 30
0.0
 11
112.5926890531
 21
158.6769262006
 31
0.0
  0
LINE
  5
CE
  8
0
  6
CONTINUOUS
 62
     7
 10
113.5926890531
 20
276.1769262006
 30
0.0
 11
113.5926890531
 21
158.6769262006
 31
0.0
  0
TEXT
  5
CF
  8
0
  6
CONTINUOUS
 62
     7
 10
112.356279011
 20
211.0346037969
 30
0.0
 40
3.5
  1
118
 50
90.0
 41
0.7
 11
113.5926892278
 21
211.0346037969
 31
0.0
 73
     1
  0
ENDBLK
  5
C9
  8
0
  0
BLOCK
  8
0
  2
SW_CENTERMARKSYMBOL_0
 70
     0
 10
0.0
 20
0.0
 30
0.0
  3
SW_CENTERMARKSYMBOL_0
  1

  0
LINE
  5
D3
  8
0
  6
CONTINUOUS
 62
     0
 10
0.0
 20
0.0
 30
0.0
 11
0.0
 21
2.5
 31
0.0
  0
LINE
  5
D4
  8
0
  6
CONTINUOUS
 62
     0
 10
0.0
 20
0.0
 30
0.0
 11
-2.5
 21
0.0
 31
0.0
  0
LINE
  5
D5
  8
0
  6
CONTINUOUS
 62
     0
 10
0.0
 20
0.0
 30
0.0
 11
0.0
 21
-2.5
 31
0.0
  0
LINE
  5
D6
  8
0
  6
CONTINUOUS
 62
     0
 10
0.0
 20
0.0
 30
0.0
 11
2.5
 21
0.0
 31
0.0
  0
LINE
  5
D7
  8
0
  6
CONTINUOUS
 62
     0
 10
0.0
 20
2.5
 30
0.0
 11
0.0
 21
5.0
 31
0.0
  0
LINE
  5
D8
  8
0
  6
CONTINUOUS
 62
     0
 10
-2.5
 20
0.0
 30
0.0
 11
-5.0
 21
0.0
 31
0.0
  0
LINE
  5
D9
  8
0
  6
CONTINUOUS
 62
     0
 10
0.0
 20
-2.5
 30
0.0
 11
0.0
 21
-5.0
 31
0.0
  0
LINE
  5
DA
  8
0
  6
CONTINUOUS
 62
     0
 10
2.5
 20
0.0
 30
0.0
 11
5.0
 21
0.0
 31
0.0
  0
ENDBLK
  5
D2
  8
0
  0
BLOCK
  8
0
  2
SW_CENTERMARKSYMBOL_1
 70
     0
 10
0.0
 20
0.0
 30
0.0
  3
SW_CENTERMARKSYMBOL_1
  1

  0
LINE
  5
DF
  8
0
  6
CONTINUOUS
 62
     0
 10
0.0
 20
0.0
 30
0.0
 11
0.0
 21
2.5
 31
0.0
  0
LINE
  5
E0
  8
0
  6
CONTINUOUS
 62
     0
 10
0.0
 20
0.0
 30
0.0
 11
-2.5
 21
0.0
 31
0.0
  0
LINE
  5
E1
  8
0
  6
CONTINUOUS
 62
     0
 10
0.0
 20
0.0
 30
0.0
 11
0.0
 21
-2.5
 31
0.0
  0
LINE
  5
E2
  8
0
  6
CONTINUOUS
 62
     0
 10
0.0
 20
0.0
 30
0.0
 11
2.5
 21
0.0
 31
0.0
  0
LINE
  5
E3
  8
0
  6
CONTINUOUS
 62
     0
 10
0.0
 20
2.5
 30
0.0
 11
0.0
 21
5.0
 31
0.0
  0
LINE
  5
E4
  8
0
  6
CONTINUOUS
 62
     0
 10
-2.5
 20
0.0
 30
0.0
 11
-5.0
 21
0.0
 31
0.0
  0
LINE
  5
E5
  8
0
  6
CONTINUOUS
 62
     0
 10
0.0
 20
-2.5
 30
0.0
 11
0.0
 21
-5.0
 31
0.0
  0
LINE
  5
E6
  8
0
  6
CONTINUOUS
 62
     0
 10
2.5
 20
0.0
 30
0.0
 11
5.0
 21
0.0
 31
0.0
  0
ENDBLK
  5
DE
  8
0
  0
BLOCK
  8
0
  2
_D_2
 70
     0
 10
0.0
 20
0.0
 30
0.0
  3
_D_2
  1

  0
ARC
  5
124
  8
0
  6
CONTINUOUS
 62
     7
 10
356.938850239
 20
224.8507789046
 30
0.0
 40
6.210856476421026
 50
243.4349488229
 51
296.5650511771
  0
ARC
  5
125
  8
0
  6
CONTINUOUS
 62
     7
 10
356.938850239
 20
222.0872923883
 30
0.0
 40
6.210856476420974
 50
63.4349488229
 51
116.5650511771
  0
INSERT
  5
126
  8
0
  6
CONTINUOUS
 62
     7
  2
_CLOSED
 10
359.716429695
 20
272.6769262006
 30
0.0
 41
3.302
 42
3.302
 50
90.0
  0
INSERT
  5
127
  8
0
  6
CONTINUOUS
 62
     7
  2
_CLOSED
 10
359.716429695
 20
180.6769262006
 30
0.0
 41
3.302
 42
3.302
 50
270.0
  0
LINE
  5
128
  8
0
  6
CONTINUOUS
 62
     7
 10
315.716429695
 20
272.6769262006
 30
0.0
 11
360.716429695
 21
272.6769262006
 31
0.0
  0
LINE
  5
129
  8
0
  6
CONTINUOUS
 62
     7
 10
330.716429695
 20
180.6769262006
 30
0.0
 11
360.716429695
 21
180.6769262006
 31
0.0
  0
LINE
  5
12A
  8
0
  6
CONTINUOUS
 62
     7
 10
359.716429695
 20
272.6769262006
 30
0.0
 11
359.716429695
 21
180.6769262006
 31
0.0
  0
TEXT
  5
12B
  8
0
  6
CONTINUOUS
 62
     7
 10
358.4800196529
 20
220.8831199927
 30
0.0
 40
3.5
  1
92
 50
90.0
 41
0.7
 11
359.7164298696
 21
220.8831199927
 31
0.0
 73
     1
  0
ENDBLK
  5
123
  8
0
  0
BLOCK
  8
0
  2
_D_3
 70
     0
 10
0.0
 20
0.0
 30
0.0
  3
_D_3
  1

  0
INSERT
  5
130
  8
0
  6
CONTINUOUS
 62
     7
  2
_CLOSED
 10
284.716429695
 20
283.9662928033
 30
0.0
 41
3.302
 42
3.302
 50
180.0
  0
INSERT
  5
131
  8
0
  6
CONTINUOUS
 62
     7
  2
_CLOSED
 10
314.716429695
 20
283.9662928033
 30
0.0
 41
3.302
 42
3.302
 50
0.0
  0
LINE
  5
132
  8
0
  6
CONTINUOUS
 62
     7
 10
284.716429695
 20
273.6769262006
 30
0.0
 11
284.716429695
 21
284.9662928033
 31
0.0
  0
LINE
  5
133
  8
0
  6
CONTINUOUS
 62
     7
 10
314.716429695
 20
273.6769262006
 30
0.0
 11
314.716429695
 21
284.9662928033
 31
0.0
  0
LINE
  5
134
  8
0
  6
CONTINUOUS
 62
     7
 10
284.716429695
 20
283.9662928033
 30
0.0
 11
314.716429695
 21
283.9662928033
 31
0.0
  0
TEXT
  5
135
  8
0
  6
CONTINUOUS
 62
     7
 10
293.7548567601
 20
285.20270302
 30
0.0
 40
3.5
  1
%%c
 41
0.7
 11
293.7548567601
 21
283.9662928033
 31
0.0
 73
     1
  0
TEXT
  5
136
  8
0
  6
CONTINUOUS
 62
     7
 10
299.0317940237
 20
285.2027028454
 30
0.0
 40
3.5
  1
30
 41
0.7
 11
299.0317940237
 21
283.9662926287
 31
0.0
 73
     1
  0
ENDBLK
  5
12F
  8
0
  0
BLOCK
  8
0
  2
_D_4
 70
     0
 10
0.0
 20
0.0
 30
0.0
  3
_D_4
  1

  0
INSERT
  5
158
  8
0
  6
CONTINUOUS
 62
     7
  2
_CLOSED
 10
123.5926890531
 20
136.341991935
 30
-85.7439564181
 41
3.302
 42
3.302
 50
180.0
  0
INSERT
  5
159
  8
0
  6
CONTINUOUS
 62
     7
  2
_CLOSED
 10
183.5926890531
 20
136.341991935
 30
-85.7439564181
 41
3.302
 42
3.302
 50
0.0
  0
LINE
  5
15A
  8
0
  6
CONTINUOUS
 62
     7
 10
123.5926890531
 20
117.7012161211
 30
0.0
 11
123.5926890531
 21
137.341991935
 31
0.0
  0
LINE
  5
15B
  8
0
  6
CONTINUOUS
 62
     7
 10
183.5926890531
 20
117.7012161211
 30
0.0
 11
183.5926890531
 21
137.341991935
 31
0.0
  0
LINE
  5
15C
  8
0
  6
CONTINUOUS
 62
     7
 10
123.5926890531
 20
136.341991935
 30
0.0
 11
183.5926890531
 21
136.341991935
 31
0.0
  0
TEXT
  5
15D
  8
0
  6
CONTINUOUS
 62
     7
 10
151.2699793426
 20
137.5784019771
 30
0.0
 40
3.5
  1
60
 50
0.0
 41
0.7
 11
151.2699793426
 21
136.3419917604
 31
0.0
 73
     1
  0
ENDBLK
  5
157
  8
0
  0
BLOCK
  8
0
  2
_D_5
 70
     0
 10
0.0
 20
0.0
 30
0.0
  3
_D_5
  1

  0
INSERT
  5
162
  8
0
  6
CONTINUOUS
 62
     7
  2
_CLOSED
 10
203.5926890531
 20
116.7012161211
 30
-85.7439564181
 41
3.302
 42
3.302
 50
90.0
  0
INSERT
  5
163
  8
0
  6
CONTINUOUS
 62
     7
  2
_CLOSED
 10
203.5926890531
 20
16.7012161211
 30
-85.7439564181
 41
3.302
 42
3.302
 50
270.0
  0
LINE
  5
164
  8
0
  6
CONTINUOUS
 62
     7
 10
184.5926890531
 20
116.7012161211
 30
0.0
 11
204.5926890531
 21
116.7012161211
 31
0.0
  0
LINE
  5
165
  8
0
  6
CONTINUOUS
 62
     7
 10
154.5926890531
 20
16.7012161211
 30
0.0
 11
204.5926890531
 21
16.7012161211
 31
0.0
  0
LINE
  5
166
  8
0
  6
CONTINUOUS
 62
     7
 10
203.5926890531
 20
116.7012161211
 30
0.0
 11
203.5926890531
 21
16.7012161211
 31
0.0
  0
TEXT
  5
167
  8
0
  6
CONTINUOUS
 62
     7
 10
202.356279011
 20
64.3085230924
 30
0.0
 40
3.5
  1
100
 50
90.0
 41
0.7
 11
203.5926892278
 21
64.3085230924
 31
0.0
 73
     1
  0
ENDBLK
  5
161
  8
0
  0
ENDSEC
  0
SECTION
  2
ENTITIES
  0
LINE
  5
77
  8
0
  6
CONTINUOUS
 62
     7
 10
157.5926890531
 20
179.1322320746
 30
0.0
 11
157.5926890531
 21
180.6769262006
 31
0.0
  0
LINE
  5
78
  8
0
  6
CONTINUOUS
 62
     7
 10
149.5926890531
 20
180.6769262006
 30
0.0
 11
149.5926890531
 21
179.1322320746
 31
0.0
  0
ARC
  5
79
  8
0
  6
CONTINUOUS
 62
     7
 10
157.2326890531
 20
179.1322320746
 30
0.0
 40
0.3600000000000101
 50
306.3583676093
 51
0.0
  0
ARC
  5
7A
  8
0
  6
CONTINUOUS
 62
     7
 10
149.9526890531
 20
179.1322320746
 30
0.0
 40
0.3600000000000269
 50
180.0
 51
233.6416323907
  0
ARC
  5
7B
  8
0
  6
CONTINUOUS
 62
     7
 10
153.5926890531
 20
184.0769262006
 30
0.0
 40
6.500000000000015
 50
279.5533029667
 51
306.3583676093
  0
ARC
  5
7C
  8
0
  6
CONTINUOUS
 62
     7
 10
153.5926890531
 20
184.0769262006
 30
0.0
 40
6.500000000000015
 50
233.6416323907
 51
260.4466970333
  0
ARC
  5
7D
  8
0
  6
CONTINUOUS
 62
     7
 10
168.0926890531
 20
273.793241003
 30
0.0
 40
0.5000000000000095
 50
0.0
 51
75.1963938845
  0
ARC
  5
7E
  8
0
  6
CONTINUOUS
 62
     7
 10
139.0926890531
 20
273.793241003
 30
0.0
 40
0.5000000000000168
 50
104.8036061155
 51
180.0
  0
LINE
  5
7F
  8
0
  6
CONTINUOUS
 62
     7
 10
138.5926890531
 20
273.793241003
 30
0.0
 11
138.5926890531
 21
272.6769262006
 31
0.0
  0
LINE
  5
80
  8
0
  6
CONTINUOUS
 62
     7
 10
168.5926890531
 20
272.6769262006
 30
0.0
 11
168.5926890531
 21
273.793241003
 31
0.0
  0
ARC
  5
81
  8
0
  6
CONTINUOUS
 62
     7
 10
153.5926890531
 20
218.9269262006
 30
0.0
 40
57.25000000000004
 50
75.1963938845
 51
104.8036061155
  0
LINE
  5
82
  8
0
  6
CONTINUOUS
 62
     7
 10
168.5926890531
 20
182.6769262006
 30
0.0
 11
168.5926890531
 21
272.6769262006
 31
0.0
  0
LINE
  5
83
  8
0
  6
CONTINUOUS
 62
     7
 10
138.5926890531
 20
272.6769262006
 30
0.0
 11
138.5926890531
 21
182.6769262006
 31
0.0
  0
ARC
  5
84
  8
0
  6
CONTINUOUS
 62
     7
 10
153.3392772314
 20
182.6608270648
 30
0.0
 40
5.06398772234173
 50
278.7470000458
 51
282.7901291591
  0
LINE
  5
85
  8
0
  6
CONTINUOUS
 62
     7
 10
154.6010821494
 20
177.6557361826
 30
0.0
 11
154.4595013457
 21
177.6557361826
 31
0.0
  0
ARC
  5
86
  8
0
  6
CONTINUOUS
 62
     7
 10
153.9359949257
 20
179.4469672981
 30
0.0
 40
1.866163948020303
 50
286.291565738
 51
304.4861208119
  0
ARC
  5
87
  8
0
  6
CONTINUOUS
 62
     7
 10
154.540104284
 20
183.4344134061
 30
0.0
 40
5.54415554528387
 50
265.3181966372
 51
274.6818033628
  0
ARC
  5
88
  8
0
  6
CONTINUOUS
 62
     7
 10
153.0309450063
 20
179.4469672981
 30
0.0
 40
1.866163948020231
 50
286.291565738
 51
304.4861208119
  0
LINE
  5
89
  8
0
  6
CONTINUOUS
 62
     7
 10
153.5544514262
 20
177.6557361826
 30
0.0
 11
153.0760119758
 21
177.6557361826
 31
0.0
  0
ARC
  5
8A
  8
0
  6
CONTINUOUS
 62
     7
 10
153.856062622
 20
182.7102652626
 30
0.0
 40
5.114366356810883
 50
249.8555984595
 51
261.2269225046
  0
ARC
  5
8B
  8
0
  6
CONTINUOUS
 62
     7
 10
151.84888156
 20
179.5330255991
 30
0.0
 40
1.642770699113724
 50
261.3927430254
 51
278.6072569746
  0
ARC
  5
8C
  8
0
  6
CONTINUOUS
 62
     7
 10
153.364346603
 20
182.7102652626
 30
0.0
 40
5.114366356810877
 50
249.8555984595
 51
261.2269225046
  0
LINE
  5
8D
  8
0
  6
CONTINUOUS
 62
     7
 10
152.5842959569
 20
177.6557361826
 30
0.0
 11
152.7258767606
 21
177.6557361826
 31
0.0
  0
LINE
  5
8E
  8
0
  6
CONTINUOUS
 62
     7
 10
153.5926890531
 20
177.6670706125
 30
0.0
 11
153.6309266801
 21
177.6557361826
 31
0.0
  0
LINE
  5
8F
  8
0
  6
CONTINUOUS
 62
     7
 10
153.6309266801
 20
177.6557361826
 30
0.0
 11
154.1093661305
 21
177.6557361826
 31
0.0
  0
LINE
  5
90
  8
0
  6
CONTINUOUS
 62
     7
 10
154.4496479909
 20
177.9087567147
 30
0.0
 11
154.4595013457
 21
177.6557361826
 31
0.0
  0
LINE
  5
91
  8
0
  6
CONTINUOUS
 62
     7
 10
152.5842959569
 20
177.6557361826
 30
0.0
 11
152.5932190134
 21
177.7802240735
 31
0.0
  0
LINE
  5
92
  8
0
  6
CONTINUOUS
 62
     7
 10
154.0912300974
 20
177.9087567147
 30
0.0
 11
154.1093661305
 21
177.6557361826
 31
0.0
  0
LINE
  5
93
  8
0
  6
CONTINUOUS
 62
     7
 10
138.5926890531
 20
272.6769262006
 30
0.0
 11
168.5926890531
 21
272.6769262006
 31
0.0
  0
LINE
  5
94
  8
0
  6
CONTINUOUS
 62
     7
 10
138.5926890531
 20
182.6769262006
 30
0.0
 11
138.5926890531
 21
180.6769262006
 31
0.0
  0
LINE
  5
95
  8
0
  6
CONTINUOUS
 62
     7
 10
138.5926890531
 20
182.6769262006
 30
0.0
 11
168.5926890531
 21
182.6769262006
 31
0.0
  0
LINE
  5
96
  8
0
  6
CONTINUOUS
 62
     7
 10
168.5926890531
 20
182.6769262006
 30
0.0
 11
168.5926890531
 21
180.6769262006
 31
0.0
  0
LINE
  5
97
  8
0
  6
CONTINUOUS
 62
     7
 10
138.5926890531
 20
180.6769262006
 30
0.0
 11
168.5926890531
 21
180.6769262006
 31
0.0
  0
ARC
  5
98
  8
0
  6
CONTINUOUS
 62
     7
 10
169.5926890531
 20
179.6769262006
 30
0.0
 40
1.000000000000028
 50
180.0
 51
270.0
  0
ARC
  5
99
  8
0
  6
CONTINUOUS
 62
     7
 10
137.5926890531
 20
179.6769262006
 30
0.0
 40
1.000000000000114
 50
270.0
 51
360.0
  0
LINE
  5
9A
  8
0
  6
CONTINUOUS
 62
     7
 10
138.5926890531
 20
179.6769262006
 30
0.0
 11
138.5926890531
 21
180.6769262006
 31
0.0
  0
LINE
  5
9B
  8
0
  6
CONTINUOUS
 62
     7
 10
168.5926890531
 20
180.6769262006
 30
0.0
 11
168.5926890531
 21
179.6769262006
 31
0.0
  0
ARC
  5
9C
  8
0
  6
CONTINUOUS
 62
     7
 10
182.5926890531
 20
177.6769262006
 30
0.0
 40
1.0
 50
0.0
 51
90.0
  0
LINE
  5
9D
  8
0
  6
CONTINUOUS
 62
     7
 10
183.5926890531
 20
159.6769262006
 30
0.0
 11
183.5926890531
 21
177.6769262006
 31
0.0
  0
ARC
  5
9E
  8
0
  6
CONTINUOUS
 62
     7
 10
182.5926890531
 20
159.6769262006
 30
0.0
 40
1.0
 50
270.0
 51
0.0
  0
LINE
  5
9F
  8
0
  6
CONTINUOUS
 62
     7
 10
182.5926890531
 20
158.6769262006
 30
0.0
 11
124.5926890531
 21
158.6769262006
 31
0.0
  0
ARC
  5
A0
  8
0
  6
CONTINUOUS
 62
     7
 10
124.5926890531
 20
159.6769262006
 30
0.0
 40
1.0
 50
180.0
 51
270.0
  0
LINE
  5
A1
  8
0
  6
CONTINUOUS
 62
     7
 10
123.5926890531
 20
159.6769262006
 30
0.0
 11
123.5926890531
 21
177.6769262006
 31
0.0
  0
ARC
  5
A2
  8
0
  6
CONTINUOUS
 62
     7
 10
124.5926890531
 20
177.6769262006
 30
0.0
 40
1.0
 50
90.0
 51
180.0
  0
LINE
  5
A3
  8
0
  6
CONTINUOUS
 62
     7
 10
137.5926890531
 20
178.6769262006
 30
0.0
 11
124.5926890531
 21
178.6769262006
 31
0.0
  0
CIRCLE
  5
A4
  8
0
  6
CONTINUOUS
 62
     7
 10
173.5926890531
 20
168.6769262006
 30
0.0
 40
2.5
  0
CIRCLE
  5
A5
  8
0
  6
CONTINUOUS
 62
     7
 10
133.5926890531
 20
168.6769262006
 30
0.0
 40
2.5
  0
LINE
  5
A6
  8
0
  6
CONTINUOUS
 62
     7
 10
182.5926890531
 20
178.6769262006
 30
0.0
 11
169.5926890531
 21
178.6769262006
 31
0.0
  0
LINE
  5
A7
  8
0
  6
CONTINUOUS
 62
     8
 10
155.5022658258
 20
179.1322320746
 30
0.0
 11
149.5926890531
 21
179.1322320746
 31
0.0
  0
LINE
  5
A8
  8
0
  6
CONTINUOUS
 62
     8
 10
157.5926890531
 20
179.1322320746
 30
0.0
 11
155.5022658258
 21
179.1322320746
 31
0.0
  0
LINE
  5
A9
  8
0
  6
CONTINUOUS
 62
     8
 10
155.4322894782
 20
178.8423151551
 30
0.0
 11
149.7392688577
 21
178.8423151551
 31
0.0
  0
LINE
  5
AA
  8
0
  6
CONTINUOUS
 62
     8
 10
157.4461092486
 20
178.8423151551
 30
0.0
 11
155.4322894782
 21
178.8423151551
 31
0.0
  0
LINE
  5
AB
  8
0
  6
CONTINUOUS
 62
     8
 10
167.8968717812
 20
274.2766446577
 30
0.0
 11
168.2204423571
 21
274.2766446577
 31
0.0
  0
LINE
  5
AC
  8
0
  6
CONTINUOUS
 62
     8
 10
138.9649357492
 20
274.2766446577
 30
0.0
 11
167.8968717812
 21
274.2766446577
 31
0.0
  0
LINE
  5
AD
  8
0
  6
CONTINUOUS
 62
     8
 10
168.2608842614
 20
273.793241003
 30
0.0
 11
138.5926890531
 21
273.793241003
 31
0.0
  0
LINE
  5
AE
  8
0
  6
CONTINUOUS
 62
     8
 10
168.5926890531
 20
273.793241003
 30
0.0
 11
168.2608842614
 21
273.793241003
 31
0.0
  0
LINE
  5
AF
  8
0
  6
CONTINUOUS
 62
     8
 10
169.5926890531
 20
178.6769262006
 30
0.0
 11
157.2106995562
 21
178.6769262006
 31
0.0
  0
LINE
  5
B0
  8
0
  6
CONTINUOUS
 62
     8
 10
149.9746785501
 20
178.6769262006
 30
0.0
 11
137.5926890531
 21
178.6769262006
 31
0.0
  0
DIMENSION
  5
B1
  8
0
  6
CONTINUOUS
 62
     7
  2
_D
 10
173.5926890531
 20
146.5875002217
 30
0.0
 11
152.9378520995
 21
146.5875002217
 31
0.0
 70
   160
  1
(<>)
  3
SLDDIMSTYLE0
 13
133.5926890531
 23
163.6769262006
 33
0.0
 14
173.5926890531
 24
163.6769262006
 34
0.0
  0
DIMENSION
  5
C5
  8
0
  6
CONTINUOUS
 62
     7
  2
_D_1
 10
113.5926890531
 20
158.6769262006
 30
0.0
 11
113.5926890531
 21
214.9127044396
 31
0.0
 70
   160
  1
<>
  3
SLDDIMSTYLE1
 13
153.5926890531
 23
276.1769262006
 33
0.0
 14
124.5926890531
 24
158.6769262006
 34
0.0
 50
90.0
  0
INSERT
  5
DB
  8
0
  6
CONTINUOUS
 62
     7
  2
SW_CENTERMARKSYMBOL_0
 10
133.5926890531
 20
168.6769262006
 30
0.0
  0
INSERT
  5
E7
  8
0
  6
CONTINUOUS
 62
     7
  2
SW_CENTERMARKSYMBOL_1
 10
173.5926890531
 20
168.6769262006
 30
0.0
  0
ARC
  5
E8
  8
0
  6
CONTINUOUS
 62
     7
 10
303.356429695
 20
179.1322320746
 30
0.0
 40
0.3600000000000136
 50
306.3583676093
 51
0.0
  0
ARC
  5
E9
  8
0
  6
CONTINUOUS
 62
     7
 10
296.076429695
 20
179.1322320746
 30
0.0
 40
0.3599999999999933
 50
180.0
 51
233.6416323907
  0
LINE
  5
EA
  8
0
  6
CONTINUOUS
 62
     7
 10
303.716429695
 20
179.1322320746
 30
0.0
 11
303.716429695
 21
180.6769262006
 31
0.0
  0
LINE
  5
EB
  8
0
  6
CONTINUOUS
 62
     7
 10
295.716429695
 20
180.6769262006
 30
0.0
 11
295.716429695
 21
179.1322320746
 31
0.0
  0
ARC
  5
EC
  8
0
  6
CONTINUOUS
 62
     7
 10
299.716429695
 20
184.0769262006
 30
0.0
 40
6.500000000000001
 50
279.5533029667
 51
306.3583676093
  0
ARC
  5
ED
  8
0
  6
CONTINUOUS
 62
     7
 10
299.716429695
 20
184.0769262006
 30
0.0
 40
6.500000000000015
 50
233.6416323907
 51
260.4466970333
  0
LINE
  5
EE
  8
0
  6
CONTINUOUS
 62
     7
 10
284.716429695
 20
273.793241003
 30
0.0
 11
284.716429695
 21
272.6769262006
 31
0.0
  0
LINE
  5
EF
  8
0
  6
CONTINUOUS
 62
     7
 10
314.716429695
 20
272.6769262006
 30
0.0
 11
314.716429695
 21
273.793241003
 31
0.0
  0
ARC
  5
F0
  8
0
  6
CONTINUOUS
 62
     7
 10
314.216429695
 20
273.793241003
 30
0.0
 40
0.5000000000000095
 50
0.0
 51
75.1963938845
  0
ARC
  5
F1
  8
0
  6
CONTINUOUS
 62
     7
 10
285.216429695
 20
273.793241003
 30
0.0
 40
0.5000000000000095
 50
104.8036061155
 51
180.0
  0
ARC
  5
F2
  8
0
  6
CONTINUOUS
 62
     7
 10
299.716429695
 20
218.9269262006
 30
0.0
 40
57.25000000000004
 50
75.1963938845
 51
104.8036061155
  0
LINE
  5
F3
  8
0
  6
CONTINUOUS
 62
     7
 10
314.716429695
 20
182.6769262006
 30
0.0
 11
314.716429695
 21
272.6769262006
 31
0.0
  0
LINE
  5
F4
  8
0
  6
CONTINUOUS
 62
     7
 10
284.716429695
 20
272.6769262006
 30
0.0
 11
284.716429695
 21
182.6769262006
 31
0.0
  0
LINE
  5
F5
  8
0
  6
CONTINUOUS
 62
     7
 10
329.716429695
 20
180.6769262006
 30
0.0
 11
329.716429695
 21
182.6769262006
 31
0.0
  0
LINE
  5
F6
  8
0
  6
CONTINUOUS
 62
     7
 10
299.716429695
 20
177.6670706125
 30
0.0
 11
299.7546673219
 21
177.6557361826
 31
0.0
  0
LINE
  5
F7
  8
0
  6
CONTINUOUS
 62
     7
 10
299.7546673219
 20
177.6557361826
 30
0.0
 11
300.2331067723
 21
177.6557361826
 31
0.0
  0
ARC
  5
F8
  8
0
  6
CONTINUOUS
 62
     7
 10
299.4630178733
 20
182.6608270648
 30
0.0
 40
5.06398772229476
 50
278.7470000457
 51
282.7901291591
  0
LINE
  5
F9
  8
0
  6
CONTINUOUS
 62
     7
 10
300.7248227913
 20
177.6557361826
 30
0.0
 11
300.5832419875
 21
177.6557361826
 31
0.0
  0
ARC
  5
FA
  8
0
  6
CONTINUOUS
 62
     7
 10
300.0597355676
 20
179.4469672981
 30
0.0
 40
1.866163948021073
 50
286.291565738
 51
304.4861208119
  0
ARC
  5
FB
  8
0
  6
CONTINUOUS
 62
     7
 10
300.6638449258
 20
183.4344134061
 30
0.0
 40
5.544155545284501
 50
265.3181966372
 51
274.6818033628
  0
ARC
  5
FC
  8
0
  6
CONTINUOUS
 62
     7
 10
299.1546856481
 20
179.4469672981
 30
0.0
 40
1.86616394801935
 50
286.291565738
 51
304.4861208119
  0
LINE
  5
FD
  8
0
  6
CONTINUOUS
 62
     7
 10
299.6781920681
 20
177.6557361826
 30
0.0
 11
299.1997526177
 21
177.6557361826
 31
0.0
  0
ARC
  5
FE
  8
0
  6
CONTINUOUS
 62
     7
 10
299.9798032638
 20
182.7102652626
 30
0.0
 40
5.114366356813496
 50
249.8555984595
 51
261.2269225046
  0
ARC
  5
FF
  8
0
  6
CONTINUOUS
 62
     7
 10
297.9726222018
 20
179.5330255991
 30
0.0
 40
1.642770699113438
 50
261.3927430254
 51
278.6072569746
  0
ARC
  5
100
  8
0
  6
CONTINUOUS
 62
     7
 10
299.4880872449
 20
182.7102652626
 30
0.0
 40
5.114366356807264
 50
249.8555984595
 51
261.2269225046
  0
LINE
  5
101
  8
0
  6
CONTINUOUS
 62
     7
 10
298.7080365987
 20
177.6557361826
 30
0.0
 11
298.8496174025
 21
177.6557361826
 31
0.0
  0
LINE
  5
102
  8
0
  6
CONTINUOUS
 62
     7
 10
300.5733886327
 20
177.9087567147
 30
0.0
 11
300.5832419875
 21
177.6557361826
 31
0.0
  0
LINE
  5
103
  8
0
  6
CONTINUOUS
 62
     7
 10
298.7080365987
 20
177.6557361826
 30
0.0
 11
298.7169596552
 21
177.7802240735
 31
0.0
  0
LINE
  5
104
  8
0
  6
CONTINUOUS
 62
     7
 10
300.2149707392
 20
177.9087567147
 30
0.0
 11
300.2331067723
 21
177.6557361826
 31
0.0
  0
LINE
  5
105
  8
0
  6
CONTINUOUS
 62
     7
 10
296.578906893
 20
272.6769262006
 30
0.0
 11
314.716429695
 21
272.6769262006
 31
0.0
  0
LINE
  5
106
  8
0
  6
CONTINUOUS
 62
     7
 10
284.716429695
 20
272.6769262006
 30
0.0
 11
296.578906893
 21
272.6769262006
 31
0.0
  0
LINE
  5
107
  8
0
  6
CONTINUOUS
 62
     7
 10
284.716429695
 20
272.6769262006
 30
0.0
 11
314.716429695
 21
272.6769262006
 31
0.0
  0
LINE
  5
108
  8
0
  6
CONTINUOUS
 62
     7
 10
229.716429695
 20
159.6769262006
 30
0.0
 11
231.716429695
 21
159.6769262006
 31
0.0
  0
LINE
  5
109
  8
0
  6
CONTINUOUS
 62
     7
 10
229.716429695
 20
159.6769262006
 30
0.0
 11
229.716429695
 21
177.6769262006
 31
0.0
  0
LINE
  5
10A
  8
0
  6
CONTINUOUS
 62
     7
 10
231.716429695
 20
177.6769262006
 30
0.0
 11
229.716429695
 21
177.6769262006
 31
0.0
  0
LINE
  5
10B
  8
0
  6
CONTINUOUS
 62
     7
 10
231.716429695
 20
159.6769262006
 30
0.0
 11
231.716429695
 21
177.6769262006
 31
0.0
  0
LINE
  5
10C
  8
0
  6
CONTINUOUS
 62
     7
 10
231.716429695
 20
158.6769262006
 30
0.0
 11
229.716429695
 21
158.6769262006
 31
0.0
  0
LINE
  5
10D
  8
0
  6
CONTINUOUS
 62
     7
 10
229.716429695
 20
158.6769262006
 30
0.0
 11
229.716429695
 21
159.6769262006
 31
0.0
  0
LINE
  5
10E
  8
0
  6
CONTINUOUS
 62
     7
 10
231.716429695
 20
159.6769262006
 30
0.0
 11
231.716429695
 21
158.6769262006
 31
0.0
  0
LINE
  5
10F
  8
0
  6
CONTINUOUS
 62
     7
 10
229.716429695
 20
177.6769262006
 30
0.0
 11
229.716429695
 21
178.6769262006
 31
0.0
  0
LINE
  5
110
  8
0
  6
CONTINUOUS
 62
     7
 10
229.716429695
 20
178.6769262006
 30
0.0
 11
231.716429695
 21
178.6769262006
 31
0.0
  0
LINE
  5
111
  8
0
  6
CONTINUOUS
 62
     7
 10
231.716429695
 20
178.6769262006
 30
0.0
 11
231.716429695
 21
177.6769262006
 31
0.0
  0
ARC
  5
112
  8
0
  6
CONTINUOUS
 62
     7
 10
233.716429695
 20
178.6769262006
 30
0.0
 40
3.999999999999011
 50
165.5224878141
 51
180.0
  0
LINE
  5
113
  8
0
  6
CONTINUOUS
 62
     7
 10
229.8434463488
 20
179.6769262006
 30
0.0
 11
231.9843788874
 21
179.6769262006
 31
0.0
  0
ARC
  5
114
  8
0
  6
CONTINUOUS
 62
     7
 10
233.716429695
 20
178.6769262006
 30
0.0
 40
2.000000000000853
 50
150.0
 51
180.0
  0
LINE
  5
115
  8
0
  6
CONTINUOUS
 62
     7
 10
233.716429695
 20
182.6769262006
 30
0.0
 11
314.716429695
 21
182.6769262006
 31
0.0
  0
LINE
  5
116
  8
0
  6
CONTINUOUS
 62
     7
 10
314.716429695
 20
182.6769262006
 30
0.0
 11
314.716429695
 21
180.6769262006
 31
0.0
  0
LINE
  5
117
  8
0
  6
CONTINUOUS
 62
     7
 10
233.716429695
 20
180.6769262006
 30
0.0
 11
314.716429695
 21
180.6769262006
 31
0.0
  0
ARC
  5
118
  8
0
  6
CONTINUOUS
 62
     7
 10
233.716429695
 20
178.6769262006
 30
0.0
 40
4.000000000000028
 50
90.0
 51
165.5224878141
  0
ARC
  5
119
  8
0
  6
CONTINUOUS
 62
     7
 10
233.716429695
 20
178.6769262006
 30
0.0
 40
2.000000000000016
 50
90.0
 51
150.0
  0
LINE
  5
11A
  8
0
  6
CONTINUOUS
 62
     7
 10
314.716429695
 20
180.6769262006
 30
0.0
 11
329.716429695
 21
180.6769262006
 31
0.0
  0
LINE
  5
11B
  8
0
  6
CONTINUOUS
 62
     7
 10
314.716429695
 20
182.6769262006
 30
0.0
 11
329.716429695
 21
182.6769262006
 31
0.0
  0
LINE
  5
11C
  8
0
  6
CONTINUOUS
 62
     8
 10
303.5698498904
 20
178.8423151551
 30
0.0
 11
295.8630094996
 21
178.8423151551
 31
0.0
  0
LINE
  5
11D
  8
0
  6
CONTINUOUS
 62
     8
 10
303.716429695
 20
179.1322320746
 30
0.0
 11
295.716429695
 21
179.1322320746
 31
0.0
  0
LINE
  5
11E
  8
0
  6
CONTINUOUS
 62
     8
 10
314.716429695
 20
273.793241003
 30
0.0
 11
284.716429695
 21
273.793241003
 31
0.0
  0
LINE
  5
11F
  8
0
  6
CONTINUOUS
 62
     8
 10
285.088676391
 20
274.2766446577
 30
0.0
 11
314.344182999
 21
274.2766446577
 31
0.0
  0
DIMENSION
  5
120
  8
0
  6
CONTINUOUS
 62
     7
  2
_D_2
 10
359.716429695
 20
180.6769262006
 30
0.0
 11
359.716429695
 21
223.4690356465
 31
0.0
 70
   160
  1
(<>)
  3
SLDDIMSTYLE1
 13
314.716429695
 23
272.6769262006
 33
0.0
 14
329.716429695
 24
180.6769262006
 34
0.0
 50
90.0
  0
DIMENSION
  5
12C
  8
0
  6
CONTINUOUS
 62
     7
  2
_D_3
 10
314.716429695
 20
283.9662928033
 30
0.0
 11
298.9792410456
 21
283.9662928033
 31
0.0
 70
   160
  1
%%c<>
  3
SLDDIMSTYLE0
 13
284.716429695
 23
272.6769262006
 33
0.0
 14
314.716429695
 24
272.6769262006
 34
0.0
  0
CIRCLE
  5
137
  8
0
  6
CONTINUOUS
 62
     7
 10
153.5926890531
 20
46.7012161211
 30
0.0
 40
14.62775330396475
  0
CIRCLE
  5
138
  8
0
  6
CONTINUOUS
 62
     7
 10
153.5926890531
 20
46.7012161211
 30
0.0
 40
15.0
  0
ARC
  5
139
  8
0
  6
CONTINUOUS
 62
     7
 10
153.5926890531
 20
46.7012161211
 30
0.0
 40
15.00000000000001
 50
0.0
 51
257.9263896701
  0
ARC
  5
13A
  8
0
  6
CONTINUOUS
 62
     7
 10
153.5926890531
 20
46.7012161211
 30
0.0
 40
15.0
 50
347.9263896701
 51
0.0
  0
LINE
  5
13B
  8
0
  6
CONTINUOUS
 62
     7
 10
168.5926890531
 20
112.7012161211
 30
0.0
 11
138.5926890531
 21
112.7012161211
 31
0.0
  0
LINE
  5
13C
  8
0
  6
CONTINUOUS
 62
     7
 10
138.5926890531
 20
112.7012161211
 30
0.0
 11
138.5926890531
 21
116.5741994673
 31
0.0
  0
ARC
  5
13D
  8
0
  6
CONTINUOUS
 62
     7
 10
137.9167917304
 20
115.2528711017
 30
0.0
 40
1.484165031480204
 50
62.9089546142
 51
102.6135331999
  0
LINE
  5
13E
  8
0
  6
CONTINUOUS
 62
     7
 10
137.5926890531
 20
116.7012161211
 30
0.0
 11
169.5926890531
 21
116.7012161211
 31
0.0
  0
ARC
  5
13F
  8
0
  6
CONTINUOUS
 62
     7
 10
169.2985001272
 20
115.0173606355
 30
0.0
 40
1.709361407271156
 50
80.0897936556
 51
114.3877185303
  0
LINE
  5
140
  8
0
  6
CONTINUOUS
 62
     7
 10
168.5926890531
 20
116.5741994673
 30
0.0
 11
168.5926890531
 21
112.7012161211
 31
0.0
  0
ARC
  5
141
  8
0
  6
CONTINUOUS
 62
     7
 10
153.5926890531
 20
31.7012161211
 30
0.0
 40
15.0
 50
180.0
 51
0.0
  0
LINE
  5
142
  8
0
  6
CONTINUOUS
 62
     7
 10
138.5926890531
 20
112.7012161211
 30
0.0
 11
138.5926890531
 21
31.7012161211
 31
0.0
  0
LINE
  5
143
  8
0
  6
CONTINUOUS
 62
     7
 10
168.5926890531
 20
31.7012161211
 30
0.0
 11
168.5926890531
 21
112.7012161211
 31
0.0
  0
POLYLINE
  5
144
  8
0
  6
CONTINUOUS
 62
     7
 66
     1
 10
0.0
 20
0.0
 30
0.0
 70
   128
  0
VERTEX
  5
168
  8
0
  6
CONTINUOUS
 62
     7
 10
169.5926890531
 20
114.7012161211
 30
0.0
  0
VERTEX
  5
169
  8
0
  6
CONTINUOUS
 62
     7
 10
169.4275450233
 20
114.7011689886
 30
0.0
  0
VERTEX
  5
16A
  8
0
  6
CONTINUOUS
 62
     7
 10
169.2624009935
 20
114.7004286076
 30
0.0
  0
VERTEX
  5
16B
  8
0
  6
CONTINUOUS
 62
     7
 10
169.1110785571
 20
114.697392322
 30
0.0
  0
VERTEX
  5
16C
  8
0
  6
CONTINUOUS
 62
     7
 10
168.9692581576
 20
114.6892862888
 30
0.0
  0
VERTEX
  5
16D
  8
0
  6
CONTINUOUS
 62
     7
 10
168.8504762449
 20
114.6738307288
 30
0.0
  0
VERTEX
  5
16E
  8
0
  6
CONTINUOUS
 62
     7
 10
168.7494114104
 20
114.6469996615
 30
0.0
  0
VERTEX
  5
16F
  8
0
  6
CONTINUOUS
 62
     7
 10
168.6773697898
 20
114.6099506104
 30
0.0
  0
VERTEX
  5
170
  8
0
  6
CONTINUOUS
 62
     7
 10
168.6265198774
 20
114.5584455506
 30
0.0
  0
VERTEX
  5
171
  8
0
  6
CONTINUOUS
 62
     7
 10
168.6010388582
 20
114.5015727463
 30
0.0
  0
VERTEX
  5
172
  8
0
  6
CONTINUOUS
 62
     7
 10
168.5926890531
 20
114.4332669287
 30
0.0
  0
SEQEND
  5
17E
  8
0
  6
CONTINUOUS
 62
     7
  0
POLYLINE
  5
145
  8
0
  6
CONTINUOUS
 62
     7
 66
     1
 10
0.0
 20
0.0
 30
0.0
 70
   128
  0
VERTEX
  5
173
  8
0
  6
CONTINUOUS
 62
     7
 10
138.5926890531
 20
114.4332669287
 30
0.0
  0
VERTEX
  5
174
  8
0
  6
CONTINUOUS
 62
     7
 10
138.5820331025
 20
114.5095287947
 30
0.0
  0
VERTEX
  5
175
  8
0
  6
CONTINUOUS
 62
     7
 10
138.5472499315
 20
114.5739730321
 30
0.0
  0
VERTEX
  5
176
  8
0
  6
CONTINUOUS
 62
     7
 10
138.48859146
 20
114.6224508691
 30
0.0
  0
VERTEX
  5
177
  8
0
  6
CONTINUOUS
 62
     7
 10
138.4024667151
 20
114.6580537674
 30
0.0
  0
VERTEX
  5
178
  8
0
  6
CONTINUOUS
 62
     7
 10
138.3028069084
 20
114.6792032365
 30
0.0
  0
VERTEX
  5
179
  8
0
  6
CONTINUOUS
 62
     7
 10
138.1820201341
 20
114.6919683337
 30
0.0
  0
VERTEX
  5
17A
  8
0
  6
CONTINUOUS
 62
     7
 10
138.0474306433
 20
114.6982230728
 30
0.0
  0
VERTEX
  5
17B
  8
0
  6
CONTINUOUS
 62
     7
 10
137.8973337961
 20
114.7006511723
 30
0.0
  0
VERTEX
  5
17C
  8
0
  6
CONTINUOUS
 62
     7
 10
137.7486987404
 20
114.701178639
 30
0.0
  0
VERTEX
  5
17D
  8
0
  6
CONTINUOUS
 62
     7
 10
137.5926890531
 20
114.7012161211
 30
0.0
  0
SEQEND
  5
17F
  8
0
  6
CONTINUOUS
 62
     7
  0
LINE
  5
146
  8
0
  6
CONTINUOUS
 62
     7
 10
137.5926890531
 20
114.7012161211
 30
0.0
 11
137.5926890531
 21
116.7012161211
 31
0.0
  0
LINE
  5
147
  8
0
  6
CONTINUOUS
 62
     7
 10
169.5926890531
 20
116.7012161211
 30
0.0
 11
169.5926890531
 21
114.7012161211
 31
0.0
  0
LINE
  5
148
  8
0
  6
CONTINUOUS
 62
     7
 10
183.5926890531
 20
116.7012161211
 30
0.0
 11
183.5926890531
 21
114.7012161211
 31
0.0
  0
LINE
  5
149
  8
0
  6
CONTINUOUS
 62
     7
 10
183.5926890531
 20
114.7012161211
 30
0.0
 11
182.5926890531
 21
114.7012161211
 31
0.0
  0
LINE
  5
14A
  8
0
  6
CONTINUOUS
 62
     7
 10
182.5926890531
 20
114.7012161211
 30
0.0
 11
182.5926890531
 21
116.7012161211
 31
0.0
  0
LINE
  5
14B
  8
0
  6
CONTINUOUS
 62
     7
 10
182.5926890531
 20
116.7012161211
 30
0.0
 11
183.5926890531
 21
116.7012161211
 31
0.0
  0
LINE
  5
14C
  8
0
  6
CONTINUOUS
 62
     7
 10
123.5926890531
 20
114.7012161211
 30
0.0
 11
123.5926890531
 21
116.7012161211
 31
0.0
  0
LINE
  5
14D
  8
0
  6
CONTINUOUS
 62
     7
 10
124.5926890531
 20
116.7012161211
 30
0.0
 11
124.5926890531
 21
114.7012161211
 31
0.0
  0
LINE
  5
14E
  8
0
  6
CONTINUOUS
 62
     7
 10
124.5926890531
 20
114.7012161211
 30
0.0
 11
123.5926890531
 21
114.7012161211
 31
0.0
  0
LINE
  5
14F
  8
0
  6
CONTINUOUS
 62
     7
 10
123.5926890531
 20
116.7012161211
 30
0.0
 11
124.5926890531
 21
116.7012161211
 31
0.0
  0
LINE
  5
150
  8
0
  6
CONTINUOUS
 62
     7
 10
182.5926890531
 20
114.7012161211
 30
0.0
 11
169.5926890531
 21
114.7012161211
 31
0.0
  0
LINE
  5
151
  8
0
  6
CONTINUOUS
 62
     7
 10
169.5926890531
 20
116.7012161211
 30
0.0
 11
182.5926890531
 21
116.7012161211
 31
0.0
  0
LINE
  5
152
  8
0
  6
CONTINUOUS
 62
     7
 10
137.5926890531
 20
114.7012161211
 30
0.0
 11
124.5926890531
 21
114.7012161211
 31
0.0
  0
LINE
  5
153
  8
0
  6
CONTINUOUS
 62
     7
 10
124.5926890531
 20
116.7012161211
 30
0.0
 11
137.5926890531
 21
116.7012161211
 31
0.0
  0
DIMENSION
  5
154
  8
0
  6
CONTINUOUS
 62
     7
  2
_D_4
 10
183.5926890531
 20
136.341991935
 30
0.0
 11
153.8558949964
 21
136.341991935
 31
0.0
 70
   160
  1
<>
  3
SLDDIMSTYLE0
 13
123.5926890531
 23
116.7012161211
 33
0.0
 14
183.5926890531
 24
116.7012161211
 34
0.0
 50
0.0
  0
DIMENSION
  5
15E
  8
0
  6
CONTINUOUS
 62
     7
  2
_D_5
 10
203.5926890531
 20
16.7012161211
 30
0.0
 11
203.5926890531
 21
68.1866237352
 31
0.0
 70
   160
  1
<>
  3
SLDDIMSTYLE0
 13
183.5926890531
 23
116.7012161211
 33
0.0
 14
153.5926890531
 24
16.7012161211
 34
0.0
 50
90.0
  0
ENDSEC
  0
EOF
