  0
SECTION
  2
HEADER
  9
$ACADVER
  1
AC1015
  9
$ACADMAINTVER
 70
     6
  9
$DWGCODEPAGE
  3
ANSI_1252
  9
$INSBASE
 10
0.0
 20
0.0
 30
0.0
  9
$EXTMIN
 10
0.0
 20
0.0
 30
0.0
  9
$EXTMAX
 10
210.0
 20
297.0
 30
0.0
  9
$LIMMIN
 10
0.0
 20
0.0
  9
$LIMMAX
 10
210.0
 20
297.0
  9
$ORTHOMODE
 70
     0
  9
$REGENMODE
 70
     1
  9
$FILLMODE
 70
     1
  9
$QTEXTMODE
 70
     0
  9
$MIRRTEXT
 70
     1
  9
$LTSCALE
 40
1.0
  9
$ATTMODE
 70
     1
  9
$TEXTSIZE
 40
3.5
  9
$TRACEWID
 40
1.0
  9
$TEXTSTYLE
  7
Standard
  9
$CLAYER
  8
0
  9
$CELTYPE
  6
ByLayer
  9
$CECOLOR
 62
   256
  9
$CELTSCALE
 40
1.0
  9
$DISPSILH
 70
     0
  9
$DIMSCALE
 40
1.0
  9
$DIMASZ
 40
3.302
  9
$DIMEXO
 40
1.0
  9
$DIMDLI
 40
3.75
  9
$DIMRND
 40
0.0
  9
$DIMDLE
 40
0.0
  9
$DIMEXE
 40
1.0
  9
$DIMTP
 40
0.0
  9
$DIMTM
 40
0.0
  9
$DIMTXT
 40
3.5
  9
$DIMCEN
 40
2.5
  9
$DIMTSZ
 40
0.0
  9
$DIMTOL
 70
     0
  9
$DIMLIM
 70
     0
  9
$DIMTIH
 70
     1
  9
$DIMTOH
 70
     1
  9
$DIMSE1
 70
     0
  9
$DIMSE2
 70
     0
  9
$DIMTAD
 70
     1
  9
$DIMZIN
 70
     0
  9
$DIMBLK
  1

  9
$DIMASO
 70
     1
  9
$DIMSHO
 70
     1
  9
$DIMPOST
  1

  9
$DIMAPOST
  1

  9
$DIMALT
 70
     0
  9
$DIMALTD
 70
     3
  9
$DIMALTF
 40
0.0393700787
  9
$DIMLFAC
 40
1.0
  9
$DIMTOFL
 70
     1
  9
$DIMTVP
 40
0.0
  9
$DIMTIX
 70
     0
  9
$DIMSOXD
 70
     0
  9
$DIMSAH
 70
     0
  9
$DIMBLK1
  1

  9
$DIMBLK2
  1

  9
$DIMSTYLE
  2
ISO-25
  9
$DIMCLRD
 70
     0
  9
$DIMCLRE
 70
     0
  9
$DIMCLRT
 70
     0
  9
$DIMTFAC
 40
1.0
  9
$DIMGAP
 40
1.524
  9
$DIMJUST
 70
     0
  9
$DIMSD1
 70
     0
  9
$DIMSD2
 70
     0
  9
$DIMTOLJ
 70
     0
  9
$DIMTZIN
 70
     0
  9
$DIMALTZ
 70
     0
  9
$DIMALTTZ
 70
     0
  9
$DIMUPT
 70
     0
  9
$DIMDEC
 70
     2
  9
$DIMTDEC
 70
     2
  9
$DIMALTU
 70
     2
  9
$DIMALTTD
 70
     3
  9
$DIMTXSTY
  7
Standard
  9
$DIMAUNIT
 70
     0
  9
$DIMADEC
 70
     2
  9
$DIMALTRND
 40
0.0
  9
$DIMAZIN
 70
     0
  9
$DIMDSEP
 70
    44
  9
$DIMATFIT
 70
     3
  9
$DIMFRAC
 70
     0
  9
$DIMLDRBLK
  1

  9
$DIMLUNIT
 70
     2
  9
$DIMLWD
 70
    -2
  9
$DIMLWE
 70
    -2
  9
$DIMTMOVE
 70
     0
  9
$LUNITS
 70
     2
  9
$LUPREC
 70
     2
  9
$SKETCHINC
 40
1.0
  9
$FILLETRAD
 40
10.0
  9
$AUNITS
 70
     0
  9
$AUPREC
 70
     2
  9
$MENU
  1
.
  9
$ELEVATION
 40
0.0
  9
$PELEVATION
 40
0.0
  9
$THICKNESS
 40
0.0
  9
$LIMCHECK
 70
     0
  9
$CHAMFERA
 40
0.0
  9
$CHAMFERB
 40
0.0
  9
$CHAMFERC
 40
0.0
  9
$CHAMFERD
 40
0.0
  9
$SKPOLY
 70
     0
  9
$TDCREATE
 40
2458642.644105428
  9
$TDUCREATE
 40
2458642.560772095
  9
$TDUPDATE
 40
2458642.644106701
  9
$TDUUPDATE
 40
2458642.560773368
  9
$TDINDWG
 40
0.0000000116
  9
$TDUSRTIMER
 40
0.0000000116
  9
$USRTIMER
 70
     1
  9
$ANGBASE
 50
0.0
  9
$ANGDIR
 70
     0
  9
$PDMODE
 70
     0
  9
$PDSIZE
 40
-1.0
  9
$PLINEWID
 40
0.0
  9
$SPLFRAME
 70
     0
  9
$SPLINETYPE
 70
     6
  9
$SPLINESEGS
 70
     8
  9
$HANDSEED
  5
315
  9
$SURFTAB1
 70
     6
  9
$SURFTAB2
 70
     6
  9
$SURFTYPE
 70
     6
  9
$SURFU
 70
     6
  9
$SURFV
 70
     6
  9
$UCSBASE
  2

  9
$UCSNAME
  2

  9
$UCSORG
 10
0.0
 20
0.0
 30
0.0
  9
$UCSXDIR
 10
1.0
 20
0.0
 30
0.0
  9
$UCSYDIR
 10
0.0
 20
1.0
 30
0.0
  9
$UCSORTHOREF
  2

  9
$UCSORTHOVIEW
 70
     0
  9
$UCSORGTOP
 10
0.0
 20
0.0
 30
0.0
  9
$UCSORGBOTTOM
 10
0.0
 20
0.0
 30
0.0
  9
$UCSORGLEFT
 10
0.0
 20
0.0
 30
0.0
  9
$UCSORGRIGHT
 10
0.0
 20
0.0
 30
0.0
  9
$UCSORGFRONT
 10
0.0
 20
0.0
 30
0.0
  9
$UCSORGBACK
 10
0.0
 20
0.0
 30
0.0
  9
$PUCSBASE
  2

  9
$PUCSNAME
  2

  9
$PUCSORG
 10
0.0
 20
0.0
 30
0.0
  9
$PUCSXDIR
 10
1.0
 20
0.0
 30
0.0
  9
$PUCSYDIR
 10
0.0
 20
1.0
 30
0.0
  9
$PUCSORTHOREF
  2

  9
$PUCSORTHOVIEW
 70
     0
  9
$PUCSORGTOP
 10
0.0
 20
0.0
 30
0.0
  9
$PUCSORGBOTTOM
 10
0.0
 20
0.0
 30
0.0
  9
$PUCSORGLEFT
 10
0.0
 20
0.0
 30
0.0
  9
$PUCSORGRIGHT
 10
0.0
 20
0.0
 30
0.0
  9
$PUCSORGFRONT
 10
0.0
 20
0.0
 30
0.0
  9
$PUCSORGBACK
 10
0.0
 20
0.0
 30
0.0
  9
$USERI1
 70
     0
  9
$USERI2
 70
     0
  9
$USERI3
 70
     0
  9
$USERI4
 70
     0
  9
$USERI5
 70
     0
  9
$USERR1
 40
0.0
  9
$USERR2
 40
0.0
  9
$USERR3
 40
0.0
  9
$USERR4
 40
0.0
  9
$USERR5
 40
0.0
  9
$WORLDVIEW
 70
     1
  9
$SHADEDGE
 70
     3
  9
$SHADEDIF
 70
    70
  9
$TILEMODE
 70
     1
  9
$MAXACTVP
 70
    64
  9
$PINSBASE
 10
0.0
 20
0.0
 30
0.0
  9
$PLIMCHECK
 70
     0
  9
$PEXTMIN
 10
1.0000000000E+20
 20
1.0000000000E+20
 30
1.0000000000E+20
  9
$PEXTMAX
 10
-1.0000000000E+20
 20
-1.0000000000E+20
 30
-1.0000000000E+20
  9
$PLIMMIN
 10
0.0
 20
0.0
  9
$PLIMMAX
 10
420.0
 20
297.0
  9
$UNITMODE
 70
     0
  9
$VISRETAIN
 70
     1
  9
$PLINEGEN
 70
     0
  9
$PSLTSCALE
 70
     1
  9
$TREEDEPTH
 70
  3020
  9
$CMLSTYLE
  2
Standard
  9
$CMLJUST
 70
     0
  9
$CMLSCALE
 40
20.0
  9
$PROXYGRAPHICS
 70
     1
  9
$MEASUREMENT
 70
     1
  9
$CELWEIGHT
370
    -1
  9
$ENDCAPS
280
     0
  9
$JOINSTYLE
280
     0
  9
$LWDISPLAY
290
     1
  9
$INSUNITS
 70
     4
  9
$HYPERLINKBASE
  1

  9
$STYLESHEET
  1

  9
$XEDIT
290
     1
  9
$CEPSNTYPE
380
     0
  9
$PSTYLEMODE
290
     1
  9
$FINGERPRINTGUID
  2
{E77F60CD-3C8E-4332-9A4D-B45FA1CB0D1D}
  9
$VERSIONGUID
  2
{FAEB1C32-E019-11D5-929B-00C0DF256EC4}
  9
$EXTNAMES
290
     1
  9
$PSVPSCALE
 40
0.0
  9
$OLESTARTUP
290
     0
  0
ENDSEC
  0
SECTION
  2
CLASSES
  0
CLASS
  1
ACDBDICTIONARYWDFLT
  2
AcDbDictionaryWithDefault
  3
ObjectDBX Classes
 90
        0
280
     0
281
     0
  0
CLASS
  1
VISUALSTYLE
  2
AcDbVisualStyle
  3
ObjectDBX Classes
 90
     4095
280
     0
281
     0
  0
CLASS
  1
MATERIAL
  2
AcDbMaterial
  3
ObjectDBX Classes
 90
     1153
280
     0
281
     0
  0
CLASS
  1
SCALE
  2
AcDbScale
  3
ObjectDBX Classes
 90
     1153
280
     0
281
     0
  0
CLASS
  1
TABLESTYLE
  2
AcDbTableStyle
  3
ObjectDBX Classes
 90
     4095
280
     0
281
     0
  0
CLASS
  1
MLEADERSTYLE
  2
AcDbMLeaderStyle
  3
ACDB_MLEADERSTYLE_CLASS
 90
     4095
280
     0
281
     0
  0
CLASS
  1
SUN
  2
AcDbSun
  3
SCENEOE
 90
     1153
280
     0
281
     0
  0
CLASS
  1
ACDBPLACEHOLDER
  2
AcDbPlaceHolder
  3
ObjectDBX Classes
 90
        0
280
     0
281
     0
  0
CLASS
  1
LAYOUT
  2
AcDbLayout
  3
ObjectDBX Classes
 90
        0
280
     0
281
     0
  0
ENDSEC
  0
SECTION
  2
TABLES
  0
TABLE
  2
VPORT
  5
8
330
0
100
AcDbSymbolTable
 70
     1
  0
VPORT
  5
29
330
8
100
AcDbSymbolTableRecord
100
AcDbViewportTableRecord
  2
*Active
 70
     0
 10
0.0
 20
0.0
 11
1.0
 21
1.0
 12
105.0
 22
148.5
 13
0.0
 23
0.0
 14
10.0
 24
10.0
 15
10.0
 25
10.0
 16
0.0
 26
0.0
 36
1.0
 17
0.0
 27
0.0
 37
0.0
 40
297.0
 41
0.7070707071
 42
50.0
 43
0.0
 44
0.0
 50
0.0
 51
0.0
 71
     0
 72
  2000
 73
     1
 74
     3
 75
     0
 76
     0
 77
     0
 78
     0
281
     0
 65
     1
110
0.0
120
0.0
130
0.0
111
1.0
121
0.0
131
0.0
112
0.0
122
1.0
132
0.0
 79
     0
146
0.0
  0
ENDTAB
  0
TABLE
  2
LTYPE
  5
5
330
0
100
AcDbSymbolTable
 70
     6
  0
LTYPE
  5
14
330
5
100
AcDbSymbolTableRecord
100
AcDbLinetypeTableRecord
  2
ByBlock
 70
     0
  3

 72
    65
 73
     0
 40
0.0
  0
LTYPE
  5
15
330
5
100
AcDbSymbolTableRecord
100
AcDbLinetypeTableRecord
  2
ByLayer
 70
     0
  3

 72
    65
 73
     0
 40
0.0
  0
LTYPE
  5
16
330
5
100
AcDbSymbolTableRecord
100
AcDbLinetypeTableRecord
  2
Continuous
 70
     0
  3
Solid line
 72
    65
 73
     0
 40
0.0
  0
LTYPE
  5
6E
330
5
100
AcDbSymbolTableRecord
100
AcDbLinetypeTableRecord
  2
HIDDEN
 70
     0
  3
Hidden __ __ __ __ __ __ __ __ __ __ __ __ __ __
 72
    65
 73
     2
 40
1.905
 49
1.27
 74
     0
 49
-0.635
 74
     0
  0
LTYPE
  5
6F
330
5
100
AcDbSymbolTableRecord
100
AcDbLinetypeTableRecord
  2
PHANTOM
 70
     0
  3
Phantom ______  __  __  ______  __  __  ______
 72
    65
 73
     6
 40
12.7
 49
6.35
 74
     0
 49
-1.27
 74
     0
 49
1.27
 74
     0
 49
-1.27
 74
     0
 49
1.27
 74
     0
 49
-1.27
 74
     0
  0
LTYPE
  5
70
330
5
100
AcDbSymbolTableRecord
100
AcDbLinetypeTableRecord
  2
CENTER
 70
     0
  3
Center ____ _ ____ _ ____ _ ____ _ ____ _ ____
 72
    65
 73
     4
 40
10.16
 49
6.35
 74
     0
 49
-1.27
 74
     0
 49
1.27
 74
     0
 49
-1.27
 74
     0
  0
LTYPE
  5
71
330
5
100
AcDbSymbolTableRecord
100
AcDbLinetypeTableRecord
  2
CENTERX2
 70
     0
  3
Center (2x) ________  __  ________  __  _____
 72
    65
 73
     4
 40
20.32
 49
12.7
 74
     0
 49
-2.54
 74
     0
 49
2.54
 74
     0
 49
-2.54
 74
     0
  0
LTYPE
  5
72
330
5
100
AcDbSymbolTableRecord
100
AcDbLinetypeTableRecord
  2
DOT2
 70
     0
  3
Dot (.5x) ........................................
 72
    65
 73
     2
 40
0.635
 49
0.0
 74
     0
 49
-0.635
 74
     0
  0
ENDTAB
  0
TABLE
  2
LAYER
  5
2
330
0
100
AcDbSymbolTable
 70
     4
  0
LAYER
  5
10
330
2
100
AcDbSymbolTableRecord
100
AcDbLayerTableRecord
  2
0
 70
     0
 62
     7
  6
Continuous
370
    -3
390
F
  0
LAYER
  5
73
330
2
100
AcDbSymbolTableRecord
100
AcDbLayerTableRecord
  2
RAHMEN
 70
     0
 62
   179
  6
Continuous
370
    -3
390
F
  0
LAYER
  5
74
330
2
100
AcDbSymbolTableRecord
100
AcDbLayerTableRecord
  2
KOPF
 70
     0
 62
     7
  6
Continuous
370
    -3
390
F
  0
LAYER
  5
75
330
2
100
AcDbSymbolTableRecord
100
AcDbLayerTableRecord
  2
ZEICHNUNG
 70
     0
 62
     7
  6
Continuous
370
    -3
390
F
  0
ENDTAB
  0
TABLE
  2
STYLE
  5
3
330
0
100
AcDbSymbolTable
 70
     2
  0
STYLE
  5
11
330
3
100
AcDbSymbolTableRecord
100
AcDbTextStyleTableRecord
  2
Standard
 70
     0
 40
0.0
 41
1.0
 50
0.0
 71
     0
 42
3.5
  3
txt
  4

  0
STYLE
  5
27B
330
3
100
AcDbSymbolTableRecord
100
AcDbTextStyleTableRecord
  2
SLDTEXTSTYLE0
 70
     0
 40
0.0
 41
0.75
 50
0.0
 71
     0
 42
3.5
  3
TXT
  4

  0
ENDTAB
  0
TABLE
  2
VIEW
  5
6
330
0
100
AcDbSymbolTable
 70
     0
  0
ENDTAB
  0
TABLE
  2
UCS
  5
7
330
0
100
AcDbSymbolTable
 70
     0
  0
ENDTAB
  0
TABLE
  2
APPID
  5
9
330
0
100
AcDbSymbolTable
 70
     1
  0
APPID
  5
12
330
9
100
AcDbSymbolTableRecord
100
AcDbRegAppTableRecord
  2
ACAD
 70
     0
  0
ENDTAB
  0
TABLE
  2
DIMSTYLE
  5
A
330
0
100
AcDbSymbolTable
 70
     2
100
AcDbDimStyleTable
  0
DIMSTYLE
105
27
330
A
100
AcDbSymbolTableRecord
100
AcDbDimStyleTableRecord
  2
ISO-25
 70
     0
 41
2.5
 42
0.625
 43
3.75
 44
1.25
 73
     0
 74
     0
 77
     1
 78
     8
140
2.5
141
2.5
143
0.0393700787
147
0.625
171
     3
172
     1
178
     0
271
     2
272
     2
274
     3
278
    44
283
     0
284
     8
340
11
  0
DIMSTYLE
105
27C
102
{ACAD_REACTORS
330
27A
330
286
330
30A
102
}
330
A
100
AcDbSymbolTableRecord
100
AcDbDimStyleTableRecord
  2
SLDDIMSTYLE0
 70
     0
 41
3.302
 44
0.0
 45
0.000000001
 73
     0
 74
     0
 77
     1
 78
    12
 79
     3
140
3.5
147
0.875
173
     1
178
     0
271
     2
272
     2
276
     2
284
    12
340
27B
  0
ENDTAB
  0
TABLE
  2
BLOCK_RECORD
  5
1
330
0
100
AcDbSymbolTable
 70
     5
  0
BLOCK_RECORD
  5
1F
330
1
100
AcDbSymbolTableRecord
100
AcDbBlockTableRecord
  2
*Model_Space
340
22
  0
BLOCK_RECORD
  5
1B
330
1
100
AcDbSymbolTableRecord
100
AcDbBlockTableRecord
  2
*Paper_Space
340
1E
  0
BLOCK_RECORD
  5
23
330
1
100
AcDbSymbolTableRecord
100
AcDbBlockTableRecord
  2
*Paper_Space0
340
26
  0
BLOCK_RECORD
  5
76
330
1
100
AcDbSymbolTableRecord
100
AcDbBlockTableRecord
  2
Logo_Boag
340
0
  0
BLOCK_RECORD
  5
27D
330
1
100
AcDbSymbolTableRecord
100
AcDbBlockTableRecord
  2
_D
340
0
  0
BLOCK_RECORD
  5
287
330
1
100
AcDbSymbolTableRecord
100
AcDbBlockTableRecord
  2
_D_1
340
0
  0
BLOCK_RECORD
  5
30B
330
1
100
AcDbSymbolTableRecord
100
AcDbBlockTableRecord
  2
_D_2
340
0
  0
ENDTAB
  0
ENDSEC
  0
SECTION
  2
BLOCKS
  0
BLOCK
  5
20
330
1F
100
AcDbEntity
  8
0
100
AcDbBlockBegin
  2
*Model_Space
 70
     0
 10
0.0
 20
0.0
 30
0.0
  3
*Model_Space
  1

  0
ENDBLK
  5
21
330
1F
100
AcDbEntity
  8
0
100
AcDbBlockEnd
  0
BLOCK
  5
1C
330
1B
100
AcDbEntity
 67
     1
  8
0
100
AcDbBlockBegin
  2
*Paper_Space
 70
     0
 10
0.0
 20
0.0
 30
0.0
  3
*Paper_Space
  1

  0
ENDBLK
  5
1D
330
1B
100
AcDbEntity
 67
     1
  8
0
100
AcDbBlockEnd
  0
BLOCK
  5
24
330
23
100
AcDbEntity
  8
0
100
AcDbBlockBegin
  2
*Paper_Space0
 70
     0
 10
0.0
 20
0.0
 30
0.0
  3
*Paper_Space0
  1

  0
ENDBLK
  5
25
330
23
100
AcDbEntity
  8
0
100
AcDbBlockEnd
  0
BLOCK
  5
77
330
76
100
AcDbEntity
  8
0
100
AcDbBlockBegin
  2
Logo_Boag
 70
     0
 10
0.0
 20
0.0
 30
0.0
  3
Logo_Boag
  1

  0
LINE
  5
79
330
76
100
AcDbEntity
  8
0
  6
Continuous
 62
     7
370
    18
100
AcDbLine
 10
0.0
 20
2.3429474284
 30
0.0
 11
0.0006046143
 21
2.3429474284
 31
0.0
  0
LINE
  5
7A
330
76
100
AcDbEntity
  8
0
  6
Continuous
 62
     7
370
    18
100
AcDbLine
 10
38.4424493815
 20
0.0213630371
 30
0.0
 11
38.4435242513
 21
0.0213630371
 31
0.0
  0
LINE
  5
7B
330
76
100
AcDbEntity
  8
0
  6
Continuous
 62
     7
370
    18
100
AcDbLine
 10
20.5614529622
 20
0.1305966797
 30
0.0
 11
20.5614529622
 21
2.7389025879
 31
0.0
  0
LINE
  5
7C
330
76
100
AcDbEntity
  8
0
  6
Continuous
 62
     7
370
    18
100
AcDbLine
 10
32.2645008952
 20
5.8065809733
 30
0.0
 11
32.2645008952
 21
0.1305966797
 31
0.0
  0
LINE
  5
7D
330
76
100
AcDbEntity
  8
0
  6
Continuous
 62
     7
370
    18
100
AcDbLine
 10
19.8989300944
 20
0.1305966797
 30
0.0
 11
20.5614529622
 21
0.1305966797
 31
0.0
  0
LINE
  5
7E
330
76
100
AcDbEntity
  8
0
  6
Continuous
 62
     7
370
    18
100
AcDbLine
 10
17.1837418213
 20
0.0213630371
 30
0.0
 11
17.1885787354
 21
0.0213630371
 31
0.0
  0
LINE
  5
7F
330
76
100
AcDbEntity
  8
0
  6
Continuous
 62
     7
370
    18
100
AcDbLine
 10
27.2947060547
 20
3.6284916992
 30
0.0
 11
27.2586979167
 21
3.7098459066
 31
0.0
  0
LINE
  5
80
330
76
100
AcDbEntity
  8
0
  6
Continuous
 62
     7
370
    18
100
AcDbLine
 10
35.1241919759
 20
0.1305966797
 30
0.0
 11
35.7875209961
 21
0.1305966797
 31
0.0
  0
LINE
  5
81
330
76
100
AcDbEntity
  8
0
  6
Continuous
 62
     7
370
    18
100
AcDbLine
 10
39.800681722
 20
4.6189842122
 30
0.0
 11
39.800681722
 21
4.2021362712
 31
0.0
  0
LINE
  5
82
330
76
100
AcDbEntity
  8
0
  6
Continuous
 62
     7
370
    18
100
AcDbLine
 10
32.9268894043
 20
0.1305966797
 30
0.0
 11
32.9268894043
 21
2.7394400228
 31
0.0
  0
LINE
  5
83
330
76
100
AcDbEntity
  8
0
  6
Continuous
 62
     7
370
    18
100
AcDbLine
 10
19.0864628906
 20
1.4555080566
 30
0.0
 11
19.1096397705
 21
1.5300771484
 31
0.0
  0
LINE
  5
84
330
76
100
AcDbEntity
  8
0
  6
Continuous
 62
     7
370
    18
100
AcDbLine
 10
26.6360795898
 20
3.6284916992
 30
0.0
 11
27.2947060547
 21
3.6284916992
 31
0.0
  0
LINE
  5
85
330
76
100
AcDbEntity
  8
0
  6
Continuous
 62
     7
370
    18
100
AcDbLine
 10
43.4954122721
 20
0.5801609701
 30
0.0
 11
43.4954122721
 21
0.1305966797
 31
0.0
  0
LINE
  5
86
330
76
100
AcDbEntity
  8
0
  6
Continuous
 62
     7
370
    18
100
AcDbLine
 10
37.0703780924
 20
2.3749248047
 30
0.0
 11
37.070109375
 21
2.3749248047
 31
0.0
  0
LINE
  5
87
330
76
100
AcDbEntity
  8
0
  6
Continuous
 62
     7
370
    18
100
AcDbLine
 10
41.7684995931
 20
4.0474222005
 30
0.0
 11
41.7684995931
 21
0.8538496908
 31
0.0
  0
LINE
  5
88
330
76
100
AcDbEntity
  8
0
  6
Continuous
 62
     7
370
    18
100
AcDbLine
 10
35.1241919759
 20
2.9854508464
 30
0.0
 11
35.1241919759
 21
0.1305966797
 31
0.0
  0
LINE
  5
89
330
76
100
AcDbEntity
  8
0
  6
Continuous
 62
     7
370
    18
100
AcDbLine
 10
0.7260745443
 20
5.8257270915
 30
0.0
 11
0.0
 21
5.8257270915
 31
0.0
  0
LINE
  5
8A
330
76
100
AcDbEntity
  8
0
  6
Continuous
 62
     7
370
    18
100
AcDbLine
 10
22.7592257894
 20
0.1305966797
 30
0.0
 11
23.4218158366
 21
0.1305966797
 31
0.0
  0
LINE
  5
8B
330
76
100
AcDbEntity
  8
0
  6
Continuous
 62
     7
370
    18
100
AcDbLine
 10
7.5973140462
 20
0.0213630371
 30
0.0
 11
7.5991950684
 21
0.0213630371
 31
0.0
  0
LINE
  5
8C
330
76
100
AcDbEntity
  8
0
  6
Continuous
 62
     7
370
    18
100
AcDbLine
 10
14.3718824463
 20
2.3015649414
 30
0.0
 11
14.3730916748
 21
2.3015649414
 31
0.0
  0
LINE
  5
8D
330
76
100
AcDbEntity
  8
0
  6
Continuous
 62
     7
370
    18
100
AcDbLine
 10
20.5614529622
 20
4.6189842122
 30
0.0
 11
19.8989300944
 21
4.6189842122
 31
0.0
  0
LINE
  5
8E
330
76
100
AcDbEntity
  8
0
  6
Continuous
 62
     7
370
    18
100
AcDbLine
 10
25.7210966797
 20
4.7150506999
 30
0.0
 11
25.6641285807
 21
4.714513265
 31
0.0
  0
LINE
  5
8F
330
76
100
AcDbEntity
  8
0
  6
Continuous
 62
     7
370
    18
100
AcDbLine
 10
46.7638225911
 20
4.2426454264
 30
0.0
 11
46.7638225911
 21
4.6189842122
 31
0.0
  0
LINE
  5
90
330
76
100
AcDbEntity
  8
0
  6
Continuous
 62
     7
370
    18
100
AcDbLine
 10
31.0650805664
 20
3.5541241455
 30
0.0
 11
31.7829592285
 21
3.5494215902
 31
0.0
  0
LINE
  5
91
330
76
100
AcDbEntity
  8
0
  6
Continuous
 62
     7
370
    18
100
AcDbLine
 10
39.9248291829
 20
0.1305966797
 30
0.0
 11
40.4770435384
 21
0.1305966797
 31
0.0
  0
LINE
  5
92
330
76
100
AcDbEntity
  8
0
  6
Continuous
 62
     7
370
    18
100
AcDbLine
 10
12.3384303385
 20
0.0213630371
 30
0.0
 11
12.3455513509
 21
0.0213630371
 31
0.0
  0
LINE
  5
93
330
76
100
AcDbEntity
  8
0
  6
Continuous
 62
     7
370
    18
100
AcDbLine
 10
42.4311568197
 20
5.8068496908
 30
0.0
 11
41.7684995931
 21
5.8068496908
 31
0.0
  0
LINE
  5
94
330
76
100
AcDbEntity
  8
0
  6
Continuous
 62
     7
370
    18
100
AcDbLine
 10
45.8313730469
 20
4.047690918
 30
0.0
 11
43.4954122721
 21
0.5801609701
 31
0.0
  0
LINE
  5
95
330
76
100
AcDbEntity
  8
0
  6
Continuous
 62
     7
370
    18
100
AcDbLine
 10
31.7829592285
 20
3.5494215902
 30
0.0
 11
31.7470854492
 21
3.6313132324
 31
0.0
  0
LINE
  5
96
330
76
100
AcDbEntity
  8
0
  6
Continuous
 62
     7
370
    18
100
AcDbLine
 10
46.7999650879
 20
0.7024274089
 30
0.0
 11
44.382314209
 21
0.7024274089
 31
0.0
  0
LINE
  5
97
330
76
100
AcDbEntity
  8
0
  6
Continuous
 62
     7
370
    18
100
AcDbLine
 10
42.4311568197
 20
4.0474222005
 30
0.0
 11
45.8313730469
 21
4.047690918
 31
0.0
  0
LINE
  5
98
330
76
100
AcDbEntity
  8
0
  6
Continuous
 62
     7
370
    18
100
AcDbLine
 10
20.5614529622
 20
4.1084210612
 30
0.0
 11
20.5614529622
 21
4.6189842122
 31
0.0
  0
LINE
  5
99
330
76
100
AcDbEntity
  8
0
  6
Continuous
 62
     7
370
    18
100
AcDbLine
 10
42.4311568197
 20
1.2182305501
 30
0.0
 11
42.4311568197
 21
4.0474222005
 31
0.0
  0
LINE
  5
9A
330
76
100
AcDbEntity
  8
0
  6
Continuous
 62
     7
370
    18
100
AcDbLine
 10
32.2645008952
 20
0.1305966797
 30
0.0
 11
32.9268894043
 21
0.1305966797
 31
0.0
  0
LINE
  5
9B
330
76
100
AcDbEntity
  8
0
  6
Continuous
 62
     7
370
    18
100
AcDbLine
 10
31.8158771159
 20
1.2786919759
 30
0.0
 11
31.8470483398
 21
1.3576949056
 31
0.0
  0
LINE
  5
9C
330
76
100
AcDbEntity
  8
0
  6
Continuous
 62
     7
370
    18
100
AcDbLine
 10
43.158171875
 20
0.1096367188
 30
0.0
 11
43.158171875
 21
0.6738090007
 31
0.0
  0
LINE
  5
9D
330
76
100
AcDbEntity
  8
0
  6
Continuous
 62
     7
370
    18
100
AcDbLine
 10
26.6192847493
 20
3.6569757487
 30
0.0
 11
26.6360795898
 21
3.6284916992
 31
0.0
  0
LINE
  5
9E
330
76
100
AcDbEntity
  8
0
  6
Continuous
 62
     7
370
    18
100
AcDbLine
 10
19.1506863607
 20
2.3348859049
 30
0.0
 11
19.1486038005
 21
2.3953473307
 31
0.0
  0
LINE
  5
9F
330
76
100
AcDbEntity
  8
0
  6
Continuous
 62
     7
370
    18
100
AcDbLine
 10
23.4218158366
 20
0.1305966797
 30
0.0
 11
23.4218158366
 21
3.1490325928
 31
0.0
  0
LINE
  5
A0
330
76
100
AcDbEntity
  8
0
  6
Continuous
 62
     7
370
    18
100
AcDbLine
 10
46.7638225911
 20
4.6189842122
 30
0.0
 11
42.4311568197
 21
4.6189842122
 31
0.0
  0
LINE
  5
A1
330
76
100
AcDbEntity
  8
0
  6
Continuous
 62
     7
370
    18
100
AcDbLine
 10
41.7684995931
 20
5.8068496908
 30
0.0
 11
41.7684995931
 21
4.6189842122
 31
0.0
  0
LINE
  5
A2
330
76
100
AcDbEntity
  8
0
  6
Continuous
 62
     7
370
    18
100
AcDbLine
 10
46.7999650879
 20
0.1305966797
 30
0.0
 11
46.7999650879
 21
0.7024274089
 31
0.0
  0
LINE
  5
A3
330
76
100
AcDbEntity
  8
0
  6
Continuous
 62
     7
370
    18
100
AcDbLine
 10
17.161236735
 20
0.6476090495
 30
0.0
 11
17.1482711182
 21
0.6478777669
 31
0.0
  0
LINE
  5
A4
330
76
100
AcDbEntity
  8
0
  6
Continuous
 62
     7
370
    18
100
AcDbLine
 10
24.0082916667
 20
1.3783861491
 30
0.0
 11
24.0318044434
 21
1.3032796224
 31
0.0
  0
LINE
  5
A5
330
76
100
AcDbEntity
  8
0
  6
Continuous
 62
     7
370
    18
100
AcDbLine
 10
14.3730916748
 20
2.3015649414
 30
0.0
 11
14.3730916748
 21
5.8065809733
 31
0.0
  0
LINE
  5
A6
330
76
100
AcDbEntity
  8
0
  6
Continuous
 62
     7
370
    18
100
AcDbLine
 10
22.7592257894
 20
2.9849134115
 30
0.0
 11
22.7592257894
 21
0.1305966797
 31
0.0
  0
LINE
  5
A7
330
76
100
AcDbEntity
  8
0
  6
Continuous
 62
     7
370
    18
100
AcDbLine
 10
31.1213768717
 20
1.357963623
 30
0.0
 11
31.1061943359
 21
1.324911377
 31
0.0
  0
LINE
  5
A8
330
76
100
AcDbEntity
  8
0
  6
Continuous
 62
     7
370
    18
100
AcDbLine
 10
32.9268894043
 20
4.1010985107
 30
0.0
 11
32.9268894043
 21
5.8065809733
 31
0.0
  0
LINE
  5
A9
330
76
100
AcDbEntity
  8
0
  6
Continuous
 62
     7
370
    18
100
AcDbLine
 10
39.8376303711
 20
0.5832512207
 30
0.0
 11
39.9248291829
 21
0.1305966797
 31
0.0
  0
LINE
  5
AA
330
76
100
AcDbEntity
  8
0
  6
Continuous
 62
     7
370
    18
100
AcDbLine
 10
18.4000241699
 20
2.9064479167
 30
0.0
 11
15.823695638
 21
2.9064479167
 31
0.0
  0
LINE
  5
AB
330
76
100
AcDbEntity
  8
0
  6
Continuous
 62
     7
370
    18
100
AcDbLine
 10
32.9268894043
 20
5.8065809733
 30
0.0
 11
32.2645008952
 21
5.8065809733
 31
0.0
  0
LINE
  5
AC
330
76
100
AcDbEntity
  8
0
  6
Continuous
 62
     7
370
    18
100
AcDbLine
 10
31.8470483398
 20
1.3576949056
 30
0.0
 11
31.1213768717
 21
1.357963623
 31
0.0
  0
LINE
  5
AD
330
76
100
AcDbEntity
  8
0
  6
Continuous
 62
     7
370
    18
100
AcDbLine
 10
44.382314209
 20
0.7024274089
 30
0.0
 11
46.7638225911
 21
4.2426454264
 31
0.0
  0
LINE
  5
AE
330
76
100
AcDbEntity
  8
0
  6
Continuous
 62
     7
370
    18
100
AcDbLine
 10
41.7684995931
 20
4.6189842122
 30
0.0
 11
39.800681722
 21
4.6189842122
 31
0.0
  0
LINE
  5
AF
330
76
100
AcDbEntity
  8
0
  6
Continuous
 62
     7
370
    18
100
AcDbLine
 10
0.7272837728
 20
2.2849044596
 30
0.0
 11
0.7260745443
 21
2.2849044596
 31
0.0
  0
LINE
  5
B0
330
76
100
AcDbEntity
  8
0
  6
Continuous
 62
     7
370
    18
100
AcDbLine
 10
0.7260745443
 20
2.2849044596
 30
0.0
 11
0.7260745443
 21
5.8257270915
 31
0.0
  0
LINE
  5
B1
330
76
100
AcDbEntity
  8
0
  6
Continuous
 62
     7
370
    18
100
AcDbLine
 10
13.7147339274
 20
5.8065809733
 30
0.0
 11
13.7147339274
 21
4.1168184814
 31
0.0
  0
LINE
  5
B2
330
76
100
AcDbEntity
  8
0
  6
Continuous
 62
     7
370
    18
100
AcDbLine
 10
15.8146936035
 20
2.3348859049
 30
0.0
 11
19.1506863607
 21
2.3348859049
 31
0.0
  0
LINE
  5
B3
330
76
100
AcDbEntity
  8
0
  6
Continuous
 62
     7
370
    18
100
AcDbLine
 10
40.4770435384
 20
0.1305966797
 30
0.0
 11
40.4770435384
 21
4.0474222005
 31
0.0
  0
LINE
  5
B4
330
76
100
AcDbEntity
  8
0
  6
Continuous
 62
     7
370
    18
100
AcDbLine
 10
42.4311568197
 20
4.6189842122
 30
0.0
 11
42.4311568197
 21
5.8068496908
 31
0.0
  0
LINE
  5
B5
330
76
100
AcDbEntity
  8
0
  6
Continuous
 62
     7
370
    18
100
AcDbLine
 10
18.3769816488
 20
1.5300771484
 30
0.0
 11
18.3634114176
 21
1.4916505534
 31
0.0
  0
LINE
  5
B6
330
76
100
AcDbEntity
  8
0
  6
Continuous
 62
     7
370
    18
100
AcDbLine
 10
40.4770435384
 20
4.0474222005
 30
0.0
 11
41.7684995931
 21
4.0474222005
 31
0.0
  0
LINE
  5
B7
330
76
100
AcDbEntity
  8
0
  6
Continuous
 62
     7
370
    18
100
AcDbLine
 10
19.8989300944
 20
4.6189842122
 30
0.0
 11
19.8989300944
 21
0.1305966797
 31
0.0
  0
LINE
  5
B8
330
76
100
AcDbEntity
  8
0
  6
Continuous
 62
     7
370
    18
100
AcDbLine
 10
35.7875209961
 20
0.1305966797
 30
0.0
 11
35.7875209961
 21
3.1490325928
 31
0.0
  0
LINE
  5
B9
330
76
100
AcDbEntity
  8
0
  6
Continuous
 62
     7
370
    18
100
AcDbLine
 10
43.4954122721
 20
0.1305966797
 30
0.0
 11
46.7999650879
 21
0.1305966797
 31
0.0
  0
LINE
  5
BA
330
76
100
AcDbEntity
  8
0
  6
Continuous
 62
     7
370
    18
100
AcDbLine
 10
31.0498980306
 20
3.5879153646
 30
0.0
 11
31.0650805664
 21
3.5541241455
 31
0.0
  0
LINE
  5
BB
330
76
100
AcDbEntity
  8
0
  6
Continuous
 62
     7
370
    18
100
AcDbLine
 10
25.6641285807
 20
4.714513265
 30
0.0
 11
25.6641285807
 21
4.7132368571
 31
0.0
  0
LINE
  5
BC
330
76
100
AcDbEntity
  8
0
  6
Continuous
 62
     7
370
    18
100
AcDbLine
 10
24.6819663086
 20
1.3783861491
 30
0.0
 11
24.0082916667
 21
1.3783861491
 31
0.0
  0
LINE
  5
BD
330
76
100
AcDbEntity
  8
0
  6
Continuous
 62
     7
370
    18
100
AcDbLine
 10
24.6936555176
 20
1.3361975098
 30
0.0
 11
24.6819663086
 21
1.3783861491
 31
0.0
  0
LINE
  5
BE
330
76
100
AcDbEntity
  8
0
  6
Continuous
 62
     7
370
    18
100
AcDbLine
 10
0.0
 20
5.8257270915
 30
0.0
 11
0.0
 21
2.3429474284
 31
0.0
  0
LINE
  5
BF
330
76
100
AcDbEntity
  8
0
  6
Continuous
 62
     7
370
    18
100
AcDbLine
 10
29.9199411621
 20
0.0213630371
 30
0.0
 11
29.9324365234
 21
0.0213630371
 31
0.0
  0
LINE
  5
C0
330
76
100
AcDbEntity
  8
0
  6
Continuous
 62
     7
370
    18
100
AcDbLine
 10
14.3730916748
 20
5.8065809733
 30
0.0
 11
13.7147339274
 21
5.8065809733
 31
0.0
  0
LINE
  5
C1
330
76
100
AcDbEntity
  8
0
  6
Continuous
 62
     7
370
    18
100
AcDbLine
 10
25.7447438151
 20
0.0114204915
 30
0.0
 11
25.7947252604
 21
0.0119579264
 31
0.0
  0
LINE
  5
C2
330
76
100
AcDbEntity
  8
0
  6
Continuous
 62
     7
370
    18
100
AcDbLine
 10
15.8148279622
 20
2.2746931966
 30
0.0
 11
15.8146936035
 21
2.3348859049
 31
0.0
  0
LINE
  5
C3
330
76
100
AcDbEntity
  8
0
  6
Continuous
 62
     7
370
    18
100
AcDbLine
 10
19.1096397705
 20
1.5300771484
 30
0.0
 11
18.3769816488
 21
1.5300771484
 31
0.0
  0
SPLINE
  5
C4
330
76
100
AcDbEntity
  8
0
  6
Continuous
 62
     8
370
     0
100
AcDbSpline
210
0.0
220
0.0
230
1.0
 70
     8
 71
     3
 72
     8
 73
     4
 74
     0
 42
0.000000001
 43
0.00000001
 40
23.0
 40
23.0
 40
23.0
 40
23.0
 40
24.0
 40
24.0
 40
24.0
 40
24.0
 10
27.44102270507814
 20
1.396121500651049
 30
0.0
 10
27.44317244466149
 20
2.313925944010434
 30
0.0
 10
26.74786604817714
 20
2.564639322916659
 30
0.0
 10
26.10213802083333
 20
2.708537516276047
 30
0.0
  0
SPLINE
  5
C5
330
76
100
AcDbEntity
  8
0
  6
Continuous
 62
     8
370
     0
100
AcDbSpline
210
0.0
220
0.0
230
1.0
 70
     8
 71
     3
 72
     8
 73
     4
 74
     0
 42
0.000000001
 43
0.00000001
 40
3.0
 40
3.0
 40
3.0
 40
3.0
 40
4.0
 40
4.0
 40
4.0
 40
4.0
 10
13.71030008951826
 20
2.374924804687511
 30
0.0
 10
13.71721956380212
 20
1.167711669921884
 30
0.0
 10
13.11347863769535
 20
0.6497587890624962
 30
0.0
 10
12.33843033854171
 20
0.6476090494791781
 30
0.0
  0
SPLINE
  5
C6
330
76
100
AcDbEntity
  8
0
  6
Continuous
 62
     8
370
     0
100
AcDbSpline
210
0.0
220
0.0
230
1.0
 70
     8
 71
     3
 72
     8
 73
     4
 74
     0
 42
0.000000001
 43
0.00000001
 40
1.0
 40
1.0
 40
1.0
 40
1.0
 40
2.0
 40
2.0
 40
2.0
 40
2.0
 10
17.11360656738284
 20
4.728620930989594
 30
0.0
 10
16.55319632975266
 20
4.728620930989594
 30
0.0
 10
16.04196138509117
 20
4.522178751627623
 30
0.0
 10
15.67294514973963
 20
4.121991292317703
 30
0.0
  0
SPLINE
  5
C7
330
76
100
AcDbEntity
  8
0
  6
Continuous
 62
     8
370
     0
100
AcDbSpline
210
0.0
220
0.0
230
1.0
 70
     8
 71
     3
 72
     8
 73
     4
 74
     0
 42
0.000000001
 43
0.00000001
 40
12.0
 40
12.0
 40
12.0
 40
12.0
 40
13.0
 40
13.0
 40
13.0
 40
13.0
 10
37.00131770833337
 20
0.6274552408854217
 30
0.0
 10
37.37026676432292
 20
0.2281411132812466
 30
0.0
 10
37.88190478515624
 20
0.0210943196614632
 30
0.0
 10
38.44244938151048
 20
0.0213630371093815
 30
0.0
  0
SPLINE
  5
C8
330
76
100
AcDbEntity
  8
0
  6
Continuous
 62
     8
370
     0
100
AcDbSpline
210
0.0
220
0.0
230
1.0
 70
     8
 71
     3
 72
     8
 73
     4
 74
     0
 42
0.000000001
 43
0.00000001
 40
12.0
 40
12.0
 40
12.0
 40
12.0
 40
13.0
 40
13.0
 40
13.0
 40
13.0
 10
35.40486735026044
 20
4.287386881510424
 30
0.0
 10
35.14138989257815
 20
4.569271484375012
 30
0.0
 10
34.73737320963544
 20
4.728620930989594
 30
0.0
 10
34.18986140950525
 20
4.728620930989594
 30
0.0
  0
SPLINE
  5
C9
330
76
100
AcDbEntity
  8
0
  6
Continuous
 62
     8
370
     0
100
AcDbSpline
210
0.0
220
0.0
230
1.0
 70
     8
 71
     3
 72
     8
 73
     4
 74
     0
 42
0.000000001
 43
0.00000001
 40
9.0
 40
9.0
 40
9.0
 40
9.0
 40
10.0
 40
10.0
 40
10.0
 40
10.0
 10
27.88521264648442
 20
2.375462239583334
 30
0.0
 10
27.90093261718751
 20
0.9750412597656355
 30
0.0
 10
28.79092480468753
 20
0.0204225260416607
 30
0.0
 10
29.91994116210939
 20
0.0213630371093815
 30
0.0
  0
SPLINE
  5
CA
330
76
100
AcDbEntity
  8
0
  6
Continuous
 62
     8
370
     0
100
AcDbSpline
210
0.0
220
0.0
230
1.0
 70
     8
 71
     3
 72
     8
 73
     4
 74
     0
 42
0.000000001
 43
0.00000001
 40
3.0
 40
3.0
 40
3.0
 40
3.0
 40
4.0
 40
4.0
 40
4.0
 40
4.0
 10
10.30343310546877
 20
2.374924804687511
 30
0.0
 10
10.30343310546877
 20
1.616738525390626
 30
0.0
 10
10.5281480712891
 20
1.027172444661453
 30
0.0
 10
10.89743302408858
 20
0.6274552408854217
 30
0.0
  0
SPLINE
  5
CB
330
76
100
AcDbEntity
  8
0
  6
Continuous
 62
     8
370
     0
100
AcDbSpline
210
0.0
220
0.0
230
1.0
 70
     8
 71
     3
 72
     8
 73
     4
 74
     0
 42
0.000000001
 43
0.00000001
 40
0.0
 40
0.0
 40
0.0
 40
0.0
 40
1.0
 40
1.0
 40
1.0
 40
1.0
 10
13.71473392740888
 20
4.116818481445322
 30
0.0
 10
13.39401965332035
 20
4.506996215820333
 30
0.0
 10
12.86787089029953
 20
4.728620930989594
 30
0.0
 10
12.33843033854171
 20
4.728620930989594
 30
0.0
  0
SPLINE
  5
CC
330
76
100
AcDbEntity
  8
0
  6
Continuous
 62
     8
370
     0
100
AcDbSpline
210
0.0
220
0.0
230
1.0
 70
     8
 71
     3
 72
     8
 73
     4
 74
     0
 42
0.000000001
 43
0.00000001
 40
2.0
 40
2.0
 40
2.0
 40
2.0
 40
3.0
 40
3.0
 40
3.0
 40
3.0
 10
37.07010937499999
 20
2.374924804687511
 30
0.0
 10
37.0740057779948
 20
3.47538993326825
 30
0.0
 10
37.66787133789068
 20
4.100292358398469
 30
0.0
 10
38.44244938151048
 20
4.102106201171893
 30
0.0
  0
SPLINE
  5
CD
330
76
100
AcDbEntity
  8
0
  6
Continuous
 62
     8
370
     0
100
AcDbSpline
210
0.0
220
0.0
230
1.0
 70
     8
 71
     3
 72
     8
 73
     4
 74
     0
 42
0.000000001
 43
0.00000001
 40
1.0
 40
1.0
 40
1.0
 40
1.0
 40
2.0
 40
2.0
 40
2.0
 40
2.0
 10
17.11360656738284
 20
4.102106201171893
 30
0.0
 10
17.95684191894536
 20
4.100292358398469
 30
0.0
 10
18.26996492513022
 20
3.512808837890624
 30
0.0
 10
18.40002416992192
 20
2.906447916666679
 30
0.0
  0
SPLINE
  5
CE
330
76
100
AcDbEntity
  8
0
  6
Continuous
 62
     8
370
     0
100
AcDbSpline
210
0.0
220
0.0
230
1.0
 70
     8
 71
     3
 72
     8
 73
     4
 74
     0
 42
0.000000001
 43
0.00000001
 40
5.0
 40
5.0
 40
5.0
 40
5.0
 40
6.0
 40
6.0
 40
6.0
 40
6.0
 10
0.0006046142578264
 20
2.342947428385422
 30
0.0
 10
0.0069194742838841
 20
0.8182446289062562
 30
0.0
 10
0.9118926595052257
 20
0.0
 30
0.0
 10
2.031168009440143
 20
0.0
 30
0.0
  0
SPLINE
  5
CF
330
76
100
AcDbEntity
  8
0
  6
Continuous
 62
     8
370
     0
100
AcDbSpline
210
0.0
220
0.0
230
1.0
 70
     8
 71
     3
 72
     8
 73
     4
 74
     0
 42
0.000000001
 43
0.00000001
 40
6.0
 40
6.0
 40
6.0
 40
6.0
 40
7.0
 40
7.0
 40
7.0
 40
7.0
 10
9.038378540039083
 20
0.6274552408854217
 30
0.0
 10
9.407529134114606
 20
1.027172444661453
 30
0.0
 10
9.632311279296896
 20
1.616738525390626
 30
0.0
 10
9.632311279296896
 20
2.374924804687511
 30
0.0
  0
SPLINE
  5
D0
330
76
100
AcDbEntity
  8
0
  6
Continuous
 62
     8
370
     0
100
AcDbSpline
210
0.0
220
0.0
230
1.0
 70
     8
 71
     3
 72
    11
 73
     7
 74
     0
 42
0.000000001
 43
0.00000001
 40
1.0
 40
1.0
 40
1.0
 40
1.0
 40
2.0
 40
2.0
 40
2.0
 40
3.0
 40
3.0
 40
3.0
 40
3.0
 10
2.78068815104171
 20
4.104255940755225
 30
0.0
 10
3.359438354492206
 20
3.885721476237003
 30
0.0
 10
3.758416585286501
 20
3.269686726888044
 30
0.0
 10
3.758416585286501
 20
2.358936116536495
 30
0.0
 10
3.758416585286501
 20
1.441400390625014
 30
0.0
 10
3.360110148111994
 20
0.8297994791666707
 30
0.0
 10
2.782031738281288
 20
0.61254142252605
 30
0.0
  0
SPLINE
  5
D1
330
76
100
AcDbEntity
  8
0
  6
Continuous
 62
     8
370
     0
100
AcDbSpline
210
0.0
220
0.0
230
1.0
 70
     8
 71
     3
 72
     8
 73
     4
 74
     0
 42
0.000000001
 43
0.00000001
 40
0.0
 40
0.0
 40
0.0
 40
0.0
 40
1.0
 40
1.0
 40
1.0
 40
1.0
 10
38.44244938151048
 20
0.6476090494791781
 30
0.0
 10
37.66733390299481
 20
0.6497587890624962
 30
0.0
 10
37.0740057779948
 20
1.265524820963537
 30
0.0
 10
37.0703780924479
 20
2.374924804687511
 30
0.0
  0
SPLINE
  5
D2
330
76
100
AcDbEntity
  8
0
  6
Continuous
 62
     8
370
     0
100
AcDbSpline
210
0.0
220
0.0
230
1.0
 70
     8
 71
     3
 72
     8
 73
     4
 74
     0
 42
0.000000001
 43
0.00000001
 40
3.0
 40
3.0
 40
3.0
 40
3.0
 40
4.0
 40
4.0
 40
4.0
 40
4.0
 10
25.73292024739587
 20
4.140331258138022
 30
0.0
 10
26.15762817382816
 20
4.136972290039065
 30
0.0
 10
26.43978149414067
 20
3.958208007812505
 30
0.0
 10
26.61928474934899
 20
3.656975748697916
 30
0.0
  0
SPLINE
  5
D3
330
76
100
AcDbEntity
  8
0
  6
Continuous
 62
     8
370
     0
100
AcDbSpline
210
0.0
220
0.0
230
1.0
 70
     8
 71
     3
 72
     8
 73
     4
 74
     0
 42
0.000000001
 43
0.00000001
 40
0.0
 40
0.0
 40
0.0
 40
0.0
 40
1.0
 40
1.0
 40
1.0
 40
1.0
 10
21.82442496744796
 20
4.728150675455733
 30
0.0
 10
21.35228841145836
 20
4.729427083333348
 30
0.0
 10
20.8621477864584
 20
4.559060221354175
 30
0.0
 10
20.5614529622396
 20
4.108421061197909
 30
0.0
  0
SPLINE
  5
D4
330
76
100
AcDbEntity
  8
0
  6
Continuous
 62
     8
370
     0
100
AcDbSpline
210
0.0
220
0.0
230
1.0
 70
     8
 71
     3
 72
     8
 73
     4
 74
     0
 42
0.000000001
 43
0.00000001
 40
21.0
 40
21.0
 40
21.0
 40
21.0
 40
22.0
 40
22.0
 40
22.0
 40
22.0
 10
42.01921297200523
 20
0.2488323567708256
 30
0.0
 10
42.17385986328126
 20
0.1375833333333298
 30
0.0
 10
42.37244205729168
 20
0.1101741536458228
 30
0.0
 10
42.57371142578126
 20
0.1099054361979185
 30
0.0
  0
SPLINE
  5
D5
330
76
100
AcDbEntity
  8
0
  6
Continuous
 62
     8
370
     0
100
AcDbSpline
210
0.0
220
0.0
230
1.0
 70
     8
 71
     3
 72
     8
 73
     4
 74
     0
 42
0.000000001
 43
0.00000001
 40
13.0
 40
13.0
 40
13.0
 40
13.0
 40
14.0
 40
14.0
 40
14.0
 40
14.0
 10
25.53138216145839
 20
2.21396305338542
 30
0.0
 10
25.85585847981775
 20
2.148799072265631
 30
0.0
 10
26.17657275390628
 20
2.096667887369785
 30
0.0
 10
26.40686360677086
 20
1.985687581380208
 30
0.0
  0
SPLINE
  5
D6
330
76
100
AcDbEntity
  8
0
  6
Continuous
 62
     8
370
     0
100
AcDbSpline
210
0.0
220
0.0
230
1.0
 70
     8
 71
     3
 72
     8
 73
     4
 74
     0
 42
0.000000001
 43
0.00000001
 40
11.0
 40
11.0
 40
11.0
 40
11.0
 40
12.0
 40
12.0
 40
12.0
 40
12.0
 10
23.42181583658853
 20
3.149032592773438
 30
0.0
 10
23.42181583658853
 20
3.60934558105469
 30
0.0
 10
23.30304272460942
 20
4.006106892903649
 30
0.0
 10
23.03949808756511
 20
4.287386881510424
 30
0.0
  0
SPLINE
  5
D7
330
76
100
AcDbEntity
  8
0
  6
Continuous
 62
     8
370
     0
100
AcDbSpline
210
0.0
220
0.0
230
1.0
 70
     8
 71
     3
 72
     8
 73
     4
 74
     0
 42
0.000000001
 43
0.00000001
 40
0.0
 40
0.0
 40
0.0
 40
0.0
 40
1.0
 40
1.0
 40
1.0
 40
1.0
 10
15.82369563802086
 20
2.906447916666679
 30
0.0
 10
15.93440722656253
 20
3.583212809244785
 30
0.0
 10
16.39525764973962
 20
4.101098510742196
 30
0.0
 10
17.11360656738284
 20
4.102106201171893
 30
0.0
  0
SPLINE
  5
D8
330
76
100
AcDbEntity
  8
0
  6
Continuous
 62
     8
370
     0
100
AcDbSpline
210
0.0
220
0.0
230
1.0
 70
     8
 71
     3
 72
     8
 73
     4
 74
     0
 42
0.000000001
 43
0.00000001
 40
14.0
 40
14.0
 40
14.0
 40
14.0
 40
15.0
 40
15.0
 40
15.0
 40
15.0
 10
26.40686360677086
 20
1.985687581380208
 30
0.0
 10
26.63715445963544
 20
1.871885742187496
 30
0.0
 10
26.7752752278646
 20
1.71911987304689
 30
0.0
 10
26.77796240234376
 20
1.414394287109377
 30
0.0
  0
SPLINE
  5
D9
330
76
100
AcDbEntity
  8
0
  6
Continuous
 62
     8
370
     0
100
AcDbSpline
210
0.0
220
0.0
230
1.0
 70
     8
 71
     3
 72
     8
 73
     4
 74
     0
 42
0.000000001
 43
0.00000001
 40
10.0
 40
10.0
 40
10.0
 40
10.0
 40
11.0
 40
11.0
 40
11.0
 40
11.0
 10
37.00131770833337
 20
4.121991292317703
 30
0.0
 10
36.63277172851564
 20
3.722677164713556
 30
0.0
 10
36.40745214843749
 20
3.132775187174488
 30
0.0
 10
36.40745214843749
 20
2.374924804687511
 30
0.0
  0
SPLINE
  5
DA
330
76
100
AcDbEntity
  8
0
  6
Continuous
 62
     8
370
     0
100
AcDbSpline
210
0.0
220
0.0
230
1.0
 70
     8
 71
     3
 72
     8
 73
     4
 74
     0
 42
0.000000001
 43
0.00000001
 40
7.0
 40
7.0
 40
7.0
 40
7.0
 40
8.0
 40
8.0
 40
8.0
 40
8.0
 10
9.632311279296896
 20
2.374924804687511
 30
0.0
 10
9.632311279296896
 20
3.132775187174488
 30
0.0
 10
9.407529134114606
 20
3.722677164713556
 30
0.0
 10
9.038378540039083
 20
4.121991292317703
 30
0.0
  0
SPLINE
  5
DB
330
76
100
AcDbEntity
  8
0
  6
Continuous
 62
     8
370
     0
100
AcDbSpline
210
0.0
220
0.0
230
1.0
 70
     8
 71
     3
 72
     8
 73
     4
 74
     0
 42
0.000000001
 43
0.00000001
 40
6.0
 40
6.0
 40
6.0
 40
6.0
 40
7.0
 40
7.0
 40
7.0
 40
7.0
 10
2.031168009440143
 20
0.0
 30
0.0
 10
2.114134521484401
 20
0.0
 30
0.0
 10
2.197101033528659
 20
0.0030902506510527
 30
0.0
 10
2.280067545572972
 20
0.0088676757812461
 30
0.0
  0
SPLINE
  5
DC
330
76
100
AcDbEntity
  8
0
  6
Continuous
 62
     8
370
     0
100
AcDbSpline
210
0.0
220
0.0
230
1.0
 70
     8
 71
     3
 72
     8
 73
     4
 74
     0
 42
0.000000001
 43
0.00000001
 40
12.0
 40
12.0
 40
12.0
 40
12.0
 40
13.0
 40
13.0
 40
13.0
 40
13.0
 10
18.36341141764325
 20
1.491650553385432
 30
0.0
 10
18.18061637369794
 20
0.9786689453124969
 30
0.0
 10
17.80501656087241
 20
0.658357747395838
 30
0.0
 10
17.16123673502607
 20
0.6476090494791781
 30
0.0
  0
SPLINE
  5
DD
330
76
100
AcDbEntity
  8
0
  6
Continuous
 62
     8
370
     0
100
AcDbSpline
210
0.0
220
0.0
230
1.0
 70
     8
 71
     3
 72
     8
 73
     4
 74
     0
 42
0.000000001
 43
0.00000001
 40
5.0
 40
5.0
 40
5.0
 40
5.0
 40
6.0
 40
6.0
 40
6.0
 40
6.0
 10
4.484222412109412
 20
2.358936116536467
 30
0.0
 10
4.480460367838557
 20
3.490303751627608
 30
0.0
 10
3.870068684895867
 20
4.133546142578118
 30
0.0
 10
3.072918375651073
 20
4.135091267903651
 30
0.0
  0
SPLINE
  5
DE
330
76
100
AcDbEntity
  8
0
  6
Continuous
 62
     8
370
     0
100
AcDbSpline
210
0.0
220
0.0
230
1.0
 70
     8
 71
     3
 72
     8
 73
     4
 74
     0
 42
0.000000001
 43
0.00000001
 40
6.0
 40
6.0
 40
6.0
 40
6.0
 40
7.0
 40
7.0
 40
7.0
 40
7.0
 10
12.34555135091148
 20
0.0213630371093815
 30
0.0
 10
13.29291471354169
 20
0.0213630371093815
 30
0.0
 10
14.10538191731775
 20
0.5887599283854184
 30
0.0
 10
14.31592203776044
 20
1.709446044921861
 30
0.0
  0
SPLINE
  5
DF
330
76
100
AcDbEntity
  8
0
  6
Continuous
 62
     8
370
     0
100
AcDbSpline
210
0.0
220
0.0
230
1.0
 70
     8
 71
     3
 72
     8
 73
     4
 74
     0
 42
0.000000001
 43
0.00000001
 40
7.0
 40
7.0
 40
7.0
 40
7.0
 40
8.0
 40
8.0
 40
8.0
 40
8.0
 10
31.74708544921878
 20
3.631313232421871
 30
0.0
 10
31.34669645182292
 20
4.552275105794271
 30
0.0
 10
30.60342399088545
 20
4.731308105468749
 30
0.0
 10
30.04704451497398
 20
4.728150675455733
 30
0.0
  0
SPLINE
  5
E0
330
76
100
AcDbEntity
  8
0
  6
Continuous
 62
     8
370
     0
100
AcDbSpline
210
0.0
220
0.0
230
1.0
 70
     8
 71
     3
 72
     8
 73
     4
 74
     0
 42
0.000000001
 43
0.00000001
 40
3.0
 40
3.0
 40
3.0
 40
3.0
 40
4.0
 40
4.0
 40
4.0
 40
4.0
 10
29.97462516276045
 20
4.102106201171893
 30
0.0
 10
30.48680061848963
 20
4.100292358398469
 30
0.0
 10
30.87697835286463
 20
3.949541870117188
 30
0.0
 10
31.04989803059899
 20
3.587915364583347
 30
0.0
  0
SPLINE
  5
E1
330
76
100
AcDbEntity
  8
0
  6
Continuous
 62
     8
370
     0
100
AcDbSpline
210
0.0
220
0.0
230
1.0
 70
     8
 71
     3
 72
     8
 73
     4
 74
     0
 42
0.000000001
 43
0.00000001
 40
20.0
 40
20.0
 40
20.0
 40
20.0
 40
21.0
 40
21.0
 40
21.0
 40
21.0
 10
24.03180444335939
 20
1.303279622395834
 30
0.0
 10
24.2849362792969
 20
0.4874534505208278
 30
0.0
 10
25.03210514322923
 20
0.0353363444010463
 30
0.0
 10
25.74474381510422
 20
0.0114204915364485
 30
0.0
  0
SPLINE
  5
E2
330
76
100
AcDbEntity
  8
0
  6
Continuous
 62
     8
370
     0
100
AcDbSpline
210
0.0
220
0.0
230
1.0
 70
     8
 71
     3
 72
     8
 73
     4
 74
     0
 42
0.000000001
 43
0.00000001
 40
0.0
 40
0.0
 40
0.0
 40
0.0
 40
1.0
 40
1.0
 40
1.0
 40
1.0
 10
19.14860380045574
 20
2.395347330729172
 30
0.0
 10
19.10755721028651
 20
3.703060791015622
 30
0.0
 10
18.44348921712247
 20
4.731039388020831
 30
0.0
 10
17.11360656738284
 20
4.728620930989594
 30
0.0
  0
SPLINE
  5
E3
330
76
100
AcDbEntity
  8
0
  6
Continuous
 62
     8
370
     0
100
AcDbSpline
210
0.0
220
0.0
230
1.0
 70
     8
 71
     3
 72
     8
 73
     4
 74
     0
 42
0.000000001
 43
0.00000001
 40
12.0
 40
12.0
 40
12.0
 40
12.0
 40
13.0
 40
13.0
 40
13.0
 40
13.0
 10
24.19128824869793
 20
3.454698689778657
 30
0.0
 10
24.18886979166673
 20
2.544216796875012
 30
0.0
 10
24.88820694986982
 20
2.337170003255201
 30
0.0
 10
25.53138216145839
 20
2.21396305338542
 30
0.0
  0
SPLINE
  5
E4
330
76
100
AcDbEntity
  8
0
  6
Continuous
 62
     8
370
     0
100
AcDbSpline
210
0.0
220
0.0
230
1.0
 70
     8
 71
     3
 72
     8
 73
     4
 74
     0
 42
0.000000001
 43
0.00000001
 40
15.0
 40
15.0
 40
15.0
 40
15.0
 40
16.0
 40
16.0
 40
16.0
 40
16.0
 10
26.77796240234376
 20
1.414394287109377
 30
0.0
 10
26.77769368489585
 20
0.7505278320312503
 30
0.0
 10
26.24093058268234
 20
0.5987024739583374
 30
0.0
 10
25.79203808593755
 20
0.5801609700520766
 30
0.0
  0
SPLINE
  5
E5
330
76
100
AcDbEntity
  8
0
  6
Continuous
 62
     8
370
     0
100
AcDbSpline
210
0.0
220
0.0
230
1.0
 70
     8
 71
     3
 72
     8
 73
     4
 74
     0
 42
0.000000001
 43
0.00000001
 40
6.0
 40
6.0
 40
6.0
 40
6.0
 40
7.0
 40
7.0
 40
7.0
 40
7.0
 10
17.14806958007817
 20
0.0221691894531223
 30
0.0
 10
17.15707161458338
 20
0.0221691894531223
 30
0.0
 10
17.16936543782555
 20
0.0213630371093815
 30
0.0
 10
17.18374182128909
 20
0.0213630371093815
 30
0.0
  0
SPLINE
  5
E6
330
76
100
AcDbEntity
  8
0
  6
Continuous
 62
     8
370
     0
100
AcDbSpline
210
0.0
220
0.0
230
1.0
 70
     8
 71
     3
 72
     8
 73
     4
 74
     0
 42
0.000000001
 43
0.00000001
 40
2.0
 40
2.0
 40
2.0
 40
2.0
 40
3.0
 40
3.0
 40
3.0
 40
3.0
 10
28.54786987304692
 20
2.374924804687511
 30
0.0
 10
28.55096012369795
 20
3.552310302734369
 30
0.0
 10
29.25862752278652
 20
4.099284667968758
 30
0.0
 10
29.97462516276045
 20
4.102106201171893
 30
0.0
  0
SPLINE
  5
E7
330
76
100
AcDbEntity
  8
0
  6
Continuous
 62
     8
370
     0
100
AcDbSpline
210
0.0
220
0.0
230
1.0
 70
     8
 71
     3
 72
     8
 73
     4
 74
     0
 42
0.000000001
 43
0.00000001
 40
1.0
 40
1.0
 40
1.0
 40
1.0
 40
2.0
 40
2.0
 40
2.0
 40
2.0
 10
25.22343196614585
 20
2.941784261067698
 30
0.0
 10
24.99045393880212
 20
3.047457397460942
 30
0.0
 10
24.8559608561198
 20
3.179397664388031
 30
0.0
 10
24.85381111653651
 20
3.43662744140627
 30
0.0
  0
SPLINE
  5
E8
330
76
100
AcDbEntity
  8
0
  6
Continuous
 62
     8
370
     0
100
AcDbSpline
210
0.0
220
0.0
230
1.0
 70
     8
 71
     3
 72
     8
 73
     4
 74
     0
 42
0.000000001
 43
0.00000001
 40
7.0
 40
7.0
 40
7.0
 40
7.0
 40
8.0
 40
8.0
 40
8.0
 40
8.0
 10
21.75140100097656
 20
4.102106201171893
 30
0.0
 10
22.42581461588544
 20
4.091155965169277
 30
0.0
 10
22.74793965657551
 20
3.851930257161462
 30
0.0
 10
22.75922578938805
 20
2.984913411458332
 30
0.0
  0
SPLINE
  5
E9
330
76
100
AcDbEntity
  8
0
  6
Continuous
 62
     8
370
     0
100
AcDbSpline
210
0.0
220
0.0
230
1.0
 70
     8
 71
     3
 72
     8
 73
     4
 74
     0
 42
0.000000001
 43
0.00000001
 40
1.0
 40
1.0
 40
1.0
 40
1.0
 40
2.0
 40
2.0
 40
2.0
 40
2.0
 10
6.225242757161492
 20
2.374924804687511
 30
0.0
 10
6.229004801432319
 20
3.47538993326825
 30
0.0
 10
6.82280318196618
 20
4.100292358398455
 30
0.0
 10
7.597314046223991
 20
4.102106201171865
 30
0.0
  0
SPLINE
  5
EA
330
76
100
AcDbEntity
  8
0
  6
Continuous
 62
     8
370
     0
100
AcDbSpline
210
0.0
220
0.0
230
1.0
 70
     8
 71
     3
 72
     8
 73
     4
 74
     0
 42
0.000000001
 43
0.00000001
 40
8.0
 40
8.0
 40
8.0
 40
8.0
 40
9.0
 40
9.0
 40
9.0
 40
9.0
 10
17.18857873535159
 20
0.0213630371093815
 30
0.0
 10
18.05525968424482
 20
0.0213630371093815
 30
0.0
 10
18.79960701497402
 20
0.5244020996093696
 30
0.0
 10
19.08646289062504
 20
1.455508056640617
 30
0.0
  0
SPLINE
  5
EB
330
76
100
AcDbEntity
  8
0
  6
Continuous
 62
     8
370
     0
100
AcDbSpline
210
0.0
220
0.0
230
1.0
 70
     8
 71
     3
 72
     8
 73
     4
 74
     0
 42
0.000000001
 43
0.00000001
 40
8.0
 40
8.0
 40
8.0
 40
8.0
 40
9.0
 40
9.0
 40
9.0
 40
9.0
 10
25.76274788411459
 20
4.716125569661458
 30
0.0
 10
25.74649047851568
 20
4.716125569661458
 30
0.0
 10
25.73292024739587
 20
4.715050699869799
 30
0.0
 10
25.72109667968753
 20
4.715050699869799
 30
0.0
  0
SPLINE
  5
EC
330
76
100
AcDbEntity
  8
0
  6
Continuous
 62
     8
370
     0
100
AcDbSpline
210
0.0
220
0.0
230
1.0
 70
     8
 71
     3
 72
     8
 73
     4
 74
     0
 42
0.000000001
 43
0.00000001
 40
20.0
 40
20.0
 40
20.0
 40
20.0
 40
21.0
 40
21.0
 40
21.0
 40
21.0
 10
41.76849959309897
 20
0.8538496907552207
 30
0.0
 10
41.7674247233073
 20
0.5558420410156223
 30
0.0
 10
41.86375992838548
 20
0.3600813802083214
 30
0.0
 10
42.01921297200523
 20
0.2488323567708256
 30
0.0
  0
SPLINE
  5
ED
330
76
100
AcDbEntity
  8
0
  6
Continuous
 62
     8
370
     0
100
AcDbSpline
210
0.0
220
0.0
230
1.0
 70
     8
 71
     3
 72
     8
 73
     4
 74
     0
 42
0.000000001
 43
0.00000001
 40
2.0
 40
2.0
 40
2.0
 40
2.0
 40
3.0
 40
3.0
 40
3.0
 40
3.0
 10
5.562719889322942
 20
2.374924804687511
 30
0.0
 10
5.56258553059899
 20
1.616738525390626
 30
0.0
 10
5.78736767578128
 20
1.027172444661453
 30
0.0
 10
6.156383911132823
 20
0.6274552408854217
 30
0.0
  0
SPLINE
  5
EE
330
76
100
AcDbEntity
  8
0
  6
Continuous
 62
     8
370
     0
100
AcDbSpline
210
0.0
220
0.0
230
1.0
 70
     8
 71
     3
 72
     8
 73
     4
 74
     0
 42
0.000000001
 43
0.00000001
 40
8.0
 40
8.0
 40
8.0
 40
8.0
 40
9.0
 40
9.0
 40
9.0
 40
9.0
 10
30.04704451497398
 20
4.728150675455733
 30
0.0
 10
28.75840999348961
 20
4.731308105468749
 30
0.0
 10
27.89932031250003
 20
3.773464762369796
 30
0.0
 10
27.88521264648442
 20
2.375462239583334
 30
0.0
  0
SPLINE
  5
EF
330
76
100
AcDbEntity
  8
0
  6
Continuous
 62
     8
370
     0
100
AcDbSpline
210
0.0
220
0.0
230
1.0
 70
     8
 71
     3
 72
     8
 73
     4
 74
     0
 42
0.000000001
 43
0.00000001
 40
14.0
 40
14.0
 40
14.0
 40
14.0
 40
15.0
 40
15.0
 40
15.0
 40
15.0
 10
17.14827111816408
 20
0.6478777669270824
 30
0.0
 10
16.2179713134766
 20
0.657282877604165
 30
0.0
 10
15.82094128417971
 20
1.317387288411478
 30
0.0
 10
15.81482796223962
 20
2.27469319661458
 30
0.0
  0
SPLINE
  5
F0
330
76
100
AcDbEntity
  8
0
  6
Continuous
 62
     8
370
     0
100
AcDbSpline
210
0.0
220
0.0
230
1.0
 70
     8
 71
     3
 72
     8
 73
     4
 74
     0
 42
0.000000001
 43
0.00000001
 40
2.0
 40
2.0
 40
2.0
 40
2.0
 40
3.0
 40
3.0
 40
3.0
 40
3.0
 10
15.67294514973963
 20
4.121991292317703
 30
0.0
 10
15.30392891438806
 20
3.722677164713556
 30
0.0
 10
15.07874369303389
 20
3.132775187174488
 30
0.0
 10
15.07914676920577
 20
2.374387369791661
 30
0.0
  0
SPLINE
  5
F1
330
76
100
AcDbEntity
  8
0
  6
Continuous
 62
     8
370
     0
100
AcDbSpline
210
0.0
220
0.0
230
1.0
 70
     8
 71
     3
 72
     8
 73
     4
 74
     0
 42
0.000000001
 43
0.00000001
 40
3.0
 40
3.0
 40
3.0
 40
3.0
 40
4.0
 40
4.0
 40
4.0
 40
4.0
 10
2.782031738281288
 20
0.61254142252605
 30
0.0
 10
2.875411051432325
 20
0.592656331380198
 30
0.0
 10
2.97268676757817
 20
0.5827137858072928
 30
0.0
 10
3.072918375651073
 20
0.5823107096354085
 30
0.0
  0
SPLINE
  5
F2
330
76
100
AcDbEntity
  8
0
  6
Continuous
 62
     8
370
     0
100
AcDbSpline
210
0.0
220
0.0
230
1.0
 70
     8
 71
     3
 72
     8
 73
     4
 74
     0
 42
0.000000001
 43
0.00000001
 40
2.0
 40
2.0
 40
2.0
 40
2.0
 40
3.0
 40
3.0
 40
3.0
 40
3.0
 10
24.85381111653651
 20
3.43662744140627
 30
0.0
 10
24.86281315104172
 20
3.834396443684898
 30
0.0
 10
25.00859236653647
 20
4.105532348632812
 30
0.0
 10
25.73292024739587
 20
4.140331258138022
 30
0.0
  0
SPLINE
  5
F3
330
76
100
AcDbEntity
  8
0
  6
Continuous
 62
     8
370
     0
100
AcDbSpline
210
0.0
220
0.0
230
1.0
 70
     8
 71
     3
 72
     8
 73
     4
 74
     0
 42
0.000000001
 43
0.00000001
 40
3.0
 40
3.0
 40
3.0
 40
3.0
 40
4.0
 40
4.0
 40
4.0
 40
4.0
 10
8.9693181559245
 20
2.374924804687511
 30
0.0
 10
8.965757649739615
 20
1.265524820963537
 30
0.0
 10
8.372631062825542
 20
0.6497587890624962
 30
0.0
 10
7.597314046223991
 20
0.6473403320312598
 30
0.0
  0
SPLINE
  5
F4
330
76
100
AcDbEntity
  8
0
  6
Continuous
 62
     8
370
     0
100
AcDbSpline
210
0.0
220
0.0
230
1.0
 70
     8
 71
     3
 72
     8
 73
     4
 74
     0
 42
0.000000001
 43
0.00000001
 40
0.0
 40
0.0
 40
0.0
 40
0.0
 40
1.0
 40
1.0
 40
1.0
 40
1.0
 10
31.10619433593753
 20
1.32491137695312
 30
0.0
 10
30.92010750325525
 20
0.9410485026041526
 30
0.0
 10
30.58179223632818
 20
0.6500275065104283
 30
0.0
 10
29.91994116210939
 20
0.6473403320312598
 30
0.0
  0
SPLINE
  5
F5
330
76
100
AcDbEntity
  8
0
  6
Continuous
 62
     8
370
     0
100
AcDbSpline
210
0.0
220
0.0
230
1.0
 70
     8
 71
     3
 72
     8
 73
     4
 74
     0
 42
0.000000001
 43
0.00000001
 40
0.0
 40
0.0
 40
0.0
 40
0.0
 40
1.0
 40
1.0
 40
1.0
 40
1.0
 10
7.597314046223991
 20
0.6473403320312598
 30
0.0
 10
6.822332926432306
 20
0.6497587890624962
 30
0.0
 10
6.229273518880252
 20
1.265524820963537
 30
0.0
 10
6.225242757161492
 20
2.374924804687511
 30
0.0
  0
SPLINE
  5
F6
330
76
100
AcDbEntity
  8
0
  6
Continuous
 62
     8
370
     0
100
AcDbSpline
210
0.0
220
0.0
230
1.0
 70
     8
 71
     3
 72
     8
 73
     4
 74
     0
 42
0.000000001
 43
0.00000001
 40
7.0
 40
7.0
 40
7.0
 40
7.0
 40
8.0
 40
8.0
 40
8.0
 40
8.0
 10
14.31592203776044
 20
1.709446044921861
 30
0.0
 10
14.35723734537764
 20
1.929256917317712
 30
0.0
 10
14.37188244628909
 20
2.175805175781267
 30
0.0
 10
14.37188244628909
 20
2.301564941406236
 30
0.0
  0
SPLINE
  5
F7
330
76
100
AcDbEntity
  8
0
  6
Continuous
 62
     8
370
     0
100
AcDbSpline
210
0.0
220
0.0
230
1.0
 70
     8
 71
     3
 72
     8
 73
     4
 74
     0
 42
0.000000001
 43
0.00000001
 40
7.0
 40
7.0
 40
7.0
 40
7.0
 40
8.0
 40
8.0
 40
8.0
 40
8.0
 10
27.25869791666668
 20
3.709845906575512
 30
0.0
 10
26.96969230143231
 20
4.365382120768244
 30
0.0
 10
26.40552001953128
 20
4.717133260091141
 30
0.0
 10
25.76274788411459
 20
4.716125569661458
 30
0.0
  0
SPLINE
  5
F8
330
76
100
AcDbEntity
  8
0
  6
Continuous
 62
     8
370
     0
100
AcDbSpline
210
0.0
220
0.0
230
1.0
 70
     8
 71
     3
 72
     8
 73
     4
 74
     0
 42
0.000000001
 43
0.00000001
 40
1.0
 40
1.0
 40
1.0
 40
1.0
 40
2.0
 40
2.0
 40
2.0
 40
2.0
 10
6.156383911132823
 20
4.121991292317703
 30
0.0
 10
5.78736767578128
 20
3.722677164713556
 30
0.0
 10
5.56258553059899
 20
3.132775187174488
 30
0.0
 10
5.562719889322942
 20
2.374924804687511
 30
0.0
  0
SPLINE
  5
F9
330
76
100
AcDbEntity
  8
0
  6
Continuous
 62
     8
370
     0
100
AcDbSpline
210
0.0
220
0.0
230
1.0
 70
     8
 71
     3
 72
     8
 73
     4
 74
     0
 42
0.000000001
 43
0.00000001
 40
0.0
 40
0.0
 40
0.0
 40
0.0
 40
1.0
 40
1.0
 40
1.0
 40
1.0
 10
26.10213802083333
 20
2.708537516276047
 30
0.0
 10
25.77739298502607
 20
2.783375325520837
 30
0.0
 10
25.45546948242189
 20
2.838596761067707
 30
0.0
 10
25.22343196614585
 20
2.941784261067698
 30
0.0
  0
SPLINE
  5
FA
330
76
100
AcDbEntity
  8
0
  6
Continuous
 62
     8
370
     0
100
AcDbSpline
210
0.0
220
0.0
230
1.0
 70
     8
 71
     3
 72
     8
 73
     4
 74
     0
 42
0.000000001
 43
0.00000001
 40
7.0
 40
7.0
 40
7.0
 40
7.0
 40
8.0
 40
8.0
 40
8.0
 40
8.0
 10
34.11703898111984
 20
4.102106201171893
 30
0.0
 10
34.79098234049482
 20
4.090887247721373
 30
0.0
 10
35.11317456054691
 20
3.851930257161462
 30
0.0
 10
35.12419197591149
 20
2.985450846354182
 30
0.0
  0
SPLINE
  5
FB
330
76
100
AcDbEntity
  8
0
  6
Continuous
 62
     8
370
     0
100
AcDbSpline
210
0.0
220
0.0
230
1.0
 70
     8
 71
     3
 72
     8
 73
     4
 74
     0
 42
0.000000001
 43
0.00000001
 40
4.0
 40
4.0
 40
4.0
 40
4.0
 40
5.0
 40
5.0
 40
5.0
 40
5.0
 10
3.072918375651073
 20
0.5823107096354085
 30
0.0
 10
3.870538940429741
 20
0.5843260904947883
 30
0.0
 10
4.4800572916667
 20
1.218499267578124
 30
0.0
 10
4.484222412109412
 20
2.358936116536467
 30
0.0
  0
SPLINE
  5
FC
330
76
100
AcDbEntity
  8
0
  6
Continuous
 62
     8
370
     0
100
AcDbSpline
210
0.0
220
0.0
230
1.0
 70
     8
 71
     3
 72
     8
 73
     4
 74
     0
 42
0.000000001
 43
0.00000001
 40
4.0
 40
4.0
 40
4.0
 40
4.0
 40
5.0
 40
5.0
 40
5.0
 40
5.0
 10
15.67294514973963
 20
0.6274552408854217
 30
0.0
 10
16.04169266764327
 20
0.2281411132812466
 30
0.0
 10
16.55319632975266
 20
0.0210943196614632
 30
0.0
 10
17.11360656738284
 20
0.0213630371093815
 30
0.0
  0
SPLINE
  5
FD
330
76
100
AcDbEntity
  8
0
  6
Continuous
 62
     8
370
     0
100
AcDbSpline
210
0.0
220
0.0
230
1.0
 70
     8
 71
     3
 72
     8
 73
     4
 74
     0
 42
0.000000001
 43
0.00000001
 40
1.0
 40
1.0
 40
1.0
 40
1.0
 40
2.0
 40
2.0
 40
2.0
 40
2.0
 10
12.33843033854171
 20
4.728620930989594
 30
0.0
 10
11.77761702473962
 20
4.728620930989594
 30
0.0
 10
11.2662477213542
 20
4.522178751627623
 30
0.0
 10
10.89743302408858
 20
4.121991292317703
 30
0.0
  0
SPLINE
  5
FE
330
76
100
AcDbEntity
  8
0
  6
Continuous
 62
     8
370
     0
100
AcDbSpline
210
0.0
220
0.0
230
1.0
 70
     8
 71
     3
 72
     8
 73
     4
 74
     0
 42
0.000000001
 43
0.00000001
 40
1.0
 40
1.0
 40
1.0
 40
1.0
 40
2.0
 40
2.0
 40
2.0
 40
2.0
 10
29.91994116210939
 20
0.6473403320312598
 30
0.0
 10
29.26091162109379
 20
0.6494900716145918
 30
0.0
 10
28.55015397135418
 20
1.197270589192695
 30
0.0
 10
28.54786987304692
 20
2.374924804687511
 30
0.0
  0
SPLINE
  5
FF
330
76
100
AcDbEntity
  8
0
  6
Continuous
 62
     8
370
     0
100
AcDbSpline
210
0.0
220
0.0
230
1.0
 70
    24
 71
     2
 72
     6
 73
     3
 74
     0
 42
0.000000001
 43
0.00000001
 40
24.0
 40
24.0
 40
24.0
 40
25.0
 40
25.0
 40
25.0
 10
43.15817187500004
 20
0.67380900065106
 30
0.0
 10
42.94333227539065
 20
0.67380900065106
 30
0.0
 10
42.6923501790365
 20
0.67380900065106
 30
0.0
  0
SPLINE
  5
100
330
76
100
AcDbEntity
  8
0
  6
Continuous
 62
     8
370
     0
100
AcDbSpline
210
0.0
220
0.0
230
1.0
 70
     8
 71
     3
 72
     8
 73
     4
 74
     0
 42
0.000000001
 43
0.00000001
 40
7.0
 40
7.0
 40
7.0
 40
7.0
 40
8.0
 40
8.0
 40
8.0
 40
8.0
 10
2.280067545572972
 20
0.0088676757812461
 30
0.0
 10
1.401764567057318
 20
0.2313657226562377
 30
0.0
 10
0.7479078369140857
 20
1.020320149739601
 30
0.0
 10
0.7272837727864967
 20
2.284904459635417
 30
0.0
  0
SPLINE
  5
101
330
76
100
AcDbEntity
  8
0
  6
Continuous
 62
     8
370
     0
100
AcDbSpline
210
0.0
220
0.0
230
1.0
 70
     8
 71
     3
 72
     8
 73
     4
 74
     0
 42
0.000000001
 43
0.00000001
 40
12.0
 40
12.0
 40
12.0
 40
12.0
 40
13.0
 40
13.0
 40
13.0
 40
13.0
 10
23.03949808756511
 20
4.287386881510424
 30
0.0
 10
22.77622216796876
 20
4.569540201822917
 30
0.0
 10
22.37213830566409
 20
4.728889648437498
 30
0.0
 10
21.82442496744796
 20
4.728150675455733
 30
0.0
  0
SPLINE
  5
102
330
76
100
AcDbEntity
  8
0
  6
Continuous
 62
     8
370
     0
100
AcDbSpline
210
0.0
220
0.0
230
1.0
 70
     8
 71
     3
 72
     8
 73
     4
 74
     0
 42
0.000000001
 43
0.00000001
 40
3.0
 40
3.0
 40
3.0
 40
3.0
 40
4.0
 40
4.0
 40
4.0
 40
4.0
 10
15.07914676920577
 20
2.374387369791661
 30
0.0
 10
15.07874369303389
 20
1.616738525390626
 30
0.0
 10
15.30392891438806
 20
1.027172444661453
 30
0.0
 10
15.67294514973963
 20
0.6274552408854217
 30
0.0
  0
SPLINE
  5
103
330
76
100
AcDbEntity
  8
0
  6
Continuous
 62
     8
370
     0
100
AcDbSpline
210
0.0
220
0.0
230
1.0
 70
     8
 71
     3
 72
     8
 73
     4
 74
     0
 42
0.000000001
 43
0.00000001
 40
0.0
 40
0.0
 40
0.0
 40
0.0
 40
1.0
 40
1.0
 40
1.0
 40
1.0
 10
12.33843033854168
 20
0.6476090494791851
 30
0.0
 10
11.56291178385418
 20
0.6497587890625032
 30
0.0
 10
10.97012109375003
 20
1.265524820963551
 30
0.0
 10
10.96635904947918
 20
2.374924804687511
 30
0.0
  0
SPLINE
  5
104
330
76
100
AcDbEntity
  8
0
  6
Continuous
 62
     8
370
     0
100
AcDbSpline
210
0.0
220
0.0
230
1.0
 70
     8
 71
     3
 72
     8
 73
     4
 74
     0
 42
0.000000001
 43
0.00000001
 40
1.0
 40
1.0
 40
1.0
 40
1.0
 40
2.0
 40
2.0
 40
2.0
 40
2.0
 10
10.96635904947921
 20
2.374924804687505
 30
0.0
 10
10.96991955566412
 20
3.475389933268257
 30
0.0
 10
11.56331486002607
 20
4.100292358398463
 30
0.0
 10
12.33843033854171
 20
4.102106201171893
 30
0.0
  0
SPLINE
  5
105
330
76
100
AcDbEntity
  8
0
  6
Continuous
 62
     8
370
     0
100
AcDbSpline
210
0.0
220
0.0
230
1.0
 70
     8
 71
     3
 72
     8
 73
     4
 74
     0
 42
0.000000001
 43
0.00000001
 40
0.0
 40
0.0
 40
0.0
 40
0.0
 40
1.0
 40
1.0
 40
1.0
 40
1.0
 10
7.597314046223991
 20
4.728150675455733
 30
0.0
 10
7.036769449869834
 20
4.728620930989594
 30
0.0
 10
6.52513142903649
 20
4.522178751627623
 30
0.0
 10
6.156383911132823
 20
4.121991292317703
 30
0.0
  0
SPLINE
  5
106
330
76
100
AcDbEntity
  8
0
  6
Continuous
 62
     8
370
     0
100
AcDbSpline
210
0.0
220
0.0
230
1.0
 70
     8
 71
     3
 72
     8
 73
     4
 74
     0
 42
0.000000001
 43
0.00000001
 40
8.0
 40
8.0
 40
8.0
 40
8.0
 40
9.0
 40
9.0
 40
9.0
 40
9.0
 10
39.80068172200524
 20
4.202136271158855
 30
0.0
 10
39.43979418945315
 20
4.548042805989583
 30
0.0
 10
38.96308943684895
 20
4.728620930989594
 30
0.0
 10
38.44244938151048
 20
4.728150675455733
 30
0.0
  0
SPLINE
  5
107
330
76
100
AcDbEntity
  8
0
  6
Continuous
 62
     8
370
     0
100
AcDbSpline
210
0.0
220
0.0
230
1.0
 70
     8
 71
     3
 72
     8
 73
     4
 74
     0
 42
0.000000001
 43
0.00000001
 40
9.0
 40
9.0
 40
9.0
 40
9.0
 40
10.0
 40
10.0
 40
10.0
 40
10.0
 10
38.44244938151048
 20
4.728150675455733
 30
0.0
 10
37.88190478515624
 20
4.728620930989594
 30
0.0
 10
37.37026676432292
 20
4.522178751627623
 30
0.0
 10
37.00131770833337
 20
4.121991292317703
 30
0.0
  0
SPLINE
  5
108
330
76
100
AcDbEntity
  8
0
  6
Continuous
 62
     8
370
     0
100
AcDbSpline
210
0.0
220
0.0
230
1.0
 70
     8
 71
     3
 72
     8
 73
     4
 74
     0
 42
0.000000001
 43
0.00000001
 40
0.0
 40
0.0
 40
0.0
 40
0.0
 40
1.0
 40
1.0
 40
1.0
 40
1.0
 10
3.072918375651073
 20
4.135091267903651
 30
0.0
 10
2.972149332682333
 20
4.134822550455733
 30
0.0
 10
2.874537719726566
 20
4.124409749348967
 30
0.0
 10
2.78068815104171
 20
4.104255940755225
 30
0.0
  0
SPLINE
  5
109
330
76
100
AcDbEntity
  8
0
  6
Continuous
 62
     8
370
     0
100
AcDbSpline
210
0.0
220
0.0
230
1.0
 70
     8
 71
     3
 72
     8
 73
     4
 74
     0
 42
0.000000001
 43
0.00000001
 40
8.0
 40
8.0
 40
8.0
 40
8.0
 40
9.0
 40
9.0
 40
9.0
 40
9.0
 10
9.038378540039083
 20
4.121991292317703
 30
0.0
 10
8.669295125325549
 20
4.522178751627623
 30
0.0
 10
8.157925821940138
 20
4.728620930989594
 30
0.0
 10
7.597314046223991
 20
4.728150675455733
 30
0.0
  0
SPLINE
  5
10A
330
76
100
AcDbEntity
  8
0
  6
Continuous
 62
     8
370
     0
100
AcDbSpline
210
0.0
220
0.0
230
1.0
 70
     8
 71
     3
 72
     8
 73
     4
 74
     0
 42
0.000000001
 43
0.00000001
 40
3.0
 40
3.0
 40
3.0
 40
3.0
 40
4.0
 40
4.0
 40
4.0
 40
4.0
 10
38.44244938151048
 20
4.102106201171893
 30
0.0
 10
39.2168930664063
 20
4.100292358398469
 30
0.0
 10
39.81062426757814
 20
3.47538993326825
 30
0.0
 10
39.81465502929687
 20
2.374924804687511
 30
0.0
  0
SPLINE
  5
10B
330
76
100
AcDbEntity
  8
0
  6
Continuous
 62
     8
370
     0
100
AcDbSpline
210
0.0
220
0.0
230
1.0
 70
     8
 71
     3
 72
     8
 73
     4
 74
     0
 42
0.000000001
 43
0.00000001
 40
2.0
 40
2.0
 40
2.0
 40
2.0
 40
3.0
 40
3.0
 40
3.0
 40
3.0
 10
10.89743302408858
 20
4.121991292317703
 30
0.0
 10
10.5281480712891
 20
3.722677164713556
 30
0.0
 10
10.30343310546877
 20
3.132775187174488
 30
0.0
 10
10.30343310546877
 20
2.374924804687511
 30
0.0
  0
SPLINE
  5
10C
330
76
100
AcDbEntity
  8
0
  6
Continuous
 62
     8
370
     0
100
AcDbSpline
210
0.0
220
0.0
230
1.0
 70
     8
 71
     3
 72
     8
 73
     4
 74
     0
 42
0.000000001
 43
0.00000001
 40
4.0
 40
4.0
 40
4.0
 40
4.0
 40
5.0
 40
5.0
 40
5.0
 40
5.0
 10
39.81465502929687
 20
2.374924804687511
 30
0.0
 10
39.81062426757814
 20
1.265524820963537
 30
0.0
 10
39.21743050130211
 20
0.6497587890624962
 30
0.0
 10
38.44244938151048
 20
0.6476090494791781
 30
0.0
  0
SPLINE
  5
10D
330
76
100
AcDbEntity
  8
0
  6
Continuous
 62
     8
370
     0
100
AcDbSpline
210
0.0
220
0.0
230
1.0
 70
     8
 71
     3
 72
     8
 73
     4
 74
     0
 42
0.000000001
 43
0.00000001
 40
5.0
 40
5.0
 40
5.0
 40
5.0
 40
6.0
 40
6.0
 40
6.0
 40
6.0
 10
7.599195068359377
 20
0.0213630371093815
 30
0.0
 10
8.159067871093772
 20
0.0213630371093815
 30
0.0
 10
8.669496663411492
 20
0.2281411132812466
 30
0.0
 10
9.038378540039083
 20
0.6274552408854217
 30
0.0
  0
SPLINE
  5
10E
330
76
100
AcDbEntity
  8
0
  6
Continuous
 62
     8
370
     0
100
AcDbSpline
210
0.0
220
0.0
230
1.0
 70
     8
 71
     3
 72
     8
 73
     4
 74
     0
 42
0.000000001
 43
0.00000001
 40
0.0
 40
0.0
 40
0.0
 40
0.0
 40
1.0
 40
1.0
 40
1.0
 40
1.0
 10
34.18986140950525
 20
4.728620930989594
 30
0.0
 10
33.71799357096356
 20
4.729427083333348
 30
0.0
 10
33.22677807617191
 20
4.558791503906257
 30
0.0
 10
32.92688940429689
 20
4.101098510742196
 30
0.0
  0
SPLINE
  5
10F
330
76
100
AcDbEntity
  8
0
  6
Continuous
 62
     8
370
     0
100
AcDbSpline
210
0.0
220
0.0
230
1.0
 70
     8
 71
     3
 72
     8
 73
     4
 74
     0
 42
0.000000001
 43
0.00000001
 40
5.0
 40
5.0
 40
5.0
 40
5.0
 40
6.0
 40
6.0
 40
6.0
 40
6.0
 10
17.11360656738284
 20
0.0213630371093815
 30
0.0
 10
17.12838602701827
 20
0.0213630371093815
 30
0.0
 10
17.13926908365887
 20
0.0221691894531223
 30
0.0
 10
17.14806958007817
 20
0.0221691894531223
 30
0.0
  0
SPLINE
  5
110
330
76
100
AcDbEntity
  8
0
  6
Continuous
 62
     8
370
     0
100
AcDbSpline
210
0.0
220
0.0
230
1.0
 70
     8
 71
     3
 72
     8
 73
     4
 74
     0
 42
0.000000001
 43
0.00000001
 40
3.0
 40
3.0
 40
3.0
 40
3.0
 40
4.0
 40
4.0
 40
4.0
 40
4.0
 10
6.156383911132823
 20
0.6274552408854217
 30
0.0
 10
6.52513142903649
 20
0.2281411132812466
 30
0.0
 10
7.036769449869834
 20
0.0210943196614632
 30
0.0
 10
7.597314046223991
 20
0.0213630371093815
 30
0.0
  0
SPLINE
  5
111
330
76
100
AcDbEntity
  8
0
  6
Continuous
 62
     8
370
     0
100
AcDbSpline
210
0.0
220
0.0
230
1.0
 70
     8
 71
     3
 72
     8
 73
     4
 74
     0
 42
0.000000001
 43
0.00000001
 40
16.0
 40
16.0
 40
16.0
 40
16.0
 40
17.0
 40
17.0
 40
17.0
 40
17.0
 10
25.79203808593755
 20
0.5801609700520766
 30
0.0
 10
25.41449007161462
 20
0.5882224934895819
 30
0.0
 10
24.87396492513022
 20
0.7154602050781361
 30
0.0
 10
24.69365551757813
 20
1.33619750976563
 30
0.0
  0
SPLINE
  5
112
330
76
100
AcDbEntity
  8
0
  6
Continuous
 62
     8
370
     0
100
AcDbSpline
210
0.0
220
0.0
230
1.0
 70
     8
 71
     3
 72
     8
 73
     4
 74
     0
 42
0.000000001
 43
0.00000001
 40
2.0
 40
2.0
 40
2.0
 40
2.0
 40
3.0
 40
3.0
 40
3.0
 40
3.0
 10
12.33843033854171
 20
4.102106201171893
 30
0.0
 10
13.11300838216148
 20
4.100292358398469
 30
0.0
 10
13.71030008951826
 20
3.54364416503905
 30
0.0
 10
13.71030008951826
 20
2.374924804687511
 30
0.0
  0
SPLINE
  5
113
330
76
100
AcDbEntity
  8
0
  6
Continuous
 62
     8
370
     0
100
AcDbSpline
210
0.0
220
0.0
230
1.0
 70
     8
 71
     3
 72
     8
 73
     4
 74
     0
 42
0.000000001
 43
0.00000001
 40
6.0
 40
6.0
 40
6.0
 40
6.0
 40
7.0
 40
7.0
 40
7.0
 40
7.0
 10
20.5614529622396
 20
2.738902587890613
 30
0.0
 10
20.56615551757818
 20
3.697552083333347
 30
0.0
 10
21.12240063476567
 20
4.097403645833345
 30
0.0
 10
21.75140100097656
 20
4.102106201171893
 30
0.0
  0
SPLINE
  5
114
330
76
100
AcDbEntity
  8
0
  6
Continuous
 62
     8
370
     0
100
AcDbSpline
210
0.0
220
0.0
230
1.0
 70
     8
 71
     3
 72
     8
 73
     4
 74
     0
 42
0.000000001
 43
0.00000001
 40
14.0
 40
14.0
 40
14.0
 40
14.0
 40
15.0
 40
15.0
 40
15.0
 40
15.0
 10
38.44352425130209
 20
0.0213630371093815
 30
0.0
 10
38.98163094075524
 20
0.0213630371093815
 30
0.0
 10
39.47284643554688
 20
0.214302164713534
 30
0.0
 10
39.83763037109378
 20
0.5832512207031293
 30
0.0
  0
SPLINE
  5
115
330
76
100
AcDbEntity
  8
0
  6
Continuous
 62
     8
370
     0
100
AcDbSpline
210
0.0
220
0.0
230
1.0
 70
     8
 71
     3
 72
     8
 73
     4
 74
     0
 42
0.000000001
 43
0.00000001
 40
25.0
 40
25.0
 40
25.0
 40
25.0
 40
26.0
 40
26.0
 40
26.0
 40
26.0
 10
42.6923501790365
 20
0.67380900065106
 30
0.0
 10
42.55463248697916
 20
0.6774366861979492
 30
0.0
 10
42.50935359700525
 20
0.7223125000000302
 30
0.0
 10
42.47119571940105
 20
0.814616943359367
 30
0.0
  0
SPLINE
  5
116
330
76
100
AcDbEntity
  8
0
  6
Continuous
 62
     8
370
     0
100
AcDbSpline
210
0.0
220
0.0
230
1.0
 70
     8
 71
     3
 72
     8
 73
     4
 74
     0
 42
0.000000001
 43
0.00000001
 40
11.0
 40
11.0
 40
11.0
 40
11.0
 40
12.0
 40
12.0
 40
12.0
 40
12.0
 10
36.40745214843749
 20
2.374924804687511
 30
0.0
 10
36.40745214843749
 20
1.616738525390626
 30
0.0
 10
36.63277172851564
 20
1.027172444661453
 30
0.0
 10
37.00131770833337
 20
0.6274552408854217
 30
0.0
  0
SPLINE
  5
117
330
76
100
AcDbEntity
  8
0
  6
Continuous
 62
     8
370
     0
100
AcDbSpline
210
0.0
220
0.0
230
1.0
 70
     8
 71
     3
 72
     8
 73
     4
 74
     0
 42
0.000000001
 43
0.00000001
 40
11.0
 40
11.0
 40
11.0
 40
11.0
 40
12.0
 40
12.0
 40
12.0
 40
12.0
 10
29.93243652343752
 20
0.0213630371093815
 30
0.0
 10
30.88692089843753
 20
0.0213630371093815
 30
0.0
 10
31.49301310221358
 20
0.4468771158854246
 30
0.0
 10
31.81587711588546
 20
1.278691975911461
 30
0.0
  0
SPLINE
  5
118
330
76
100
AcDbEntity
  8
0
  6
Continuous
 62
     8
370
     0
100
AcDbSpline
210
0.0
220
0.0
230
1.0
 70
     8
 71
     2
 72
     6
 73
     3
 74
     0
 42
0.000000001
 43
0.00000001
 40
22.0
 40
22.0
 40
22.0
 40
23.0
 40
23.0
 40
23.0
 10
42.57371142578126
 20
0.1099054361979185
 30
0.0
 10
42.6103913574219
 20
0.1099054361979185
 30
0.0
 10
43.15817187500004
 20
0.1096367187500003
 30
0.0
  0
SPLINE
  5
119
330
76
100
AcDbEntity
  8
0
  6
Continuous
 62
     8
370
     0
100
AcDbSpline
210
0.0
220
0.0
230
1.0
 70
     8
 71
     3
 72
     8
 73
     4
 74
     0
 42
0.000000001
 43
0.00000001
 40
22.0
 40
22.0
 40
22.0
 40
22.0
 40
23.0
 40
23.0
 40
23.0
 40
23.0
 10
25.7947252604167
 20
0.0119579264322989
 30
0.0
 10
26.84205151367192
 20
0.0481004231770721
 30
0.0
 10
27.44263500976568
 20
0.6660161946614729
 30
0.0
 10
27.44102270507814
 20
1.396121500651049
 30
0.0
  0
SPLINE
  5
11A
330
76
100
AcDbEntity
  8
0
  6
Continuous
 62
     8
370
     0
100
AcDbSpline
210
0.0
220
0.0
230
1.0
 70
     8
 71
     3
 72
     8
 73
     4
 74
     0
 42
0.000000001
 43
0.00000001
 40
2.0
 40
2.0
 40
2.0
 40
2.0
 40
3.0
 40
3.0
 40
3.0
 40
3.0
 10
7.597314046223991
 20
4.102106201171865
 30
0.0
 10
8.372227986653686
 20
4.100292358398469
 30
0.0
 10
8.965757649739615
 20
3.47538993326825
 30
0.0
 10
8.9693181559245
 20
2.374924804687511
 30
0.0
  0
SPLINE
  5
11B
330
76
100
AcDbEntity
  8
0
  6
Continuous
 62
     8
370
     0
100
AcDbSpline
210
0.0
220
0.0
230
1.0
 70
     8
 71
     3
 72
     8
 73
     4
 74
     0
 42
0.000000001
 43
0.00000001
 40
6.0
 40
6.0
 40
6.0
 40
6.0
 40
7.0
 40
7.0
 40
7.0
 40
7.0
 10
32.92688940429689
 20
2.739440022786463
 30
0.0
 10
32.93159195963541
 20
3.697552083333347
 30
0.0
 10
33.48770271809898
 20
4.097403645833345
 30
0.0
 10
34.11703898111984
 20
4.102106201171893
 30
0.0
  0
SPLINE
  5
11C
330
76
100
AcDbEntity
  8
0
  6
Continuous
 62
     8
370
     0
100
AcDbSpline
210
0.0
220
0.0
230
1.0
 70
     8
 71
     3
 72
     8
 73
     4
 74
     0
 42
0.000000001
 43
0.00000001
 40
11.0
 40
11.0
 40
11.0
 40
11.0
 40
12.0
 40
12.0
 40
12.0
 40
12.0
 10
25.66412858072919
 20
4.713236857096362
 30
0.0
 10
24.71649650065105
 20
4.68549178059896
 30
0.0
 10
24.18913850911464
 20
4.100023640950523
 30
0.0
 10
24.19128824869793
 20
3.454698689778657
 30
0.0
  0
SPLINE
  5
11D
330
76
100
AcDbEntity
  8
0
  6
Continuous
 62
     8
370
     0
100
AcDbSpline
210
0.0
220
0.0
230
1.0
 70
     8
 71
     3
 72
     8
 73
     4
 74
     0
 42
0.000000001
 43
0.00000001
 40
4.0
 40
4.0
 40
4.0
 40
4.0
 40
5.0
 40
5.0
 40
5.0
 40
5.0
 10
10.89743302408858
 20
0.6274552408854217
 30
0.0
 10
11.2662477213542
 20
0.2281411132812466
 30
0.0
 10
11.77761702473962
 20
0.0210943196614632
 30
0.0
 10
12.33843033854171
 20
0.0213630371093815
 30
0.0
  0
SPLINE
  5
11E
330
76
100
AcDbEntity
  8
0
  6
Continuous
 62
     8
370
     0
100
AcDbSpline
210
0.0
220
0.0
230
1.0
 70
     8
 71
     3
 72
     8
 73
     4
 74
     0
 42
0.000000001
 43
0.00000001
 40
26.0
 40
26.0
 40
26.0
 40
26.0
 40
27.0
 40
27.0
 40
27.0
 40
27.0
 10
42.47119571940105
 20
0.814616943359367
 30
0.0
 10
42.43505322265628
 20
0.9082649739583365
 30
0.0
 10
42.43088810221357
 20
1.055119059244797
 30
0.0
 10
42.43115681966147
 20
1.21823055013022
 30
0.0
  0
SPLINE
  5
11F
330
76
100
AcDbEntity
  8
0
  6
Continuous
 62
     8
370
     0
100
AcDbSpline
210
0.0
220
0.0
230
1.0
 70
     8
 71
     3
 72
     8
 73
     4
 74
     0
 42
0.000000001
 43
0.00000001
 40
11.0
 40
11.0
 40
11.0
 40
11.0
 40
12.0
 40
12.0
 40
12.0
 40
12.0
 10
35.78752099609378
 20
3.149032592773438
 30
0.0
 10
35.78752099609378
 20
3.60934558105469
 30
0.0
 10
35.66874788411462
 20
4.006106892903649
 30
0.0
 10
35.40486735026044
 20
4.287386881510424
 30
0.0
  0
HATCH
  5
120
330
76
100
AcDbEntity
  8
0
  6
Continuous
 62
     7
100
AcDbHatch
 10
0.0
 20
0.0
 30
0.0
210
0.0
220
0.0
230
1.0
  2
SOLID
 70
     1
 71
     0
 91
        2
 92
        0
 93
       12
 72
     4
 94
        3
 73
     1
 74
     0
 95
        8
 96
        4
 40
4.0
 40
4.0
 40
4.0
 40
4.0
 40
5.0
 40
5.0
 40
5.0
 40
5.0
 10
10.89743302408858
 20
0.6274552408854217
 42
1.0
 10
11.2662477213542
 20
0.2281411132812466
 42
1.0
 10
11.77761702473962
 20
0.0210943196614632
 42
1.0
 10
12.33843033854171
 20
0.0213630371093815
 42
1.0
 72
     1
 10
12.33843033854171
 20
0.0213630371093815
 11
12.34555135091148
 21
0.0213630371093815
 72
     4
 94
        3
 73
     1
 74
     0
 95
        8
 96
        4
 40
6.0
 40
6.0
 40
6.0
 40
6.0
 40
7.0
 40
7.0
 40
7.0
 40
7.0
 10
12.34555135091148
 20
0.0213630371093815
 42
1.0
 10
13.29291471354169
 20
0.0213630371093815
 42
1.0
 10
14.10538191731775
 20
0.5887599283854184
 42
1.0
 10
14.31592203776044
 20
1.709446044921861
 42
1.0
 72
     4
 94
        3
 73
     1
 74
     0
 95
        8
 96
        4
 40
7.0
 40
7.0
 40
7.0
 40
7.0
 40
8.0
 40
8.0
 40
8.0
 40
8.0
 10
14.31592203776044
 20
1.709446044921861
 42
1.0
 10
14.35723734537764
 20
1.929256917317712
 42
1.0
 10
14.37188244628909
 20
2.175805175781267
 42
1.0
 10
14.37188244628909
 20
2.301564941406236
 42
1.0
 72
     1
 10
14.37188244628909
 20
2.301564941406236
 11
14.37309167480472
 21
2.301564941406236
 72
     1
 10
14.37309167480472
 20
2.301564941406236
 11
14.37309167480472
 21
5.806580973307315
 72
     1
 10
14.37309167480472
 20
5.806580973307315
 11
13.71473392740888
 21
5.806580973307315
 72
     1
 10
13.71473392740888
 20
5.806580973307315
 11
13.71473392740888
 21
4.116818481445322
 72
     4
 94
        3
 73
     1
 74
     0
 95
        8
 96
        4
 40
0.0
 40
0.0
 40
0.0
 40
0.0
 40
1.0
 40
1.0
 40
1.0
 40
1.0
 10
13.71473392740888
 20
4.116818481445322
 42
1.0
 10
13.39401965332035
 20
4.506996215820333
 42
1.0
 10
12.86787089029953
 20
4.728620930989594
 42
1.0
 10
12.33843033854171
 20
4.728620930989594
 42
1.0
 72
     4
 94
        3
 73
     1
 74
     0
 95
        8
 96
        4
 40
1.0
 40
1.0
 40
1.0
 40
1.0
 40
2.0
 40
2.0
 40
2.0
 40
2.0
 10
12.33843033854171
 20
4.728620930989594
 42
1.0
 10
11.77761702473962
 20
4.728620930989594
 42
1.0
 10
11.2662477213542
 20
4.522178751627623
 42
1.0
 10
10.89743302408858
 20
4.121991292317703
 42
1.0
 72
     4
 94
        3
 73
     1
 74
     0
 95
        8
 96
        4
 40
2.0
 40
2.0
 40
2.0
 40
2.0
 40
3.0
 40
3.0
 40
3.0
 40
3.0
 10
10.89743302408858
 20
4.121991292317703
 42
1.0
 10
10.5281480712891
 20
3.722677164713556
 42
1.0
 10
10.30343310546877
 20
3.132775187174488
 42
1.0
 10
10.30343310546877
 20
2.374924804687511
 42
1.0
 72
     4
 94
        3
 73
     1
 74
     0
 95
        8
 96
        4
 40
3.0
 40
3.0
 40
3.0
 40
3.0
 40
4.0
 40
4.0
 40
4.0
 40
4.0
 10
10.30343310546877
 20
2.374924804687511
 42
1.0
 10
10.30343310546877
 20
1.616738525390626
 42
1.0
 10
10.5281480712891
 20
1.027172444661453
 42
1.0
 10
10.89743302408858
 20
0.6274552408854217
 42
1.0
 97
        0
 92
        0
 93
        4
 72
     4
 94
        3
 73
     1
 74
     0
 95
        8
 96
        4
 40
1.0
 40
1.0
 40
1.0
 40
1.0
 40
2.0
 40
2.0
 40
2.0
 40
2.0
 10
10.96635904947921
 20
2.374924804687505
 42
1.0
 10
10.96991955566412
 20
3.475389933268257
 42
1.0
 10
11.56331486002607
 20
4.100292358398463
 42
1.0
 10
12.33843033854171
 20
4.102106201171893
 42
1.0
 72
     4
 94
        3
 73
     1
 74
     0
 95
        8
 96
        4
 40
2.0
 40
2.0
 40
2.0
 40
2.0
 40
3.0
 40
3.0
 40
3.0
 40
3.0
 10
12.33843033854171
 20
4.102106201171893
 42
1.0
 10
13.11300838216148
 20
4.100292358398469
 42
1.0
 10
13.71030008951826
 20
3.54364416503905
 42
1.0
 10
13.71030008951826
 20
2.374924804687511
 42
1.0
 72
     4
 94
        3
 73
     1
 74
     0
 95
        8
 96
        4
 40
3.0
 40
3.0
 40
3.0
 40
3.0
 40
4.0
 40
4.0
 40
4.0
 40
4.0
 10
13.71030008951826
 20
2.374924804687511
 42
1.0
 10
13.71721956380212
 20
1.167711669921884
 42
1.0
 10
13.11347863769535
 20
0.6497587890624962
 42
1.0
 10
12.33843033854171
 20
0.6476090494791781
 42
1.0
 72
     4
 94
        3
 73
     1
 74
     0
 95
        8
 96
        4
 40
0.0
 40
0.0
 40
0.0
 40
0.0
 40
1.0
 40
1.0
 40
1.0
 40
1.0
 10
12.33843033854168
 20
0.6476090494791851
 42
1.0
 10
11.56291178385418
 20
0.6497587890625032
 42
1.0
 10
10.97012109375003
 20
1.265524820963551
 42
1.0
 10
10.96635904947918
 20
2.374924804687511
 42
1.0
 97
        0
 75
     0
 76
     1
 98
        1
 10
0.0
 20
0.0
  0
HATCH
  5
121
330
76
100
AcDbEntity
  8
0
  6
Continuous
 62
     7
100
AcDbHatch
 10
0.0
 20
0.0
 30
0.0
210
0.0
220
0.0
230
1.0
  2
SOLID
 70
     1
 71
     0
 91
        1
 92
        0
 93
        8
 72
     4
 94
        3
 73
     1
 74
     0
 95
        8
 96
        4
 40
7.0
 40
7.0
 40
7.0
 40
7.0
 40
8.0
 40
8.0
 40
8.0
 40
8.0
 10
2.280067545572972
 20
0.0088676757812461
 42
1.0
 10
1.401764567057318
 20
0.2313657226562377
 42
1.0
 10
0.7479078369140857
 20
1.020320149739601
 42
1.0
 10
0.7272837727864967
 20
2.284904459635417
 42
1.0
 72
     1
 10
0.7272837727864967
 20
2.284904459635417
 11
0.7260745442708716
 21
2.284904459635417
 72
     1
 10
0.7260745442708716
 20
2.284904459635417
 11
0.7260745442708716
 21
5.825727091471361
 72
     1
 10
0.7260745442708716
 20
5.825727091471361
 11
0.0000000000000278
 21
5.825727091471361
 72
     1
 10
0.0000000000000278
 20
5.825727091471361
 11
0.0000000000000278
 21
2.342947428385422
 72
     1
 10
0.0000000000000278
 20
2.342947428385422
 11
0.0006046142578264
 21
2.342947428385422
 72
     4
 94
        3
 73
     1
 74
     0
 95
        8
 96
        4
 40
5.0
 40
5.0
 40
5.0
 40
5.0
 40
6.0
 40
6.0
 40
6.0
 40
6.0
 10
0.0006046142578264
 20
2.342947428385422
 42
1.0
 10
0.0069194742838841
 20
0.8182446289062562
 42
1.0
 10
0.9118926595052257
 20
0.0
 42
1.0
 10
2.031168009440143
 20
0.0
 42
1.0
 72
     4
 94
        3
 73
     1
 74
     0
 95
        8
 96
        4
 40
6.0
 40
6.0
 40
6.0
 40
6.0
 40
7.0
 40
7.0
 40
7.0
 40
7.0
 10
2.031168009440143
 20
0.0
 42
1.0
 10
2.114134521484401
 20
0.0
 42
1.0
 10
2.197101033528659
 20
0.0030902506510527
 42
1.0
 10
2.280067545572972
 20
0.0088676757812461
 42
1.0
 97
        0
 75
     0
 76
     1
 98
        1
 10
0.0
 20
0.0
  0
HATCH
  5
122
330
76
100
AcDbEntity
  8
0
  6
Continuous
 62
     7
100
AcDbHatch
 10
0.0
 20
0.0
 30
0.0
210
0.0
220
0.0
230
1.0
  2
SOLID
 70
     1
 71
     0
 91
        2
 92
        0
 93
        9
 72
     4
 94
        3
 73
     1
 74
     0
 95
        8
 96
        4
 40
3.0
 40
3.0
 40
3.0
 40
3.0
 40
4.0
 40
4.0
 40
4.0
 40
4.0
 10
6.156383911132823
 20
0.6274552408854217
 42
1.0
 10
6.52513142903649
 20
0.2281411132812466
 42
1.0
 10
7.036769449869834
 20
0.0210943196614632
 42
1.0
 10
7.597314046223991
 20
0.0213630371093815
 42
1.0
 72
     1
 10
7.597314046223991
 20
0.0213630371093815
 11
7.599195068359377
 21
0.0213630371093815
 72
     4
 94
        3
 73
     1
 74
     0
 95
        8
 96
        4
 40
5.0
 40
5.0
 40
5.0
 40
5.0
 40
6.0
 40
6.0
 40
6.0
 40
6.0
 10
7.599195068359377
 20
0.0213630371093815
 42
1.0
 10
8.159067871093772
 20
0.0213630371093815
 42
1.0
 10
8.669496663411492
 20
0.2281411132812466
 42
1.0
 10
9.038378540039083
 20
0.6274552408854217
 42
1.0
 72
     4
 94
        3
 73
     1
 74
     0
 95
        8
 96
        4
 40
6.0
 40
6.0
 40
6.0
 40
6.0
 40
7.0
 40
7.0
 40
7.0
 40
7.0
 10
9.038378540039083
 20
0.6274552408854217
 42
1.0
 10
9.407529134114606
 20
1.027172444661453
 42
1.0
 10
9.632311279296896
 20
1.616738525390626
 42
1.0
 10
9.632311279296896
 20
2.374924804687511
 42
1.0
 72
     4
 94
        3
 73
     1
 74
     0
 95
        8
 96
        4
 40
7.0
 40
7.0
 40
7.0
 40
7.0
 40
8.0
 40
8.0
 40
8.0
 40
8.0
 10
9.632311279296896
 20
2.374924804687511
 42
1.0
 10
9.632311279296896
 20
3.132775187174488
 42
1.0
 10
9.407529134114606
 20
3.722677164713556
 42
1.0
 10
9.038378540039083
 20
4.121991292317703
 42
1.0
 72
     4
 94
        3
 73
     1
 74
     0
 95
        8
 96
        4
 40
8.0
 40
8.0
 40
8.0
 40
8.0
 40
9.0
 40
9.0
 40
9.0
 40
9.0
 10
9.038378540039083
 20
4.121991292317703
 42
1.0
 10
8.669295125325549
 20
4.522178751627623
 42
1.0
 10
8.157925821940138
 20
4.728620930989594
 42
1.0
 10
7.597314046223991
 20
4.728150675455733
 42
1.0
 72
     4
 94
        3
 73
     1
 74
     0
 95
        8
 96
        4
 40
0.0
 40
0.0
 40
0.0
 40
0.0
 40
1.0
 40
1.0
 40
1.0
 40
1.0
 10
7.597314046223991
 20
4.728150675455733
 42
1.0
 10
7.036769449869834
 20
4.728620930989594
 42
1.0
 10
6.52513142903649
 20
4.522178751627623
 42
1.0
 10
6.156383911132823
 20
4.121991292317703
 42
1.0
 72
     4
 94
        3
 73
     1
 74
     0
 95
        8
 96
        4
 40
1.0
 40
1.0
 40
1.0
 40
1.0
 40
2.0
 40
2.0
 40
2.0
 40
2.0
 10
6.156383911132823
 20
4.121991292317703
 42
1.0
 10
5.78736767578128
 20
3.722677164713556
 42
1.0
 10
5.56258553059899
 20
3.132775187174488
 42
1.0
 10
5.562719889322942
 20
2.374924804687511
 42
1.0
 72
     4
 94
        3
 73
     1
 74
     0
 95
        8
 96
        4
 40
2.0
 40
2.0
 40
2.0
 40
2.0
 40
3.0
 40
3.0
 40
3.0
 40
3.0
 10
5.562719889322942
 20
2.374924804687511
 42
1.0
 10
5.56258553059899
 20
1.616738525390626
 42
1.0
 10
5.78736767578128
 20
1.027172444661453
 42
1.0
 10
6.156383911132823
 20
0.6274552408854217
 42
1.0
 97
        0
 92
        0
 93
        4
 72
     4
 94
        3
 73
     1
 74
     0
 95
        8
 96
        4
 40
1.0
 40
1.0
 40
1.0
 40
1.0
 40
2.0
 40
2.0
 40
2.0
 40
2.0
 10
6.225242757161492
 20
2.374924804687511
 42
1.0
 10
6.229004801432319
 20
3.47538993326825
 42
1.0
 10
6.82280318196618
 20
4.100292358398455
 42
1.0
 10
7.597314046223991
 20
4.102106201171865
 42
1.0
 72
     4
 94
        3
 73
     1
 74
     0
 95
        8
 96
        4
 40
2.0
 40
2.0
 40
2.0
 40
2.0
 40
3.0
 40
3.0
 40
3.0
 40
3.0
 10
7.597314046223991
 20
4.102106201171865
 42
1.0
 10
8.372227986653686
 20
4.100292358398469
 42
1.0
 10
8.965757649739615
 20
3.47538993326825
 42
1.0
 10
8.9693181559245
 20
2.374924804687511
 42
1.0
 72
     4
 94
        3
 73
     1
 74
     0
 95
        8
 96
        4
 40
3.0
 40
3.0
 40
3.0
 40
3.0
 40
4.0
 40
4.0
 40
4.0
 40
4.0
 10
8.9693181559245
 20
2.374924804687511
 42
1.0
 10
8.965757649739615
 20
1.265524820963537
 42
1.0
 10
8.372631062825542
 20
0.6497587890624962
 42
1.0
 10
7.597314046223991
 20
0.6473403320312598
 42
1.0
 72
     4
 94
        3
 73
     1
 74
     0
 95
        8
 96
        4
 40
0.0
 40
0.0
 40
0.0
 40
0.0
 40
1.0
 40
1.0
 40
1.0
 40
1.0
 10
7.597314046223991
 20
0.6473403320312598
 42
1.0
 10
6.822332926432306
 20
0.6497587890624962
 42
1.0
 10
6.229273518880252
 20
1.265524820963537
 42
1.0
 10
6.225242757161492
 20
2.374924804687511
 42
1.0
 97
        0
 75
     0
 76
     1
 98
        1
 10
0.0
 20
0.0
  0
HATCH
  5
123
330
76
100
AcDbEntity
  8
0
  6
Continuous
 62
     7
100
AcDbHatch
 10
0.0
 20
0.0
 30
0.0
210
0.0
220
0.0
230
1.0
  2
SOLID
 70
     1
 71
     0
 91
        1
 92
        0
 93
        5
 72
     4
 94
        3
 73
     1
 74
     0
 95
        8
 96
        4
 40
0.0
 40
0.0
 40
0.0
 40
0.0
 40
1.0
 40
1.0
 40
1.0
 40
1.0
 10
3.072918375651073
 20
4.135091267903651
 42
1.0
 10
2.972149332682333
 20
4.134822550455733
 42
1.0
 10
2.874537719726566
 20
4.124409749348967
 42
1.0
 10
2.78068815104171
 20
4.104255940755225
 42
1.0
 72
     4
 94
        3
 73
     1
 74
     0
 95
       11
 96
        7
 40
1.0
 40
1.0
 40
1.0
 40
1.0
 40
2.0
 40
2.0
 40
2.0
 40
3.0
 40
3.0
 40
3.0
 40
3.0
 10
2.78068815104171
 20
4.104255940755225
 42
1.0
 10
3.359438354492206
 20
3.885721476237003
 42
1.0
 10
3.758416585286501
 20
3.269686726888044
 42
1.0
 10
3.758416585286501
 20
2.358936116536495
 42
1.0
 10
3.758416585286501
 20
1.441400390625014
 42
1.0
 10
3.360110148111994
 20
0.8297994791666707
 42
1.0
 10
2.782031738281288
 20
0.61254142252605
 42
1.0
 72
     4
 94
        3
 73
     1
 74
     0
 95
        8
 96
        4
 40
3.0
 40
3.0
 40
3.0
 40
3.0
 40
4.0
 40
4.0
 40
4.0
 40
4.0
 10
2.782031738281288
 20
0.61254142252605
 42
1.0
 10
2.875411051432325
 20
0.592656331380198
 42
1.0
 10
2.97268676757817
 20
0.5827137858072928
 42
1.0
 10
3.072918375651073
 20
0.5823107096354085
 42
1.0
 72
     4
 94
        3
 73
     1
 74
     0
 95
        8
 96
        4
 40
4.0
 40
4.0
 40
4.0
 40
4.0
 40
5.0
 40
5.0
 40
5.0
 40
5.0
 10
3.072918375651073
 20
0.5823107096354085
 42
1.0
 10
3.870538940429741
 20
0.5843260904947883
 42
1.0
 10
4.4800572916667
 20
1.218499267578124
 42
1.0
 10
4.484222412109412
 20
2.358936116536467
 42
1.0
 72
     4
 94
        3
 73
     1
 74
     0
 95
        8
 96
        4
 40
5.0
 40
5.0
 40
5.0
 40
5.0
 40
6.0
 40
6.0
 40
6.0
 40
6.0
 10
4.484222412109412
 20
2.358936116536467
 42
1.0
 10
4.480460367838557
 20
3.490303751627608
 42
1.0
 10
3.870068684895867
 20
4.133546142578118
 42
1.0
 10
3.072918375651073
 20
4.135091267903651
 42
1.0
 97
        0
 75
     0
 76
     1
 98
        1
 10
0.0
 20
0.0
  0
HATCH
  5
124
330
76
100
AcDbEntity
  8
0
  6
Continuous
 62
     7
100
AcDbHatch
 10
0.0
 20
0.0
 30
0.0
210
0.0
220
0.0
230
1.0
  2
SOLID
 70
     1
 71
     0
 91
        2
 92
        0
 93
       18
 72
     4
 94
        3
 73
     1
 74
     0
 95
        8
 96
        4
 40
5.0
 40
5.0
 40
5.0
 40
5.0
 40
6.0
 40
6.0
 40
6.0
 40
6.0
 10
17.11360656738284
 20
0.0213630371093815
 42
1.0
 10
17.12838602701827
 20
0.0213630371093815
 42
1.0
 10
17.13926908365887
 20
0.0221691894531223
 42
1.0
 10
17.14806958007817
 20
0.0221691894531223
 42
1.0
 72
     4
 94
        3
 73
     1
 74
     0
 95
        8
 96
        4
 40
6.0
 40
6.0
 40
6.0
 40
6.0
 40
7.0
 40
7.0
 40
7.0
 40
7.0
 10
17.14806958007817
 20
0.0221691894531223
 42
1.0
 10
17.15707161458338
 20
0.0221691894531223
 42
1.0
 10
17.16936543782555
 20
0.0213630371093815
 42
1.0
 10
17.18374182128909
 20
0.0213630371093815
 42
1.0
 72
     1
 10
17.18374182128909
 20
0.0213630371093815
 11
17.18857873535159
 21
0.0213630371093815
 72
     4
 94
        3
 73
     1
 74
     0
 95
        8
 96
        4
 40
8.0
 40
8.0
 40
8.0
 40
8.0
 40
9.0
 40
9.0
 40
9.0
 40
9.0
 10
17.18857873535159
 20
0.0213630371093815
 42
1.0
 10
18.05525968424482
 20
0.0213630371093815
 42
1.0
 10
18.79960701497402
 20
0.5244020996093696
 42
1.0
 10
19.08646289062504
 20
1.455508056640617
 42
1.0
 72
     1
 10
19.08646289062504
 20
1.455508056640617
 11
19.10963977050784
 21
1.530077148437503
 72
     1
 10
19.10963977050784
 20
1.530077148437503
 11
18.37698164876306
 21
1.530077148437503
 72
     1
 10
18.37698164876306
 20
1.530077148437503
 11
18.36341141764325
 21
1.491650553385432
 72
     4
 94
        3
 73
     1
 74
     0
 95
        8
 96
        4
 40
12.0
 40
12.0
 40
12.0
 40
12.0
 40
13.0
 40
13.0
 40
13.0
 40
13.0
 10
18.36341141764325
 20
1.491650553385432
 42
1.0
 10
18.18061637369794
 20
0.9786689453124969
 42
1.0
 10
17.80501656087241
 20
0.658357747395838
 42
1.0
 10
17.16123673502607
 20
0.6476090494791781
 42
1.0
 72
     1
 10
17.16123673502607
 20
0.6476090494791781
 11
17.14827111816408
 21
0.6478777669270824
 72
     4
 94
        3
 73
     1
 74
     0
 95
        8
 96
        4
 40
14.0
 40
14.0
 40
14.0
 40
14.0
 40
15.0
 40
15.0
 40
15.0
 40
15.0
 10
17.14827111816408
 20
0.6478777669270824
 42
1.0
 10
16.2179713134766
 20
0.657282877604165
 42
1.0
 10
15.82094128417971
 20
1.317387288411478
 42
1.0
 10
15.81482796223962
 20
2.27469319661458
 42
1.0
 72
     1
 10
15.81482796223962
 20
2.27469319661458
 11
15.81469360351567
 21
2.334885904947903
 72
     1
 10
15.81469360351567
 20
2.334885904947903
 11
19.15068636067713
 21
2.334885904947903
 72
     1
 10
19.15068636067713
 20
2.334885904947903
 11
19.14860380045574
 21
2.395347330729172
 72
     4
 94
        3
 73
     1
 74
     0
 95
        8
 96
        4
 40
0.0
 40
0.0
 40
0.0
 40
0.0
 40
1.0
 40
1.0
 40
1.0
 40
1.0
 10
19.14860380045574
 20
2.395347330729172
 42
1.0
 10
19.10755721028651
 20
3.703060791015622
 42
1.0
 10
18.44348921712247
 20
4.731039388020831
 42
1.0
 10
17.11360656738284
 20
4.728620930989594
 42
1.0
 72
     4
 94
        3
 73
     1
 74
     0
 95
        8
 96
        4
 40
1.0
 40
1.0
 40
1.0
 40
1.0
 40
2.0
 40
2.0
 40
2.0
 40
2.0
 10
17.11360656738284
 20
4.728620930989594
 42
1.0
 10
16.55319632975266
 20
4.728620930989594
 42
1.0
 10
16.04196138509117
 20
4.522178751627623
 42
1.0
 10
15.67294514973963
 20
4.121991292317703
 42
1.0
 72
     4
 94
        3
 73
     1
 74
     0
 95
        8
 96
        4
 40
2.0
 40
2.0
 40
2.0
 40
2.0
 40
3.0
 40
3.0
 40
3.0
 40
3.0
 10
15.67294514973963
 20
4.121991292317703
 42
1.0
 10
15.30392891438806
 20
3.722677164713556
 42
1.0
 10
15.07874369303389
 20
3.132775187174488
 42
1.0
 10
15.07914676920577
 20
2.374387369791661
 42
1.0
 72
     4
 94
        3
 73
     1
 74
     0
 95
        8
 96
        4
 40
3.0
 40
3.0
 40
3.0
 40
3.0
 40
4.0
 40
4.0
 40
4.0
 40
4.0
 10
15.07914676920577
 20
2.374387369791661
 42
1.0
 10
15.07874369303389
 20
1.616738525390626
 42
1.0
 10
15.30392891438806
 20
1.027172444661453
 42
1.0
 10
15.67294514973963
 20
0.6274552408854217
 42
1.0
 72
     4
 94
        3
 73
     1
 74
     0
 95
        8
 96
        4
 40
4.0
 40
4.0
 40
4.0
 40
4.0
 40
5.0
 40
5.0
 40
5.0
 40
5.0
 10
15.67294514973963
 20
0.6274552408854217
 42
1.0
 10
16.04169266764327
 20
0.2281411132812466
 42
1.0
 10
16.55319632975266
 20
0.0210943196614632
 42
1.0
 10
17.11360656738284
 20
0.0213630371093815
 42
1.0
 97
        0
 92
        0
 93
        3
 72
     1
 10
18.40002416992192
 20
2.906447916666679
 11
15.82369563802086
 21
2.906447916666679
 72
     4
 94
        3
 73
     1
 74
     0
 95
        8
 96
        4
 40
0.0
 40
0.0
 40
0.0
 40
0.0
 40
1.0
 40
1.0
 40
1.0
 40
1.0
 10
15.82369563802086
 20
2.906447916666679
 42
1.0
 10
15.93440722656253
 20
3.583212809244785
 42
1.0
 10
16.39525764973962
 20
4.101098510742196
 42
1.0
 10
17.11360656738284
 20
4.102106201171893
 42
1.0
 72
     4
 94
        3
 73
     1
 74
     0
 95
        8
 96
        4
 40
1.0
 40
1.0
 40
1.0
 40
1.0
 40
2.0
 40
2.0
 40
2.0
 40
2.0
 10
17.11360656738284
 20
4.102106201171893
 42
1.0
 10
17.95684191894536
 20
4.100292358398469
 42
1.0
 10
18.26996492513022
 20
3.512808837890624
 42
1.0
 10
18.40002416992192
 20
2.906447916666679
 42
1.0
 97
        0
 75
     0
 76
     1
 98
        1
 10
0.0
 20
0.0
  0
HATCH
  5
125
330
76
100
AcDbEntity
  8
0
  6
Continuous
 62
     7
100
AcDbHatch
 10
0.0
 20
0.0
 30
0.0
210
0.0
220
0.0
230
1.0
  2
SOLID
 70
     1
 71
     0
 91
        1
 92
        0
 93
       13
 72
     4
 94
        3
 73
     1
 74
     0
 95
        8
 96
        4
 40
6.0
 40
6.0
 40
6.0
 40
6.0
 40
7.0
 40
7.0
 40
7.0
 40
7.0
 10
20.5614529622396
 20
2.738902587890613
 42
1.0
 10
20.56615551757818
 20
3.697552083333347
 42
1.0
 10
21.12240063476567
 20
4.097403645833345
 42
1.0
 10
21.75140100097656
 20
4.102106201171893
 42
1.0
 72
     4
 94
        3
 73
     1
 74
     0
 95
        8
 96
        4
 40
7.0
 40
7.0
 40
7.0
 40
7.0
 40
8.0
 40
8.0
 40
8.0
 40
8.0
 10
21.75140100097656
 20
4.102106201171893
 42
1.0
 10
22.42581461588544
 20
4.091155965169277
 42
1.0
 10
22.74793965657551
 20
3.851930257161462
 42
1.0
 10
22.75922578938805
 20
2.984913411458332
 42
1.0
 72
     1
 10
22.75922578938805
 20
2.984913411458332
 11
22.75922578938805
 21
0.1305966796874976
 72
     1
 10
22.75922578938805
 20
0.1305966796874974
 11
23.42181583658853
 21
0.1305966796874974
 72
     1
 10
23.42181583658853
 20
0.1305966796874974
 11
23.42181583658853
 21
3.149032592773438
 72
     4
 94
        3
 73
     1
 74
     0
 95
        8
 96
        4
 40
11.0
 40
11.0
 40
11.0
 40
11.0
 40
12.0
 40
12.0
 40
12.0
 40
12.0
 10
23.42181583658853
 20
3.149032592773438
 42
1.0
 10
23.42181583658853
 20
3.60934558105469
 42
1.0
 10
23.30304272460942
 20
4.006106892903649
 42
1.0
 10
23.03949808756511
 20
4.287386881510424
 42
1.0
 72
     4
 94
        3
 73
     1
 74
     0
 95
        8
 96
        4
 40
12.0
 40
12.0
 40
12.0
 40
12.0
 40
13.0
 40
13.0
 40
13.0
 40
13.0
 10
23.03949808756511
 20
4.287386881510424
 42
1.0
 10
22.77622216796876
 20
4.569540201822917
 42
1.0
 10
22.37213830566409
 20
4.728889648437498
 42
1.0
 10
21.82442496744796
 20
4.728150675455733
 42
1.0
 72
     4
 94
        3
 73
     1
 74
     0
 95
        8
 96
        4
 40
0.0
 40
0.0
 40
0.0
 40
0.0
 40
1.0
 40
1.0
 40
1.0
 40
1.0
 10
21.82442496744796
 20
4.728150675455733
 42
1.0
 10
21.35228841145836
 20
4.729427083333348
 42
1.0
 10
20.8621477864584
 20
4.559060221354175
 42
1.0
 10
20.5614529622396
 20
4.108421061197909
 42
1.0
 72
     1
 10
20.5614529622396
 20
4.108421061197909
 11
20.5614529622396
 21
4.618984212239593
 72
     1
 10
20.5614529622396
 20
4.618984212239593
 11
19.89893009440108
 21
4.618984212239593
 72
     1
 10
19.89893009440108
 20
4.618984212239593
 11
19.89893009440108
 21
0.1305966796874971
 72
     1
 10
19.89893009440108
 20
0.1305966796874974
 11
20.5614529622396
 21
0.1305966796874974
 72
     1
 10
20.5614529622396
 20
0.1305966796874974
 11
20.5614529622396
 21
2.738902587890613
 97
        0
 75
     0
 76
     1
 98
        1
 10
0.0
 20
0.0
  0
HATCH
  5
126
330
76
100
AcDbEntity
  8
0
  6
Continuous
 62
     7
100
AcDbHatch
 10
0.0
 20
0.0
 30
0.0
210
0.0
220
0.0
230
1.0
  2
SOLID
 70
     1
 71
     0
 91
        1
 92
        0
 93
       24
 72
     4
 94
        3
 73
     1
 74
     0
 95
        8
 96
        4
 40
11.0
 40
11.0
 40
11.0
 40
11.0
 40
12.0
 40
12.0
 40
12.0
 40
12.0
 10
25.66412858072919
 20
4.713236857096362
 42
1.0
 10
24.71649650065105
 20
4.68549178059896
 42
1.0
 10
24.18913850911464
 20
4.100023640950523
 42
1.0
 10
24.19128824869793
 20
3.454698689778657
 42
1.0
 72
     4
 94
        3
 73
     1
 74
     0
 95
        8
 96
        4
 40
12.0
 40
12.0
 40
12.0
 40
12.0
 40
13.0
 40
13.0
 40
13.0
 40
13.0
 10
24.19128824869793
 20
3.454698689778657
 42
1.0
 10
24.18886979166673
 20
2.544216796875012
 42
1.0
 10
24.88820694986982
 20
2.337170003255201
 42
1.0
 10
25.53138216145839
 20
2.21396305338542
 42
1.0
 72
     4
 94
        3
 73
     1
 74
     0
 95
        8
 96
        4
 40
13.0
 40
13.0
 40
13.0
 40
13.0
 40
14.0
 40
14.0
 40
14.0
 40
14.0
 10
25.53138216145839
 20
2.21396305338542
 42
1.0
 10
25.85585847981775
 20
2.148799072265631
 42
1.0
 10
26.17657275390628
 20
2.096667887369785
 42
1.0
 10
26.40686360677086
 20
1.985687581380208
 42
1.0
 72
     4
 94
        3
 73
     1
 74
     0
 95
        8
 96
        4
 40
14.0
 40
14.0
 40
14.0
 40
14.0
 40
15.0
 40
15.0
 40
15.0
 40
15.0
 10
26.40686360677086
 20
1.985687581380208
 42
1.0
 10
26.63715445963544
 20
1.871885742187496
 42
1.0
 10
26.7752752278646
 20
1.71911987304689
 42
1.0
 10
26.77796240234376
 20
1.414394287109377
 42
1.0
 72
     4
 94
        3
 73
     1
 74
     0
 95
        8
 96
        4
 40
15.0
 40
15.0
 40
15.0
 40
15.0
 40
16.0
 40
16.0
 40
16.0
 40
16.0
 10
26.77796240234376
 20
1.414394287109377
 42
1.0
 10
26.77769368489585
 20
0.7505278320312503
 42
1.0
 10
26.24093058268234
 20
0.5987024739583374
 42
1.0
 10
25.79203808593755
 20
0.5801609700520766
 42
1.0
 72
     4
 94
        3
 73
     1
 74
     0
 95
        8
 96
        4
 40
16.0
 40
16.0
 40
16.0
 40
16.0
 40
17.0
 40
17.0
 40
17.0
 40
17.0
 10
25.79203808593755
 20
0.5801609700520766
 42
1.0
 10
25.41449007161462
 20
0.5882224934895819
 42
1.0
 10
24.87396492513022
 20
0.7154602050781361
 42
1.0
 10
24.69365551757813
 20
1.33619750976563
 42
1.0
 72
     1
 10
24.69365551757813
 20
1.33619750976563
 11
24.68196630859382
 21
1.378386149088556
 72
     1
 10
24.68196630859382
 20
1.378386149088556
 11
24.00829166666668
 21
1.378386149088556
 72
     1
 10
24.00829166666668
 20
1.378386149088556
 11
24.03180444335939
 21
1.303279622395834
 72
     4
 94
        3
 73
     1
 74
     0
 95
        8
 96
        4
 40
20.0
 40
20.0
 40
20.0
 40
20.0
 40
21.0
 40
21.0
 40
21.0
 40
21.0
 10
24.03180444335939
 20
1.303279622395834
 42
1.0
 10
24.2849362792969
 20
0.4874534505208278
 42
1.0
 10
25.03210514322923
 20
0.0353363444010463
 42
1.0
 10
25.74474381510422
 20
0.0114204915364485
 42
1.0
 72
     1
 10
25.74474381510422
 20
0.0114204915364485
 11
25.7947252604167
 21
0.0119579264322989
 72
     4
 94
        3
 73
     1
 74
     0
 95
        8
 96
        4
 40
22.0
 40
22.0
 40
22.0
 40
22.0
 40
23.0
 40
23.0
 40
23.0
 40
23.0
 10
25.7947252604167
 20
0.0119579264322989
 42
1.0
 10
26.84205151367192
 20
0.0481004231770721
 42
1.0
 10
27.44263500976568
 20
0.6660161946614729
 42
1.0
 10
27.44102270507814
 20
1.396121500651049
 42
1.0
 72
     4
 94
        3
 73
     1
 74
     0
 95
        8
 96
        4
 40
23.0
 40
23.0
 40
23.0
 40
23.0
 40
24.0
 40
24.0
 40
24.0
 40
24.0
 10
27.44102270507814
 20
1.396121500651049
 42
1.0
 10
27.44317244466149
 20
2.313925944010434
 42
1.0
 10
26.74786604817714
 20
2.564639322916659
 42
1.0
 10
26.10213802083333
 20
2.708537516276047
 42
1.0
 72
     4
 94
        3
 73
     1
 74
     0
 95
        8
 96
        4
 40
0.0
 40
0.0
 40
0.0
 40
0.0
 40
1.0
 40
1.0
 40
1.0
 40
1.0
 10
26.10213802083333
 20
2.708537516276047
 42
1.0
 10
25.77739298502607
 20
2.783375325520837
 42
1.0
 10
25.45546948242189
 20
2.838596761067707
 42
1.0
 10
25.22343196614585
 20
2.941784261067698
 42
1.0
 72
     4
 94
        3
 73
     1
 74
     0
 95
        8
 96
        4
 40
1.0
 40
1.0
 40
1.0
 40
1.0
 40
2.0
 40
2.0
 40
2.0
 40
2.0
 10
25.22343196614585
 20
2.941784261067698
 42
1.0
 10
24.99045393880212
 20
3.047457397460942
 42
1.0
 10
24.8559608561198
 20
3.179397664388031
 42
1.0
 10
24.85381111653651
 20
3.43662744140627
 42
1.0
 72
     4
 94
        3
 73
     1
 74
     0
 95
        8
 96
        4
 40
2.0
 40
2.0
 40
2.0
 40
2.0
 40
3.0
 40
3.0
 40
3.0
 40
3.0
 10
24.85381111653651
 20
3.43662744140627
 42
1.0
 10
24.86281315104172
 20
3.834396443684898
 42
1.0
 10
25.00859236653647
 20
4.105532348632812
 42
1.0
 10
25.73292024739587
 20
4.140331258138022
 42
1.0
 72
     4
 94
        3
 73
     1
 74
     0
 95
        8
 96
        4
 40
3.0
 40
3.0
 40
3.0
 40
3.0
 40
4.0
 40
4.0
 40
4.0
 40
4.0
 10
25.73292024739587
 20
4.140331258138022
 42
1.0
 10
26.15762817382816
 20
4.136972290039065
 42
1.0
 10
26.43978149414067
 20
3.958208007812505
 42
1.0
 10
26.61928474934899
 20
3.656975748697916
 42
1.0
 72
     1
 10
26.61928474934899
 20
3.656975748697916
 11
26.63607958984376
 21
3.628491699218777
 72
     1
 10
26.63607958984376
 20
3.628491699218777
 11
27.29470605468753
 21
3.628491699218777
 72
     1
 10
27.29470605468753
 20
3.628491699218777
 11
27.25869791666668
 21
3.709845906575512
 72
     4
 94
        3
 73
     1
 74
     0
 95
        8
 96
        4
 40
7.0
 40
7.0
 40
7.0
 40
7.0
 40
8.0
 40
8.0
 40
8.0
 40
8.0
 10
27.25869791666668
 20
3.709845906575512
 42
1.0
 10
26.96969230143231
 20
4.365382120768244
 42
1.0
 10
26.40552001953128
 20
4.717133260091141
 42
1.0
 10
25.76274788411459
 20
4.716125569661458
 42
1.0
 72
     4
 94
        3
 73
     1
 74
     0
 95
        8
 96
        4
 40
8.0
 40
8.0
 40
8.0
 40
8.0
 40
9.0
 40
9.0
 40
9.0
 40
9.0
 10
25.76274788411459
 20
4.716125569661458
 42
1.0
 10
25.74649047851568
 20
4.716125569661458
 42
1.0
 10
25.73292024739587
 20
4.715050699869799
 42
1.0
 10
25.72109667968753
 20
4.715050699869799
 42
1.0
 72
     1
 10
25.72109667968753
 20
4.715050699869799
 11
25.66412858072919
 21
4.714513264973949
 72
     1
 10
25.66412858072919
 20
4.714513264973949
 11
25.66412858072919
 21
4.713236857096362
 97
        0
 75
     0
 76
     1
 98
        1
 10
0.0
 20
0.0
  0
HATCH
  5
127
330
76
100
AcDbEntity
  8
0
  6
Continuous
 62
     7
100
AcDbHatch
 10
0.0
 20
0.0
 30
0.0
210
0.0
220
0.0
230
1.0
  2
SOLID
 70
     1
 71
     0
 91
        1
 92
        0
 93
       15
 72
     4
 94
        3
 73
     1
 74
     0
 95
        8
 96
        4
 40
11.0
 40
11.0
 40
11.0
 40
11.0
 40
12.0
 40
12.0
 40
12.0
 40
12.0
 10
29.93243652343752
 20
0.0213630371093815
 42
1.0
 10
30.88692089843753
 20
0.0213630371093815
 42
1.0
 10
31.49301310221358
 20
0.4468771158854246
 42
1.0
 10
31.81587711588546
 20
1.278691975911461
 42
1.0
 72
     1
 10
31.81587711588546
 20
1.278691975911461
 11
31.84704833984381
 21
1.357694905598963
 72
     1
 10
31.84704833984381
 20
1.357694905598963
 11
31.12137687174482
 21
1.357963623046868
 72
     1
 10
31.12137687174482
 20
1.357963623046868
 11
31.10619433593753
 21
1.32491137695312
 72
     4
 94
        3
 73
     1
 74
     0
 95
        8
 96
        4
 40
0.0
 40
0.0
 40
0.0
 40
0.0
 40
1.0
 40
1.0
 40
1.0
 40
1.0
 10
31.10619433593753
 20
1.32491137695312
 42
1.0
 10
30.92010750325525
 20
0.9410485026041526
 42
1.0
 10
30.58179223632818
 20
0.6500275065104283
 42
1.0
 10
29.91994116210939
 20
0.6473403320312598
 42
1.0
 72
     4
 94
        3
 73
     1
 74
     0
 95
        8
 96
        4
 40
1.0
 40
1.0
 40
1.0
 40
1.0
 40
2.0
 40
2.0
 40
2.0
 40
2.0
 10
29.91994116210939
 20
0.6473403320312598
 42
1.0
 10
29.26091162109379
 20
0.6494900716145918
 42
1.0
 10
28.55015397135418
 20
1.197270589192695
 42
1.0
 10
28.54786987304692
 20
2.374924804687511
 42
1.0
 72
     4
 94
        3
 73
     1
 74
     0
 95
        8
 96
        4
 40
2.0
 40
2.0
 40
2.0
 40
2.0
 40
3.0
 40
3.0
 40
3.0
 40
3.0
 10
28.54786987304692
 20
2.374924804687511
 42
1.0
 10
28.55096012369795
 20
3.552310302734369
 42
1.0
 10
29.25862752278652
 20
4.099284667968758
 42
1.0
 10
29.97462516276045
 20
4.102106201171893
 42
1.0
 72
     4
 94
        3
 73
     1
 74
     0
 95
        8
 96
        4
 40
3.0
 40
3.0
 40
3.0
 40
3.0
 40
4.0
 40
4.0
 40
4.0
 40
4.0
 10
29.97462516276045
 20
4.102106201171893
 42
1.0
 10
30.48680061848963
 20
4.100292358398469
 42
1.0
 10
30.87697835286463
 20
3.949541870117188
 42
1.0
 10
31.04989803059899
 20
3.587915364583347
 42
1.0
 72
     1
 10
31.04989803059899
 20
3.587915364583347
 11
31.06508056640628
 21
3.554124145507806
 72
     1
 10
31.06508056640628
 20
3.554124145507806
 11
31.78295922851565
 21
3.549421590169271
 72
     1
 10
31.78295922851565
 20
3.549421590169271
 11
31.74708544921878
 21
3.631313232421871
 72
     4
 94
        3
 73
     1
 74
     0
 95
        8
 96
        4
 40
7.0
 40
7.0
 40
7.0
 40
7.0
 40
8.0
 40
8.0
 40
8.0
 40
8.0
 10
31.74708544921878
 20
3.631313232421871
 42
1.0
 10
31.34669645182292
 20
4.552275105794271
 42
1.0
 10
30.60342399088545
 20
4.731308105468749
 42
1.0
 10
30.04704451497398
 20
4.728150675455733
 42
1.0
 72
     4
 94
        3
 73
     1
 74
     0
 95
        8
 96
        4
 40
8.0
 40
8.0
 40
8.0
 40
8.0
 40
9.0
 40
9.0
 40
9.0
 40
9.0
 10
30.04704451497398
 20
4.728150675455733
 42
1.0
 10
28.75840999348961
 20
4.731308105468749
 42
1.0
 10
27.89932031250003
 20
3.773464762369796
 42
1.0
 10
27.88521264648442
 20
2.375462239583334
 42
1.0
 72
     4
 94
        3
 73
     1
 74
     0
 95
        8
 96
        4
 40
9.0
 40
9.0
 40
9.0
 40
9.0
 40
10.0
 40
10.0
 40
10.0
 40
10.0
 10
27.88521264648442
 20
2.375462239583334
 42
1.0
 10
27.90093261718751
 20
0.9750412597656355
 42
1.0
 10
28.79092480468753
 20
0.0204225260416607
 42
1.0
 10
29.91994116210939
 20
0.0213630371093815
 42
1.0
 72
     1
 10
29.91994116210939
 20
0.0213630371093815
 11
29.93243652343752
 21
0.0213630371093815
 97
        0
 75
     0
 76
     1
 98
        1
 10
0.0
 20
0.0
  0
HATCH
  5
128
330
76
100
AcDbEntity
  8
0
  6
Continuous
 62
     7
100
AcDbHatch
 10
0.0
 20
0.0
 30
0.0
210
0.0
220
0.0
230
1.0
  2
SOLID
 70
     1
 71
     0
 91
        1
 92
        0
 93
       13
 72
     4
 94
        3
 73
     1
 74
     0
 95
        8
 96
        4
 40
11.0
 40
11.0
 40
11.0
 40
11.0
 40
12.0
 40
12.0
 40
12.0
 40
12.0
 10
35.78752099609378
 20
3.149032592773438
 42
1.0
 10
35.78752099609378
 20
3.60934558105469
 42
1.0
 10
35.66874788411462
 20
4.006106892903649
 42
1.0
 10
35.40486735026044
 20
4.287386881510424
 42
1.0
 72
     4
 94
        3
 73
     1
 74
     0
 95
        8
 96
        4
 40
12.0
 40
12.0
 40
12.0
 40
12.0
 40
13.0
 40
13.0
 40
13.0
 40
13.0
 10
35.40486735026044
 20
4.287386881510424
 42
1.0
 10
35.14138989257815
 20
4.569271484375012
 42
1.0
 10
34.73737320963544
 20
4.728620930989594
 42
1.0
 10
34.18986140950525
 20
4.728620930989594
 42
1.0
 72
     4
 94
        3
 73
     1
 74
     0
 95
        8
 96
        4
 40
0.0
 40
0.0
 40
0.0
 40
0.0
 40
1.0
 40
1.0
 40
1.0
 40
1.0
 10
34.18986140950525
 20
4.728620930989594
 42
1.0
 10
33.71799357096356
 20
4.729427083333348
 42
1.0
 10
33.22677807617191
 20
4.558791503906257
 42
1.0
 10
32.92688940429689
 20
4.101098510742196
 42
1.0
 72
     1
 10
32.92688940429689
 20
4.101098510742196
 11
32.92688940429689
 21
5.806580973307315
 72
     1
 10
32.92688940429689
 20
5.806580973307315
 11
32.26450089518234
 21
5.806580973307315
 72
     1
 10
32.26450089518234
 20
5.806580973307315
 11
32.26450089518234
 21
0.1305966796874971
 72
     1
 10
32.26450089518234
 20
0.1305966796874974
 11
32.92688940429689
 21
0.1305966796874974
 72
     1
 10
32.92688940429689
 20
0.1305966796874974
 11
32.92688940429689
 21
2.739440022786463
 72
     4
 94
        3
 73
     1
 74
     0
 95
        8
 96
        4
 40
6.0
 40
6.0
 40
6.0
 40
6.0
 40
7.0
 40
7.0
 40
7.0
 40
7.0
 10
32.92688940429689
 20
2.739440022786463
 42
1.0
 10
32.93159195963541
 20
3.697552083333347
 42
1.0
 10
33.48770271809898
 20
4.097403645833345
 42
1.0
 10
34.11703898111984
 20
4.102106201171893
 42
1.0
 72
     4
 94
        3
 73
     1
 74
     0
 95
        8
 96
        4
 40
7.0
 40
7.0
 40
7.0
 40
7.0
 40
8.0
 40
8.0
 40
8.0
 40
8.0
 10
34.11703898111984
 20
4.102106201171893
 42
1.0
 10
34.79098234049482
 20
4.090887247721373
 42
1.0
 10
35.11317456054691
 20
3.851930257161462
 42
1.0
 10
35.12419197591149
 20
2.985450846354182
 42
1.0
 72
     1
 10
35.12419197591149
 20
2.985450846354182
 11
35.12419197591149
 21
0.1305966796874976
 72
     1
 10
35.12419197591149
 20
0.1305966796874974
 11
35.78752099609378
 21
0.1305966796874974
 72
     1
 10
35.78752099609378
 20
0.1305966796874974
 11
35.78752099609378
 21
3.149032592773438
 97
        0
 75
     0
 76
     1
 98
        1
 10
0.0
 20
0.0
  0
HATCH
  5
129
330
76
100
AcDbEntity
  8
0
  6
Continuous
 62
     7
100
AcDbHatch
 10
0.0
 20
0.0
 30
0.0
210
0.0
220
0.0
230
1.0
  2
SOLID
 70
     1
 71
     0
 91
        2
 92
        0
 93
       34
 72
     4
 94
        3
 73
     1
 74
     0
 95
        8
 96
        4
 40
26.0
 40
26.0
 40
26.0
 40
26.0
 40
27.0
 40
27.0
 40
27.0
 40
27.0
 10
42.47119571940105
 20
0.814616943359367
 42
1.0
 10
42.43505322265628
 20
0.9082649739583365
 42
1.0
 10
42.43088810221357
 20
1.055119059244797
 42
1.0
 10
42.43115681966147
 20
1.21823055013022
 42
1.0
 72
     1
 10
42.43115681966147
 20
1.21823055013022
 11
42.43115681966147
 21
4.047422200520845
 72
     1
 10
42.43115681966147
 20
4.047422200520845
 11
45.83137304687506
 21
4.047690917968763
 72
     1
 10
45.83137304687506
 20
4.047690917968763
 11
43.49541227213544
 21
0.5801609700520767
 72
     1
 10
43.49541227213544
 20
0.5801609700520766
 11
43.49541227213544
 21
0.1305966796875113
 72
     1
 10
43.49541227213544
 20
0.1305966796875113
 11
46.79996508789064
 21
0.1305966796875113
 72
     1
 10
46.79996508789064
 20
0.1305966796875113
 11
46.79996508789064
 21
0.7024274088541643
 72
     1
 10
46.79996508789064
 20
0.7024274088541643
 11
44.38231420898442
 21
0.7024274088541643
 72
     1
 10
44.38231420898442
 20
0.7024274088541643
 11
46.76382259114587
 21
4.242645426432295
 72
     1
 10
46.76382259114587
 20
4.242645426432295
 11
46.76382259114587
 21
4.618984212239593
 72
     1
 10
46.76382259114587
 20
4.618984212239593
 11
42.43115681966147
 21
4.618984212239593
 72
     1
 10
42.43115681966147
 20
4.618984212239593
 11
42.43115681966147
 21
5.806849690755206
 72
     1
 10
42.43115681966147
 20
5.806849690755206
 11
41.76849959309897
 21
5.806849690755206
 72
     1
 10
41.76849959309897
 20
5.806849690755206
 11
41.76849959309897
 21
4.618984212239593
 72
     1
 10
41.76849959309897
 20
4.618984212239593
 11
39.80068172200524
 21
4.618984212239593
 72
     1
 10
39.80068172200524
 20
4.618984212239593
 11
39.80068172200524
 21
4.202136271158855
 72
     4
 94
        3
 73
     1
 74
     0
 95
        8
 96
        4
 40
8.0
 40
8.0
 40
8.0
 40
8.0
 40
9.0
 40
9.0
 40
9.0
 40
9.0
 10
39.80068172200524
 20
4.202136271158855
 42
1.0
 10
39.43979418945315
 20
4.548042805989583
 42
1.0
 10
38.96308943684895
 20
4.728620930989594
 42
1.0
 10
38.44244938151048
 20
4.728150675455733
 42
1.0
 72
     4
 94
        3
 73
     1
 74
     0
 95
        8
 96
        4
 40
9.0
 40
9.0
 40
9.0
 40
9.0
 40
10.0
 40
10.0
 40
10.0
 40
10.0
 10
38.44244938151048
 20
4.728150675455733
 42
1.0
 10
37.88190478515624
 20
4.728620930989594
 42
1.0
 10
37.37026676432292
 20
4.522178751627623
 42
1.0
 10
37.00131770833337
 20
4.121991292317703
 42
1.0
 72
     4
 94
        3
 73
     1
 74
     0
 95
        8
 96
        4
 40
10.0
 40
10.0
 40
10.0
 40
10.0
 40
11.0
 40
11.0
 40
11.0
 40
11.0
 10
37.00131770833337
 20
4.121991292317703
 42
1.0
 10
36.63277172851564
 20
3.722677164713556
 42
1.0
 10
36.40745214843749
 20
3.132775187174488
 42
1.0
 10
36.40745214843749
 20
2.374924804687511
 42
1.0
 72
     4
 94
        3
 73
     1
 74
     0
 95
        8
 96
        4
 40
11.0
 40
11.0
 40
11.0
 40
11.0
 40
12.0
 40
12.0
 40
12.0
 40
12.0
 10
36.40745214843749
 20
2.374924804687511
 42
1.0
 10
36.40745214843749
 20
1.616738525390626
 42
1.0
 10
36.63277172851564
 20
1.027172444661453
 42
1.0
 10
37.00131770833337
 20
0.6274552408854217
 42
1.0
 72
     4
 94
        3
 73
     1
 74
     0
 95
        8
 96
        4
 40
12.0
 40
12.0
 40
12.0
 40
12.0
 40
13.0
 40
13.0
 40
13.0
 40
13.0
 10
37.00131770833337
 20
0.6274552408854217
 42
1.0
 10
37.37026676432292
 20
0.2281411132812466
 42
1.0
 10
37.88190478515624
 20
0.0210943196614632
 42
1.0
 10
38.44244938151048
 20
0.0213630371093815
 42
1.0
 72
     1
 10
38.44244938151048
 20
0.0213630371093815
 11
38.44352425130209
 21
0.0213630371093815
 72
     4
 94
        3
 73
     1
 74
     0
 95
        8
 96
        4
 40
14.0
 40
14.0
 40
14.0
 40
14.0
 40
15.0
 40
15.0
 40
15.0
 40
15.0
 10
38.44352425130209
 20
0.0213630371093815
 42
1.0
 10
38.98163094075524
 20
0.0213630371093815
 42
1.0
 10
39.47284643554688
 20
0.214302164713534
 42
1.0
 10
39.83763037109378
 20
0.5832512207031293
 42
1.0
 72
     1
 10
39.83763037109378
 20
0.5832512207031293
 11
39.92482918294277
 21
0.1305966796875113
 72
     1
 10
39.92482918294277
 20
0.1305966796875113
 11
40.47704353841147
 21
0.1305966796875113
 72
     1
 10
40.47704353841147
 20
0.1305966796875113
 11
40.47704353841147
 21
4.047422200520845
 72
     1
 10
40.47704353841147
 20
4.047422200520845
 11
41.76849959309897
 21
4.047422200520845
 72
     1
 10
41.76849959309897
 20
4.047422200520845
 11
41.76849959309897
 21
0.8538496907552204
 72
     4
 94
        3
 73
     1
 74
     0
 95
        8
 96
        4
 40
20.0
 40
20.0
 40
20.0
 40
20.0
 40
21.0
 40
21.0
 40
21.0
 40
21.0
 10
41.76849959309897
 20
0.8538496907552207
 42
1.0
 10
41.7674247233073
 20
0.5558420410156223
 42
1.0
 10
41.86375992838548
 20
0.3600813802083214
 42
1.0
 10
42.01921297200523
 20
0.2488323567708256
 42
1.0
 72
     4
 94
        3
 73
     1
 74
     0
 95
        8
 96
        4
 40
21.0
 40
21.0
 40
21.0
 40
21.0
 40
22.0
 40
22.0
 40
22.0
 40
22.0
 10
42.01921297200523
 20
0.2488323567708256
 42
1.0
 10
42.17385986328126
 20
0.1375833333333298
 42
1.0
 10
42.37244205729168
 20
0.1101741536458228
 42
1.0
 10
42.57371142578126
 20
0.1099054361979185
 42
1.0
 72
     4
 94
        2
 73
     1
 74
     0
 95
        6
 96
        3
 40
22.0
 40
22.0
 40
22.0
 40
23.0
 40
23.0
 40
23.0
 10
42.57371142578126
 20
0.1099054361979185
 42
1.0
 10
42.6103913574219
 20
0.1099054361979185
 42
1.0
 10
43.15817187500004
 20
0.1096367187500003
 42
1.0
 72
     1
 10
43.15817187500004
 20
0.1096367187500003
 11
43.15817187500004
 21
0.67380900065106
 72
     4
 94
        2
 73
     1
 74
     0
 95
        6
 96
        3
 40
24.0
 40
24.0
 40
24.0
 40
25.0
 40
25.0
 40
25.0
 10
43.15817187500004
 20
0.67380900065106
 42
1.0
 10
42.94333227539065
 20
0.67380900065106
 42
1.0
 10
42.6923501790365
 20
0.67380900065106
 42
1.0
 72
     4
 94
        3
 73
     1
 74
     0
 95
        8
 96
        4
 40
25.0
 40
25.0
 40
25.0
 40
25.0
 40
26.0
 40
26.0
 40
26.0
 40
26.0
 10
42.6923501790365
 20
0.67380900065106
 42
1.0
 10
42.55463248697916
 20
0.6774366861979492
 42
1.0
 10
42.50935359700525
 20
0.7223125000000302
 42
1.0
 10
42.47119571940105
 20
0.814616943359367
 42
1.0
 97
        0
 92
        0
 93
        5
 72
     4
 94
        3
 73
     1
 74
     0
 95
        8
 96
        4
 40
3.0
 40
3.0
 40
3.0
 40
3.0
 40
4.0
 40
4.0
 40
4.0
 40
4.0
 10
38.44244938151048
 20
4.102106201171893
 42
1.0
 10
39.2168930664063
 20
4.100292358398469
 42
1.0
 10
39.81062426757814
 20
3.47538993326825
 42
1.0
 10
39.81465502929687
 20
2.374924804687511
 42
1.0
 72
     4
 94
        3
 73
     1
 74
     0
 95
        8
 96
        4
 40
4.0
 40
4.0
 40
4.0
 40
4.0
 40
5.0
 40
5.0
 40
5.0
 40
5.0
 10
39.81465502929687
 20
2.374924804687511
 42
1.0
 10
39.81062426757814
 20
1.265524820963537
 42
1.0
 10
39.21743050130211
 20
0.6497587890624962
 42
1.0
 10
38.44244938151048
 20
0.6476090494791781
 42
1.0
 72
     4
 94
        3
 73
     1
 74
     0
 95
        8
 96
        4
 40
0.0
 40
0.0
 40
0.0
 40
0.0
 40
1.0
 40
1.0
 40
1.0
 40
1.0
 10
38.44244938151048
 20
0.6476090494791781
 42
1.0
 10
37.66733390299481
 20
0.6497587890624962
 42
1.0
 10
37.0740057779948
 20
1.265524820963537
 42
1.0
 10
37.0703780924479
 20
2.374924804687511
 42
1.0
 72
     1
 10
37.0703780924479
 20
2.374924804687511
 11
37.07010937499999
 21
2.374924804687511
 72
     4
 94
        3
 73
     1
 74
     0
 95
        8
 96
        4
 40
2.0
 40
2.0
 40
2.0
 40
2.0
 40
3.0
 40
3.0
 40
3.0
 40
3.0
 10
37.07010937499999
 20
2.374924804687511
 42
1.0
 10
37.0740057779948
 20
3.47538993326825
 42
1.0
 10
37.66787133789068
 20
4.100292358398469
 42
1.0
 10
38.44244938151048
 20
4.102106201171893
 42
1.0
 97
        0
 75
     0
 76
     1
 98
        1
 10
0.0
 20
0.0
  0
ENDBLK
  5
78
330
76
100
AcDbEntity
  8
0
100
AcDbBlockEnd
  0
BLOCK
  5
27E
330
27D
100
AcDbEntity
  8
0
100
AcDbBlockBegin
  2
_D
 70
     0
 10
0.0
 20
0.0
 30
0.0
  3
_D
  1

  0
SOLID
  5
280
330
27D
100
AcDbEntity
  8
0
  6
Continuous
 62
     7
370
    18
100
AcDbTrace
 10
51.9777242471
 20
160.284959404
 30
0.0
 11
55.2797242471
 21
159.776959404
 31
0.0
 12
55.2797242471
 22
160.792959404
 32
0.0
 13
55.2797242471
 23
160.792959404
 33
0.0
  0
SOLID
  5
281
330
27D
100
AcDbEntity
  8
0
  6
Continuous
 62
     7
370
    18
100
AcDbTrace
 10
112.9777242471
 20
160.284959404
 30
0.0
 11
109.6757242471
 21
160.792959404
 31
0.0
 12
109.6757242471
 22
159.776959404
 32
0.0
 13
109.6757242471
 23
159.776959404
 33
0.0
  0
LINE
  5
282
330
27D
100
AcDbEntity
  8
0
  6
Continuous
 62
     7
370
    18
100
AcDbLine
 10
51.9777242471
 20
169.284959404
 30
0.0
 11
51.9777242471
 21
159.284959404
 31
0.0
  0
LINE
  5
283
330
27D
100
AcDbEntity
  8
0
  6
Continuous
 62
     7
370
    18
100
AcDbLine
 10
112.9777242471
 20
169.284959404
 30
0.0
 11
112.9777242471
 21
159.284959404
 31
0.0
  0
LINE
  5
284
330
27D
100
AcDbEntity
  8
0
  6
Continuous
 62
     7
370
    18
100
AcDbLine
 10
51.9777242471
 20
160.284959404
 30
0.0
 11
112.9777242471
 21
160.284959404
 31
0.0
  0
MTEXT
  5
285
330
27D
100
AcDbEntity
  8
0
  6
Continuous
 62
     7
370
    18
100
AcDbMText
 10
80.1058147006
 20
164.7966963186
 30
0.0
 40
3.5
 41
0.0
 71
     1
 72
     1
  1
61
  7
SLDTEXTSTYLE0
 73
     1
 44
1.0
  0
ENDBLK
  5
27F
330
27D
100
AcDbEntity
  8
0
100
AcDbBlockEnd
  0
BLOCK
  5
288
330
287
100
AcDbEntity
  8
0
100
AcDbBlockBegin
  2
_D_1
 70
     0
 10
0.0
 20
0.0
 30
0.0
  3
_D_1
  1

  0
SOLID
  5
28A
330
287
100
AcDbEntity
  8
0
  6
Continuous
 62
     7
370
    18
100
AcDbTrace
 10
44.1391759156
 20
203.284959404
 30
0.0
 11
43.6311759156
 21
199.982959404
 31
0.0
 12
44.6471759156
 22
199.982959404
 32
0.0
 13
44.6471759156
 23
199.982959404
 33
0.0
  0
SOLID
  5
28B
330
287
100
AcDbEntity
  8
0
  6
Continuous
 62
     7
370
    18
100
AcDbTrace
 10
44.1391759156
 20
170.284959404
 30
0.0
 11
44.6471759156
 21
173.586959404
 31
0.0
 12
43.6311759156
 22
173.586959404
 32
0.0
 13
43.6311759156
 23
173.586959404
 33
0.0
  0
LINE
  5
28C
330
287
100
AcDbEntity
  8
0
  6
Continuous
 62
     7
370
    18
100
AcDbLine
 10
51.2657108842
 20
203.284959404
 30
0.0
 11
43.1391759156
 21
203.284959404
 31
0.0
  0
LINE
  5
28D
330
287
100
AcDbEntity
  8
0
  6
Continuous
 62
     7
370
    18
100
AcDbLine
 10
50.9777242471
 20
170.284959404
 30
0.0
 11
43.1391759156
 21
170.284959404
 31
0.0
  0
LINE
  5
28E
330
287
100
AcDbEntity
  8
0
  6
Continuous
 62
     7
370
    18
100
AcDbLine
 10
44.1391759156
 20
203.284959404
 30
0.0
 11
44.1391759156
 21
170.284959404
 31
0.0
  0
MTEXT
  5
28F
330
287
100
AcDbEntity
  8
0
  6
Continuous
 62
     7
370
    18
100
AcDbMText
 10
39.627439001
 20
185.0160678541
 30
0.0
 40
3.5
 41
0.0
 71
     1
 72
     1
  1
33
  7
SLDTEXTSTYLE0
 11
-7.044195017643634E-15
 21
1.0
 31
0.0
 73
     1
 44
1.0
  0
ENDBLK
  5
289
330
287
100
AcDbEntity
  8
0
100
AcDbBlockEnd
  0
BLOCK
  5
30C
330
30B
100
AcDbEntity
  8
0
100
AcDbBlockBegin
  2
_D_2
 70
     0
 10
0.0
 20
0.0
 30
0.0
  3
_D_2
  1

  0
SOLID
  5
30E
330
30B
100
AcDbEntity
  8
0
  6
Continuous
 62
     7
370
    18
100
AcDbTrace
 10
154.1943497462
 20
161.9998187925
 30
0.0
 11
157.4963497462
 21
161.4918187925
 31
0.0
 12
157.4963497462
 22
162.5078187925
 32
0.0
 13
157.4963497462
 23
162.5078187925
 33
0.0
  0
SOLID
  5
30F
330
30B
100
AcDbEntity
  8
0
  6
Continuous
 62
     7
370
    18
100
AcDbTrace
 10
163.5250117583
 20
161.9998187925
 30
0.0
 11
160.2230117583
 21
162.5078187925
 31
0.0
 12
160.2230117583
 22
161.4918187925
 32
0.0
 13
160.2230117583
 23
161.4918187925
 33
0.0
  0
LINE
  5
310
330
30B
100
AcDbEntity
  8
0
  6
Continuous
 62
     7
370
    18
100
AcDbLine
 10
154.1943497462
 20
169.3083409512
 30
0.0
 11
154.1943497462
 21
160.9998187925
 31
0.0
  0
LINE
  5
311
330
30B
100
AcDbEntity
  8
0
  6
Continuous
 62
     7
370
    18
100
AcDbLine
 10
163.5250117583
 20
177.1742777433
 30
0.0
 11
163.5250117583
 21
160.9998187925
 31
0.0
  0
LINE
  5
312
330
30B
100
AcDbEntity
  8
0
  6
Continuous
 62
     7
370
    18
100
AcDbLine
 10
154.1943497462
 20
161.9998187925
 30
0.0
 11
163.5250117583
 21
161.9998187925
 31
0.0
  0
LINE
  5
313
330
30B
100
AcDbEntity
  8
0
  6
Continuous
 62
     7
370
    18
100
AcDbLine
 10
163.5250117583
 20
161.9998187925
 30
0.0
 11
178.0507389231
 21
161.9998187925
 31
0.0
  0
MTEXT
  5
314
330
30B
100
AcDbEntity
  8
0
  6
Continuous
 62
     7
370
    18
100
AcDbMText
 10
168.9993498622
 20
166.511555707
 30
0.0
 40
3.5
 41
0.0
 71
     1
 72
     1
  1
9.33
  7
SLDTEXTSTYLE0
 73
     1
 44
1.0
  0
ENDBLK
  5
30D
330
30B
100
AcDbEntity
  8
0
100
AcDbBlockEnd
  0
ENDSEC
  0
SECTION
  2
ENTITIES
  0
LINE
  5
12A
330
1F
100
AcDbEntity
  8
0
  6
Continuous
 62
     7
370
    25
100
AcDbLine
 10
82.4777242471
 20
170.0996691419
 30
0.0
 11
82.4777242471
 21
170.1694941206
 31
0.0
  0
LINE
  5
12B
330
1F
100
AcDbEntity
  8
0
  6
Continuous
 62
     7
370
    25
100
AcDbLine
 10
82.4777242471
 20
170.1694941206
 30
0.0
 11
82.6777242421
 21
170.2849594934
 31
0.0
  0
LINE
  5
12C
330
1F
100
AcDbEntity
  8
0
  6
Continuous
 62
     7
370
    25
100
AcDbLine
 10
82.6777242421
 20
170.2151438279
 30
0.0
 11
82.6777242421
 21
170.2849594934
 31
0.0
  0
LINE
  5
12D
330
1F
100
AcDbEntity
  8
0
  6
Continuous
 62
     7
370
    25
100
AcDbLine
 10
82.6777242421
 20
170.2151438279
 30
0.0
 11
82.4777242471
 21
170.0996691419
 31
0.0
  0
LINE
  5
12E
330
1F
100
AcDbEntity
  8
0
  6
Continuous
 62
     7
370
    25
100
AcDbLine
 10
82.2777242522
 20
170.2151438279
 30
0.0
 11
82.2777242522
 21
170.2849594934
 31
0.0
  0
LINE
  5
12F
330
1F
100
AcDbEntity
  8
0
  6
Continuous
 62
     7
370
    25
100
AcDbLine
 10
82.2777242522
 20
170.2849594934
 30
0.0
 11
82.4777242471
 21
170.1694941206
 31
0.0
  0
LINE
  5
130
330
1F
100
AcDbEntity
  8
0
  6
Continuous
 62
     7
370
    25
100
AcDbLine
 10
82.4777242471
 20
170.0996691419
 30
0.0
 11
82.2777242522
 21
170.2151438279
 31
0.0
  0
LINE
  5
131
330
1F
100
AcDbEntity
  8
0
  6
Continuous
 62
     7
370
    25
100
AcDbLine
 10
82.6777242421
 20
170.2849594934
 30
0.0
 11
82.2777242522
 21
170.2849594934
 31
0.0
  0
LINE
  5
132
330
1F
100
AcDbEntity
  8
0
  6
Continuous
 62
     7
370
    25
100
AcDbLine
 10
112.7277240832
 20
201.3083407713
 30
0.0
 11
112.7277240832
 21
198.9321215136
 31
0.0
  0
LINE
  5
133
330
1F
100
AcDbEntity
  8
0
  6
Continuous
 62
     7
370
    25
100
AcDbLine
 10
112.7069872548
 20
201.3083407713
 30
0.0
 11
112.7277240832
 21
201.3083407713
 31
0.0
  0
LINE
  5
134
330
1F
100
AcDbEntity
  8
0
  6
Continuous
 62
     7
370
    25
100
AcDbLine
 10
112.8817555238
 20
181.2819051614
 30
0.0
 11
109.9777240981
 21
181.2819051614
 31
0.0
  0
LWPOLYLINE
  5
135
330
1F
100
AcDbEntity
  8
0
  6
Continuous
 62
     7
370
    25
100
AcDbPolyline
 90
        8
 70
   128
 43
0.0
 10
112.9341163416
 20
175.2819055749
 10
112.9267067392
 20
176.1310566274
 10
112.9192170431
 20
176.9891893549
 10
112.9116826435
 20
177.8525263129
 10
112.904137068
 20
178.717266774
 10
112.8966119816
 20
179.5796030259
 10
112.8891390492
 20
180.4357389977
 10
112.8817555238
 20
181.2819051614
  0
LINE
  5
136
330
1F
100
AcDbEntity
  8
0
  6
Continuous
 62
     7
370
    25
100
AcDbLine
 10
112.9341163416
 20
175.2819055749
 30
0.0
 11
109.9777240981
 21
175.2819055749
 31
0.0
  0
LINE
  5
137
330
1F
100
AcDbEntity
  8
0
  6
Continuous
 62
     7
370
    25
100
AcDbLine
 10
109.9777240981
 20
181.2819051614
 30
0.0
 11
109.9777240981
 21
175.2819055749
 31
0.0
  0
LINE
  5
138
330
1F
100
AcDbEntity
  8
0
  6
Continuous
 62
     7
370
    25
100
AcDbLine
 10
54.9777243962
 20
175.2849593816
 30
0.0
 11
54.9777243962
 21
181.2849594338
 31
0.0
  0
LINE
  5
139
330
1F
100
AcDbEntity
  8
0
  6
Continuous
 62
     7
370
    25
100
AcDbLine
 10
52.0213582297
 20
175.2849593816
 30
0.0
 11
54.9777243962
 21
175.2849593816
 31
0.0
  0
LWPOLYLINE
  5
13A
330
1F
100
AcDbEntity
  8
0
  6
Continuous
 62
     7
370
    25
100
AcDbPolyline
 90
        8
 70
   128
 43
0.0
 10
52.0737190475
 20
181.2849594338
 10
52.0663355221
 20
180.4387928044
 10
52.0588644524
 20
179.5826572983
 10
52.051339366
 20
178.720321512
 10
52.0437919279
 20
177.8555810509
 10
52.0362575282
 20
176.9922440929
 10
52.0287696947
 20
176.1341104342
 10
52.0213582297
 20
175.2849593816
  0
LINE
  5
13B
330
1F
100
AcDbEntity
  8
0
  6
Continuous
 62
     7
370
    25
100
AcDbLine
 10
52.0737190475
 20
181.2849594338
 30
0.0
 11
54.9777243962
 21
181.2849594338
 31
0.0
  0
ARC
  5
13C
330
1F
100
AcDbEntity
  8
0
  6
Continuous
 62
     7
370
    25
100
AcDbCircle
 10
55.2277242471
 20
173.034959404
 30
0.0
 40
0.25
100
AcDbArc
 50
180.0
 51
270.0
  0
LINE
  5
13D
330
1F
100
AcDbEntity
  8
0
  6
Continuous
 62
     7
370
    25
100
AcDbLine
 10
55.2277249028
 20
172.7849589718
 30
0.0
 11
109.7277235915
 21
172.7849589718
 31
0.0
  0
ARC
  5
13E
330
1F
100
AcDbEntity
  8
0
  6
Continuous
 62
     7
370
    25
100
AcDbCircle
 10
109.7277242471
 20
173.034959404
 30
0.0
 40
0.25
100
AcDbArc
 50
270.0
 51
0.0
  0
LINE
  5
13F
330
1F
100
AcDbEntity
  8
0
  6
Continuous
 62
     7
370
    25
100
AcDbLine
 10
51.9777239044
 20
170.2849594934
 30
0.0
 11
112.9777245899
 21
170.2849594934
 31
0.0
  0
LINE
  5
140
330
1F
100
AcDbEntity
  8
0
  6
Continuous
 62
     7
370
    25
100
AcDbLine
 10
54.9777243962
 20
175.2849593816
 30
0.0
 11
54.9777243962
 21
173.0349594785
 31
0.0
  0
LINE
  5
141
330
1F
100
AcDbEntity
  8
0
  6
Continuous
 62
     7
370
    25
100
AcDbLine
 10
52.0213582297
 20
175.2849593816
 30
0.0
 11
51.9777239044
 21
170.2849594934
 31
0.0
  0
LINE
  5
142
330
1F
100
AcDbEntity
  8
0
  6
Continuous
 62
     7
370
    25
100
AcDbLine
 10
112.9341163416
 20
175.2819055749
 30
0.0
 11
112.9777245899
 21
170.2849594934
 31
0.0
  0
LINE
  5
143
330
1F
100
AcDbEntity
  8
0
  6
Continuous
 62
     7
370
    25
100
AcDbLine
 10
109.9777240981
 20
173.0349594785
 30
0.0
 11
109.9777240981
 21
175.2819055749
 31
0.0
  0
ARC
  5
144
330
1F
100
AcDbEntity
  8
0
  6
Continuous
 62
     7
370
    25
100
AcDbCircle
 10
109.7277242471
 20
200.534959404
 30
0.0
 40
0.25
100
AcDbArc
 50
0.0
 51
90.0
  0
LINE
  5
145
330
1F
100
AcDbEntity
  8
0
  6
Continuous
 62
     7
370
    25
100
AcDbLine
 10
109.7277235915
 20
200.7849598361
 30
0.0
 11
55.2277249028
 21
200.7849598361
 31
0.0
  0
ARC
  5
146
330
1F
100
AcDbEntity
  8
0
  6
Continuous
 62
     7
370
    25
100
AcDbCircle
 10
55.2277242471
 20
200.534959404
 30
0.0
 40
0.25
100
AcDbArc
 50
90.0
 51
180.0
  0
LINE
  5
147
330
1F
100
AcDbEntity
  8
0
  6
Continuous
 62
     7
370
    25
100
AcDbLine
 10
52.1197673608
 20
186.5614558104
 30
0.0
 11
52.0062838425
 21
186.7610412813
 31
0.0
  0
LINE
  5
148
330
1F
100
AcDbEntity
  8
0
  6
Continuous
 62
     7
370
    25
100
AcDbLine
 10
52.0062838425
 20
186.7610412813
 30
0.0
 11
52.1232505073
 21
186.9606276653
 31
0.0
  0
LINE
  5
149
330
1F
100
AcDbEntity
  8
0
  6
Continuous
 62
     7
370
    25
100
AcDbLine
 10
52.2657111962
 20
203.2849593146
 30
0.0
 11
82.2777242522
 21
203.2849593146
 31
0.0
  0
LINE
  5
14A
330
1F
100
AcDbEntity
  8
0
  6
Continuous
 62
     7
370
    25
100
AcDbLine
 10
82.4777242471
 20
203.4004246874
 30
0.0
 11
82.2777242522
 21
203.2849593146
 31
0.0
  0
LINE
  5
14B
330
1F
100
AcDbEntity
  8
0
  6
Continuous
 62
     7
370
    25
100
AcDbLine
 10
82.6777242421
 20
203.2849593146
 30
0.0
 11
82.4777242471
 21
203.4004246874
 31
0.0
  0
LINE
  5
14C
330
1F
100
AcDbEntity
  8
0
  6
Continuous
 62
     7
370
    25
100
AcDbLine
 10
82.6777242421
 20
203.2849593146
 30
0.0
 11
112.6897372981
 21
203.2849593146
 31
0.0
  0
LINE
  5
14D
330
1F
100
AcDbEntity
  8
0
  6
Continuous
 62
     7
370
    25
100
AcDbLine
 10
112.8321793606
 20
186.9627804175
 30
0.0
 11
112.9491460253
 21
186.7631940316
 31
0.0
  0
LINE
  5
14E
330
1F
100
AcDbEntity
  8
0
  6
Continuous
 62
     7
370
    25
100
AcDbLine
 10
112.9491460253
 20
186.7631940316
 30
0.0
 11
112.835662507
 21
186.5636085625
 31
0.0
  0
LINE
  5
14F
330
1F
100
AcDbEntity
  8
0
  6
Continuous
 62
     7
370
    25
100
AcDbLine
 10
54.9777243962
 20
200.5349593295
 30
0.0
 11
54.9777243962
 21
181.2849594338
 31
0.0
  0
LINE
  5
150
330
1F
100
AcDbEntity
  8
0
  6
Continuous
 62
     7
370
    25
100
AcDbLine
 10
52.1197673608
 20
186.5614558104
 30
0.0
 11
52.0737190475
 21
181.2849594338
 31
0.0
  0
LINE
  5
151
330
1F
100
AcDbEntity
  8
0
  6
Continuous
 62
     7
370
    25
100
AcDbLine
 10
52.2657111962
 20
203.2849593146
 30
0.0
 11
52.1232505073
 21
186.9606276653
 31
0.0
  0
LINE
  5
152
330
1F
100
AcDbEntity
  8
0
  6
Continuous
 62
     7
370
    25
100
AcDbLine
 10
112.6897372981
 20
203.2849593146
 30
0.0
 11
112.8321793606
 21
186.9627804175
 31
0.0
  0
LINE
  5
153
330
1F
100
AcDbEntity
  8
0
  6
Continuous
 62
     7
370
    25
100
AcDbLine
 10
112.835662507
 20
186.5636085625
 30
0.0
 11
112.8817555238
 21
181.2819051614
 31
0.0
  0
LINE
  5
154
330
1F
100
AcDbEntity
  8
0
  6
Continuous
 62
     7
370
    25
100
AcDbLine
 10
109.9777240981
 20
181.2819051614
 30
0.0
 11
109.9777240981
 21
200.5349593295
 31
0.0
  0
LINE
  5
155
330
1F
100
AcDbEntity
  8
0
  6
Continuous
 62
     7
370
    25
100
AcDbLine
 10
52.0062838425
 20
186.8073986319
 30
0.0
 11
52.1235056897
 21
187.0073910162
 31
0.0
  0
LINE
  5
156
330
1F
100
AcDbEntity
  8
0
  6
Continuous
 62
     7
370
    25
100
AcDbLine
 10
52.1235056897
 20
187.0073910162
 30
0.0
 11
52.1235056897
 21
186.9899379438
 31
0.0
  0
LINE
  5
157
330
1F
100
AcDbEntity
  8
0
  6
Continuous
 62
     7
370
    25
100
AcDbLine
 10
52.0062838425
 20
186.8073986319
 30
0.0
 11
52.0062838425
 21
186.7610412813
 31
0.0
  0
LINE
  5
158
330
1F
100
AcDbEntity
  8
0
  6
Continuous
 62
     7
370
    25
100
AcDbLine
 10
112.8319241782
 20
187.0095434336
 30
0.0
 11
112.8319241782
 21
186.9920903758
 31
0.0
  0
LINE
  5
159
330
1F
100
AcDbEntity
  8
0
  6
Continuous
 62
     7
370
    25
100
AcDbLine
 10
112.8319241782
 20
187.0095434336
 30
0.0
 11
112.9491460253
 21
186.8095510548
 31
0.0
  0
LINE
  5
15A
330
1F
100
AcDbEntity
  8
0
  6
Continuous
 62
     7
370
    25
100
AcDbLine
 10
112.9491460253
 20
186.8095510548
 30
0.0
 11
112.9491460253
 21
186.7631940316
 31
0.0
  0
LINE
  5
15B
330
1F
100
AcDbEntity
  8
0
  6
Continuous
 62
     7
370
    25
100
AcDbLine
 10
70.6329663028
 20
177.7854627056
 30
0.0
 11
70.6329663028
 21
175.2668414323
 31
0.0
  0
SPLINE
  5
15C
330
1F
100
AcDbEntity
  8
0
  6
Continuous
 62
     7
370
    25
100
AcDbSpline
210
0.0
220
0.0
230
1.0
 70
     8
 71
     3
 72
     8
 73
     4
 74
     0
 42
0.000000001
 43
0.00000001
 40
0.7857142857142857
 40
0.7857142857142857
 40
0.7857142857142857
 40
0.7857142857142857
 40
0.8571428571428571
 40
0.8571428571428571
 40
0.8571428571428571
 40
0.8571428571428571
 10
72.19620577485017
 20
176.6062686289007
 30
0.0
 10
72.19620577485017
 20
176.8103250241907
 30
0.0
 10
72.14347468270013
 20
176.9864784818907
 30
0.0
 10
72.02648924611006
 20
177.1112370849257
 30
0.0
  0
LINE
  5
15D
330
1F
100
AcDbEntity
  8
0
  6
Continuous
 62
     7
370
    25
100
AcDbLine
 10
72.1962061454
 20
175.2668414323
 30
0.0
 11
72.1962061454
 21
176.6062686277
 31
0.0
  0
LINE
  5
15E
330
1F
100
AcDbEntity
  8
0
  6
Continuous
 62
     7
370
    25
100
AcDbLine
 10
71.9017741014
 20
175.2668414323
 30
0.0
 11
72.1962061454
 21
175.2668414323
 31
0.0
  0
LINE
  5
15F
330
1F
100
AcDbEntity
  8
0
  6
Continuous
 62
     7
370
    25
100
AcDbLine
 10
71.9017741014
 20
176.5335369913
 30
0.0
 11
71.9017741014
 21
175.2668414323
 31
0.0
  0
SPLINE
  5
160
330
1F
100
AcDbEntity
  8
0
  6
Continuous
 62
     7
370
    25
100
AcDbSpline
210
0.0
220
0.0
230
1.0
 70
     8
 71
     3
 72
     8
 73
     4
 74
     0
 42
0.000000001
 43
0.00000001
 40
0.5
 40
0.5
 40
0.5
 40
0.5
 40
0.5714285714285714
 40
0.5714285714285714
 40
0.5714285714285714
 40
0.5714285714285714
 10
71.45498191059006
 20
177.0290225592358
 30
0.0
 10
71.75402611247522
 20
177.0240655492109
 30
0.0
 10
71.89694605079004
 20
176.9180430072557
 30
0.0
 10
71.9017737475102
 20
176.5335370789108
 30
0.0
  0
SPLINE
  5
161
330
1F
100
AcDbEntity
  8
0
  6
Continuous
 62
     7
370
    25
100
AcDbSpline
210
0.0
220
0.0
230
1.0
 70
     8
 71
     3
 72
     8
 73
     4
 74
     0
 42
0.000000001
 43
0.00000001
 40
0.4285714285714285
 40
0.4285714285714285
 40
0.4285714285714285
 40
0.4285714285714285
 40
0.5
 40
0.5
 40
0.5
 40
0.5
 10
70.9268807411152
 20
176.4244828583608
 30
0.0
 10
70.92889228141512
 20
176.8496075326208
 30
0.0
 10
71.17576574880515
 20
177.0269966507907
 30
0.0
 10
71.45498191059006
 20
177.0290225592358
 30
0.0
  0
LINE
  5
162
330
1F
100
AcDbEntity
  8
0
  6
Continuous
 62
     7
370
    25
100
AcDbLine
 10
70.9268805315
 20
175.2668414323
 30
0.0
 11
70.9268805315
 21
176.4244828431
 31
0.0
  0
LINE
  5
163
330
1F
100
AcDbEntity
  8
0
  6
Continuous
 62
     7
370
    25
100
AcDbLine
 10
70.6329663028
 20
175.2668414323
 30
0.0
 11
70.9268805315
 21
175.2668414323
 31
0.0
  0
LINE
  5
164
330
1F
100
AcDbEntity
  8
0
  6
Continuous
 62
     7
370
    25
100
AcDbLine
 10
70.9268805315
 20
177.7854627056
 30
0.0
 11
70.6329663028
 21
177.7854627056
 31
0.0
  0
LINE
  5
165
330
1F
100
AcDbEntity
  8
0
  6
Continuous
 62
     7
370
    25
100
AcDbLine
 10
70.9268805315
 20
177.028677432
 30
0.0
 11
70.9268805315
 21
177.7854627056
 31
0.0
  0
SPLINE
  5
166
330
1F
100
AcDbEntity
  8
0
  6
Continuous
 62
     7
370
    25
100
AcDbSpline
210
0.0
220
0.0
230
1.0
 70
     8
 71
     3
 72
     8
 73
     4
 74
     0
 42
0.000000001
 43
0.00000001
 40
0.0
 40
0.0
 40
0.0
 40
0.0
 40
0.0714285714285714
 40
0.0714285714285714
 40
0.0714285714285714
 40
0.0714285714285714
 10
71.48725276426002
 20
177.3070892694209
 30
0.0
 10
71.27788015532008
 20
177.3074341049008
 30
0.0
 10
71.06000160454002
 20
177.2316852444607
 30
0.0
 10
70.92688074111518
 20
177.0286777237558
 30
0.0
  0
SPLINE
  5
167
330
1F
100
AcDbEntity
  8
0
  6
Continuous
 62
     7
370
    25
100
AcDbSpline
210
0.0
220
0.0
230
1.0
 70
     8
 71
     3
 72
     8
 73
     4
 74
     0
 42
0.000000001
 43
0.00000001
 40
0.8571428571428571
 40
0.8571428571428571
 40
0.8571428571428571
 40
0.8571428571428571
 40
1.0
 40
1.0
 40
1.0
 40
1.0
 10
72.02648924611006
 20
177.1112370849257
 30
0.0
 10
71.90943196879508
 20
177.2362830508608
 30
0.0
 10
71.73033304137007
 20
177.3070892694209
 30
0.0
 10
71.48725276426003
 20
177.3070892694209
 30
0.0
  0
SPLINE
  5
168
330
1F
100
AcDbEntity
  8
0
  6
Continuous
 62
     7
370
    25
100
AcDbSpline
210
0.0
220
0.0
230
1.0
 70
     8
 71
     3
 72
     8
 73
     4
 74
     0
 42
0.000000001
 43
0.00000001
 40
0.5
 40
0.5
 40
0.5
 40
0.5
 40
0.5714285714285714
 40
0.5714285714285714
 40
0.5714285714285714
 40
0.5714285714285714
 10
65.85284217509017
 20
177.0290225592357
 30
0.0
 10
66.15198695399005
 20
177.0241804943706
 30
0.0
 10
66.29502183746511
 20
176.9180430072556
 30
0.0
 10
66.29997884749004
 20
176.5334365018958
 30
0.0
  0
LINE
  5
169
330
1F
100
AcDbEntity
  8
0
  6
Continuous
 62
     7
370
    25
100
AcDbLine
 10
65.3247982939
 20
175.2668414323
 30
0.0
 11
65.3247982939
 21
176.4242528064
 31
0.0
  0
LINE
  5
16A
330
1F
100
AcDbEntity
  8
0
  6
Continuous
 62
     7
370
    25
100
AcDbLine
 10
65.0308263232
 20
177.2584673075
 30
0.0
 11
65.0308263232
 21
175.2668414323
 31
0.0
  0
LINE
  5
16B
330
1F
100
AcDbEntity
  8
0
  6
Continuous
 62
     7
370
    25
100
AcDbLine
 10
65.3247833927
 20
177.0318960829
 30
0.0
 11
65.3247982939
 21
177.2584673075
 31
0.0
  0
SPLINE
  5
16C
330
1F
100
AcDbEntity
  8
0
  6
Continuous
 62
     7
370
    25
100
AcDbSpline
210
0.0
220
0.0
230
1.0
 70
     8
 71
     3
 72
     8
 73
     4
 74
     0
 42
0.000000001
 43
0.00000001
 40
0.0
 40
0.0
 40
0.0
 40
0.0
 40
0.0714285714285714
 40
0.0714285714285714
 40
0.0714285714285714
 40
0.0714285714285714
 10
65.88511302876014
 20
177.3068737472456
 30
0.0
 10
65.67575478796509
 20
177.3074341049008
 30
0.0
 10
65.45820670452005
 20
177.2319151347808
 30
0.0
 10
65.32478411005022
 20
177.0318961882357
 30
0.0
  0
SPLINE
  5
16D
330
1F
100
AcDbEntity
  8
0
  6
Continuous
 62
     7
370
    25
100
AcDbSpline
210
0.0
220
0.0
230
1.0
 70
     8
 71
     3
 72
     8
 73
     4
 74
     0
 42
0.000000001
 43
0.00000001
 40
0.8571428571428571
 40
0.8571428571428571
 40
0.8571428571428571
 40
0.8571428571428571
 40
1.0
 40
1.0
 40
1.0
 40
1.0
 10
66.42440698319021
 20
177.1112370849257
 30
0.0
 10
66.30753649176019
 20
177.2365129411806
 30
0.0
 10
66.12813583329016
 20
177.3072042145807
 30
0.0
 10
65.88511302876014
 20
177.3068737472456
 30
0.0
  0
SPLINE
  5
16E
330
1F
100
AcDbEntity
  8
0
  6
Continuous
 62
     7
370
    25
100
AcDbSpline
210
0.0
220
0.0
230
1.0
 70
     8
 71
     3
 72
     8
 73
     4
 74
     0
 42
0.000000001
 43
0.00000001
 40
0.7857142857142857
 40
0.7857142857142857
 40
0.7857142857142857
 40
0.7857142857142857
 40
0.8571428571428571
 40
0.8571428571428571
 40
0.8571428571428571
 40
0.8571428571428571
 10
66.59400856677006
 20
176.6062686289007
 30
0.0
 10
66.59400856677006
 20
176.8103250241907
 30
0.0
 10
66.54133494720004
 20
176.9864784818907
 30
0.0
 10
66.42440698319021
 20
177.1112370849257
 30
0.0
  0
LINE
  5
16F
330
1F
100
AcDbEntity
  8
0
  6
Continuous
 62
     7
370
    25
100
AcDbLine
 10
66.5940084238
 20
175.2668414323
 30
0.0
 11
66.5940084238
 21
176.6062686277
 31
0.0
  0
LINE
  5
170
330
1F
100
AcDbEntity
  8
0
  6
Continuous
 62
     7
370
    25
100
AcDbLine
 10
66.2999936123
 20
175.2668414323
 30
0.0
 11
66.5940084238
 21
175.2668414323
 31
0.0
  0
LINE
  5
171
330
1F
100
AcDbEntity
  8
0
  6
Continuous
 62
     7
370
    25
100
AcDbLine
 10
66.2999787112
 20
176.5334364084
 30
0.0
 11
66.2999936123
 21
175.2668414323
 31
0.0
  0
SPLINE
  5
172
330
1F
100
AcDbEntity
  8
0
  6
Continuous
 62
     7
370
    25
100
AcDbSpline
210
0.0
220
0.0
230
1.0
 70
     8
 71
     3
 72
     8
 73
     4
 74
     0
 42
0.000000001
 43
0.00000001
 40
0.4285714285714285
 40
0.4285714285714285
 40
0.4285714285714285
 40
0.4285714285714285
 40
0.5
 40
0.5
 40
0.5
 40
0.5
 10
65.3247984781951
 20
176.4242529680407
 30
0.0
 10
65.32688185922017
 20
176.8496075326208
 30
0.0
 10
65.57369785403019
 20
177.0269966507907
 30
0.0
 10
65.85284217509017
 20
177.0290225592357
 30
0.0
  0
LINE
  5
173
330
1F
100
AcDbEntity
  8
0
  6
Continuous
 62
     7
370
    25
100
AcDbLine
 10
65.0308263232
 20
175.2668414323
 30
0.0
 11
65.3247982939
 21
175.2668414323
 31
0.0
  0
LINE
  5
174
330
1F
100
AcDbEntity
  8
0
  6
Continuous
 62
     7
370
    25
100
AcDbLine
 10
65.3247982939
 20
177.2584673075
 30
0.0
 11
65.0308263232
 21
177.2584673075
 31
0.0
  0
LINE
  5
175
330
1F
100
AcDbEntity
  8
0
  6
Continuous
 62
     7
370
    25
100
AcDbLine
 10
63.2226095279
 20
176.4986654801
 30
0.0
 11
64.3656664272
 21
176.4986515103
 31
0.0
  0
SPLINE
  5
176
330
1F
100
AcDbEntity
  8
0
  6
Continuous
 62
     7
370
    25
100
AcDbSpline
210
0.0
220
0.0
230
1.0
 70
     8
 71
     3
 72
     8
 73
     4
 74
     0
 42
0.000000001
 43
0.00000001
 40
0.25
 40
0.25
 40
0.25
 40
0.25
 40
0.5
 40
0.5
 40
0.5
 40
0.5
 10
64.36566732686516
 20
176.4986512228508
 30
0.0
 10
64.3079361202551
 20
176.7676660016858
 30
0.0
 10
64.16909673512016
 20
177.0283472564207
 30
0.0
 10
63.79486403045011
 20
177.0290225592357
 30
0.0
  0
SPLINE
  5
177
330
1F
100
AcDbEntity
  8
0
  6
Continuous
 62
     7
370
    25
100
AcDbSpline
210
0.0
220
0.0
230
1.0
 70
     8
 71
     3
 72
     8
 73
     4
 74
     0
 42
0.000000001
 43
0.00000001
 40
0.0
 40
0.0
 40
0.0
 40
0.0
 40
0.25
 40
0.25
 40
0.25
 40
0.25
 10
63.79486403045011
 20
177.0290225592357
 30
0.0
 10
63.47617857435009
 20
177.0286777237558
 30
0.0
 10
63.27171987100014
 20
176.7988448763357
 30
0.0
 10
63.22260955139003
 20
176.4986655909957
 30
0.0
  0
LINE
  5
178
330
1F
100
AcDbEntity
  8
0
  6
Continuous
 62
     7
370
    25
100
AcDbLine
 10
64.6987632592
 20
176.2449527217
 30
0.0
 11
64.6978580137
 21
176.2717496661
 31
0.0
  0
LINE
  5
179
330
1F
100
AcDbEntity
  8
0
  6
Continuous
 62
     7
370
    25
100
AcDbLine
 10
63.2185713132
 20
176.2449527217
 30
0.0
 11
64.6987632592
 21
176.2449527217
 31
0.0
  0
LINE
  5
17A
330
1F
100
AcDbEntity
  8
0
  6
Continuous
 62
     7
370
    25
100
AcDbLine
 10
63.2186867972
 20
176.2181706784
 30
0.0
 11
63.2185713132
 21
176.2449527217
 31
0.0
  0
SPLINE
  5
17B
330
1F
100
AcDbEntity
  8
0
  6
Continuous
 62
     7
370
    25
100
AcDbSpline
210
0.0
220
0.0
230
1.0
 70
     8
 71
     3
 72
     8
 73
     4
 74
     0
 42
0.000000001
 43
0.00000001
 40
0.7368421052631579
 40
0.7368421052631579
 40
0.7368421052631579
 40
0.7368421052631579
 40
0.7894736842105263
 40
0.7894736842105263
 40
0.7894736842105263
 40
0.7894736842105263
 10
63.81025231374501
 20
175.4963437957958
 30
0.0
 10
63.39739803531508
 20
175.5006255030058
 30
0.0
 10
63.22134515463019
 20
175.7934914025406
 30
0.0
 10
63.2186870478051
 20
176.2181706643056
 30
0.0
  0
LINE
  5
17C
330
1F
100
AcDbEntity
  8
0
  6
Continuous
 62
     7
370
    25
100
AcDbLine
 10
63.8160277833
 20
175.4961134924
 30
0.0
 11
63.8102517207
 21
175.496343529
 31
0.0
  0
SPLINE
  5
17D
330
1F
100
AcDbEntity
  8
0
  6
Continuous
 62
     7
370
    25
100
AcDbSpline
210
0.0
220
0.0
230
1.0
 70
     8
 71
     3
 72
     8
 73
     4
 74
     0
 42
0.000000001
 43
0.00000001
 40
0.631578947368421
 40
0.631578947368421
 40
0.631578947368421
 40
0.631578947368421
 40
0.6842105263157895
 40
0.6842105263157895
 40
0.6842105263157895
 40
0.6842105263157895
 10
64.34954626817509
 20
175.8707058137706
 30
0.0
 10
64.2684093533602
 20
175.6429994518108
 30
0.0
 10
64.1016813987802
 20
175.5009703384857
 30
0.0
 10
63.81602830803514
 20
175.4961139054757
 30
0.0
  0
LINE
  5
17E
330
1F
100
AcDbEntity
  8
0
  6
Continuous
 62
     7
370
    25
100
AcDbLine
 10
64.3554796209
 20
175.8877178712
 30
0.0
 11
64.3495470961
 21
175.8707054017
 31
0.0
  0
LINE
  5
17F
330
1F
100
AcDbEntity
  8
0
  6
Continuous
 62
     7
370
    25
100
AcDbLine
 10
64.6805596282
 20
175.8877178712
 30
0.0
 11
64.3554796209
 21
175.8877178712
 31
0.0
  0
SPLINE
  5
180
330
1F
100
AcDbEntity
  8
0
  6
Continuous
 62
     7
370
    25
100
AcDbSpline
210
0.0
220
0.0
230
1.0
 70
     8
 71
     3
 72
     8
 73
     4
 74
     0
 42
0.000000001
 43
0.00000001
 40
0.4210526315789473
 40
0.4210526315789473
 40
0.4210526315789473
 40
0.4210526315789473
 40
0.4736842105263158
 40
0.4736842105263158
 40
0.4736842105263158
 40
0.4736842105263158
 10
63.82811191798005
 20
175.2182339811758
 30
0.0
 10
64.21279026406522
 20
175.2182339811758
 30
0.0
 10
64.54305644503505
 20
175.4415293226207
 30
0.0
 10
64.67030073715505
 20
175.8546134913707
 30
0.0
  0
LINE
  5
181
330
1F
100
AcDbEntity
  8
0
  6
Continuous
 62
     7
370
    25
100
AcDbLine
 10
63.8260432263
 20
175.2182338444
 30
0.0
 11
63.828112625
 21
175.2182338444
 31
0.0
  0
SPLINE
  5
182
330
1F
100
AcDbEntity
  8
0
  6
Continuous
 62
     7
370
    25
100
AcDbSpline
210
0.0
220
0.0
230
1.0
 70
     8
 71
     3
 72
     8
 73
     4
 74
     0
 42
0.000000001
 43
0.00000001
 40
0.3157894736842105
 40
0.3157894736842105
 40
0.3157894736842105
 40
0.3157894736842105
 40
0.3684210526315789
 40
0.3684210526315789
 40
0.3684210526315789
 40
0.3684210526315789
 10
63.81019484116521
 20
175.2187799706857
 30
0.0
 10
63.81423228991018
 20
175.2187799706857
 30
0.0
 10
63.81964908057505
 20
175.2182339811758
 30
0.0
 10
63.82604290510008
 20
175.2182339811758
 30
0.0
  0
SPLINE
  5
183
330
1F
100
AcDbEntity
  8
0
  6
Continuous
 62
     7
370
    25
100
AcDbSpline
210
0.0
220
0.0
230
1.0
 70
     8
 71
     3
 72
     8
 73
     4
 74
     0
 42
0.000000001
 43
0.00000001
 40
0.2631578947368421
 40
0.2631578947368421
 40
0.2631578947368421
 40
0.2631578947368421
 40
0.3157894736842105
 40
0.3157894736842105
 40
0.3157894736842105
 40
0.3157894736842105
 10
63.79486403045012
 20
175.2182339811758
 30
0.0
 10
63.80150211344014
 20
175.2182339811758
 30
0.0
 10
63.8063298101601
 20
175.2187799706857
 30
0.0
 10
63.81019484116521
 20
175.2187799706857
 30
0.0
  0
SPLINE
  5
184
330
1F
100
AcDbEntity
  8
0
  6
Continuous
 62
     7
370
    25
100
AcDbSpline
210
0.0
220
0.0
230
1.0
 70
     8
 71
     3
 72
     8
 73
     4
 74
     0
 42
0.000000001
 43
0.00000001
 40
0.2105263157894737
 40
0.2105263157894737
 40
0.2105263157894737
 40
0.2105263157894737
 40
0.2631578947368421
 40
0.2631578947368421
 40
0.2631578947368421
 40
0.2631578947368421
 10
63.15565399569023
 20
175.4872200237207
 30
0.0
 10
63.31932153538521
 20
175.3101757410306
 30
0.0
 10
63.54620891308005
 20
175.2182339811758
 30
0.0
 10
63.79486403045012
 20
175.2182339811758
 30
0.0
  0
SPLINE
  5
185
330
1F
100
AcDbEntity
  8
0
  6
Continuous
 62
     7
370
    25
100
AcDbSpline
210
0.0
220
0.0
230
1.0
 70
     8
 71
     3
 72
     8
 73
     4
 74
     0
 42
0.000000001
 43
0.00000001
 40
0.1578947368421053
 40
0.1578947368421053
 40
0.1578947368421053
 40
0.1578947368421053
 40
0.2105263157894737
 40
0.2105263157894737
 40
0.2105263157894737
 40
0.2105263157894737
 10
62.89217095268013
 20
176.2625251279207
 30
0.0
 10
62.89194106236004
 20
175.9261955897606
 30
0.0
 10
62.99198645599503
 20
175.6646091418907
 30
0.0
 10
63.15565399569023
 20
175.4872200237207
 30
0.0
  0
SPLINE
  5
186
330
1F
100
AcDbEntity
  8
0
  6
Continuous
 62
     7
370
    25
100
AcDbSpline
210
0.0
220
0.0
230
1.0
 70
     8
 71
     3
 72
     8
 73
     4
 74
     0
 42
0.000000001
 43
0.00000001
 40
0.1052631578947368
 40
0.1052631578947368
 40
0.1052631578947368
 40
0.1052631578947368
 40
0.1578947368421053
 40
0.1578947368421053
 40
0.1578947368421053
 40
0.1578947368421053
 10
63.1556539956902
 20
177.0379739135707
 30
0.0
 10
62.99198645599502
 20
176.8607428449957
 30
0.0
 10
62.89194106236004
 20
176.5989552430956
 30
0.0
 10
62.89217095268013
 20
176.2625251279207
 30
0.0
  0
SPLINE
  5
187
330
1F
100
AcDbEntity
  8
0
  6
Continuous
 62
     7
370
    25
100
AcDbSpline
210
0.0
220
0.0
230
1.0
 70
     8
 71
     3
 72
     8
 73
     4
 74
     0
 42
0.000000001
 43
0.00000001
 40
0.0526315789473684
 40
0.0526315789473684
 40
0.0526315789473684
 40
0.0526315789473684
 40
0.1052631578947368
 40
0.1052631578947368
 40
0.1052631578947368
 40
0.1052631578947368
 10
63.79486403045011
 20
177.3070892694208
 30
0.0
 10
63.54620891308002
 20
177.3070892694208
 30
0.0
 10
63.3193646398201
 20
177.2155929220606
 30
0.0
 10
63.1556539956902
 20
177.0379739135707
 30
0.0
  0
SPLINE
  5
188
330
1F
100
AcDbEntity
  8
0
  6
Continuous
 62
     7
370
    25
100
AcDbSpline
210
0.0
220
0.0
230
1.0
 70
     8
 71
     3
 72
     8
 73
     4
 74
     0
 42
0.000000001
 43
0.00000001
 40
0.0
 40
0.0
 40
0.0
 40
0.0
 40
0.0526315789473684
 40
0.0526315789473684
 40
0.0526315789473684
 40
0.0526315789473684
 10
64.6978588392651
 20
176.2717494770106
 30
0.0
 10
64.67964003140506
 20
176.8519782765458
 30
0.0
 10
64.3849781137452
 20
177.3080950395708
 30
0.0
 10
63.79486403045011
 20
177.3070892694208
 30
0.0
  0
LINE
  5
189
330
1F
100
AcDbEntity
  8
0
  6
Continuous
 62
     7
370
    25
100
AcDbLine
 10
64.6703001787
 20
175.8546130789
 30
0.0
 11
64.6805596282
 21
175.8877178712
 31
0.0
  0
SPLINE
  5
18A
330
1F
100
AcDbEntity
  8
0
  6
Continuous
 62
     7
370
    25
100
AcDbSpline
210
0.0
220
0.0
230
1.0
 70
     8
 71
     3
 72
     8
 73
     4
 74
     0
 42
0.000000001
 43
0.00000001
 40
0.2
 40
0.2
 40
0.2
 40
0.2
 40
0.4
 40
0.4
 40
0.4
 40
0.4
 10
58.14105644553018
 20
176.2622952376006
 30
0.0
 10
58.13937537256506
 20
176.7505679091357
 30
0.0
 10
57.8762227968902
 20
177.0278874757807
 30
0.0
 10
57.53223503744506
 20
177.0285627785957
 30
0.0
  0
SPLINE
  5
18B
330
1F
100
AcDbEntity
  8
0
  6
Continuous
 62
     7
370
    25
100
AcDbSpline
210
0.0
220
0.0
230
1.0
 70
     8
 71
     3
 72
     8
 73
     4
 74
     0
 42
0.000000001
 43
0.00000001
 40
0.4
 40
0.4
 40
0.4
 40
0.4
 40
0.6
 40
0.6
 40
0.6
 40
0.6
 10
57.53223503744506
 20
177.0285627785957
 30
0.0
 10
57.18850590461
 20
177.0278874757807
 30
0.0
 10
56.92342799750505
 20
176.7808272225057
 30
0.0
 10
56.92342799750506
 20
176.2622952376005
 30
0.0
  0
SPLINE
  5
18C
330
1F
100
AcDbEntity
  8
0
  6
Continuous
 62
     7
370
    25
100
AcDbSpline
210
0.0
220
0.0
230
1.0
 70
     8
 71
     3
 72
     8
 73
     4
 74
     0
 42
0.000000001
 43
0.00000001
 40
0.6
 40
0.6
 40
0.6
 40
0.6
 40
1.0
 40
1.0
 40
1.0
 40
1.0
 10
56.92342799750506
 20
176.2622952376005
 30
0.0
 10
56.92038195076515
 20
175.7265214786957
 30
0.0
 10
57.18827601429014
 20
175.4966886312756
 30
0.0
 10
57.53223503744507
 20
175.4956684929806
 30
0.0
  0
SPLINE
  5
18D
330
1F
100
AcDbEntity
  8
0
  6
Continuous
 62
     7
370
    25
100
AcDbSpline
210
0.0
220
0.0
230
1.0
 70
     8
 71
     3
 72
     8
 73
     4
 74
     0
 42
0.000000001
 43
0.00000001
 40
0.0
 40
0.0
 40
0.0
 40
0.0
 40
0.2
 40
0.2
 40
0.2
 40
0.2
 10
57.53223503744507
 20
175.4956684929806
 30
0.0
 10
57.87632337390515
 20
175.4966886312756
 30
0.0
 10
58.13937537256507
 20
175.7700856943356
 30
0.0
 10
58.14105644553018
 20
176.2622952376006
 30
0.0
  0
SPLINE
  5
18E
330
1F
100
AcDbEntity
  8
0
  6
Continuous
 62
     7
370
    25
100
AcDbSpline
210
0.0
220
0.0
230
1.0
 70
     8
 71
     3
 72
     8
 73
     4
 74
     0
 42
0.000000001
 43
0.00000001
 40
0.0769230769230769
 40
0.0769230769230769
 40
0.0769230769230769
 40
0.0769230769230769
 40
0.1538461538461539
 40
0.1538461538461539
 40
0.1538461538461539
 40
0.1538461538461539
 10
58.17167496252504
 20
177.0374710284957
 30
0.0
 10
58.00790684581511
 20
177.2150900369857
 30
0.0
 10
57.78112004513501
 20
177.3067013295057
 30
0.0
 10
57.53223503744506
 20
177.3067013295057
 30
0.0
  0
SPLINE
  5
18F
330
1F
100
AcDbEntity
  8
0
  6
Continuous
 62
     7
370
    25
100
AcDbSpline
210
0.0
220
0.0
230
1.0
 70
     8
 71
     3
 72
     8
 73
     4
 74
     0
 42
0.000000001
 43
0.00000001
 40
0.1538461538461539
 40
0.1538461538461539
 40
0.1538461538461539
 40
0.1538461538461539
 40
0.2307692307692308
 40
0.2307692307692308
 40
0.2307692307692308
 40
0.2307692307692308
 10
58.43527295069517
 20
176.2622952376006
 30
0.0
 10
58.43527295069516
 20
176.5984954624556
 30
0.0
 10
58.33544307923516
 20
176.8603118006457
 30
0.0
 10
58.17167496252504
 20
177.0374710284957
 30
0.0
  0
SPLINE
  5
190
330
1F
100
AcDbEntity
  8
0
  6
Continuous
 62
     7
370
    25
100
AcDbSpline
210
0.0
220
0.0
230
1.0
 70
     8
 71
     3
 72
     8
 73
     4
 74
     0
 42
0.000000001
 43
0.00000001
 40
0.2307692307692308
 40
0.2307692307692308
 40
0.2307692307692308
 40
0.2307692307692308
 40
0.3076923076923077
 40
0.3076923076923077
 40
0.3076923076923077
 40
0.3076923076923077
 10
58.17167496252505
 20
175.4867889793706
 30
0.0
 10
58.33544307923517
 20
175.6641780975407
 30
0.0
 10
58.43527295069517
 20
175.9257358091206
 30
0.0
 10
58.43527295069517
 20
176.2622952376006
 30
0.0
  0
SPLINE
  5
191
330
1F
100
AcDbEntity
  8
0
  6
Continuous
 62
     7
370
    25
100
AcDbSpline
210
0.0
220
0.0
230
1.0
 70
     8
 71
     3
 72
     8
 73
     4
 74
     0
 42
0.000000001
 43
0.00000001
 40
0.3076923076923077
 40
0.3076923076923077
 40
0.3076923076923077
 40
0.3076923076923077
 40
0.3846153846153846
 40
0.3846153846153846
 40
0.3846153846153846
 40
0.3846153846153846
 10
57.53223503744508
 20
175.2177742005356
 30
0.0
 10
57.78112004513503
 20
175.2177742005356
 30
0.0
 10
58.00790684581513
 20
175.3097446966806
 30
0.0
 10
58.17167496252505
 20
175.4867889793706
 30
0.0
  0
LINE
  5
192
330
1F
100
AcDbEntity
  8
0
  6
Continuous
 62
     7
370
    25
100
AcDbLine
 10
57.5289875944
 20
175.2177737711
 30
0.0
 11
57.5322341849
 21
175.2177737711
 31
0.0
  0
SPLINE
  5
193
330
1F
100
AcDbEntity
  8
0
  6
Continuous
 62
     7
370
    25
100
AcDbSpline
210
0.0
220
0.0
230
1.0
 70
     8
 71
     3
 72
     8
 73
     4
 74
     0
 42
0.000000001
 43
0.00000001
 40
0.4615384615384616
 40
0.4615384615384616
 40
0.4615384615384616
 40
0.4615384615384616
 40
0.5384615384615384
 40
0.5384615384615384
 40
0.5384615384615384
 40
0.5384615384615384
 10
56.65475805415019
 20
175.9669436489806
 30
0.0
 10
56.74829467810009
 20
175.4696621505307
 30
0.0
 10
57.10869085913522
 20
175.2177742005355
 30
0.0
 10
57.52898783667509
 20
175.2177742005356
 30
0.0
  0
SPLINE
  5
194
330
1F
100
AcDbEntity
  8
0
  6
Continuous
 62
     7
370
    25
100
AcDbSpline
210
0.0
220
0.0
230
1.0
 70
     8
 71
     3
 72
     8
 73
     4
 74
     0
 42
0.000000001
 43
0.00000001
 40
0.5384615384615384
 40
0.5384615384615384
 40
0.5384615384615384
 40
0.5384615384615384
 40
0.6153846153846154
 40
0.6153846153846154
 40
0.6153846153846154
 40
0.6153846153846154
 10
56.62998737217016
 20
176.2297657573207
 30
0.0
 10
56.62998737217016
 20
176.1739311458507
 30
0.0
 10
56.63652487814504
 20
176.0643021995005
 30
0.0
 10
56.65475805415019
 20
175.9669436489806
 30
0.0
  0
LINE
  5
195
330
1F
100
AcDbEntity
  8
0
  6
Continuous
 62
     7
370
    25
100
AcDbLine
 10
56.6294268449
 20
176.2297656445
 30
0.0
 11
56.6299875011
 21
176.2297656445
 31
0.0
  0
LINE
  5
196
330
1F
100
AcDbEntity
  8
0
  6
Continuous
 62
     7
370
    25
100
AcDbLine
 10
56.6294268449
 20
177.7849597914
 30
0.0
 11
56.6294268449
 21
176.2297656445
 31
0.0
  0
LINE
  5
197
330
1F
100
AcDbEntity
  8
0
  6
Continuous
 62
     7
370
    25
100
AcDbLine
 10
56.921517544
 20
177.7849597914
 30
0.0
 11
56.6294268449
 21
177.7849597914
 31
0.0
  0
LINE
  5
198
330
1F
100
AcDbEntity
  8
0
  6
Continuous
 62
     7
370
    25
100
AcDbLine
 10
56.921517544
 20
177.0352153165
 30
0.0
 11
56.921517544
 21
177.7849597914
 31
0.0
  0
SPLINE
  5
199
330
1F
100
AcDbEntity
  8
0
  6
Continuous
 62
     7
370
    25
100
AcDbSpline
210
0.0
220
0.0
230
1.0
 70
     8
 71
     3
 72
     8
 73
     4
 74
     0
 42
0.000000001
 43
0.00000001
 40
0.0
 40
0.0
 40
0.0
 40
0.0
 40
0.0769230769230769
 40
0.0769230769230769
 40
0.0769230769230769
 40
0.0769230769230769
 10
57.53223503744506
 20
177.3067013295057
 30
0.0
 10
57.29722965782516
 20
177.3067013295057
 30
0.0
 10
57.06377603786503
 20
177.2083226406907
 30
0.0
 10
56.92151703422005
 20
177.0352152297306
 30
0.0
  0
SPLINE
  5
19A
330
1F
100
AcDbEntity
  8
0
  6
Continuous
 62
     7
370
    25
100
AcDbSpline
210
0.0
220
0.0
230
1.0
 70
     8
 71
     3
 72
     8
 73
     4
 74
     0
 42
0.000000001
 43
0.00000001
 40
0.5
 40
0.5
 40
0.5
 40
0.5
 40
0.6666666666666666
 40
0.6666666666666666
 40
0.6666666666666666
 40
0.6666666666666666
 10
74.04078822995022
 20
176.2585164154658
 30
0.0
 10
74.03899221182506
 20
176.7467890870008
 30
0.0
 10
73.77550916881518
 20
177.0241230217907
 30
0.0
 10
73.43193808557508
 20
177.0248126927507
 30
0.0
  0
SPLINE
  5
19B
330
1F
100
AcDbEntity
  8
0
  6
Continuous
 62
     7
370
    25
100
AcDbSpline
210
0.0
220
0.0
230
1.0
 70
     8
 71
     3
 72
     8
 73
     4
 74
     0
 42
0.000000001
 43
0.00000001
 40
0.3333333333333333
 40
0.3333333333333333
 40
0.3333333333333333
 40
0.3333333333333333
 40
0.5
 40
0.5
 40
0.5
 40
0.5
 10
73.43193808557508
 20
177.0248126927507
 30
0.0
 10
73.08828079346516
 20
177.0241230217907
 30
0.0
 10
72.82459659642521
 20
176.7467890870008
 30
0.0
 10
72.82295862789522
 20
176.2585164154658
 30
0.0
  0
SPLINE
  5
19C
330
1F
100
AcDbEntity
  8
0
  6
Continuous
 62
     7
370
    25
100
AcDbSpline
210
0.0
220
0.0
230
1.0
 70
     8
 71
     3
 72
     8
 73
     4
 74
     0
 42
0.000000001
 43
0.00000001
 40
0.0
 40
0.0
 40
0.0
 40
0.0
 40
0.1666666666666667
 40
0.1666666666666667
 40
0.1666666666666667
 40
0.1666666666666667
 10
72.82308794120017
 20
176.2585164154658
 30
0.0
 10
72.82458222828012
 20
175.7663068722008
 30
0.0
 10
73.0878353809701
 20
175.4929098091407
 30
0.0
 10
73.4319380855751
 20
175.4919040389907
 30
0.0
  0
SPLINE
  5
19D
330
1F
100
AcDbEntity
  8
0
  6
Continuous
 62
     7
370
    25
100
AcDbSpline
210
0.0
220
0.0
230
1.0
 70
     8
 71
     3
 72
     8
 73
     4
 74
     0
 42
0.000000001
 43
0.00000001
 40
0.6666666666666666
 40
0.6666666666666666
 40
0.6666666666666666
 40
0.6666666666666666
 40
1.0
 40
1.0
 40
1.0
 40
1.0
 10
73.4319380855751
 20
175.4919040389907
 30
0.0
 10
73.77569595470015
 20
175.4929098091407
 30
0.0
 10
74.03899221182506
 20
175.7663068722008
 30
0.0
 10
74.04078822995022
 20
176.2585164154658
 30
0.0
  0
LINE
  5
19E
330
1F
100
AcDbEntity
  8
0
  6
Continuous
 62
     7
370
    25
100
AcDbLine
 10
74.0345093165
 20
177.2543005703
 30
0.0
 11
74.0345093165
 21
177.069253294
 31
0.0
  0
LINE
  5
19F
330
1F
100
AcDbEntity
  8
0
  6
Continuous
 62
     7
370
    25
100
AcDbLine
 10
74.3382666935
 20
177.2543005703
 30
0.0
 11
74.0345093165
 21
177.2543005703
 31
0.0
  0
LINE
  5
1A0
330
1F
100
AcDbEntity
  8
0
  6
Continuous
 62
     7
370
    25
100
AcDbLine
 10
74.3382666935
 20
177.000602713
 30
0.0
 11
74.3382666935
 21
177.2543005703
 31
0.0
  0
LINE
  5
1A1
330
1F
100
AcDbEntity
  8
0
  6
Continuous
 62
     7
370
    25
100
AcDbLine
 10
74.3346308102
 20
177.000602713
 30
0.0
 11
74.3382666935
 21
177.000602713
 31
0.0
  0
LINE
  5
1A2
330
1F
100
AcDbEntity
  8
0
  6
Continuous
 62
     7
370
    25
100
AcDbLine
 10
74.3346308102
 20
175.2626318542
 30
0.0
 11
74.3346308102
 21
177.000602713
 31
0.0
  0
LINE
  5
1A3
330
1F
100
AcDbEntity
  8
0
  6
Continuous
 62
     7
370
    25
100
AcDbLine
 10
74.0895970468
 20
175.2626318542
 30
0.0
 11
74.3346308102
 21
175.2626318542
 31
0.0
  0
LINE
  5
1A4
330
1F
100
AcDbEntity
  8
0
  6
Continuous
 62
     7
370
    25
100
AcDbLine
 10
74.0510905837
 20
175.4635414166
 30
0.0
 11
74.0895970468
 21
175.2626318542
 31
0.0
  0
SPLINE
  5
1A5
330
1F
100
AcDbEntity
  8
0
  6
Continuous
 62
     7
370
    25
100
AcDbSpline
210
0.0
220
0.0
230
1.0
 70
     8
 71
     3
 72
     8
 73
     4
 74
     0
 42
0.000000001
 43
0.00000001
 40
0.5333333333333333
 40
0.5333333333333333
 40
0.5333333333333333
 40
0.5333333333333333
 40
0.6
 40
0.6
 40
0.6
 40
0.6
 10
73.43232602549013
 20
175.2139953784008
 30
0.0
 10
73.67115333168002
 20
175.2139953784008
 30
0.0
 10
73.8890893550401
 20
175.2996582588908
 30
0.0
 10
74.05109018991507
 20
175.4635413207608
 30
0.0
  0
LINE
  5
1A6
330
1F
100
AcDbEntity
  8
0
  6
Continuous
 62
     7
370
    25
100
AcDbLine
 10
73.4319380228
 20
175.2139953954
 30
0.0
 11
73.4323263843
 21
175.2139953954
 31
0.0
  0
SPLINE
  5
1A7
330
1F
100
AcDbEntity
  8
0
  6
Continuous
 62
     7
370
    25
100
AcDbSpline
210
0.0
220
0.0
230
1.0
 70
     8
 71
     3
 72
     8
 73
     4
 74
     0
 42
0.000000001
 43
0.00000001
 40
0.4
 40
0.4
 40
0.4
 40
0.4
 40
0.4666666666666667
 40
0.4666666666666667
 40
0.4666666666666667
 40
0.4666666666666667
 10
72.79242631977019
 20
175.4830101572358
 30
0.0
 10
72.9561513320452
 20
175.3059515064007
 30
0.0
 10
73.18315365490007
 20
175.2139953784008
 30
0.0
 10
73.4319380855751
 20
175.2139953784008
 30
0.0
  0
SPLINE
  5
1A8
330
1F
100
AcDbEntity
  8
0
  6
Continuous
 62
     7
370
    25
100
AcDbSpline
210
0.0
220
0.0
230
1.0
 70
     8
 71
     3
 72
     8
 73
     4
 74
     0
 42
0.000000001
 43
0.00000001
 40
0.3333333333333333
 40
0.3333333333333333
 40
0.3333333333333333
 40
0.3333333333333333
 40
0.4
 40
0.4
 40
0.4
 40
0.4
 10
72.5289576449052
 20
176.2585164154658
 30
0.0
 10
72.52895764490522
 20
175.9219857232757
 30
0.0
 10
72.62894556596017
 20
175.6603992754057
 30
0.0
 10
72.79242631977019
 20
175.4830101572358
 30
0.0
  0
SPLINE
  5
1A9
330
1F
100
AcDbEntity
  8
0
  6
Continuous
 62
     7
370
    25
100
AcDbSpline
210
0.0
220
0.0
230
1.0
 70
     8
 71
     3
 72
     8
 73
     4
 74
     0
 42
0.000000001
 43
0.00000001
 40
0.2
 40
0.2
 40
0.2
 40
0.2
 40
0.2666666666666667
 40
0.2666666666666667
 40
0.2666666666666667
 40
0.2666666666666667
 10
73.43193808557508
 20
177.3027069851958
 30
0.0
 10
73.18315365490005
 20
177.3029225073707
 30
0.0
 10
72.95615133204518
 20
177.2113112148507
 30
0.0
 10
72.79242631977017
 20
177.0336922063607
 30
0.0
  0
SPLINE
  5
1AA
330
1F
100
AcDbEntity
  8
0
  6
Continuous
 62
     7
370
    25
100
AcDbSpline
210
0.0
220
0.0
230
1.0
 70
     8
 71
     3
 72
     8
 73
     4
 74
     0
 42
0.000000001
 43
0.00000001
 40
0.1333333333333333
 40
0.1333333333333333
 40
0.1333333333333333
 40
0.1333333333333333
 40
0.2
 40
0.2
 40
0.2
 40
0.2
 10
74.03450935058501
 20
177.0692533652358
 30
0.0
 10
73.87436200641501
 20
177.2226764175458
 30
0.0
 10
73.66290601645021
 20
177.3029225073707
 30
0.0
 10
73.43193808557508
 20
177.3027069851958
 30
0.0
  0
LINE
  5
1AB
330
1F
100
AcDbEntity
  8
0
  6
Continuous
 62
     7
370
    25
100
AcDbLine
 10
72.8229582985
 20
176.2585165037
 30
0.0
 11
72.8230877523
 21
176.2585165037
 31
0.0
  0
SPLINE
  5
1AC
330
1F
100
AcDbEntity
  8
0
  6
Continuous
 62
     7
370
    25
100
AcDbSpline
210
0.0
220
0.0
230
1.0
 70
     8
 71
     3
 72
     8
 73
     4
 74
     0
 42
0.000000001
 43
0.00000001
 40
0.2666666666666667
 40
0.2666666666666667
 40
0.2666666666666667
 40
0.2666666666666667
 40
0.3333333333333333
 40
0.3333333333333333
 40
0.3333333333333333
 40
0.3333333333333333
 10
72.79242631977017
 20
177.0336922063607
 30
0.0
 10
72.62894556596017
 20
176.8565329785108
 30
0.0
 10
72.5289576449052
 20
176.5947166403207
 30
0.0
 10
72.5289576449052
 20
176.2585164154658
 30
0.0
  0
LINE
  5
1AD
330
1F
100
AcDbEntity
  8
0
  6
Continuous
 62
     7
370
    25
100
AcDbLine
 10
74.9078193423
 20
177.0048262609
 30
0.0
 11
74.9078193423
 21
175.5877398012
 31
0.0
  0
LINE
  5
1AE
330
1F
100
AcDbEntity
  8
0
  6
Continuous
 62
     7
370
    25
100
AcDbLine
 10
74.6714203362
 20
177.0048262609
 30
0.0
 11
74.9078193423
 21
177.0048262609
 31
0.0
  0
LINE
  5
1AF
330
1F
100
AcDbEntity
  8
0
  6
Continuous
 62
     7
370
    25
100
AcDbLine
 10
74.6714203362
 20
177.2585250495
 30
0.0
 11
74.6714203362
 21
177.0048262609
 31
0.0
  0
LINE
  5
1B0
330
1F
100
AcDbEntity
  8
0
  6
Continuous
 62
     7
370
    25
100
AcDbLine
 10
74.9078193423
 20
177.2585250495
 30
0.0
 11
74.6714203362
 21
177.2585250495
 31
0.0
  0
LINE
  5
1B1
330
1F
100
AcDbEntity
  8
0
  6
Continuous
 62
     7
370
    25
100
AcDbLine
 10
74.9078193423
 20
177.7855055464
 30
0.0
 11
74.9078193423
 21
177.2585250495
 31
0.0
  0
LINE
  5
1B2
330
1F
100
AcDbEntity
  8
0
  6
Continuous
 62
     7
370
    25
100
AcDbLine
 10
75.2017773432
 20
177.7855055464
 30
0.0
 11
74.9078193423
 21
177.7855055464
 31
0.0
  0
LINE
  5
1B3
330
1F
100
AcDbEntity
  8
0
  6
Continuous
 62
     7
370
    25
100
AcDbLine
 10
75.2017773432
 20
177.2585250495
 30
0.0
 11
75.2017773432
 21
177.7855055464
 31
0.0
  0
LINE
  5
1B4
330
1F
100
AcDbEntity
  8
0
  6
Continuous
 62
     7
370
    25
100
AcDbLine
 10
75.5236955103
 20
177.2585250495
 30
0.0
 11
75.2017773432
 21
177.2585250495
 31
0.0
  0
LINE
  5
1B5
330
1F
100
AcDbEntity
  8
0
  6
Continuous
 62
     7
370
    25
100
AcDbLine
 10
75.2017773432
 20
177.0048262609
 30
0.0
 11
75.5236955103
 21
177.0048262609
 31
0.0
  0
LINE
  5
1B6
330
1F
100
AcDbEntity
  8
0
  6
Continuous
 62
     7
370
    25
100
AcDbLine
 10
75.2017629077
 20
175.7494816614
 30
0.0
 11
75.2017773432
 21
177.0048262609
 31
0.0
  0
SPLINE
  5
1B7
330
1F
100
AcDbEntity
  8
0
  6
Continuous
 62
     7
370
    25
100
AcDbSpline
210
0.0
220
0.0
230
1.0
 70
     8
 71
     3
 72
     8
 73
     4
 74
     0
 42
0.000000001
 43
0.00000001
 40
0.7368421052631579
 40
0.7368421052631579
 40
0.7368421052631579
 40
0.7368421052631579
 40
0.7894736842105263
 40
0.7894736842105263
 40
0.7894736842105263
 40
0.7894736842105263
 10
75.31767090795515
 20
175.5078239436507
 30
0.0
 10
75.25657755541506
 20
175.5095193847608
 30
0.0
 10
75.23646215241514
 20
175.5294336337308
 30
0.0
 10
75.21952210946004
 20
175.5701816929507
 30
0.0
  0
LINE
  5
1B8
330
1F
100
AcDbEntity
  8
0
  6
Continuous
 62
     7
370
    25
100
AcDbLine
 10
75.5236955103
 20
175.5078239424
 30
0.0
 11
75.3176711244
 21
175.5078239424
 31
0.0
  0
LINE
  5
1B9
330
1F
100
AcDbEntity
  8
0
  6
Continuous
 62
     7
370
    25
100
AcDbLine
 10
75.5236815405
 20
175.2575021295
 30
0.0
 11
75.5236955103
 21
175.5078239424
 31
0.0
  0
SPLINE
  5
1BA
330
1F
100
AcDbEntity
  8
0
  6
Continuous
 62
     7
370
    25
100
AcDbSpline
210
0.0
220
0.0
230
1.0
 70
     8
 71
     3
 72
     8
 73
     4
 74
     0
 42
0.000000001
 43
0.00000001
 40
0.5789473684210527
 40
0.5789473684210527
 40
0.5789473684210527
 40
0.5789473684210527
 40
0.631578947368421
 40
0.631578947368421
 40
0.631578947368421
 40
0.631578947368421
 10
75.26498292024003
 20
175.2577320117807
 30
0.0
 10
75.2810752426401
 20
175.2577320117807
 30
0.0
 10
75.51669845249513
 20
175.2575021214609
 30
0.0
 10
75.52368137096508
 20
175.2575021214609
 30
0.0
  0
SPLINE
  5
1BB
330
1F
100
AcDbEntity
  8
0
  6
Continuous
 62
     7
370
    25
100
AcDbSpline
210
0.0
220
0.0
230
1.0
 70
     8
 71
     3
 72
     8
 73
     4
 74
     0
 42
0.000000001
 43
0.00000001
 40
0.5263157894736842
 40
0.5263157894736842
 40
0.5263157894736842
 40
0.5263157894736842
 40
0.5789473684210527
 40
0.5789473684210527
 40
0.5789473684210527
 40
0.5789473684210527
 10
75.01897154155013
 20
175.3192995131057
 30
0.0
 10
75.0877231153751
 20
175.2697725172907
 30
0.0
 10
75.17572800350008
 20
175.2577320117807
 30
0.0
 10
75.26498292024003
 20
175.2577320117807
 30
0.0
  0
SPLINE
  5
1BC
330
1F
100
AcDbEntity
  8
0
  6
Continuous
 62
     7
370
    25
100
AcDbSpline
210
0.0
220
0.0
230
1.0
 70
     8
 71
     3
 72
     8
 73
     4
 74
     0
 42
0.000000001
 43
0.00000001
 40
0.4736842105263158
 40
0.4736842105263158
 40
0.4736842105263158
 40
0.4736842105263158
 40
0.5263157894736842
 40
0.5263157894736842
 40
0.5263157894736842
 40
0.5263157894736842
 10
74.90781957183019
 20
175.5877395661407
 30
0.0
 10
74.90718737345016
 20
175.4555957365758
 30
0.0
 10
74.94993260482505
 20
175.3687115637608
 30
0.0
 10
75.01897154155013
 20
175.3192995131057
 30
0.0
  0
SPLINE
  5
1BD
330
1F
100
AcDbEntity
  8
0
  6
Continuous
 62
     7
370
    25
100
AcDbSpline
210
0.0
220
0.0
230
1.0
 70
     8
 71
     3
 72
     8
 73
     4
 74
     0
 42
0.000000001
 43
0.00000001
 40
0.7894736842105263
 40
0.7894736842105263
 40
0.7894736842105263
 40
0.7894736842105263
 40
0.8421052631578947
 40
0.8421052631578947
 40
0.8421052631578947
 40
0.8421052631578947
 10
75.21952210946004
 20
175.5701816929507
 30
0.0
 10
75.2035016277851
 20
175.6119498904658
 30
0.0
 10
75.20164813708014
 20
175.6771094280407
 30
0.0
 10
75.20176308224018
 20
175.7494817744058
 30
0.0
  0
LINE
  5
1BE
330
1F
100
AcDbEntity
  8
0
  6
Continuous
 62
     7
370
    25
100
AcDbLine
 10
75.5236955103
 20
177.0048262609
 30
0.0
 11
75.5236955103
 21
177.2585250495
 31
0.0
  0
LINE
  5
1BF
330
1F
100
AcDbEntity
  8
0
  6
Continuous
 62
     7
370
    25
100
AcDbLine
 10
77.3419128475
 20
175.2700600831
 30
0.0
 11
77.3419128475
 21
175.5237579403
 31
0.0
  0
LINE
  5
1C0
330
1F
100
AcDbEntity
  8
0
  6
Continuous
 62
     7
370
    25
100
AcDbLine
 10
75.8760888805
 20
175.4702366946
 30
0.0
 11
75.8760888805
 21
175.2700600831
 31
0.0
  0
LINE
  5
1C1
330
1F
100
AcDbEntity
  8
0
  6
Continuous
 62
     7
370
    25
100
AcDbLine
 10
75.8760888805
 20
177.0080877526
 30
0.0
 11
76.9122476433
 21
177.0082609786
 31
0.0
  0
LINE
  5
1C2
330
1F
100
AcDbEntity
  8
0
  6
Continuous
 62
     7
370
    25
100
AcDbLine
 10
75.8760888805
 20
177.2617437003
 30
0.0
 11
75.8760888805
 21
177.0080877526
 31
0.0
  0
LINE
  5
1C3
330
1F
100
AcDbEntity
  8
0
  6
Continuous
 62
     7
370
    25
100
AcDbLine
 10
77.3260216904
 20
177.2617437003
 30
0.0
 11
75.8760888805
 21
177.2617437003
 31
0.0
  0
LINE
  5
1C4
330
1F
100
AcDbEntity
  8
0
  6
Continuous
 62
     7
370
    25
100
AcDbLine
 10
75.8760888805
 20
175.2700600831
 30
0.0
 11
77.3419128475
 21
175.2700600831
 31
0.0
  0
LINE
  5
1C5
330
1F
100
AcDbEntity
  8
0
  6
Continuous
 62
     7
370
    25
100
AcDbLine
 10
76.9122476433
 20
177.0082609786
 30
0.0
 11
75.8760888805
 21
175.4702366946
 31
0.0
  0
LINE
  5
1C6
330
1F
100
AcDbEntity
  8
0
  6
Continuous
 62
     7
370
    25
100
AcDbLine
 10
77.3260216904
 20
177.0946849195
 30
0.0
 11
77.3260216904
 21
177.2617437003
 31
0.0
  0
LINE
  5
1C7
330
1F
100
AcDbEntity
  8
0
  6
Continuous
 62
     7
370
    25
100
AcDbLine
 10
76.2692876835
 20
175.5237579403
 30
0.0
 11
77.3260216904
 21
177.0946849195
 31
0.0
  0
LINE
  5
1C8
330
1F
100
AcDbEntity
  8
0
  6
Continuous
 62
     7
370
    25
100
AcDbLine
 10
77.3419128475
 20
175.5237579403
 30
0.0
 11
76.2692876835
 21
175.5237579403
 31
0.0
  0
SPLINE
  5
1C9
330
1F
100
AcDbEntity
  8
0
  6
Continuous
 62
     7
370
    25
100
AcDbSpline
210
0.0
220
0.0
230
1.0
 70
     8
 71
     3
 72
     8
 73
     4
 74
     0
 42
0.000000001
 43
0.00000001
 40
0.0
 40
0.0
 40
0.0
 40
0.0
 40
0.1
 40
0.1
 40
0.1
 40
0.1
 10
59.60800094559502
 20
177.3068737472456
 30
0.0
 10
59.35937456451515
 20
177.3070892694208
 30
0.0
 10
59.13234350537005
 20
177.2155929220606
 30
0.0
 10
58.96857538866014
 20
177.0379739135706
 30
0.0
  0
SPLINE
  5
1CA
330
1F
100
AcDbEntity
  8
0
  6
Continuous
 62
     7
370
    25
100
AcDbSpline
210
0.0
220
0.0
230
1.0
 70
     8
 71
     3
 72
     8
 73
     4
 74
     0
 42
0.000000001
 43
0.00000001
 40
0.8
 40
0.8
 40
0.8
 40
0.8
 40
1.0
 40
1.0
 40
1.0
 40
1.0
 10
60.24742650253009
 20
177.0379739135706
 30
0.0
 10
60.08377333098001
 20
177.2155929220606
 30
0.0
 10
59.85685721699517
 20
177.3070892694208
 30
0.0
 10
59.60800094559502
 20
177.3068737472456
 30
0.0
  0
SPLINE
  5
1CB
330
1F
100
AcDbEntity
  8
0
  6
Continuous
 62
     7
370
    25
100
AcDbSpline
210
0.0
220
0.0
230
1.0
 70
     8
 71
     3
 72
     8
 73
     4
 74
     0
 42
0.000000001
 43
0.00000001
 40
0.7
 40
0.7
 40
0.7
 40
0.7
 40
0.8
 40
0.8
 40
0.8
 40
0.8
 10
60.51103885884513
 20
176.2627406500956
 30
0.0
 10
60.51103885884513
 20
176.5989552430956
 30
0.0
 10
60.41119461924021
 20
176.8607428449957
 30
0.0
 10
60.24742650253009
 20
177.0379739135706
 30
0.0
  0
SPLINE
  5
1CC
330
1F
100
AcDbEntity
  8
0
  6
Continuous
 62
     7
370
    25
100
AcDbSpline
210
0.0
220
0.0
230
1.0
 70
     8
 71
     3
 72
     8
 73
     4
 74
     0
 42
0.000000001
 43
0.00000001
 40
0.0
 40
0.0
 40
0.0
 40
0.0
 40
0.2
 40
0.2
 40
0.2
 40
0.2
 10
58.9991795375101
 20
176.2627406500956
 30
0.0
 10
59.00097555563507
 20
175.7705311068306
 30
0.0
 10
59.26415686760014
 20
175.4971196756256
 30
0.0
 10
59.60800094559502
 20
175.4961139054757
 30
0.0
  0
SPLINE
  5
1CD
330
1F
100
AcDbEntity
  8
0
  6
Continuous
 62
     7
370
    25
100
AcDbSpline
210
0.0
220
0.0
230
1.0
 70
     8
 71
     3
 72
     8
 73
     4
 74
     0
 42
0.000000001
 43
0.00000001
 40
0.4
 40
0.4
 40
0.4
 40
0.4
 40
0.6
 40
0.6
 40
0.6
 40
0.6
 10
60.21680798553503
 20
176.2627406500956
 30
0.0
 10
60.21524185773016
 20
176.7509989534857
 30
0.0
 10
59.95185939173521
 20
177.0283472564207
 30
0.0
 10
59.60800094559501
 20
177.0290225592357
 30
0.0
  0
SPLINE
  5
1CE
330
1F
100
AcDbEntity
  8
0
  6
Continuous
 62
     7
370
    25
100
AcDbSpline
210
0.0
220
0.0
230
1.0
 70
     8
 71
     3
 72
     8
 73
     4
 74
     0
 42
0.000000001
 43
0.00000001
 40
0.6
 40
0.6
 40
0.6
 40
0.6
 40
1.0
 40
1.0
 40
1.0
 40
1.0
 10
59.60800094559502
 20
175.4961139054757
 30
0.0
 10
59.9520892820551
 20
175.4971196756256
 30
0.0
 10
60.21524185773017
 20
175.7705311068306
 30
0.0
 10
60.21680798553503
 20
176.2627406500956
 30
0.0
  0
SPLINE
  5
1CF
330
1F
100
AcDbEntity
  8
0
  6
Continuous
 62
     7
370
    25
100
AcDbSpline
210
0.0
220
0.0
230
1.0
 70
     8
 71
     3
 72
     8
 73
     4
 74
     0
 42
0.000000001
 43
0.00000001
 40
0.6
 40
0.6
 40
0.6
 40
0.6
 40
0.7
 40
0.7
 40
0.7
 40
0.7
 10
60.2474265025301
 20
175.4872200237207
 30
0.0
 10
60.41119461924022
 20
175.6646091418906
 30
0.0
 10
60.51103885884513
 20
175.9261955897606
 30
0.0
 10
60.51103885884513
 20
176.2627406500956
 30
0.0
  0
SPLINE
  5
1D0
330
1F
100
AcDbEntity
  8
0
  6
Continuous
 62
     7
370
    25
100
AcDbSpline
210
0.0
220
0.0
230
1.0
 70
     8
 71
     3
 72
     8
 73
     4
 74
     0
 42
0.000000001
 43
0.00000001
 40
0.5
 40
0.5
 40
0.5
 40
0.5
 40
0.6
 40
0.6
 40
0.6
 40
0.6
 10
59.60889177058515
 20
175.2182339811758
 30
0.0
 10
59.8572020524751
 20
175.2182339811758
 30
0.0
 10
60.08377333098002
 20
175.3101757410306
 30
0.0
 10
60.2474265025301
 20
175.4872200237207
 30
0.0
  0
LINE
  5
1D1
330
1F
100
AcDbEntity
  8
0
  6
Continuous
 62
     7
370
    25
100
AcDbLine
 10
59.6080013295
 20
175.2182338444
 30
0.0
 11
59.6088916738
 21
175.2182338444
 31
0.0
  0
SPLINE
  5
1D2
330
1F
100
AcDbEntity
  8
0
  6
Continuous
 62
     7
370
    25
100
AcDbSpline
210
0.0
220
0.0
230
1.0
 70
     8
 71
     3
 72
     8
 73
     4
 74
     0
 42
0.000000001
 43
0.00000001
 40
0.3
 40
0.3
 40
0.3
 40
0.3
 40
0.4
 40
0.4
 40
0.4
 40
0.4
 10
58.96857538866016
 20
175.4872200237207
 30
0.0
 10
59.13234350537007
 20
175.3101757410305
 30
0.0
 10
59.35937456451516
 20
175.2182339811758
 30
0.0
 10
59.60800094559503
 20
175.2182339811758
 30
0.0
  0
SPLINE
  5
1D3
330
1F
100
AcDbEntity
  8
0
  6
Continuous
 62
     7
370
    25
100
AcDbSpline
210
0.0
220
0.0
230
1.0
 70
     8
 71
     3
 72
     8
 73
     4
 74
     0
 42
0.000000001
 43
0.00000001
 40
0.2
 40
0.2
 40
0.2
 40
0.2
 40
0.4
 40
0.4
 40
0.4
 40
0.4
 10
59.60800094559501
 20
177.0290225592357
 30
0.0
 10
59.2643723897751
 20
177.0283472564207
 30
0.0
 10
59.00076003346008
 20
176.7509989534857
 30
0.0
 10
58.9991795375101
 20
176.2627406500956
 30
0.0
  0
SPLINE
  5
1D4
330
1F
100
AcDbEntity
  8
0
  6
Continuous
 62
     7
370
    25
100
AcDbSpline
210
0.0
220
0.0
230
1.0
 70
     8
 71
     3
 72
     8
 73
     4
 74
     0
 42
0.000000001
 43
0.00000001
 40
0.2
 40
0.2
 40
0.2
 40
0.2
 40
0.3
 40
0.3
 40
0.3
 40
0.3
 10
58.7051929226652
 20
176.2627406500956
 30
0.0
 10
58.7051929226652
 20
175.9261955897606
 30
0.0
 10
58.80492221711007
 20
175.6646091418906
 30
0.0
 10
58.96857538866016
 20
175.4872200237207
 30
0.0
  0
SPLINE
  5
1D5
330
1F
100
AcDbEntity
  8
0
  6
Continuous
 62
     7
370
    25
100
AcDbSpline
210
0.0
220
0.0
230
1.0
 70
     8
 71
     3
 72
     8
 73
     4
 74
     0
 42
0.000000001
 43
0.00000001
 40
0.1
 40
0.1
 40
0.1
 40
0.1
 40
0.2
 40
0.2
 40
0.2
 40
0.2
 10
58.96857538866014
 20
177.0379739135706
 30
0.0
 10
58.80492221711006
 20
176.8607428449957
 30
0.0
 10
58.7051929226652
 20
176.5989552430956
 30
0.0
 10
58.7051929226652
 20
176.2627406500956
 30
0.0
  0
LINE
  5
1D6
330
1F
100
AcDbEntity
  8
0
  6
Continuous
 62
     7
370
    25
100
AcDbLine
 10
70.0104656373
 20
175.8113941235
 30
0.0
 11
70.0037126173
 21
175.7967528013
 31
0.0
  0
LINE
  5
1D7
330
1F
100
AcDbEntity
  8
0
  6
Continuous
 62
     7
370
    25
100
AcDbLine
 10
70.3324853186
 20
175.8112795709
 30
0.0
 11
70.0104656373
 21
175.8113941235
 31
0.0
  0
SPLINE
  5
1D8
330
1F
100
AcDbEntity
  8
0
  6
Continuous
 62
     7
370
    25
100
AcDbSpline
210
0.0
220
0.0
230
1.0
 70
     8
 71
     3
 72
     8
 73
     4
 74
     0
 42
0.000000001
 43
0.00000001
 40
0.5
 40
0.5
 40
0.5
 40
0.5
 40
0.5625
 40
0.5625
 40
0.5625
 40
0.5625
 10
69.53381724264008
 20
177.3068737472456
 30
0.0
 10
68.96190759906013
 20
177.3083249298907
 30
0.0
 10
68.58074944850014
 20
176.8831427830506
 30
0.0
 10
68.57452804171518
 20
176.2628412271106
 30
0.0
  0
LINE
  5
1D9
330
1F
100
AcDbEntity
  8
0
  6
Continuous
 62
     7
370
    25
100
AcDbLine
 10
70.3040790488
 20
176.7838737054
 30
0.0
 11
70.2881739219
 21
176.8202390579
 31
0.0
  0
SPLINE
  5
1DA
330
1F
100
AcDbEntity
  8
0
  6
Continuous
 62
     7
370
    25
100
AcDbSpline
210
0.0
220
0.0
230
1.0
 70
     8
 71
     3
 72
     8
 73
     4
 74
     0
 42
0.000000001
 43
0.00000001
 40
0.0625
 40
0.0625
 40
0.0625
 40
0.0625
 40
0.125
 40
0.125
 40
0.125
 40
0.125
 10
69.47739353722523
 20
175.4961139054757
 30
0.0
 10
69.18494431389517
 20
175.4969185215958
 30
0.0
 10
68.86957789929008
 20
175.7400419031408
 30
0.0
 10
68.86867270615502
 20
176.2627406500957
 30
0.0
  0
SPLINE
  5
1DB
330
1F
100
AcDbEntity
  8
0
  6
Continuous
 62
     7
370
    25
100
AcDbSpline
210
0.0
220
0.0
230
1.0
 70
     8
 71
     3
 72
     8
 73
     4
 74
     0
 42
0.000000001
 43
0.00000001
 40
0.5625
 40
0.5625
 40
0.5625
 40
0.5625
 40
0.625
 40
0.625
 40
0.625
 40
0.625
 10
68.57452804171518
 20
176.2628412271106
 30
0.0
 10
68.58149659204022
 20
175.6415482691658
 30
0.0
 10
68.97636195293022
 20
175.2177742005356
 30
0.0
 10
69.47739353722523
 20
175.2182339811758
 30
0.0
  0
SPLINE
  5
1DC
330
1F
100
AcDbEntity
  8
0
  6
Continuous
 62
     7
370
    25
100
AcDbSpline
210
0.0
220
0.0
230
1.0
 70
     8
 71
     3
 72
     8
 73
     4
 74
     0
 42
0.000000001
 43
0.00000001
 40
0.4375
 40
0.4375
 40
0.4375
 40
0.4375
 40
0.5
 40
0.5
 40
0.5
 40
0.5
 10
70.28817359143018
 20
176.8202390442407
 30
0.0
 10
70.11045400592505
 20
177.2288690880407
 30
0.0
 10
69.78059013301517
 20
177.3083249298907
 30
0.0
 10
69.53381724264008
 20
177.3068737472456
 30
0.0
  0
SPLINE
  5
1DD
330
1F
100
AcDbEntity
  8
0
  6
Continuous
 62
     7
370
    25
100
AcDbSpline
210
0.0
220
0.0
230
1.0
 70
     8
 71
     3
 72
     8
 73
     4
 74
     0
 42
0.000000001
 43
0.00000001
 40
0.1875
 40
0.1875
 40
0.1875
 40
0.1875
 40
0.25
 40
0.25
 40
0.25
 40
0.25
 10
69.50160386155014
 20
177.0290225592358
 30
0.0
 10
69.72899412432005
 20
177.0283472564208
 30
0.0
 10
69.90205843084507
 20
176.9614922777357
 30
0.0
 10
69.97871248442013
 20
176.8008707847806
 30
0.0
  0
SPLINE
  5
1DE
330
1F
100
AcDbEntity
  8
0
  6
Continuous
 62
     7
370
    25
100
AcDbSpline
210
0.0
220
0.0
230
1.0
 70
     8
 71
     3
 72
     8
 73
     4
 74
     0
 42
0.000000001
 43
0.00000001
 40
0.125
 40
0.125
 40
0.125
 40
0.125
 40
0.1875
 40
0.1875
 40
0.1875
 40
0.1875
 10
68.86867270615502
 20
176.2627406500957
 30
0.0
 10
68.86982215775505
 20
176.7851089297158
 30
0.0
 10
69.1839385437452
 20
177.0277868987657
 30
0.0
 10
69.50160386155014
 20
177.0290225592358
 30
0.0
  0
LINE
  5
1DF
330
1F
100
AcDbEntity
  8
0
  6
Continuous
 62
     7
370
    25
100
AcDbLine
 10
69.9854512443
 20
176.7860138846
 30
0.0
 11
70.3040790488
 21
176.7838737054
 31
0.0
  0
SPLINE
  5
1E0
330
1F
100
AcDbEntity
  8
0
  6
Continuous
 62
     7
370
    25
100
AcDbSpline
210
0.0
220
0.0
230
1.0
 70
     8
 71
     3
 72
     8
 73
     4
 74
     0
 42
0.000000001
 43
0.00000001
 40
0.0
 40
0.0
 40
0.0
 40
0.0
 40
0.0625
 40
0.0625
 40
0.0625
 40
0.0625
 10
70.00371305672004
 20
175.7967529714558
 30
0.0
 10
69.92125427256506
 20
175.6264760850608
 30
0.0
 10
69.77102094844508
 20
175.4971196756257
 30
0.0
 10
69.47739353722523
 20
175.4961139054757
 30
0.0
  0
LINE
  5
1E1
330
1F
100
AcDbEntity
  8
0
  6
Continuous
 62
     7
370
    25
100
AcDbLine
 10
69.9787121941
 20
176.8008703424
 30
0.0
 11
69.9854512443
 21
176.7860138846
 31
0.0
  0
LINE
  5
1E2
330
1F
100
AcDbEntity
  8
0
  6
Continuous
 62
     7
370
    25
100
AcDbLine
 10
70.318604887
 20
175.776149152
 30
0.0
 11
70.3324853186
 21
175.8112795709
 31
0.0
  0
SPLINE
  5
1E3
330
1F
100
AcDbEntity
  8
0
  6
Continuous
 62
     7
370
    25
100
AcDbSpline
210
0.0
220
0.0
230
1.0
 70
     8
 71
     3
 72
     8
 73
     4
 74
     0
 42
0.000000001
 43
0.00000001
 40
0.6875
 40
0.6875
 40
0.6875
 40
0.6875
 40
0.75
 40
0.75
 40
0.75
 40
0.75
 10
69.48286780047012
 20
175.2182339811758
 30
0.0
 10
69.9064981876502
 20
175.2182339811758
 30
0.0
 10
70.17538365318005
 20
175.4072038242157
 30
0.0
 10
70.31860532254007
 20
175.7761490515257
 30
0.0
  0
LINE
  5
1E4
330
1F
100
AcDbEntity
  8
0
  6
Continuous
 62
     7
370
    25
100
AcDbLine
 10
69.4773933594
 20
175.2182338444
 30
0.0
 11
69.4828676735
 21
175.2182338444
 31
0.0
  0
SPLINE
  5
1E5
330
1F
100
AcDbEntity
  8
0
  6
Continuous
 62
     7
370
    25
100
AcDbSpline
210
0.0
220
0.0
230
1.0
 70
     8
 71
     3
 72
     8
 73
     4
 74
     0
 42
0.000000001
 43
0.00000001
 40
0.4
 40
0.4
 40
0.4
 40
0.4
 40
0.6
 40
0.6
 40
0.6
 40
0.6
 10
62.28481509538515
 20
176.2627406500957
 30
0.0
 10
62.28481509538515
 20
176.7812870031457
 30
0.0
 10
62.01979466086021
 20
177.0283472564207
 30
0.0
 10
61.67605115988005
 20
177.0290225592357
 30
0.0
  0
SPLINE
  5
1E6
330
1F
100
AcDbEntity
  8
0
  6
Continuous
 62
     7
370
    25
100
AcDbSpline
210
0.0
220
0.0
230
1.0
 70
     8
 71
     3
 72
     8
 73
     4
 74
     0
 42
0.000000001
 43
0.00000001
 40
0.2
 40
0.2
 40
0.2
 40
0.2
 40
0.4
 40
0.4
 40
0.4
 40
0.4
 10
61.67605115988005
 20
177.0290225592357
 30
0.0
 10
61.33213524116004
 20
177.0283472564207
 30
0.0
 10
61.06886772032514
 20
176.7509989534857
 30
0.0
 10
61.06718664736003
 20
176.2627406500956
 30
0.0
  0
SPLINE
  5
1E7
330
1F
100
AcDbEntity
  8
0
  6
Continuous
 62
     7
370
    25
100
AcDbSpline
210
0.0
220
0.0
230
1.0
 70
     8
 71
     3
 72
     8
 73
     4
 74
     0
 42
0.000000001
 43
0.00000001
 40
0.0
 40
0.0
 40
0.0
 40
0.0
 40
0.2
 40
0.2
 40
0.2
 40
0.2
 10
61.06718664736003
 20
176.2627406500956
 30
0.0
 10
61.06886772032514
 20
175.7705311068307
 30
0.0
 10
61.33190535084017
 20
175.4971196756256
 30
0.0
 10
61.67605115988006
 20
175.4961139054757
 30
0.0
  0
LINE
  5
1E8
330
1F
100
AcDbEntity
  8
0
  6
Continuous
 62
     7
370
    25
100
AcDbLine
 10
62.578843974
 20
177.7854627056
 30
0.0
 11
62.2867253353
 21
177.7854627056
 31
0.0
  0
SPLINE
  5
1E9
330
1F
100
AcDbEntity
  8
0
  6
Continuous
 62
     7
370
    25
100
AcDbSpline
210
0.0
220
0.0
230
1.0
 70
     8
 71
     3
 72
     8
 73
     4
 74
     0
 42
0.000000001
 43
0.00000001
 40
0.2307692307692308
 40
0.2307692307692308
 40
0.2307692307692308
 40
0.2307692307692308
 40
0.3076923076923077
 40
0.3076923076923077
 40
0.3076923076923077
 40
0.3076923076923077
 10
60.77305635106507
 20
176.2627406500956
 30
0.0
 10
60.77305635106507
 20
175.9261955897606
 30
0.0
 10
60.87285748623507
 20
175.6646091418906
 30
0.0
 10
61.03666870738011
 20
175.4872200237207
 30
0.0
  0
SPLINE
  5
1EA
330
1F
100
AcDbEntity
  8
0
  6
Continuous
 62
     7
370
    25
100
AcDbSpline
210
0.0
220
0.0
230
1.0
 70
     8
 71
     3
 72
     8
 73
     4
 74
     0
 42
0.000000001
 43
0.00000001
 40
0.0769230769230769
 40
0.0769230769230769
 40
0.0769230769230769
 40
0.0769230769230769
 40
0.1538461538461539
 40
0.1538461538461539
 40
0.1538461538461539
 40
0.1538461538461539
 10
61.67605115988005
 20
177.3070892694208
 30
0.0
 10
61.42723799291502
 20
177.3070892694208
 30
0.0
 10
61.20033624707508
 20
177.2155929220606
 30
0.0
 10
61.03666870738009
 20
177.0379739135706
 30
0.0
  0
LINE
  5
1EB
330
1F
100
AcDbEntity
  8
0
  6
Continuous
 62
     7
370
    25
100
AcDbLine
 10
62.5783131202
 20
176.2302108167
 30
0.0
 11
62.578843974
 21
176.2302108167
 31
0.0
  0
SPLINE
  5
1EC
330
1F
100
AcDbEntity
  8
0
  6
Continuous
 62
     7
370
    25
100
AcDbSpline
210
0.0
220
0.0
230
1.0
 70
     8
 71
     3
 72
     8
 73
     4
 74
     0
 42
0.000000001
 43
0.00000001
 40
0.0
 40
0.0
 40
0.0
 40
0.0
 40
0.0769230769230769
 40
0.0769230769230769
 40
0.0769230769230769
 40
0.0769230769230769
 10
62.28672605867015
 20
177.0357181148057
 30
0.0
 10
62.14445268688006
 20
177.2088255257656
 30
0.0
 10
61.91099906692013
 20
177.3070892694208
 30
0.0
 10
61.67605115988005
 20
177.3070892694208
 30
0.0
  0
SPLINE
  5
1ED
330
1F
100
AcDbEntity
  8
0
  6
Continuous
 62
     7
370
    25
100
AcDbSpline
210
0.0
220
0.0
230
1.0
 70
     8
 71
     3
 72
     8
 73
     4
 74
     0
 42
0.000000001
 43
0.00000001
 40
0.3076923076923077
 40
0.3076923076923077
 40
0.3076923076923077
 40
0.3076923076923077
 40
0.3846153846153846
 40
0.3846153846153846
 40
0.3846153846153846
 40
0.3846153846153846
 10
61.03666870738011
 20
175.4872200237207
 30
0.0
 10
61.20033624707509
 20
175.3101757410306
 30
0.0
 10
61.42723799291503
 20
175.2182339811758
 30
0.0
 10
61.67605115988006
 20
175.2182339811758
 30
0.0
  0
SPLINE
  5
1EE
330
1F
100
AcDbEntity
  8
0
  6
Continuous
 62
     7
370
    25
100
AcDbSpline
210
0.0
220
0.0
230
1.0
 70
     8
 71
     3
 72
     8
 73
     4
 74
     0
 42
0.000000001
 43
0.00000001
 40
0.1538461538461539
 40
0.1538461538461539
 40
0.1538461538461539
 40
0.1538461538461539
 40
0.2307692307692308
 40
0.2307692307692308
 40
0.2307692307692308
 40
0.2307692307692308
 10
61.03666870738009
 20
177.0379739135706
 30
0.0
 10
60.87285748623506
 20
176.8607428449957
 30
0.0
 10
60.77305635106507
 20
176.5989552430956
 30
0.0
 10
60.77305635106507
 20
176.2627406500956
 30
0.0
  0
SPLINE
  5
1EF
330
1F
100
AcDbEntity
  8
0
  6
Continuous
 62
     7
370
    25
100
AcDbSpline
210
0.0
220
0.0
230
1.0
 70
     8
 71
     3
 72
     8
 73
     4
 74
     0
 42
0.000000001
 43
0.00000001
 40
0.6
 40
0.6
 40
0.6
 40
0.6
 40
1.0
 40
1.0
 40
1.0
 40
1.0
 10
61.67605115988006
 20
175.4961139054757
 30
0.0
 10
62.01996707860008
 20
175.4971196756256
 30
0.0
 10
62.28784677398016
 20
175.7269668911908
 30
0.0
 10
62.28481509538515
 20
176.2627406500957
 30
0.0
  0
LINE
  5
1F0
330
1F
100
AcDbEntity
  8
0
  6
Continuous
 62
     7
370
    25
100
AcDbLine
 10
62.2867253353
 20
177.7854627056
 30
0.0
 11
62.2867253353
 21
177.0357182307
 31
0.0
  0
LINE
  5
1F1
330
1F
100
AcDbEntity
  8
0
  6
Continuous
 62
     7
370
    25
100
AcDbLine
 10
62.578843974
 20
176.2302108167
 30
0.0
 11
62.578843974
 21
177.7854627056
 31
0.0
  0
SPLINE
  5
1F2
330
1F
100
AcDbEntity
  8
0
  6
Continuous
 62
     7
370
    25
100
AcDbSpline
210
0.0
220
0.0
230
1.0
 70
     8
 71
     3
 72
     8
 73
     4
 74
     0
 42
0.000000001
 43
0.00000001
 40
0.5384615384615384
 40
0.5384615384615384
 40
0.5384615384615384
 40
0.5384615384615384
 40
0.6153846153846154
 40
0.6153846153846154
 40
0.6153846153846154
 40
0.6153846153846154
 10
62.55354251132005
 20
175.9674034296206
 30
0.0
 10
62.57181879176012
 20
176.0647619801408
 30
0.0
 10
62.57831319330008
 20
176.1743909264907
 30
0.0
 10
62.57831319330008
 20
176.2302111698156
 30
0.0
  0
SPLINE
  5
1F3
330
1F
100
AcDbEntity
  8
0
  6
Continuous
 62
     7
370
    25
100
AcDbSpline
210
0.0
220
0.0
230
1.0
 70
     8
 71
     3
 72
     8
 73
     4
 74
     0
 42
0.000000001
 43
0.00000001
 40
0.4615384615384616
 40
0.4615384615384616
 40
0.4615384615384616
 40
0.4615384615384616
 40
0.5384615384615384
 40
0.5384615384615384
 40
0.5384615384615384
 40
0.5384615384615384
 10
61.67926962436004
 20
175.2182339811758
 30
0.0
 10
62.09966717891504
 20
175.2182339811758
 30
0.0
 10
62.46006335995016
 20
175.4701219311707
 30
0.0
 10
62.55354251132005
 20
175.9674034296206
 30
0.0
  0
LINE
  5
1F4
330
1F
100
AcDbEntity
  8
0
  6
Continuous
 62
     7
370
    25
100
AcDbLine
 10
61.6760515352
 20
175.2182338444
 30
0.0
 11
61.679270186
 21
175.2182338444
 31
0.0
  0
LINE
  5
1F5
330
1F
100
AcDbEntity
  8
0
  6
Continuous
 62
     7
370
    25
100
AcDbLine
 10
67.1583032911
 20
175.8017242012
 30
0.0
 11
67.1531735663
 21
175.8205033896
 31
0.0
  0
SPLINE
  5
1F6
330
1F
100
AcDbEntity
  8
0
  6
Continuous
 62
     7
370
    25
100
AcDbSpline
210
0.0
220
0.0
230
1.0
 70
     8
 71
     3
 72
     8
 73
     4
 74
     0
 42
0.000000001
 43
0.00000001
 40
0.64
 40
0.64
 40
0.64
 40
0.64
 40
0.68
 40
0.68
 40
0.68
 40
0.68
 10
67.64579988520511
 20
175.4663000046008
 30
0.0
 10
67.47813800120007
 20
175.4698920408507
 30
0.0
 10
67.23830492486022
 20
175.5261720648157
 30
0.0
 10
67.15830309350002
 20
175.8017243496258
 30
0.0
  0
SPLINE
  5
1F7
330
1F
100
AcDbEntity
  8
0
  6
Continuous
 62
     7
370
    25
100
AcDbSpline
210
0.0
220
0.0
230
1.0
 70
     8
 71
     3
 72
     8
 73
     4
 74
     0
 42
0.000000001
 43
0.00000001
 40
0.8
 40
0.8
 40
0.8
 40
0.8
 40
0.84
 40
0.84
 40
0.84
 40
0.84
 10
66.86469005042505
 20
175.7871981550308
 30
0.0
 10
66.97700583989013
 20
175.4251065328856
 30
0.0
 10
67.30853641762022
 20
175.2244122835257
 30
0.0
 10
67.62480802536015
 20
175.2139522739656
 30
0.0
  0
LINE
  5
1F8
330
1F
100
AcDbEntity
  8
0
  6
Continuous
 62
     7
370
    25
100
AcDbLine
 10
67.5890315999
 20
177.3007819487
 30
0.0
 11
67.5890315999
 21
177.3002212925
 31
0.0
  0
SPLINE
  5
1F9
330
1F
100
AcDbEntity
  8
0
  6
Continuous
 62
     7
370
    25
100
AcDbSpline
210
0.0
220
0.0
230
1.0
 70
     8
 71
     3
 72
     8
 73
     4
 74
     0
 42
0.000000001
 43
0.00000001
 40
0.32
 40
0.32
 40
0.32
 40
0.32
 40
0.36
 40
0.36
 40
0.36
 40
0.36
 10
67.63271050511003
 20
177.3015862698857
 30
0.0
 10
67.62544022374017
 20
177.3015862698857
 30
0.0
 10
67.61944870727508
 20
177.3010115440857
 30
0.0
 10
67.61420433435008
 20
177.3010115440857
 30
0.0
  0
SPLINE
  5
1FA
330
1F
100
AcDbEntity
  8
0
  6
Continuous
 62
     7
370
    25
100
AcDbSpline
210
0.0
220
0.0
230
1.0
 70
     8
 71
     3
 72
     8
 73
     4
 74
     0
 42
0.000000001
 43
0.00000001
 40
0.28
 40
0.28
 40
0.28
 40
0.28
 40
0.32
 40
0.32
 40
0.32
 40
0.32
 10
68.29651880411008
 20
176.8550099551408
 30
0.0
 10
68.16825437369502
 20
177.1458068417957
 30
0.0
 10
67.91791818336002
 20
177.3020173142357
 30
0.0
 10
67.63271050511003
 20
177.3015862698857
 30
0.0
  0
LINE
  5
1FB
330
1F
100
AcDbEntity
  8
0
  6
Continuous
 62
     7
370
    25
100
AcDbLine
 10
68.3124382724
 20
176.818989223
 30
0.0
 11
68.2965191756
 21
176.8550099863
 31
0.0
  0
SPLINE
  5
1FC
330
1F
100
AcDbEntity
  8
0
  6
Continuous
 62
     7
370
    25
100
AcDbSpline
210
0.0
220
0.0
230
1.0
 70
     8
 71
     3
 72
     8
 73
     4
 74
     0
 42
0.000000001
 43
0.00000001
 40
0.48
 40
0.48
 40
0.48
 40
0.48
 40
0.52
 40
0.52
 40
0.52
 40
0.52
 10
66.93541006011503
 20
176.7418895495558
 30
0.0
 10
66.93436118553018
 20
176.3377136307056
 30
0.0
 10
67.24468438124013
 20
176.2459730248806
 30
0.0
 10
67.53000700465017
 20
176.1912591287207
 30
0.0
  0
SPLINE
  5
1FD
330
1F
100
AcDbEntity
  8
0
  6
Continuous
 62
     7
370
    25
100
AcDbSpline
210
0.0
220
0.0
230
1.0
 70
     8
 71
     3
 72
     8
 73
     4
 74
     0
 42
0.000000001
 43
0.00000001
 40
0.88
 40
0.88
 40
0.88
 40
0.88
 40
0.92
 40
0.92
 40
0.92
 40
0.92
 10
67.64700680938515
 20
175.2141821642857
 30
0.0
 10
68.11154330538005
 20
175.2300445963657
 30
0.0
 10
68.37825918101521
 20
175.5044474295758
 30
0.0
 10
68.37744019675021
 20
175.8283916267457
 30
0.0
  0
LINE
  5
1FE
330
1F
100
AcDbEntity
  8
0
  6
Continuous
 62
     7
370
    25
100
AcDbLine
 10
67.6248083566
 20
175.2139525546
 30
0.0
 11
67.6470064302
 21
175.2141825912
 31
0.0
  0
SPLINE
  5
1FF
330
1F
100
AcDbEntity
  8
0
  6
Continuous
 62
     7
370
    25
100
AcDbSpline
210
0.0
220
0.0
230
1.0
 70
     8
 71
     3
 72
     8
 73
     4
 74
     0
 42
0.000000001
 43
0.00000001
 40
0.6
 40
0.6
 40
0.6
 40
0.6
 40
0.64
 40
0.64
 40
0.64
 40
0.64
 10
68.08325242787502
 20
175.8364952605257
 30
0.0
 10
68.08313748271519
 20
175.5419339198807
 30
0.0
 10
67.84484179789018
 20
175.4746335287008
 30
0.0
 10
67.64579988520511
 20
175.4663000046008
 30
0.0
  0
SPLINE
  5
200
330
1F
100
AcDbEntity
  8
0
  6
Continuous
 62
     7
370
    25
100
AcDbSpline
210
0.0
220
0.0
230
1.0
 70
     8
 71
     3
 72
     8
 73
     4
 74
     0
 42
0.000000001
 43
0.00000001
 40
0.52
 40
0.52
 40
0.52
 40
0.52
 40
0.56
 40
0.56
 40
0.56
 40
0.56
 10
67.53000700465017
 20
176.1912591287207
 30
0.0
 10
67.67397581755009
 20
176.1622354758207
 30
0.0
 10
67.8163641345002
 20
176.1392608119656
 30
0.0
 10
67.91853601359516
 20
176.0899637064708
 30
0.0
  0
LINE
  5
201
330
1F
100
AcDbEntity
  8
0
  6
Continuous
 62
     7
370
    25
100
AcDbLine
 10
68.0127051403
 20
176.8316039873
 30
0.0
 11
68.020205081
 21
176.818989223
 31
0.0
  0
LINE
  5
202
330
1F
100
AcDbEntity
  8
0
  6
Continuous
 62
     7
370
    25
100
AcDbLine
 10
66.8542441656
 20
175.8205033896
 30
0.0
 11
66.8646898796
 21
175.787198363
 31
0.0
  0
LINE
  5
203
330
1F
100
AcDbEntity
  8
0
  6
Continuous
 62
     7
370
    25
100
AcDbLine
 10
67.1531735663
 20
175.8205033896
 30
0.0
 11
66.8542441656
 21
175.8205033896
 31
0.0
  0
SPLINE
  5
204
330
1F
100
AcDbEntity
  8
0
  6
Continuous
 62
     7
370
    25
100
AcDbSpline
210
0.0
220
0.0
230
1.0
 70
     8
 71
     3
 72
     8
 73
     4
 74
     0
 42
0.000000001
 43
0.00000001
 40
0.12
 40
0.12
 40
0.12
 40
0.12
 40
0.16
 40
0.16
 40
0.16
 40
0.16
 10
67.61944870727508
 20
177.0460775473506
 30
0.0
 10
67.80795876967503
 20
177.0446263647058
 30
0.0
 10
67.93311968077018
 20
176.9651992591456
 30
0.0
 10
68.01270483592509
 20
176.8316042469357
 30
0.0
  0
SPLINE
  5
205
330
1F
100
AcDbEntity
  8
0
  6
Continuous
 62
     7
370
    25
100
AcDbSpline
210
0.0
220
0.0
230
1.0
 70
     8
 71
     3
 72
     8
 73
     4
 74
     0
 42
0.000000001
 43
0.00000001
 40
0.56
 40
0.56
 40
0.56
 40
0.56
 40
0.6
 40
0.6
 40
0.6
 40
0.6
 10
67.91853601359516
 20
176.0899637064708
 30
0.0
 10
68.02077973341504
 20
176.0394453086508
 30
0.0
 10
68.08191619039003
 20
175.9715701916708
 30
0.0
 10
68.08325242787502
 20
175.8364952605257
 30
0.0
  0
SPLINE
  5
206
330
1F
100
AcDbEntity
  8
0
  6
Continuous
 62
     7
370
    25
100
AcDbSpline
210
0.0
220
0.0
230
1.0
 70
     8
 71
     3
 72
     8
 73
     4
 74
     0
 42
0.000000001
 43
0.00000001
 40
0.44
 40
0.44
 40
0.44
 40
0.44
 40
0.48
 40
0.48
 40
0.48
 40
0.48
 10
67.58903134431009
 20
177.3002212961107
 30
0.0
 10
67.16851884459504
 20
177.2879652684258
 30
0.0
 10
66.9344761306902
 20
177.0281173661007
 30
0.0
 10
66.93541006011503
 20
176.7418895495558
 30
0.0
  0
LINE
  5
207
330
1F
100
AcDbEntity
  8
0
  6
Continuous
 62
     7
370
    25
100
AcDbLine
 10
67.6142043178
 20
177.3010119853
 30
0.0
 11
67.5890315999
 21
177.3007819487
 31
0.0
  0
LINE
  5
208
330
1F
100
AcDbEntity
  8
0
  6
Continuous
 62
     7
370
    25
100
AcDbLine
 10
68.020205081
 20
176.818989223
 30
0.0
 11
68.3124382724
 21
176.818989223
 31
0.0
  0
SPLINE
  5
209
330
1F
100
AcDbEntity
  8
0
  6
Continuous
 62
     7
370
    25
100
AcDbSpline
210
0.0
220
0.0
230
1.0
 70
     8
 71
     3
 72
     8
 73
     4
 74
     0
 42
0.000000001
 43
0.00000001
 40
0.08
 40
0.08
 40
0.08
 40
0.08
 40
0.12
 40
0.12
 40
0.12
 40
0.12
 10
67.22941104310505
 20
176.7337859157757
 30
0.0
 10
67.23346285999514
 20
176.9102842089558
 30
0.0
 10
67.2980620399151
 20
177.0306030551857
 30
0.0
 10
67.61944870727508
 20
177.0460775473506
 30
0.0
  0
SPLINE
  5
20A
330
1F
100
AcDbEntity
  8
0
  6
Continuous
 62
     7
370
    25
100
AcDbSpline
210
0.0
220
0.0
230
1.0
 70
     8
 71
     3
 72
     8
 73
     4
 74
     0
 42
0.000000001
 43
0.00000001
 40
0.04
 40
0.04
 40
0.04
 40
0.04
 40
0.08
 40
0.08
 40
0.08
 40
0.08
 10
67.39342341828016
 20
176.5141975557407
 30
0.0
 10
67.28991530170002
 20
176.5611382854557
 30
0.0
 10
67.23038807696521
 20
176.6196453718956
 30
0.0
 10
67.22941104310505
 20
176.7337859157757
 30
0.0
  0
SPLINE
  5
20B
330
1F
100
AcDbEntity
  8
0
  6
Continuous
 62
     7
370
    25
100
AcDbSpline
210
0.0
220
0.0
230
1.0
 70
     8
 71
     3
 72
     8
 73
     4
 74
     0
 42
0.000000001
 43
0.00000001
 40
0.0
 40
0.0
 40
0.0
 40
0.0
 40
0.04
 40
0.04
 40
0.04
 40
0.04
 10
67.78328866471014
 20
176.4107469117407
 30
0.0
 10
67.63921927479511
 20
176.4438511178206
 30
0.0
 10
67.49629933648008
 20
176.4684924864957
 30
0.0
 10
67.39342341828016
 20
176.5141975557407
 30
0.0
  0
SPLINE
  5
20C
330
1F
100
AcDbEntity
  8
0
  6
Continuous
 62
     7
370
    25
100
AcDbSpline
210
0.0
220
0.0
230
1.0
 70
     8
 71
     3
 72
     8
 73
     4
 74
     0
 42
0.000000001
 43
0.00000001
 40
0.92
 40
0.92
 40
0.92
 40
0.92
 40
1.0
 40
1.0
 40
1.0
 40
1.0
 10
68.37744019675021
 20
175.8283916267457
 30
0.0
 10
68.37847470319018
 20
176.2356135923358
 30
0.0
 10
68.06993315746006
 20
176.3468230346357
 30
0.0
 10
67.78328866471014
 20
176.4107469117407
 30
0.0
  0
SPLINE
  5
20D
330
1F
100
AcDbEntity
  8
0
  6
Continuous
 62
     7
370
    25
100
AcDbSpline
210
0.0
220
0.0
230
1.0
 70
     8
 71
     3
 72
    15
 73
    11
 74
     0
 42
0.000000001
 43
0.00000001
 40
0.0
 40
0.0
 40
0.0
 40
0.0
 40
0.148164531586464
 40
0.289694073127126
 40
0.4223767178539493
 40
0.5484618558405215
 40
0.6673940763989422
 40
0.7829662373357256
 40
0.8927208011042134
 40
1.0
 40
1.0
 40
1.0
 40
1.0
 10
97.34264922987475
 20
195.4557899726755
 30
0.0
 10
97.3386141392672
 20
195.4875505946799
 30
0.0
 10
97.33072465437483
 20
195.5496495589529
 30
0.0
 10
97.3141185570905
 20
195.6394679513766
 30
0.0
 10
97.2919713048683
 20
195.7231510538854
 30
0.0
 10
97.26529833306755
 20
195.8003845505894
 30
0.0
 10
97.23277245489467
 20
195.871316298753
 30
0.0
 10
97.19602350984131
 20
195.9360551351485
 30
0.0
 10
97.1549611788852
 20
195.9952924285293
 30
0.0
 10
97.12304748128135
 20
196.0297186819936
 30
0.0
 10
97.10727262731064
 20
196.046735485496
 30
0.0
  0
LINE
  5
20E
330
1F
100
AcDbEntity
  8
0
  6
Continuous
 62
     7
370
    25
100
AcDbLine
 10
95.2913668682
 20
195.4557895718
 30
0.0
 11
97.3426495423
 21
195.4557895718
 31
0.0
  0
SPLINE
  5
20F
330
1F
100
AcDbEntity
  8
0
  6
Continuous
 62
     7
370
    25
100
AcDbSpline
210
0.0
220
0.0
230
1.0
 70
     8
 71
     3
 72
    23
 73
    19
 74
     0
 42
0.000000001
 43
0.00000001
 40
0.0
 40
0.0
 40
0.0
 40
0.0
 40
0.068919292495486
 40
0.1349047630310748
 40
0.1997359372185631
 40
0.2626235683021056
 40
0.3245009044534103
 40
0.3855135641469323
 40
0.4473909002982376
 40
0.5091777877173275
 40
0.570905463922605
 40
0.6308224246856565
 40
0.6901440794890962
 40
0.7497767565007385
 40
0.8097188419376897
 40
0.8709145541025359
 40
0.9345907756292997
 40
0.9999999999999999
 40
0.9999999999999999
 40
0.9999999999999999
 40
0.9999999999999999
 10
96.33603865295167
 20
196.3532258701114
 30
0.0
 10
96.30095290302643
 20
196.3524111044438
 30
0.0
 10
96.23227496673243
 20
196.3508162568282
 30
0.0
 10
96.1310972525071
 20
196.3395933275019
 30
0.0
 10
96.03412486110565
 20
196.3209885906526
 30
0.0
 10
95.94152969264812
 20
196.2933845059875
 30
0.0
 10
95.85297352427375
 20
196.2598350129278
 30
0.0
 10
95.76907902200013
 20
196.2169484038006
 30
0.0
 10
95.68925893989145
 20
196.1671156549042
 30
0.0
 10
95.613831200006
 20
196.1101137650292
 30
0.0
 10
95.54559687039085
 20
196.0462326474696
 30
0.0
 10
95.48319568717464
 20
195.978185044434
 30
0.0
 10
95.43153375884697
 20
195.9029768382778
 30
0.0
 10
95.38572765881275
 20
195.82411223643
 30
0.0
 10
95.34986117263695
 20
195.7391299828145
 30
0.0
 10
95.32162549371998
 20
195.6492819714371
 30
0.0
 10
95.3015260971057
 20
195.5543205853105
 30
0.0
 10
95.29478365771506
 20
195.4889261554837
 30
0.0
 10
95.2913671785927
 20
195.4557899726755
 30
0.0
  0
SPLINE
  5
210
330
1F
100
AcDbEntity
  8
0
  6
Continuous
 62
     7
370
    25
100
AcDbSpline
210
0.0
220
0.0
230
1.0
 70
     8
 71
     3
 72
    15
 73
    11
 74
     0
 42
0.000000001
 43
0.00000001
 40
0.0
 40
0.0
 40
0.0
 40
0.0
 40
0.123685845875452
 40
0.2443006868683371
 40
0.3642287799698415
 40
0.4860022042768611
 40
0.6084407848564811
 40
0.7336696181582787
 40
0.8637723073991321
 40
1.0
 40
1.0
 40
1.0
 40
1.0
 10
97.10727262731064
 20
196.046735485496
 30
0.0
 10
97.08206800668789
 20
196.0713359972344
 30
0.0
 10
97.03228457280494
 20
196.119926212812
 30
0.0
 10
96.9492821135207
 20
196.1825621095161
 30
0.0
 10
96.86007898321682
 20
196.234505306558
 30
0.0
 10
96.76640939781234
 20
196.2793227338713
 30
0.0
 10
96.66617822176329
 20
196.3117917857541
 30
0.0
 10
96.5613922258342
 20
196.3363202711854
 30
0.0
 10
96.45059276538912
 20
196.3502152344188
 30
0.0
 10
96.37480434517359
 20
196.3522070557348
 30
0.0
 10
96.33603865295167
 20
196.3532258701114
 30
0.0
  0
SPLINE
  5
211
330
1F
100
AcDbEntity
  8
0
  6
Continuous
 62
     7
370
    25
100
AcDbSpline
210
0.0
220
0.0
230
1.0
 70
     8
 71
     3
 72
    15
 73
    11
 74
     0
 42
0.000000001
 43
0.00000001
 40
0.0
 40
0.0
 40
0.0
 40
0.0
 40
0.1325625898787149
 40
0.2593306323422154
 40
0.3851493251312265
 40
0.5103183473508178
 40
0.6350555800149568
 40
0.7574348261922355
 40
0.878223127104588
 40
1.0
 40
1.0
 40
1.0
 40
1.0
 10
73.34725660166961
 20
193.1480976649832
 30
0.0
 10
73.2976852968548
 20
193.1496089598111
 30
0.0
 10
73.20070953743867
 20
193.1525654880725
 30
0.0
 10
73.05939400927637
 20
193.1824230415584
 30
0.0
 10
72.92525021009854
 20
193.2275030406303
 30
0.0
 10
72.8011445154026
 20
193.2940846109985
 30
0.0
 10
72.68638702377487
 20
193.3729647879518
 30
0.0
 10
72.58198029249
 20
193.4625857615039
 30
0.0
 10
72.48733163736397
 20
193.5611484952558
 30
0.0
 10
72.43368462106883
 20
193.6342396732558
 30
0.0
 10
72.4067517939773
 20
193.6709342034447
 30
0.0
  0
SPLINE
  5
212
330
1F
100
AcDbEntity
  8
0
  6
Continuous
 62
     7
370
    25
100
AcDbSpline
210
0.0
220
0.0
230
1.0
 70
     8
 71
     3
 72
    23
 73
    19
 74
     0
 42
0.000000001
 43
0.00000001
 40
0.0
 40
0.0
 40
0.0
 40
0.0
 40
0.0979219065896961
 40
0.1916385821711087
 40
0.2825019317288121
 40
0.3711302467489889
 40
0.4145598384676172
 40
0.4567583843578775
 40
0.4980592370497115
 40
0.538352953431111
 40
0.5786157078597757
 40
0.61859544244557
 40
0.6582620193225004
 40
0.6981579371361871
 40
0.7764626446436076
 40
0.8516918842647043
 40
0.9258879861167513
 40
1.0
 40
1.0
 40
1.0
 40
1.0
 10
74.9067517939773
 20
195.0661665752396
 30
0.0
 10
74.90463082805321
 20
194.975889465825
 30
0.0
 10
74.90047998053927
 20
194.7992121741622
 30
0.0
 10
74.8624251200891
 20
194.5410159841853
 30
0.0
 10
74.80054509517282
 20
194.2965702280516
 30
0.0
 10
74.72841583494932
 20
194.1037265558155
 30
0.0
 10
74.65927412484173
 20
193.9586678375631
 30
0.0
 10
74.6006540032224
 20
193.8573346139622
 30
0.0
 10
74.53779571969407
 20
193.762070981041
 30
0.0
 10
74.46935992396868
 20
193.6728674633805
 30
0.0
 10
74.3939351917829
 20
193.5911750748078
 30
0.0
 10
74.31398591741196
 20
193.514800508362
 30
0.0
 10
74.22846957901899
 20
193.4451212027451
 30
0.0
 10
74.1078065390424
 20
193.3636428267324
 30
0.0
 10
73.95070820788605
 20
193.2783108224949
 30
0.0
 10
73.75437351999543
 20
193.2026905552804
 30
0.0
 10
73.55233554115215
 20
193.1570562089867
 30
0.0
 10
73.41559040417282
 20
193.1510827173645
 30
0.0
 10
73.34725660166961
 20
193.1480976649832
 30
0.0
  0
SPLINE
  5
213
330
1F
100
AcDbEntity
  8
0
  6
Continuous
 62
     7
370
    25
100
AcDbSpline
210
0.0
220
0.0
230
1.0
 70
     8
 71
     3
 72
    27
 73
    23
 74
     0
 42
0.000000001
 43
0.00000001
 40
0.0
 40
0.0
 40
0.0
 40
0.0
 40
0.0412101451246411
 40
0.0814810317223234
 40
0.1209964976441694
 40
0.1600427247420376
 40
0.1985248689107038
 40
0.2365766222040854
 40
0.2750951733290194
 40
0.3138314476263909
 40
0.3528435567424008
 40
0.3915852584420311
 40
0.4305092410666459
 40
0.4701044378605686
 40
0.5101011617756075
 40
0.550744493793723
 40
0.5929427742446084
 40
0.6358606995169885
 40
0.7238328450862725
 40
0.8133778792663017
 40
0.9051897849706249
 40
1.0
 40
1.0
 40
1.0
 40
1.0
 10
73.4223767939773
 20
196.9301489470345
 30
0.0
 10
73.45913117705219
 20
196.9293305229659
 30
0.0
 10
73.53180224006839
 20
196.9277123282887
 30
0.0
 10
73.63921195487562
 20
196.9163046191609
 30
0.0
 10
73.74377703188269
 20
196.8986203607656
 30
0.0
 10
73.84500906350944
 20
196.8726372589718
 30
0.0
 10
73.94236633496166
 20
196.8384119528256
 30
0.0
 10
74.03618511697029
 20
196.7967045711782
 30
0.0
 10
74.12748603212277
 20
196.7491757674796
 30
0.0
 10
74.21464217797678
 20
196.692725685274
 30
0.0
 10
74.2971815991365
 20
196.6295755806653
 30
0.0
 10
74.37629319679048
 20
196.5617790430804
 30
0.0
 10
74.44810160810475
 20
196.4855896724758
 30
0.0
 10
74.51653662655767
 20
196.4049709624605
 30
0.0
 10
74.5787642767809
 20
196.3174663108359
 30
0.0
 10
74.63487724150275
 20
196.2233072180804
 30
0.0
 10
74.68694715677623
 20
196.1238817204919
 30
0.0
 10
74.74825840188453
 20
195.9821418808006
 30
0.0
 10
74.81337109312781
 20
195.7962169362099
 30
0.0
 10
74.86628914178604
 20
195.5615852687265
 30
0.0
 10
74.90079702974526
 20
195.3172570969157
 30
0.0
 10
74.90474572571313
 20
195.1507551008879
 30
0.0
 10
74.9067517939773
 20
195.0661665752396
 30
0.0
  0
SPLINE
  5
214
330
1F
100
AcDbEntity
  8
0
  6
Continuous
 62
     7
370
    25
100
AcDbSpline
210
0.0
220
0.0
230
1.0
 70
     8
 71
     3
 72
    15
 73
    11
 74
     0
 42
0.000000001
 43
0.00000001
 40
0.0
 40
0.0
 40
0.0
 40
0.0
 40
0.1427335317747878
 40
0.274955757030643
 40
0.3984895033920607
 40
0.5151765210108636
 40
0.6298104561309691
 40
0.7468530605778527
 40
0.8693275674612513
 40
1.0
 40
1.0
 40
1.0
 40
1.0
 10
72.4067517939773
 20
196.2861184983165
 30
0.0
 10
72.43890249038199
 20
196.3371406902435
 30
0.0
 10
72.5008362137271
 20
196.4354276535954
 30
0.0
 10
72.60515202130405
 20
196.568060771324
 30
0.0
 10
72.71709142573046
 20
196.679045056351
 30
0.0
 10
72.83550705841806
 20
196.7717250661723
 30
0.0
 10
72.9650748478719
 20
196.8427627320452
 30
0.0
 10
73.1059549949555
 20
196.8945732692414
 30
0.0
 10
73.26017043153337
 20
196.9248222310327
 30
0.0
 10
73.36715316145056
 20
196.9283354509261
 30
0.0
 10
73.4223767939773
 20
196.9301489470345
 30
0.0
  0
LINE
  5
215
330
1F
100
AcDbEntity
  8
0
  6
Continuous
 62
     7
370
    25
100
AcDbLine
 10
72.4067521025
 20
196.8660466431
 30
0.0
 11
72.4067521025
 21
196.2861185951
 31
0.0
  0
LINE
  5
216
330
1F
100
AcDbEntity
  8
0
  6
Continuous
 62
     7
370
    25
100
AcDbLine
 10
71.7657264997
 20
196.8660466431
 30
0.0
 11
72.4067521025
 21
196.8660466431
 31
0.0
  0
LINE
  5
217
330
1F
100
AcDbEntity
  8
0
  6
Continuous
 62
     7
370
    25
100
AcDbLine
 10
71.7657264997
 20
191.8660462892
 30
0.0
 11
71.7657264997
 21
196.8660466431
 31
0.0
  0
LINE
  5
218
330
1F
100
AcDbEntity
  8
0
  6
Continuous
 62
     7
370
    25
100
AcDbLine
 10
72.4067521025
 20
191.8660462892
 30
0.0
 11
71.7657264997
 21
191.8660462892
 31
0.0
  0
LINE
  5
219
330
1F
100
AcDbEntity
  8
0
  6
Continuous
 62
     7
370
    25
100
AcDbLine
 10
72.4067521025
 20
193.6709340719
 30
0.0
 11
72.4067521025
 21
191.8660462892
 31
0.0
  0
SPLINE
  5
21A
330
1F
100
AcDbEntity
  8
0
  6
Continuous
 62
     7
370
    25
100
AcDbSpline
210
0.0
220
0.0
230
1.0
 70
     8
 71
     3
 72
    23
 73
    19
 74
     0
 42
0.000000001
 43
0.00000001
 40
0.0
 40
0.0
 40
0.0
 40
0.0
 40
0.081545742915546
 40
0.1590791459377814
 40
0.2322734213360534
 40
0.3019508242635122
 40
0.3686462021915799
 40
0.4324855514133087
 40
0.4951140005823355
 40
0.5564980518852106
 40
0.6164458176966501
 40
0.673732921067925
 40
0.7289021007664477
 40
0.782878604387648
 40
0.836492865966881
 40
0.8901866150049996
 40
0.9444999979041678
 40
1.0
 40
1.0
 40
1.0
 40
1.0
 10
94.13752102474653
 20
195.0932098444704
 30
0.0
 10
94.13623854263761
 20
195.0180391815356
 30
0.0
 10
94.13373668109001
 20
194.8713965190043
 30
0.0
 10
94.11250382648728
 20
194.6581230976307
 30
0.0
 10
94.07781600622647
 20
194.4577864564305
 30
0.0
 10
94.0289481451424
 20
194.2706498309791
 30
0.0
 10
93.96588929167065
 20
194.0969505679649
 30
0.0
 10
93.88946718076873
 20
193.9358341180865
 30
0.0
 10
93.79842017736799
 20
193.7880945014499
 30
0.0
 10
93.69271720065095
 20
193.6550916099397
 30
0.0
 10
93.57807832539069
 20
193.5366312026076
 30
0.0
 10
93.45758416212723
 20
193.4327130444624
 30
0.0
 10
93.33170581234035
 20
193.34447294081
 30
0.0
 10
93.19940685239037
 20
193.2732057300863
 30
0.0
 10
93.0617877894713
 20
193.2160099363254
 30
0.0
 10
92.9175017700695
 20
193.1778409612626
 30
0.0
 10
92.76855625396882
 20
193.152467843231
 30
0.0
 10
92.66727471322979
 20
193.149564847443
 30
0.0
 10
92.61608672987474
 20
193.1480976649832
 30
0.0
  0
SPLINE
  5
21B
330
1F
100
AcDbEntity
  8
0
  6
Continuous
 62
     7
370
    25
100
AcDbSpline
210
0.0
220
0.0
230
1.0
 70
     8
 71
     3
 72
    23
 73
    19
 74
     0
 42
0.000000001
 43
0.00000001
 40
0.0
 40
0.0
 40
0.0
 40
0.0
 40
0.0610885324198119
 40
0.1210274171309665
 40
0.1807789923693851
 40
0.2411151401471138
 40
0.3007223210615884
 40
0.3586557994171951
 40
0.4156677051721784
 40
0.4732080312189269
 40
0.53178013628175
 40
0.5921383420498404
 40
0.6549648716341501
 40
0.7209110321600987
 40
0.7887394277223663
 40
0.8573095209865956
 40
0.9277076371715965
 40
1.0
 40
1.0
 40
1.0
 40
1.0
 10
92.61909153756706
 20
196.9301489470345
 30
0.0
 10
92.67362933604734
 20
196.9288358055308
 30
0.0
 10
92.78167856598658
 20
196.9262342350195
 30
0.0
 10
92.94100722301856
 20
196.8984663563527
 30
0.0
 10
93.09627603791907
 20
196.8567608692601
 30
0.0
 10
93.2457035701228
 20
196.7977906911086
 30
0.0
 10
93.38648919798369
 20
196.7240690906385
 30
0.0
 10
93.51601200798568
 20
196.636934285309
 30
0.0
 10
93.63117290660625
 20
196.5342929494054
 30
0.0
 10
93.73386678640841
 20
196.418491145137
 30
0.0
 10
93.82378921921382
 20
196.2889840294563
 30
0.0
 10
93.9046574230278
 20
196.1482160502198
 30
0.0
 10
93.97335353529618
 20
195.9938787925901
 30
0.0
 10
94.03214661820815
 20
195.828501992954
 30
0.0
 10
94.07874119463683
 20
195.6539520372282
 30
0.0
 10
94.11319690837234
 20
195.4725907553496
 30
0.0
 10
94.13331973777117
 20
195.2849723120471
 30
0.0
 10
94.13610825636108
 20
195.1576938831228
 30
0.0
 10
94.13752102474653
 20
195.0932098444704
 30
0.0
  0
SPLINE
  5
21C
330
1F
100
AcDbEntity
  8
0
  6
Continuous
 62
     7
370
    25
100
AcDbSpline
210
0.0
220
0.0
230
1.0
 70
     8
 71
     3
 72
    15
 73
    11
 74
     0
 42
0.000000001
 43
0.00000001
 40
0.0
 40
0.0
 40
0.0
 40
0.0
 40
0.1396143826259433
 40
0.2713505314704639
 40
0.396873320762452
 40
0.5183213521923601
 40
0.637349288618326
 40
0.7553891711776825
 40
0.8756257280944668
 40
1.0
 40
1.0
 40
1.0
 40
1.0
 10
91.63752102474653
 20
196.3722563188294
 30
0.0
 10
91.66962383183133
 20
196.4167462498007
 30
0.0
 10
91.73201793192554
 20
196.5032156105292
 30
0.0
 10
91.83902180235947
 20
196.6171990116158
 30
0.0
 10
91.95321171820339
 20
196.7128499978923
 30
0.0
 10
92.07269310167489
 20
196.7933608082299
 30
0.0
 10
92.19989176654434
 20
196.8548829841958
 30
0.0
 10
92.33372124622892
 20
196.8980899742848
 30
0.0
 10
92.47411973620406
 20
196.9250035701175
 30
0.0
 10
92.57022571017785
 20
196.9284145883667
 30
0.0
 10
92.61909153756706
 20
196.9301489470345
 30
0.0
  0
LINE
  5
21D
330
1F
100
AcDbEntity
  8
0
  6
Continuous
 62
     7
370
    25
100
AcDbLine
 10
91.6375211184
 20
198.2121998502
 30
0.0
 11
91.6375211184
 21
196.37225662
 31
0.0
  0
LINE
  5
21E
330
1F
100
AcDbEntity
  8
0
  6
Continuous
 62
     7
370
    25
100
AcDbLine
 10
90.9964955156
 20
198.2121998502
 30
0.0
 11
91.6375211184
 21
198.2121998502
 31
0.0
  0
LINE
  5
21F
330
1F
100
AcDbEntity
  8
0
  6
Continuous
 62
     7
370
    25
100
AcDbLine
 10
90.9964955156
 20
193.2122004276
 30
0.0
 11
90.9964955156
 21
198.2121998502
 31
0.0
  0
LINE
  5
220
330
1F
100
AcDbEntity
  8
0
  6
Continuous
 62
     7
370
    25
100
AcDbLine
 10
91.6375211184
 20
193.2122004276
 30
0.0
 11
90.9964955156
 21
193.2122004276
 31
0.0
  0
LINE
  5
221
330
1F
100
AcDbEntity
  8
0
  6
Continuous
 62
     7
370
    25
100
AcDbLine
 10
91.6375211184
 20
193.7600770092
 30
0.0
 11
91.6375211184
 21
193.2122004276
 31
0.0
  0
SPLINE
  5
222
330
1F
100
AcDbEntity
  8
0
  6
Continuous
 62
     7
370
    25
100
AcDbSpline
210
0.0
220
0.0
230
1.0
 70
     8
 71
     3
 72
    15
 73
    11
 74
     0
 42
0.000000001
 43
0.00000001
 40
0.0
 40
0.0
 40
0.0
 40
0.0
 40
0.1257000604853579
 40
0.245943042490868
 40
0.363398656299019
 40
0.4818874630503963
 40
0.6023765347623844
 40
0.7272668283285587
 40
0.8592379354332214
 40
1.0
 40
1.0
 40
1.0
 40
1.0
 10
92.61608672987474
 20
193.1480976649832
 30
0.0
 10
92.56521822894365
 20
193.150118827637
 30
0.0
 10
92.46568960630307
 20
193.1540734072174
 30
0.0
 10
92.32067601545333
 20
193.1822740676586
 30
0.0
 10
92.18469012276394
 20
193.2313952644342
 30
0.0
 10
92.0566243214976
 20
193.2987328005589
 30
0.0
 10
91.9373621919185
 20
193.3859812192665
 30
0.0
 10
91.82772462105436
 20
193.4927569620781
 30
0.0
 10
91.72562037336532
 20
193.6176816088851
 30
0.0
 10
91.66751180846484
 20
193.7116026443214
 30
0.0
 10
91.63752102474653
 20
193.7600768316499
 30
0.0
  0
SPLINE
  5
223
330
1F
100
AcDbEntity
  8
0
  6
Continuous
 62
     7
370
    25
100
AcDbSpline
210
0.0
220
0.0
230
1.0
 70
     8
 71
     3
 72
    23
 73
    19
 74
     0
 42
0.000000001
 43
0.00000001
 40
0.0
 40
0.0
 40
0.0
 40
0.0
 40
0.0547404024573484
 40
0.1074936994555247
 40
0.1594321748117305
 40
0.2105924893758674
 40
0.2613975773174668
 40
0.3124287031443353
 40
0.3643899849707638
 40
0.4177303695177856
 40
0.472461495251025
 40
0.530715994585092
 40
0.5929052543996031
 40
0.6602606033181347
 40
0.7344874692892819
 40
0.815792265695372
 40
0.90397179596827
 40
1.0
 40
1.0
 40
1.0
 40
1.0
 10
100.2643239093619
 20
196.3532258701114
 30
0.0
 10
100.2329198163261
 20
196.3523576191772
 30
0.0
 10
100.1712516153826
 20
196.3506526352752
 30
0.0
 10
100.0801392894114
 20
196.3401073406125
 30
0.0
 10
99.99315666700197
 20
196.3189426765064
 30
0.0
 10
99.908245105225
 20
196.2941179804514
 30
0.0
 10
99.82804139323508
 20
196.2579209538077
 30
0.0
 10
99.75025093734864
 20
196.2160587265483
 30
0.0
 10
99.67601300811218
 20
196.1654243250848
 30
0.0
 10
99.60449255750851
 20
196.107684562407
 30
0.0
 10
99.5374687319927
 20
196.0391156073682
 30
0.0
 10
99.48193275486034
 20
195.9547049735595
 30
0.0
 10
99.43503799109294
 20
195.8574702676955
 30
0.0
 10
99.39557922898713
 20
195.7471247543501
 30
0.0
 10
99.36653540543286
 20
195.6223610440706
 30
0.0
 10
99.3446401794123
 20
195.4841479334732
 30
0.0
 10
99.33166556675208
 20
195.3321721824878
 30
0.0
 10
99.33045814873458
 20
195.2264488344987
 30
0.0
 10
99.32982871705423
 20
195.1713348444704
 30
0.0
  0
SPLINE
  5
224
330
1F
100
AcDbEntity
  8
0
  6
Continuous
 62
     7
370
    25
100
AcDbSpline
210
0.0
220
0.0
230
1.0
 70
     8
 71
     3
 72
    19
 73
    15
 74
     0
 42
0.000000001
 43
0.00000001
 40
0.0
 40
0.0
 40
0.0
 40
0.0
 40
0.1255469614152653
 40
0.2341541103747943
 40
0.327129126960393
 40
0.4054107045843259
 40
0.4747873183483067
 40
0.5436331392941438
 40
0.613514181020542
 40
0.686384175478443
 40
0.7612372693235825
 40
0.8376622621804435
 40
0.9168919411532014
 40
1.0
 40
1.0
 40
1.0
 40
1.0
 10
100.9964953837209
 20
195.3936906137012
 30
0.0
 10
100.9959294806672
 20
195.4518123435104
 30
0.0
 10
100.9948740307813
 20
195.5602135487926
 30
0.0
 10
100.9821799237238
 20
195.7112377616812
 30
0.0
 10
100.9612512564754
 20
195.8392706744607
 30
0.0
 10
100.9302913543924
 20
195.9465945842073
 30
0.0
 10
100.8880248349018
 20
196.0380118246892
 30
0.0
 10
100.831837747477
 20
196.1168190264077
 30
0.0
 10
100.7630153649311
 20
196.1871481919511
 30
0.0
 10
100.680362129835
 20
196.2454816071319
 30
0.0
 10
100.5881993631179
 20
196.2937188794333
 30
0.0
 10
100.4871723074952
 20
196.3292961969116
 30
0.0
 10
100.3779442548392
 20
196.3490904028499
 30
0.0
 10
100.3027958102312
 20
196.351825599008
 30
0.0
 10
100.2643239093619
 20
196.3532258701114
 30
0.0
  0
LINE
  5
225
330
1F
100
AcDbEntity
  8
0
  6
Continuous
 62
     7
370
    25
100
AcDbLine
 10
100.9964962234
 20
193.2122004276
 30
0.0
 11
100.9964962234
 21
195.3936908452
 31
0.0
  0
LINE
  5
226
330
1F
100
AcDbEntity
  8
0
  6
Continuous
 62
     7
370
    25
100
AcDbLine
 10
101.6375218262
 20
193.2122004276
 30
0.0
 11
100.9964962234
 21
193.2122004276
 31
0.0
  0
LINE
  5
227
330
1F
100
AcDbEntity
  8
0
  6
Continuous
 62
     7
370
    25
100
AcDbLine
 10
101.6375218262
 20
195.4477774037
 30
0.0
 11
101.6375218262
 21
193.2122004276
 31
0.0
  0
SPLINE
  5
228
330
1F
100
AcDbEntity
  8
0
  6
Continuous
 62
     7
370
    25
100
AcDbSpline
210
0.0
220
0.0
230
1.0
 70
     8
 71
     3
 72
    15
 73
    11
 74
     0
 42
0.000000001
 43
0.00000001
 40
0.0
 40
0.0
 40
0.0
 40
0.0
 40
0.0795145064399585
 40
0.1701304936624559
 40
0.2756779836592635
 40
0.3943857798578265
 40
0.5262377606021248
 40
0.6697566883784822
 40
0.828207443883771
 40
1.0
 40
1.0
 40
1.0
 40
1.0
 10
101.6044681401312
 20
196.046735485496
 30
0.0
 10
101.6073561540964
 20
196.0310746259788
 30
0.0
 10
101.6135353943834
 20
195.9975664036412
 30
0.0
 10
101.6187173697226
 20
195.9425820020669
 30
0.0
 10
101.6250413383716
 20
195.8798820851916
 30
0.0
 10
101.6302090395144
 20
195.8087557330943
 30
0.0
 10
101.6323535262532
 20
195.7298898397646
 30
0.0
 10
101.636246470355
 20
195.6431222897646
 30
0.0
 10
101.636367607198
 20
195.5482669644218
 30
0.0
 10
101.6371263347221
 20
195.4821639416752
 30
0.0
 10
101.6375210247465
 20
195.4477771521627
 30
0.0
  0
SPLINE
  5
229
330
1F
100
AcDbEntity
  8
0
  6
Continuous
 62
     7
370
    25
100
AcDbSpline
210
0.0
220
0.0
230
1.0
 70
     8
 71
     3
 72
    19
 73
    15
 74
     0
 42
0.000000001
 43
0.00000001
 40
0.0
 40
0.0
 40
0.0
 40
0.0
 40
0.0964495236012474
 40
0.1906819923947526
 40
0.2818853117318332
 40
0.3729812698553138
 40
0.4602857353863182
 40
0.5414949582407204
 40
0.6180929718446634
 40
0.6914755635828718
 40
0.7647620768211004
 40
0.8400534900723817
 40
0.9182096232098161
 40
1.0
 40
1.0
 40
1.0
 40
1.0
 10
100.4426091657722
 20
196.9301489470345
 30
0.0
 10
100.4941003748741
 20
196.9288897633252
 30
0.0
 10
100.595899180879
 20
196.9264003403657
 30
0.0
 10
100.7450777699971
 20
196.9040359079102
 30
0.0
 10
100.8880385129718
 20
196.8665440540861
 30
0.0
 10
101.0228483885699
 20
196.8153006497311
 30
0.0
 10
101.1459323962186
 20
196.7513334926848
 30
0.0
 10
101.2562638464685
 20
196.6802393589365
 30
0.0
 10
101.3468912059922
 20
196.595702050721
 30
0.0
 10
101.4224448641569
 20
196.5031186854001
 30
0.0
 10
101.483627005112
 20
196.4013089386054
 30
0.0
 10
101.5348139494624
 20
196.2915030454607
 30
0.0
 10
101.5763669241192
 20
196.1727247700816
 30
0.0
 10
101.5949602446788
 20
196.0893632830063
 30
0.0
 10
101.6044681401312
 20
196.046735485496
 30
0.0
  0
SPLINE
  5
22A
330
1F
100
AcDbEntity
  8
0
  6
Continuous
 62
     7
370
    25
100
AcDbSpline
210
0.0
220
0.0
230
1.0
 70
     8
 71
     3
 72
    15
 73
    11
 74
     0
 42
0.000000001
 43
0.00000001
 40
0.0
 40
0.0
 40
0.0
 40
0.0
 40
0.1289512170358554
 40
0.2529725262810854
 40
0.3733958835919572
 40
0.4926375958164066
 40
0.6126879018118973
 40
0.7362758709969044
 40
0.8650564649036862
 40
1.0
 40
1.0
 40
1.0
 40
1.0
 10
99.32982871705423
 20
196.3562306778037
 30
0.0
 10
99.36287930377908
 20
196.4017664230092
 30
0.0
 10
99.42771692695975
 20
196.4910970455929
 30
0.0
 10
99.54052760409307
 20
196.6093613022102
 30
0.0
 10
99.66518412241972
 20
196.7079740648
 30
0.0
 10
99.79905927355561
 20
196.7906212184647
 30
0.0
 10
99.94524899380991
 20
196.8525249996989
 30
0.0
 10
100.1015073287122
 20
196.8977832940923
 30
0.0
 10
100.2687019062135
 20
196.925262689821
 30
0.0
 10
100.3837439441927
 20
196.9284950160008
 30
0.0
 10
100.4426091657722
 20
196.9301489470345
 30
0.0
  0
LINE
  5
22B
330
1F
100
AcDbEntity
  8
0
  6
Continuous
 62
     7
370
    25
100
AcDbLine
 10
99.3298292835
 20
196.8660466431
 30
0.0
 11
99.3298292835
 21
196.3562304212
 31
0.0
  0
LINE
  5
22C
330
1F
100
AcDbEntity
  8
0
  6
Continuous
 62
     7
370
    25
100
AcDbLine
 10
98.6888036807
 20
196.8660466431
 30
0.0
 11
99.3298292835
 21
196.8660466431
 31
0.0
  0
LINE
  5
22D
330
1F
100
AcDbEntity
  8
0
  6
Continuous
 62
     7
370
    25
100
AcDbLine
 10
98.6888036807
 20
193.2122004276
 30
0.0
 11
98.6888036807
 21
196.8660466431
 31
0.0
  0
LINE
  5
22E
330
1F
100
AcDbEntity
  8
0
  6
Continuous
 62
     7
370
    25
100
AcDbLine
 10
99.3298292835
 20
193.2122004276
 30
0.0
 11
98.6888036807
 21
193.2122004276
 31
0.0
  0
LINE
  5
22F
330
1F
100
AcDbEntity
  8
0
  6
Continuous
 62
     7
370
    25
100
AcDbLine
 10
99.3298292835
 20
195.1713347865
 30
0.0
 11
99.3298292835
 21
193.2122004276
 31
0.0
  0
LINE
  5
230
330
1F
100
AcDbEntity
  8
0
  6
Continuous
 62
     7
370
    25
100
AcDbLine
 10
66.7657256802
 20
196.2891230417
 30
0.0
 11
66.7657256802
 21
194.2158062069
 31
0.0
  0
LINE
  5
231
330
1F
100
AcDbEntity
  8
0
  6
Continuous
 62
     7
370
    25
100
AcDbLine
 10
67.3426492815
 20
196.2891230417
 30
0.0
 11
66.7657256802
 21
196.2891230417
 31
0.0
  0
LINE
  5
232
330
1F
100
AcDbEntity
  8
0
  6
Continuous
 62
     7
370
    25
100
AcDbLine
 10
67.3426492815
 20
196.8660466431
 30
0.0
 11
67.3426492815
 21
196.2891230417
 31
0.0
  0
LINE
  5
233
330
1F
100
AcDbEntity
  8
0
  6
Continuous
 62
     7
370
    25
100
AcDbLine
 10
66.7657256802
 20
196.8660466431
 30
0.0
 11
67.3426492815
 21
196.8660466431
 31
0.0
  0
LINE
  5
234
330
1F
100
AcDbEntity
  8
0
  6
Continuous
 62
     7
370
    25
100
AcDbLine
 10
66.7657256802
 20
198.120052932
 30
0.0
 11
66.7657256802
 21
196.8660466431
 31
0.0
  0
LINE
  5
235
330
1F
100
AcDbEntity
  8
0
  6
Continuous
 62
     7
370
    25
100
AcDbLine
 10
66.1247000773
 20
197.755469015
 30
0.0
 11
66.7657256802
 21
198.120052932
 31
0.0
  0
LINE
  5
236
330
1F
100
AcDbEntity
  8
0
  6
Continuous
 62
     7
370
    25
100
AcDbLine
 10
66.1247000773
 20
196.8660466431
 30
0.0
 11
66.1247000773
 21
197.755469015
 31
0.0
  0
LINE
  5
237
330
1F
100
AcDbEntity
  8
0
  6
Continuous
 62
     7
370
    25
100
AcDbLine
 10
65.675983273
 20
196.8660466431
 30
0.0
 11
66.1247000773
 21
196.8660466431
 31
0.0
  0
LINE
  5
238
330
1F
100
AcDbEntity
  8
0
  6
Continuous
 62
     7
370
    25
100
AcDbLine
 10
65.675983273
 20
196.2891230417
 30
0.0
 11
65.675983273
 21
196.8660466431
 31
0.0
  0
LINE
  5
239
330
1F
100
AcDbEntity
  8
0
  6
Continuous
 62
     7
370
    25
100
AcDbLine
 10
66.1247000773
 20
196.2891230417
 30
0.0
 11
65.675983273
 21
196.2891230417
 31
0.0
  0
LINE
  5
23A
330
1F
100
AcDbEntity
  8
0
  6
Continuous
 62
     7
370
    25
100
AcDbLine
 10
66.1247000773
 20
194.2388429364
 30
0.0
 11
66.1247000773
 21
196.2891230417
 31
0.0
  0
SPLINE
  5
23B
330
1F
100
AcDbEntity
  8
0
  6
Continuous
 62
     7
370
    25
100
AcDbSpline
210
0.0
220
0.0
230
1.0
 70
     8
 71
     3
 72
    23
 73
    19
 74
     0
 42
0.000000001
 43
0.00000001
 40
0.0
 40
0.0
 40
0.0
 40
0.0
 40
0.0947478707804549
 40
0.1790846350486421
 40
0.2542870520841974
 40
0.3215603789604568
 40
0.3834996598249765
 40
0.4417190015224971
 40
0.4990140365214584
 40
0.5551995843709009
 40
0.5867006486205675
 40
0.6249601836616046
 40
0.6695051206017167
 40
0.7219128617320277
 40
0.7802733573506407
 40
0.8465379283818071
 40
0.9195770186060366
 40
1.0
 40
1.0
 40
1.0
 40
1.0
 10
66.95502903756706
 20
193.1480976649832
 30
0.0
 10
66.90389461355731
 20
193.1494927005748
 30
0.0
 10
66.80724452963692
 20
193.1521294821484
 30
0.0
 10
66.67081039569084
 20
193.170209680581
 30
0.0
 10
66.55246492994489
 20
193.2030241870799
 30
0.0
 10
66.45122499234455
 20
193.248155185929
 30
0.0
 10
66.36716238718138
 20
193.305224038176
 30
0.0
 10
66.29643605060869
 20
193.3703559833553
 30
0.0
 10
66.23917998965409
 20
193.443683045336
 30
0.0
 10
66.20124020691425
 20
193.5127002802872
 30
0.0
 10
66.17890602592178
 20
193.5770313488041
 30
0.0
 10
66.16414654630066
 20
193.637019841502
 30
0.0
 10
66.15286833652243
 20
193.7091559293021
 30
0.0
 10
66.14160429045648
 20
193.7922253014424
 30
0.0
 10
66.13371529309116
 20
193.887495747028
 30
0.0
 10
66.1296010289471
 20
193.9940988980645
 30
0.0
 10
66.12479394259205
 20
194.1126015041994
 30
0.0
 10
66.12473263870206
 20
194.1954339012243
 30
0.0
 10
66.12470051192602
 20
194.2388428572909
 30
0.0
  0
SPLINE
  5
23C
330
1F
100
AcDbEntity
  8
0
  6
Continuous
 62
     7
370
    25
100
AcDbSpline
210
0.0
220
0.0
230
1.0
 70
     8
 71
     3
 72
    11
 73
     7
 74
     0
 42
0.000000001
 43
0.00000001
 40
0.0
 40
0.0
 40
0.0
 40
0.0
 40
0.2753332836171068
 40
0.5329132699999399
 40
0.7736079853172971
 40
0.9999999999999999
 40
0.9999999999999999
 40
0.9999999999999999
 40
0.9999999999999999
 10
67.40675179397732
 20
193.2031858060088
 30
0.0
 10
67.36576424480133
 20
193.1947181420811
 30
0.0
 10
67.28643199490514
 20
193.1783288032632
 30
0.0
 10
67.1699935764295
 20
193.161957754785
 30
0.0
 10
67.06046794548303
 20
193.1494506083909
 30
0.0
 10
66.98945046284081
 20
193.1485393448273
 30
0.0
 10
66.95502903756706
 20
193.1480976649832
 30
0.0
  0
LINE
  5
23D
330
1F
100
AcDbEntity
  8
0
  6
Continuous
 62
     7
370
    25
100
AcDbLine
 10
67.3426492815
 20
193.7410463637
 30
0.0
 11
67.4067522143
 21
193.2031856907
 31
0.0
  0
SPLINE
  5
23E
330
1F
100
AcDbEntity
  8
0
  6
Continuous
 62
     7
370
    25
100
AcDbSpline
210
0.0
220
0.0
230
1.0
 70
     8
 71
     3
 72
    11
 73
     7
 74
     0
 42
0.000000001
 43
0.00000001
 40
0.0
 40
0.0
 40
0.0
 40
0.0
 40
0.2027395082954345
 40
0.4375391642580744
 40
0.7045725240956991
 40
1.0
 40
1.0
 40
1.0
 40
1.0
 10
67.091246986285
 20
193.7250207419063
 30
0.0
 10
67.10827772663404
 20
193.7252427689448
 30
0.0
 10
67.14503235804091
 20
193.7257219331969
 30
0.0
 10
67.2041399325517
 20
193.7290099723944
 30
0.0
 10
67.27093227159183
 20
193.7339468922659
 30
0.0
 10
67.31795235537788
 20
193.7386015604775
 30
0.0
 10
67.34264922987475
 20
193.7410463829319
 30
0.0
  0
SPLINE
  5
23F
330
1F
100
AcDbEntity
  8
0
  6
Continuous
 62
     7
370
    25
100
AcDbSpline
210
0.0
220
0.0
230
1.0
 70
     8
 71
     3
 72
    17
 73
    13
 74
     0
 42
0.000000001
 43
0.00000001
 40
0.0
 40
0.0
 40
0.0
 40
0.0
 40
0.1693748016950685
 40
0.3057107119986396
 40
0.4093010577798267
 40
0.4812810099687801
 40
0.5929870972808691
 40
0.7047775512215096
 40
0.766272309506802
 40
0.8354621927706796
 40
0.9130453249045982
 40
1.0
 40
1.0
 40
1.0
 40
1.0
 10
66.76572615295167
 20
194.2158059983165
 30
0.0
 10
66.7659719186198
 20
194.1767302376729
 30
0.0
 10
66.76641550997246
 20
194.1062009825021
 30
0.0
 10
66.7725309258
 20
194.0119463435917
 30
0.0
 10
66.78008506131847
 20
193.9403705035423
 30
0.0
 10
66.7959859294493
 20
193.8755628990754
 30
0.0
 10
66.83315721557051
 20
193.8167862135095
 30
0.0
 10
66.8827492476294
 20
193.7721845675888
 30
0.0
 10
66.93311284989758
 20
193.7469338383132
 30
0.0
 10
66.9798092058855
 20
193.7347747202445
 30
0.0
 10
67.03320696410944
 20
193.7266729876787
 30
0.0
 10
67.07117938337237
 20
193.7255920134329
 30
0.0
 10
67.091246986285
 20
193.7250207419063
 30
0.0
  0
CIRCLE
  5
240
330
1F
100
AcDbEntity
  8
0
  6
Continuous
 62
     7
370
    25
100
AcDbCircle
 10
103.4777242471
 20
174.784959404
 30
0.0
 40
0.75
  0
LINE
  5
241
330
1F
100
AcDbEntity
  8
0
  6
Continuous
 62
     7
370
    25
100
AcDbLine
 10
55.4777235468
 20
200.7849598361
 30
0.0
 11
55.4777235468
 21
187.7849594515
 31
0.0
  0
LINE
  5
242
330
1F
100
AcDbEntity
  8
0
  6
Continuous
 62
     7
370
    25
100
AcDbLine
 10
109.4777249475
 20
187.7849594515
 30
0.0
 11
109.4777249475
 21
200.7849598361
 31
0.0
  0
LINE
  5
243
330
1F
100
AcDbEntity
  8
0
  6
Continuous
 62
     7
370
    25
100
AcDbLine
 10
80.9777242341
 20
175.2849593816
 30
0.0
 11
83.9777242602
 21
175.2849593816
 31
0.0
  0
LINE
  5
244
330
1F
100
AcDbEntity
  8
0
  6
Continuous
 62
     7
370
    25
100
AcDbLine
 10
83.9777242602
 20
175.2849593816
 30
0.0
 11
83.9777242602
 21
187.2849594277
 31
0.0
  0
LINE
  5
245
330
1F
100
AcDbEntity
  8
0
  6
Continuous
 62
     7
370
    25
100
AcDbLine
 10
83.9777242602
 20
187.2849594277
 30
0.0
 11
86.4777244371
 21
187.2849594277
 31
0.0
  0
LINE
  5
246
330
1F
100
AcDbEntity
  8
0
  6
Continuous
 62
     7
370
    25
100
AcDbLine
 10
86.4777244371
 20
187.2849594277
 30
0.0
 11
82.4777242471
 21
193.2849595381
 31
0.0
  0
LINE
  5
247
330
1F
100
AcDbEntity
  8
0
  6
Continuous
 62
     7
370
    25
100
AcDbLine
 10
82.4777242471
 20
193.2849595381
 30
0.0
 11
78.4777240572
 21
187.2849594277
 31
0.0
  0
LINE
  5
248
330
1F
100
AcDbEntity
  8
0
  6
Continuous
 62
     7
370
    25
100
AcDbLine
 10
78.4777240572
 20
187.2849594277
 30
0.0
 11
80.9777242341
 21
187.2849594277
 31
0.0
  0
LINE
  5
249
330
1F
100
AcDbEntity
  8
0
  6
Continuous
 62
     7
370
    25
100
AcDbLine
 10
80.9777242341
 20
187.2849594277
 30
0.0
 11
80.9777242341
 21
175.2849593816
 31
0.0
  0
LINE
  5
24A
330
1F
100
AcDbEntity
  8
0
  6
Continuous
 62
     7
370
    25
100
AcDbLine
 10
97.9806697671
 20
194.8788669018
 30
0.0
 11
95.2913668682
 21
194.8788669018
 31
0.0
  0
SPLINE
  5
24B
330
1F
100
AcDbEntity
  8
0
  6
Continuous
 62
     7
370
    25
100
AcDbSpline
210
0.0
220
0.0
230
1.0
 70
     8
 71
     3
 72
     9
 73
     5
 74
     0
 42
0.000000001
 43
0.00000001
 40
0.0
 40
0.0
 40
0.0
 40
0.0
 40
0.4146077280383529
 40
1.0
 40
1.0
 40
1.0
 40
1.0
 10
97.98367487090039
 20
195.0431297162652
 30
0.0
 10
97.9833698310518
 20
195.0204262125606
 30
0.0
 10
97.98263409983417
 20
194.9656672146711
 30
0.0
 10
97.98139526660606
 20
194.9109171566232
 30
0.0
 10
97.98067006320807
 20
194.8788668957524
 30
0.0
  0
SPLINE
  5
24C
330
1F
100
AcDbEntity
  8
0
  6
Continuous
 62
     7
370
    25
100
AcDbSpline
210
0.0
220
0.0
230
1.0
 70
     8
 71
     3
 72
    23
 73
    19
 74
     0
 42
0.000000001
 43
0.00000001
 40
0.0
 40
0.0
 40
0.0
 40
0.0
 40
0.0628327012163932
 40
0.122965428693962
 40
0.1816288039489543
 40
0.2388323520060554
 40
0.2952935041873481
 40
0.3521674350071299
 40
0.4094906731189481
 40
0.4684235402869523
 40
0.5283583088828296
 40
0.58855374431071
 40
0.6502482991009643
 40
0.7136706736682877
 40
0.7802618417620742
 40
0.8495363583234034
 40
0.9226519106314431
 40
0.9999999999999999
 40
0.9999999999999999
 40
0.9999999999999999
 40
0.9999999999999999
 10
96.33904346064398
 20
196.9301489470345
 30
0.0
 10
96.39822015976432
 20
196.9286272090253
 30
0.0
 10
96.51403068573497
 20
196.9256491233623
 30
0.0
 10
96.68369701907358
 20
196.9017467121606
 30
0.0
 10
96.84536851980319
 20
196.8643951631407
 30
0.0
 10
96.99870575950217
 20
196.8101440804507
 30
0.0
 10
97.142937004546
 20
196.7389304962604
 30
0.0
 10
97.2796199586373
 20
196.6539354417557
 30
0.0
 10
97.40779980302972
 20
196.5526990125039
 30
0.0
 10
97.5266544618335
 20
196.4366006305597
 30
0.0
 10
97.6349487471181
 20
196.3069438128436
 30
0.0
 10
97.72862492953064
 20
196.1632257251212
 30
0.0
 10
97.80794535217089
 20
196.0074672642972
 30
0.0
 10
97.87224642532361
 20
195.8384776379514
 30
0.0
 10
97.92174302989169
 20
195.6572308747151
 30
0.0
 10
97.95760200369044
 20
195.4636083112513
 30
0.0
 10
97.98021636970842
 20
195.2576757795851
 30
0.0
 10
97.98250061855592
 20
195.1159737616671
 30
0.0
 10
97.98367487090039
 20
195.0431297162652
 30
0.0
  0
SPLINE
  5
24D
330
1F
100
AcDbEntity
  8
0
  6
Continuous
 62
     7
370
    25
100
AcDbSpline
210
0.0
220
0.0
230
1.0
 70
     8
 71
     3
 72
    23
 73
    19
 74
     0
 42
0.000000001
 43
0.00000001
 40
0.0
 40
0.0
 40
0.0
 40
0.0
 40
0.0770192486680555
 40
0.1495479024162739
 40
0.2187135099120815
 40
0.2849231121352787
 40
0.348159276605894
 40
0.4097277041995566
 40
0.4698385380871208
 40
0.5294209545713842
 40
0.5882764566340926
 40
0.6457897074994389
 40
0.7024689920772346
 40
0.7593896103244627
 40
0.8167479402414017
 40
0.8756208054666014
 40
0.9364820909603183
 40
1.0
 40
1.0
 40
1.0
 40
1.0
 10
94.65034153756706
 20
195.0080736265217
 30
0.0
 10
94.65152827668604
 20
195.0822488100562
 30
0.0
 10
94.65383256229032
 20
195.2262744049661
 30
0.0
 10
94.67623098163573
 20
195.4359753968631
 30
0.0
 10
94.71327333960748
 20
195.6328641867915
 30
0.0
 10
94.76353875061086
 20
195.8176551005909
 30
0.0
 10
94.83014374645978
 20
195.989455457585
 30
0.0
 10
94.9114139154912
 20
196.1482026243241
 30
0.0
 10
95.00684674441663
 20
196.2947561062691
 30
0.0
 10
95.11736408011876
 20
196.4269698869944
 30
0.0
 10
95.23965226061179
 20
196.5445401903094
 30
0.0
 10
95.36982589453055
 20
196.6490861133223
 30
0.0
 10
95.51061696631999
 20
196.7353643926372
 30
0.0
 10
95.65914761349204
 20
196.8069985660773
 30
0.0
 10
95.81684938354522
 20
196.8620351349117
 30
0.0
 10
95.98275081542269
 20
196.9025668603724
 30
0.0
 10
96.15811512160825
 20
196.9254378021577
 30
0.0
 10
96.27788131624135
 20
196.9285563622311
 30
0.0
 10
96.33904346064398
 20
196.9301489470345
 30
0.0
  0
SPLINE
  5
24E
330
1F
100
AcDbEntity
  8
0
  6
Continuous
 62
     7
370
    25
100
AcDbSpline
210
0.0
220
0.0
230
1.0
 70
     8
 71
     3
 72
    23
 73
    19
 74
     0
 42
0.000000001
 43
0.00000001
 40
0.0
 40
0.0
 40
0.0
 40
0.0
 40
0.0673510228838031
 40
0.1313136075111438
 40
0.1930714529961516
 40
0.2525019830750457
 40
0.3107047505741045
 40
0.3679301358078683
 40
0.4254606235585172
 40
0.4834247854969388
 40
0.5420438126713609
 40
0.6011296842102014
 40
0.6610197184695087
 40
0.722853304876074
 40
0.7874137013423682
 40
0.8544970481116901
 40
0.9253447936235354
 40
1.0
 40
1.0
 40
1.0
 40
1.0
 10
96.37309794782347
 20
193.1480976649832
 30
0.0
 10
96.30858702927486
 20
193.1496136422299
 30
0.0
 10
96.18281074443523
 20
193.1525693277212
 30
0.0
 10
95.99912979898428
 20
193.1762805953766
 30
0.0
 10
95.82562802206682
 20
193.2137891815872
 30
0.0
 10
95.66192756393072
 20
193.2669322599649
 30
0.0
 10
95.50907748257545
 20
193.3361874224061
 30
0.0
 10
95.36668962648342
 20
193.421363843653
 30
0.0
 10
95.2338783285624
 20
193.5204936613545
 30
0.0
 10
95.11255539922918
 20
193.6353226292732
 30
0.0
 10
95.00278726135461
 20
193.7633012518183
 30
0.0
 10
94.90904078449218
 20
193.9056022665902
 30
0.0
 10
94.82773606677864
 20
194.0588153351436
 30
0.0
 10
94.7630714443997
 20
194.2254292305751
 30
0.0
 10
94.71196012951711
 20
194.4037757569802
 30
0.0
 10
94.67649696638183
 20
194.594613912233
 30
0.0
 10
94.6538076399036
 20
194.7971865498739
 30
0.0
 10
94.65151688617688
 20
194.9365622260205
 30
0.0
 10
94.65034153756706
 20
195.0080736265217
 30
0.0
  0
SPLINE
  5
24F
330
1F
100
AcDbEntity
  8
0
  6
Continuous
 62
     7
370
    25
100
AcDbSpline
210
0.0
220
0.0
230
1.0
 70
     8
 71
     3
 72
    23
 73
    19
 74
     0
 42
0.000000001
 43
0.00000001
 40
0.0
 40
0.0
 40
0.0
 40
0.0
 40
0.0635748979767542
 40
0.1250642597775945
 40
0.1849336484558779
 40
0.2440328936736027
 40
0.302280729427489
 40
0.3603762054010014
 40
0.4187937394674637
 40
0.47762359613686
 40
0.5373852229070698
 40
0.5974753024433851
 40
0.659222451075834
 40
0.722193384744783
 40
0.7877173144012687
 40
0.8557136680026822
 40
0.9260858329442825
 40
1.0
 40
1.0
 40
1.0
 40
1.0
 10
97.96364281961833
 20
194.2378412547268
 30
0.0
 10
97.95076623220537
 20
194.1954807266274
 30
0.0
 10
97.92543546606159
 20
194.1121492819983
 30
0.0
 10
97.87403920708023
 20
193.9939600922705
 30
0.0
 10
97.81756165999953
 20
193.881674754327
 30
0.0
 10
97.75083458766073
 20
193.7777400909148
 30
0.0
 10
97.6776187746045
 20
193.6799440580753
 30
0.0
 10
97.59646355857062
 20
193.589066715426
 30
0.0
 10
97.50559498850264
 20
193.5074010376242
 30
0.0
 10
97.4083906734528
 20
193.4315365881933
 30
0.0
 10
97.30323324599075
 20
193.3648645210827
 30
0.0
 10
97.19123121024592
 20
193.3060010326868
 30
0.0
 10
97.07197445463592
 20
193.2574210811636
 30
0.0
 10
96.94580334071618
 20
193.2169512634204
 30
0.0
 10
96.81242946508188
 20
193.186085121564
 30
0.0
 10
96.67210027195705
 20
193.1647613821618
 30
0.0
 10
96.52500090912793
 20
193.1496543267373
 30
0.0
 10
96.42455420437119
 20
193.1486249752205
 30
0.0
 10
96.37309794782347
 20
193.1480976649832
 30
0.0
  0
LINE
  5
250
330
1F
100
AcDbEntity
  8
0
  6
Continuous
 62
     7
370
    25
100
AcDbLine
 10
97.3356376146
 20
194.3019437661
 30
0.0
 11
97.9636423965
 21
194.237841299
 31
0.0
  0
SPLINE
  5
251
330
1F
100
AcDbEntity
  8
0
  6
Continuous
 62
     7
370
    25
100
AcDbSpline
210
0.0
220
0.0
230
1.0
 70
     8
 71
     3
 72
    15
 73
    11
 74
     0
 42
0.000000001
 43
0.00000001
 40
0.0
 40
0.0
 40
0.0
 40
0.0
 40
0.1370390155820429
 40
0.2654791971992581
 40
0.386757555077705
 40
0.5038673484006002
 40
0.6203204603896448
 40
0.7397674030522734
 40
0.8654537421738997
 40
1.0
 40
1.0
 40
1.0
 40
1.0
 10
96.38311397346449
 20
193.7250207419063
 30
0.0
 10
96.43728957278579
 20
193.7268346293544
 30
0.0
 10
96.54224139657494
 20
193.7303485876348
 30
0.0
 10
96.6936773688571
 20
193.7550015325199
 30
0.0
 10
96.83249224321024
 20
193.7984696213979
 30
0.0
 10
96.95966154688152
 20
193.8588090209064
 30
0.0
 10
97.07497425133577
 20
193.9387937913204
 30
0.0
 10
97.17559426522236
 20
194.0411728198426
 30
0.0
 10
97.26505291464446
 20
194.1625103445251
 30
0.0
 10
97.31158160519936
 20
194.254422904382
 30
0.0
 10
97.33563801192604
 20
194.3019438188293
 30
0.0
  0
SPLINE
  5
252
330
1F
100
AcDbEntity
  8
0
  6
Continuous
 62
     7
370
    25
100
AcDbSpline
210
0.0
220
0.0
230
1.0
 70
     8
 71
     3
 72
    23
 73
    19
 74
     0
 42
0.000000001
 43
0.00000001
 40
0.0
 40
0.0
 40
0.0
 40
0.0
 40
0.0765455721216735
 40
0.1497537367217164
 40
0.2188821459239471
 40
0.2850992357786235
 40
0.3487657214459037
 40
0.410232808933441
 40
0.4708571804914959
 40
0.5303866472297849
 40
0.5895376681109479
 40
0.6468840444272822
 40
0.7042887151122125
 40
0.7613678447253172
 40
0.8184804485645162
 40
0.8769435490068928
 40
0.9372887989248873
 40
1.0
 40
1.0
 40
1.0
 40
1.0
 10
95.2913671785927
 20
194.8788668957524
 30
0.0
 10
95.2950782276681
 20
194.8337221658267
 30
0.0
 10
95.30233852308159
 20
194.7454010283359
 30
0.0
 10
95.32351060552757
 20
194.6175283129848
 30
0.0
 10
95.35208284222288
 20
194.4973541788606
 30
0.0
 10
95.39054444103847
 20
194.3859367695265
 30
0.0
 10
95.43598039587846
 20
194.2820282427366
 30
0.0
 10
95.49213158885232
 20
194.1873377374901
 30
0.0
 10
95.55468879175639
 20
194.0997621601183
 30
0.0
 10
95.62656546095855
 20
194.021436656371
 30
0.0
 10
95.70413432825825
 20
193.9517667645783
 30
0.0
 10
95.78714232080826
 20
193.8906505734309
 30
0.0
 10
95.87544223243776
 20
193.8399595266759
 30
0.0
 10
95.967756661819
 20
193.797344670599
 30
0.0
 10
96.06494826721483
 20
193.7652769375438
 30
0.0
 10
96.16657350068623
 20
193.7423283195405
 30
0.0
 10
96.273199539544
 20
193.7279709497497
 30
0.0
 10
96.3460092025859
 20
193.7260166692124
 30
0.0
 10
96.38311397346449
 20
193.7250207419063
 30
0.0
  0
SPLINE
  5
253
330
1F
100
AcDbEntity
  8
0
  6
Continuous
 62
     7
370
    25
100
AcDbSpline
210
0.0
220
0.0
230
1.0
 70
     8
 71
     3
 72
    23
 73
    19
 74
     0
 42
0.000000001
 43
0.00000001
 40
0.0
 40
0.0
 40
0.0
 40
0.0
 40
0.0641477017115535
 40
0.1255168677521011
 40
0.1851714217149989
 40
0.2434786584710231
 40
0.3012914017245537
 40
0.3586378023420158
 40
0.4170723955701722
 40
0.4763292157361136
 40
0.5365185110665855
 40
0.5965927052949209
 40
0.6577704729947735
 40
0.720728283790172
 40
0.7859862890068753
 40
0.8538118810662145
 40
0.9251340219473971
 40
0.9999999999999999
 40
0.9999999999999999
 40
0.9999999999999999
 40
0.9999999999999999
 10
88.62670371705424
 20
196.9301489470345
 30
0.0
 10
88.68652005242237
 20
196.9284613231663
 30
0.0
 10
88.80356179913336
 20
196.9251591742782
 30
0.0
 10
88.97531427134895
 20
196.9036255624296
 30
0.0
 10
89.13795208055515
 20
196.8636084642763
 30
0.0
 10
89.29356938157699
 20
196.8111619775957
 30
0.0
 10
89.43980976105826
 20
196.7412682202382
 30
0.0
 10
89.57898302772708
 20
196.6579405306104
 30
0.0
 10
89.70768135977885
 20
196.5569540845923
 30
0.0
 10
89.82837134952041
 20
196.4428080279338
 30
0.0
 10
89.93724773058861
 20
196.3151551479338
 30
0.0
 10
90.03210528043056
 20
196.1746226628196
 30
0.0
 10
90.11243606128481
 20
196.0224245542971
 30
0.0
 10
90.17879371039368
 20
195.8584165315423
 30
0.0
 10
90.22968312808564
 20
195.6824839450751
 30
0.0
 10
90.26515434911715
 20
195.4950027677473
 30
0.0
 10
90.28787747228205
 20
195.2964271151009
 30
0.0
 10
90.29018529470262
 20
195.1600477485855
 30
0.0
 10
90.2913671785927
 20
195.0902050367781
 30
0.0
  0
SPLINE
  5
254
330
1F
100
AcDbEntity
  8
0
  6
Continuous
 62
     7
370
    25
100
AcDbSpline
210
0.0
220
0.0
230
1.0
 70
     8
 71
     3
 72
    15
 73
    11
 74
     0
 42
0.000000001
 43
0.00000001
 40
0.0
 40
0.0
 40
0.0
 40
0.0
 40
0.1243018288411359
 40
0.2463355929425992
 40
0.3675992442013793
 40
0.4890977943682845
 40
0.6123713546033683
 40
0.7377661231604525
 40
0.8664314934750693
 40
1.0
 40
1.0
 40
1.0
 40
1.0
 10
87.50791365295167
 20
196.5285063188293
 30
0.0
 10
87.54669836260153
 20
196.5607031917242
 30
0.0
 10
87.62356009937389
 20
196.624509459495
 30
0.0
 10
87.74901273407866
 20
196.7054257597
 30
0.0
 10
87.87962288975706
 20
196.7749467444981
 30
0.0
 10
88.01654468171601
 20
196.8325902582643
 30
0.0
 10
88.1602108405321
 20
196.8766319875381
 30
0.0
 10
88.31017400071858
 20
196.9071989136682
 30
0.0
 10
88.46624248377647
 20
196.9271689969162
 30
0.0
 10
88.57255404998584
 20
196.9291433252809
 30
0.0
 10
88.62670371705424
 20
196.9301489470345
 30
0.0
  0
SPLINE
  5
255
330
1F
100
AcDbEntity
  8
0
  6
Continuous
 62
     7
370
    25
100
AcDbSpline
210
0.0
220
0.0
230
1.0
 70
     8
 71
     3
 72
    15
 73
    11
 74
     0
 42
0.000000001
 43
0.00000001
 40
0.0
 40
0.0
 40
0.0
 40
0.0
 40
0.1487426082759587
 40
0.2878278100648275
 40
0.41954728815246
 40
0.5437610511604992
 40
0.6618315022509784
 40
0.776707164036906
 40
0.8884072034118539
 40
0.9999999999999999
 40
0.9999999999999999
 40
0.9999999999999999
 40
0.9999999999999999
 10
86.95803384525937
 20
195.0391233060088
 30
0.0
 10
86.95982883821699
 20
195.1203160184664
 30
0.0
 10
86.96330228068292
 20
195.2774298467818
 30
0.0
 10
86.98817521789778
 20
195.5054141086233
 30
0.0
 10
87.03081805558101
 20
195.717073345555
 30
0.0
 10
87.09066142918573
 20
195.9126063520745
 30
0.0
 10
87.16805077254048
 20
196.0920747329289
 30
0.0
 10
87.2636555246745
 20
196.2544715625771
 30
0.0
 10
87.37483892590777
 20
196.4027803507896
 30
0.0
 10
87.46356961575634
 20
196.4866110835204
 30
0.0
 10
87.50791365295167
 20
196.5285063188293
 30
0.0
  0
SPLINE
  5
256
330
1F
100
AcDbEntity
  8
0
  6
Continuous
 62
     7
370
    25
100
AcDbSpline
210
0.0
220
0.0
230
1.0
 70
     8
 71
     3
 72
    23
 73
    19
 74
     0
 42
0.000000001
 43
0.00000001
 40
0.0
 40
0.0
 40
0.0
 40
0.0
 40
0.0639176103979518
 40
0.1251046752399046
 40
0.1841696350064145
 40
0.2417582780572405
 40
0.2985851785701391
 40
0.3547858352209454
 40
0.4118386584289739
 40
0.4696576996382555
 40
0.5284175848730135
 40
0.5879734076819855
 40
0.6490124208106296
 40
0.7125417408094494
 40
0.7787635940674051
 40
0.8483368401271862
 40
0.9220710629268882
 40
1.0
 40
1.0
 40
1.0
 40
1.0
 10
88.62670371705424
 20
193.1480976649832
 30
0.0
 10
88.56587564257887
 20
193.149747405552
 30
0.0
 10
88.44681805492299
 20
193.1529764101534
 30
0.0
 10
88.27263643322999
 20
193.1750074659057
 30
0.0
 10
88.10732744310613
 20
193.2127578534508
 30
0.0
 10
87.95138973679822
 20
193.2677706202415
 30
0.0
 10
87.80343350395891
 20
193.3353013973261
 30
0.0
 10
87.66485690600533
 20
193.4196031084504
 30
0.0
 10
87.5353921729918
 20
193.5188388904504
 30
0.0
 10
87.41618267041689
 20
193.6336489499946
 30
0.0
 10
87.30718531002206
 20
193.7614751059622
 30
0.0
 10
87.21414223113543
 20
193.9050620147675
 30
0.0
 10
87.13450872808737
 20
194.0614481161202
 30
0.0
 10
87.0694483003652
 20
194.2313078654191
 30
0.0
 10
87.0197512081624
 20
194.4146463736527
 30
0.0
 10
86.98406258123414
 20
194.6109809877144
 30
0.0
 10
86.9615039106371
 20
194.8205816225628
 30
0.0
 10
86.95921166675261
 20
194.9649451381901
 30
0.0
 10
86.95803384525937
 20
195.0391233060088
 30
0.0
  0
SPLINE
  5
257
330
1F
100
AcDbEntity
  8
0
  6
Continuous
 62
     7
370
    25
100
AcDbSpline
210
0.0
220
0.0
230
1.0
 70
     8
 71
     3
 72
    27
 73
    23
 74
     0
 42
0.000000001
 43
0.00000001
 40
0.0
 40
0.0
 40
0.0
 40
0.0
 40
0.0587034210845287
 40
0.1140528875184732
 40
0.1664790750630435
 40
0.2160909765613038
 40
0.2627522637806152
 40
0.3070008670085996
 40
0.3489468190278308
 40
0.3888075869312488
 40
0.4271377212349378
 40
0.4650598353925374
 40
0.5024883652017258
 40
0.5396484033716487
 40
0.5770083958388943
 40
0.6142741435676264
 40
0.6524031584534686
 40
0.6908326823006944
 40
0.7678884493297378
 40
0.8442066376892785
 40
0.9211323474718147
 40
1.0
 40
1.0
 40
1.0
 40
1.0
 10
90.2913671785927
 20
195.0902050367781
 30
0.0
 10
90.2909218656816
 20
195.0334303463807
 30
0.0
 10
90.29005668231711
 20
194.9231247243548
 30
0.0
 10
90.27959860026552
 20
194.7623999060737
 30
0.0
 10
90.26379484895394
 20
194.6109978669778
 30
0.0
 10
90.24228558320625
 20
194.4687462962168
 30
0.0
 10
90.21331156383779
 20
194.335873277451
 30
0.0
 10
90.17718056954907
 20
194.2124854961343
 30
0.0
 10
90.13527939061439
 20
194.0979165712837
 30
0.0
 10
90.08712158567663
 20
193.9920442186478
 30
0.0
 10
90.03217154457857
 20
193.8940131918822
 30
0.0
 10
89.97230761491954
 20
193.8017105910054
 30
0.0
 10
89.90602494125774
 20
193.7152764474126
 30
0.0
 10
89.83340848922465
 20
193.63485400774
 30
0.0
 10
89.75543816716278
 20
193.5598600131412
 30
0.0
 10
89.67158198264018
 20
193.4900101670518
 30
0.0
 10
89.58168514512006
 20
193.4263100711461
 30
0.0
 10
89.45476873189975
 20
193.348969648338
 30
0.0
 10
89.28725486219558
 20
193.267925272091
 30
0.0
 10
89.07509015825146
 20
193.1984719484516
 30
0.0
 10
88.85374606733582
 20
193.1561405732364
 30
0.0
 10
88.70301079858409
 20
193.1508008208264
 30
0.0
 10
88.62670371705424
 20
193.1480976649832
 30
0.0
  0
SPLINE
  5
258
330
1F
100
AcDbEntity
  8
0
  6
Continuous
 62
     7
370
    25
100
AcDbSpline
210
0.0
220
0.0
230
1.0
 70
     8
 71
     3
 72
    23
 73
    19
 74
     0
 42
0.000000001
 43
0.00000001
 40
0.0
 40
0.0
 40
0.0
 40
0.0
 40
0.0641477017115529
 40
0.1255168677521005
 40
0.1851714217149984
 40
0.2434786584710226
 40
0.3012914017245532
 40
0.3586378023420153
 40
0.4170723955701717
 40
0.4763292157361132
 40
0.536518511066586
 40
0.5965927052949206
 40
0.6577704729947733
 40
0.7207282837901717
 40
0.7859862890068754
 40
0.8538118810662145
 40
0.9251340219473971
 40
0.9999999999999999
 40
0.9999999999999999
 40
0.9999999999999999
 40
0.9999999999999999
 10
69.395934486285
 20
196.9301489470345
 30
0.0
 10
69.45575082165313
 20
196.9284613231663
 30
0.0
 10
69.57279256836412
 20
196.9251591742782
 30
0.0
 10
69.74454504057971
 20
196.9036255624296
 30
0.0
 10
69.90718284978593
 20
196.8636084642762
 30
0.0
 10
70.06280015080775
 20
196.8111619775957
 30
0.0
 10
70.209040530289
 20
196.7412682202382
 30
0.0
 10
70.34821379695784
 20
196.6579405306104
 30
0.0
 10
70.4769121290096
 20
196.5569540845923
 30
0.0
 10
70.59760211875118
 20
196.4428080279338
 30
0.0
 10
70.70647849981938
 20
196.3151551479338
 30
0.0
 10
70.80133604966133
 20
196.1746226628196
 30
0.0
 10
70.88166683051558
 20
196.0224245542971
 30
0.0
 10
70.94802447962445
 20
195.8584165315423
 30
0.0
 10
70.99891389731641
 20
195.6824839450751
 30
0.0
 10
71.03438511834793
 20
195.4950027677473
 30
0.0
 10
71.05710824151281
 20
195.2964271151009
 30
0.0
 10
71.05941606393338
 20
195.1600477485855
 30
0.0
 10
71.06059794782347
 20
195.0902050367781
 30
0.0
  0
SPLINE
  5
259
330
1F
100
AcDbEntity
  8
0
  6
Continuous
 62
     7
370
    25
100
AcDbSpline
210
0.0
220
0.0
230
1.0
 70
     8
 71
     3
 72
    15
 73
    11
 74
     0
 42
0.000000001
 43
0.00000001
 40
0.0
 40
0.0
 40
0.0
 40
0.0
 40
0.1243018288411338
 40
0.2463355929425984
 40
0.36759924420138
 40
0.4890977943682853
 40
0.6123713546033664
 40
0.7377661231604523
 40
0.8664314934750706
 40
1.0
 40
1.0
 40
1.0
 40
1.0
 10
68.27714442218245
 20
196.5285063188293
 30
0.0
 10
68.31592913183232
 20
196.5607031917242
 30
0.0
 10
68.39279086860465
 20
196.624509459495
 30
0.0
 10
68.51824350330944
 20
196.7054257597
 30
0.0
 10
68.64885365898785
 20
196.774946744498
 30
0.0
 10
68.78577545094679
 20
196.8325902582643
 30
0.0
 10
68.92944160976288
 20
196.8766319875381
 30
0.0
 10
69.07940476994933
 20
196.9071989136682
 30
0.0
 10
69.23547325300723
 20
196.9271689969162
 30
0.0
 10
69.34178481921661
 20
196.9291433252809
 30
0.0
 10
69.395934486285
 20
196.9301489470345
 30
0.0
  0
SPLINE
  5
25A
330
1F
100
AcDbEntity
  8
0
  6
Continuous
 62
     7
370
    25
100
AcDbSpline
210
0.0
220
0.0
230
1.0
 70
     8
 71
     3
 72
    15
 73
    11
 74
     0
 42
0.000000001
 43
0.00000001
 40
0.0
 40
0.0
 40
0.0
 40
0.0
 40
0.1487426082759586
 40
0.2878278100648273
 40
0.4195472881524601
 40
0.5437610511604992
 40
0.661831502250978
 40
0.7767071640369054
 40
0.8884072034118532
 40
0.9999999999999999
 40
0.9999999999999999
 40
0.9999999999999999
 40
0.9999999999999999
 10
67.72726461449014
 20
195.0391233060088
 30
0.0
 10
67.72905960744777
 20
195.1203160184664
 30
0.0
 10
67.7325330499137
 20
195.2774298467818
 30
0.0
 10
67.75740598712854
 20
195.5054141086233
 30
0.0
 10
67.80004882481178
 20
195.717073345555
 30
0.0
 10
67.8598921984165
 20
195.9126063520745
 30
0.0
 10
67.93728154177127
 20
196.0920747329289
 30
0.0
 10
68.03288629390528
 20
196.2544715625771
 30
0.0
 10
68.14406969513853
 20
196.4027803507896
 30
0.0
 10
68.2328003849871
 20
196.4866110835204
 30
0.0
 10
68.27714442218245
 20
196.5285063188293
 30
0.0
  0
SPLINE
  5
25B
330
1F
100
AcDbEntity
  8
0
  6
Continuous
 62
     7
370
    25
100
AcDbSpline
210
0.0
220
0.0
230
1.0
 70
     8
 71
     3
 72
    23
 73
    19
 74
     0
 42
0.000000001
 43
0.00000001
 40
0.0
 40
0.0
 40
0.0
 40
0.0
 40
0.0639176103979511
 40
0.1251046752399051
 40
0.1841696350064138
 40
0.2417582780572404
 40
0.2985851785701396
 40
0.3547858352209459
 40
0.4118386584289734
 40
0.4696576996382554
 40
0.5284175848730138
 40
0.5879734076819855
 40
0.6490124208106298
 40
0.7125417408094497
 40
0.7787635940674054
 40
0.8483368401271865
 40
0.9220710629268882
 40
1.0
 40
1.0
 40
1.0
 40
1.0
 10
69.395934486285
 20
193.1480976649832
 30
0.0
 10
69.33510641180963
 20
193.149747405552
 30
0.0
 10
69.21604882415375
 20
193.1529764101534
 30
0.0
 10
69.04186720246076
 20
193.1750074659057
 30
0.0
 10
68.8765582123369
 20
193.2127578534508
 30
0.0
 10
68.720620506029
 20
193.2677706202415
 30
0.0
 10
68.57266427318969
 20
193.3353013973261
 30
0.0
 10
68.4340876752361
 20
193.4196031084504
 30
0.0
 10
68.30462294222258
 20
193.5188388904504
 30
0.0
 10
68.18541343964765
 20
193.6336489499946
 30
0.0
 10
68.07641607925282
 20
193.7614751059622
 30
0.0
 10
67.9833730003662
 20
193.9050620147675
 30
0.0
 10
67.90373949731816
 20
194.0614481161202
 30
0.0
 10
67.83867906959597
 20
194.2313078654191
 30
0.0
 10
67.78898197739318
 20
194.4146463736527
 30
0.0
 10
67.75329335046492
 20
194.6109809877144
 30
0.0
 10
67.73073467986787
 20
194.8205816225628
 30
0.0
 10
67.72844243598337
 20
194.9649451381901
 30
0.0
 10
67.72726461449014
 20
195.0391233060088
 30
0.0
  0
SPLINE
  5
25C
330
1F
100
AcDbEntity
  8
0
  6
Continuous
 62
     7
370
    25
100
AcDbSpline
210
0.0
220
0.0
230
1.0
 70
     8
 71
     3
 72
    27
 73
    23
 74
     0
 42
0.000000001
 43
0.00000001
 40
0.0
 40
0.0
 40
0.0
 40
0.0
 40
0.0587034210845287
 40
0.1140528875184732
 40
0.1664790750630435
 40
0.2160909765613039
 40
0.2627522637806151
 40
0.3070008670085998
 40
0.348946819027831
 40
0.3888075869312485
 40
0.4271377212349377
 40
0.4650598353925374
 40
0.5024883652017258
 40
0.5396484033716491
 40
0.5770083958388943
 40
0.6142741435676269
 40
0.652403158453469
 40
0.6908326823006937
 40
0.7678884493297371
 40
0.8442066376892785
 40
0.9211323474718153
 40
1.0
 40
1.0
 40
1.0
 40
1.0
 10
71.06059794782347
 20
195.0902050367781
 30
0.0
 10
71.06015263491236
 20
195.0334303463807
 30
0.0
 10
71.05928745154787
 20
194.9231247243548
 30
0.0
 10
71.04882936949629
 20
194.7623999060737
 30
0.0
 10
71.0330256181847
 20
194.6109978669778
 30
0.0
 10
71.01151635243701
 20
194.4687462962168
 30
0.0
 10
70.98254233306855
 20
194.335873277451
 30
0.0
 10
70.94641133877984
 20
194.2124854961343
 30
0.0
 10
70.90451015984517
 20
194.0979165712837
 30
0.0
 10
70.8563523549074
 20
193.9920442186478
 30
0.0
 10
70.80140231380933
 20
193.8940131918822
 30
0.0
 10
70.74153838415032
 20
193.8017105910054
 30
0.0
 10
70.67525571048853
 20
193.7152764474126
 30
0.0
 10
70.60263925845541
 20
193.63485400774
 30
0.0
 10
70.52466893639354
 20
193.5598600131412
 30
0.0
 10
70.44081275187095
 20
193.4900101670518
 30
0.0
 10
70.35091591435084
 20
193.4263100711461
 30
0.0
 10
70.2239995011305
 20
193.348969648338
 30
0.0
 10
70.05648563142634
 20
193.267925272091
 30
0.0
 10
69.84432092748222
 20
193.1984719484516
 30
0.0
 10
69.62297683656658
 20
193.1561405732364
 30
0.0
 10
69.47224156781485
 20
193.1508008208264
 30
0.0
 10
69.395934486285
 20
193.1480976649832
 30
0.0
  0
CIRCLE
  5
25D
330
1F
100
AcDbEntity
  8
0
  6
Continuous
 62
     7
370
    25
100
AcDbCircle
 10
61.9777242471
 20
196.284959404
 30
0.0
 40
2.199999999999953
  0
LINE
  5
25E
330
1F
100
AcDbEntity
  8
0
  6
Continuous
 62
     7
370
    25
100
AcDbLine
 10
54.9777243962
 20
187.7849594515
 30
0.0
 11
55.4777235468
 21
187.7849594515
 31
0.0
  0
LINE
  5
25F
330
1F
100
AcDbEntity
  8
0
  6
Continuous
 62
     7
370
    25
100
AcDbLine
 10
109.9777240981
 20
187.7849594515
 30
0.0
 11
109.4777249475
 21
187.7849594515
 31
0.0
  0
LINE
  5
260
330
1F
100
AcDbEntity
  8
0
  6
Continuous
 62
     7
370
    25
100
AcDbLine
 10
109.4777249475
 20
184.784959309
 30
0.0
 11
109.9777240981
 21
184.784959309
 31
0.0
  0
LINE
  5
261
330
1F
100
AcDbEntity
  8
0
  6
Continuous
 62
     7
370
    25
100
AcDbLine
 10
55.4777235468
 20
184.784959309
 30
0.0
 11
54.9777243962
 21
184.784959309
 31
0.0
  0
LINE
  5
262
330
1F
100
AcDbEntity
  8
0
  6
Continuous
 62
     7
370
    25
100
AcDbLine
 10
55.4777235468
 20
184.784959309
 30
0.0
 11
55.4777235468
 21
172.7849589718
 31
0.0
  0
LINE
  5
263
330
1F
100
AcDbEntity
  8
0
  6
Continuous
 62
     7
370
    25
100
AcDbLine
 10
109.4777249475
 20
172.7849589718
 30
0.0
 11
109.4777249475
 21
184.784959309
 31
0.0
  0
SPLINE
  5
264
330
1F
100
AcDbEntity
  8
0
  6
Continuous
 62
     7
370
    25
100
AcDbSpline
210
0.0
220
0.0
230
1.0
 70
     8
 71
     3
 72
    23
 73
    19
 74
     0
 42
0.000000001
 43
0.00000001
 40
0.0
 40
0.0
 40
0.0
 40
0.0
 40
0.0520730706365317
 40
0.1030969878021477
 40
0.1533248789028696
 40
0.2031364558047816
 40
0.2541251273407036
 40
0.3063676631742356
 40
0.3606439130477488
 40
0.4175740610807039
 40
0.4770196261899626
 40
0.5388032833949483
 40
0.6037780001257453
 40
0.672845553091812
 40
0.7464086144934181
 40
0.8256048676010673
 40
0.9096557698808585
 40
1.0
 40
1.0
 40
1.0
 40
1.0
 10
73.32522134525937
 20
193.7250207419063
 30
0.0
 10
73.35698922975307
 20
193.7259949248199
 30
0.0
 10
73.41988494840598
 20
193.7279236630858
 30
0.0
 10
73.51254022885685
 20
193.7429493033868
 30
0.0
 10
73.60088987098685
 20
193.7696531959184
 30
0.0
 10
73.68639636577285
 20
193.8045415570928
 30
0.0
 10
73.76724087815482
 20
193.8515898070979
 30
0.0
 10
73.8463658362685
 20
193.9063892755015
 30
0.0
 10
73.92022918625528
 20
193.9736582651819
 30
0.0
 10
73.9918086899358
 20
194.0493812905828
 30
0.0
 10
74.05713488434564
 20
194.1365909187004
 30
0.0
 10
74.1133405214111
 20
194.2356145364348
 30
0.0
 10
74.16009821539149
 20
194.3457307032279
 30
0.0
 10
74.19933360672148
 20
194.466306235901
 30
0.0
 10
74.22886437019294
 20
194.5985118675073
 30
0.0
 10
74.25069150536491
 20
194.741377414379
 30
0.0
 10
74.26386685472333
 20
194.8956466483937
 30
0.0
 10
74.26509165392817
 20
195.0020372260737
 30
0.0
 10
74.26572615295167
 20
195.0571521521627
 30
0.0
  0
SPLINE
  5
265
330
1F
100
AcDbEntity
  8
0
  6
Continuous
 62
     7
370
    25
100
AcDbSpline
210
0.0
220
0.0
230
1.0
 70
     8
 71
     3
 72
    23
 73
    19
 74
     0
 42
0.000000001
 43
0.00000001
 40
0.0
 40
0.0
 40
0.0
 40
0.0
 40
0.0898396591308336
 40
0.1737594256170709
 40
0.2520477986033082
 40
0.3250797249890084
 40
0.3940285261426973
 40
0.4587797218712625
 40
0.5200132772561472
 40
0.5793225889821005
 40
0.6360612611812568
 40
0.6904748753946767
 40
0.7431364019015924
 40
0.7942140138067404
 40
0.8448776794982404
 40
0.8958552494674082
 40
0.9473930293337514
 40
1.0
 40
1.0
 40
1.0
 40
1.0
 10
72.4067517939773
 20
195.0090752290858
 30
0.0
 10
72.4073698720673
 20
194.9559596304706
 30
0.0
 10
72.4085653006224
 20
194.8532284313993
 30
0.0
 10
72.42197745515752
 20
194.7047102069582
 30
0.0
 10
72.44263293682882
 20
194.5671324468148
 30
0.0
 10
72.47131785560747
 20
194.439971259698
 30
0.0
 10
72.50929888485348
 20
194.3236391121449
 30
0.0
 10
72.55525454165407
 20
194.217777372978
 30
0.0
 10
72.60957193662034
 20
194.1223872410702
 30
0.0
 10
72.67262183392896
 20
194.0383050468213
 30
0.0
 10
72.74249828016569
 20
193.9655359253089
 30
0.0
 10
72.81440339532689
 20
193.9004801156953
 30
0.0
 10
72.890885811179
 20
193.84635733783
 30
0.0
 10
72.97062155190908
 20
193.8016095125014
 30
0.0
 10
73.0543732113402
 20
193.7672134310864
 30
0.0
 10
73.14194132109009
 20
193.7436750594799
 30
0.0
 10
73.23249907005771
 20
193.7277421118315
 30
0.0
 10
73.29410310314799
 20
193.7259340526293
 30
0.0
 10
73.32522134525937
 20
193.7250207419063
 30
0.0
  0
SPLINE
  5
266
330
1F
100
AcDbEntity
  8
0
  6
Continuous
 62
     7
370
    25
100
AcDbSpline
210
0.0
220
0.0
230
1.0
 70
     8
 71
     3
 72
    23
 73
    19
 74
     0
 42
0.000000001
 43
0.00000001
 40
0.0
 40
0.0
 40
0.0
 40
0.0
 40
0.0504308081569358
 40
0.0999261878157981
 40
0.1492639384766987
 40
0.1992292215187099
 40
0.2507647852465429
 40
0.3047339217380034
 40
0.3608876651588514
 40
0.4205717567724551
 40
0.4824250901806333
 40
0.545700635184434
 40
0.6116129610985163
 40
0.6808482728932574
 40
0.7539993198526851
 40
0.8310284661012138
 40
0.912943305858527
 40
1.0
 40
1.0
 40
1.0
 40
1.0
 10
73.35126301192604
 20
196.3532258701114
 30
0.0
 10
73.32047472441683
 20
196.3523605800334
 30
0.0
 10
73.25946923367403
 20
196.3506460499275
 30
0.0
 10
73.16961790492846
 20
196.3339386038391
 30
0.0
 10
73.0827477526379
 20
196.3069055397563
 30
0.0
 10
72.9991232200541
 20
196.2679912419623
 30
0.0
 10
72.91740837882608
 20
196.2196124440507
 30
0.0
 10
72.83812317920112
 20
196.1605833468507
 30
0.0
 10
72.76287365371964
 20
196.0891767601481
 30
0.0
 10
72.68992288674632
 20
196.0088609558107
 30
0.0
 10
72.62284494530553
 20
195.9179684025534
 30
0.0
 10
72.56437851436648
 20
195.8168953500617
 30
0.0
 10
72.51532271091568
 20
195.7060145317399
 30
0.0
 10
72.47539464964397
 20
195.5852138940639
 30
0.0
 10
72.44454789370194
 20
195.4548060046926
 30
0.0
 10
72.42314060064251
 20
195.3147819573843
 30
0.0
 10
72.40828864054404
 20
195.1653095844836
 30
0.0
 10
72.40727436440841
 20
195.0621992404355
 30
0.0
 10
72.4067517939773
 20
195.0090752290858
 30
0.0
  0
SPLINE
  5
267
330
1F
100
AcDbEntity
  8
0
  6
Continuous
 62
     7
370
    25
100
AcDbSpline
210
0.0
220
0.0
230
1.0
 70
     8
 71
     3
 72
    23
 73
    19
 74
     0
 42
0.000000001
 43
0.00000001
 40
0.0
 40
0.0
 40
0.0
 40
0.0
 40
0.0886095954535091
 40
0.1718720463666482
 40
0.2495138800178733
 40
0.3230128266703151
 40
0.3918833412794042
 40
0.4573048562922534
 40
0.5197284321204904
 40
0.5798769477249451
 40
0.6377929643250209
 40
0.6925212605568487
 40
0.7457845253053236
 40
0.7965915594907144
 40
0.847119009147774
 40
0.8976496087970232
 40
0.9480161476247382
 40
0.9999999999999999
 40
0.9999999999999999
 40
0.9999999999999999
 40
0.9999999999999999
 10
74.26572615295167
 20
195.0571521521627
 30
0.0
 10
74.26509552920001
 20
195.1095990967558
 30
0.0
 10
74.26387233667631
 20
195.2113280759568
 30
0.0
 10
74.25054731686134
 20
195.358524948561
 30
0.0
 10
74.2296061570319
 20
195.4957117512509
 30
0.0
 10
74.201286089195
 20
195.6229357768195
 30
0.0
 10
74.16319485831893
 20
195.7400735967638
 30
0.0
 10
74.11596845914326
 20
195.8466726775052
 30
0.0
 10
74.06091813437929
 20
195.9435999895354
 30
0.0
 10
73.99752001546241
 20
196.0298302283594
 30
0.0
 10
73.92869154322939
 20
196.1056816158746
 30
0.0
 10
73.85570306152637
 20
196.1715410658744
 30
0.0
 10
73.78016785281802
 20
196.2277741677755
 30
0.0
 10
73.70065453618352
 20
196.2733322890357
 30
0.0
 10
73.61843293793346
 20
196.3102239755106
 30
0.0
 10
73.53198224793599
 20
196.3346044578033
 30
0.0
 10
73.44266352732984
 20
196.3505378968086
 30
0.0
 10
73.38204912127944
 20
196.3523204896584
 30
0.0
 10
73.35126301192604
 20
196.3532258701114
 30
0.0
  0
SPLINE
  5
268
330
1F
100
AcDbEntity
  8
0
  6
Continuous
 62
     7
370
    25
100
AcDbSpline
210
0.0
220
0.0
230
1.0
 70
     8
 71
     3
 72
    23
 73
    19
 74
     0
 42
0.000000001
 43
0.00000001
 40
0.0
 40
0.0
 40
0.0
 40
0.0
 40
0.0520312445462357
 40
0.1031023768123345
 40
0.1536684966592915
 40
0.2044035125217596
 40
0.2558917048226344
 40
0.3092907484153476
 40
0.3648791671596447
 40
0.422772181067786
 40
0.4832438255673006
 40
0.5459088335737367
 40
0.6112354190573199
 40
0.6799291021232173
 40
0.7527255180689454
 40
0.8299672012434475
 40
0.9126387050865583
 40
1.0
 40
1.0
 40
1.0
 40
1.0
 10
92.55398737090039
 20
193.7250207419063
 30
0.0
 10
92.58545809883357
 20
193.7258309337109
 30
0.0
 10
92.64781883762089
 20
193.7274363671666
 30
0.0
 10
92.73923351256703
 20
193.7449130638128
 30
0.0
 10
92.82839215840177
 20
193.7686780416763
 30
0.0
 10
92.91253784124541
 20
193.8072946875849
 30
0.0
 10
92.99476077457776
 20
193.8531130614999
 30
0.0
 10
93.07280592980241
 20
193.9110079545802
 30
0.0
 10
93.14805403459167
 20
193.9782344462068
 30
0.0
 10
93.21958938964076
 20
194.0554658713297
 30
0.0
 10
93.28456842817042
 20
194.1436936859587
 30
0.0
 10
93.34187967935323
 20
194.2423087372201
 30
0.0
 10
93.38998203611288
 20
194.3511983571775
 30
0.0
 10
93.42862538170071
 20
194.4701556829099
 30
0.0
 10
93.4598173979325
 20
194.5986814600091
 30
0.0
 10
93.48146862103064
 20
194.7376971193388
 30
0.0
 10
93.4945646694451
 20
194.8866241557253
 30
0.0
 10
93.49584008624754
 20
194.9893490194366
 30
0.0
 10
93.4964953837209
 20
195.0421281137012
 30
0.0
  0
SPLINE
  5
269
330
1F
100
AcDbEntity
  8
0
  6
Continuous
 62
     7
370
    25
100
AcDbSpline
210
0.0
220
0.0
230
1.0
 70
     8
 71
     3
 72
    15
 73
    11
 74
     0
 42
0.000000001
 43
0.00000001
 40
0.0
 40
0.0
 40
0.0
 40
0.0
 40
0.1395015132535573
 40
0.2708283920692804
 40
0.3956879475755963
 40
0.516962268619094
 40
0.6350616988110763
 40
0.7532221097800241
 40
0.874852306674727
 40
0.9999999999999999
 40
0.9999999999999999
 40
0.9999999999999999
 40
0.9999999999999999
 10
91.80679185807988
 20
194.1737386906242
 30
0.0
 10
91.8300472691903
 20
194.1381111310329
 30
0.0
 10
91.87519535003226
 20
194.0689437474509
 30
0.0
 10
91.95409397884156
 20
193.9773289323229
 30
0.0
 10
92.03860225508511
 20
193.898866367012
 30
0.0
 10
92.1302810419939
 20
193.8356900136374
 30
0.0
 10
92.22744578769185
 20
193.7856682326702
 30
0.0
 10
92.3309958999601
 20
193.7504188376668
 30
0.0
 10
92.44058429449936
 20
193.7289224546847
 30
0.0
 10
92.51582884119588
 20
193.7263336130177
 30
0.0
 10
92.55398737090039
 20
193.7250207419063
 30
0.0
  0
SPLINE
  5
26A
330
1F
100
AcDbEntity
  8
0
  6
Continuous
 62
     7
370
    25
100
AcDbSpline
210
0.0
220
0.0
230
1.0
 70
     8
 71
     3
 72
    15
 73
    11
 74
     0
 42
0.000000001
 43
0.00000001
 40
0.0
 40
0.0
 40
0.0
 40
0.0
 40
0.1626930956499395
 40
0.3135976891584681
 40
0.4529653465928348
 40
0.581115594983021
 40
0.6997625406570793
 40
0.809241098689188
 40
0.9081691179855393
 40
0.9999999999999999
 40
0.9999999999999999
 40
0.9999999999999999
 40
0.9999999999999999
 10
91.63752102474653
 20
195.0651649726755
 30
0.0
 10
91.63813039140133
 20
195.015407540245
 30
0.0
 10
91.63930497090038
 20
194.9194980256688
 30
0.0
 10
91.64731647660321
 20
194.7811447042688
 30
0.0
 10
91.66014724088366
 20
194.6537910091905
 30
0.0
 10
91.67767058228075
 20
194.5369187053339
 30
0.0
 10
91.70179656554491
 20
194.4305543522892
 30
0.0
 10
91.73035342414472
 20
194.3346555655608
 30
0.0
 10
91.76387041098172
 20
194.2488644563744
 30
0.0
 10
91.7928440277727
 20
194.1981516939879
 30
0.0
 10
91.80679185807988
 20
194.1737386906242
 30
0.0
  0
SPLINE
  5
26B
330
1F
100
AcDbEntity
  8
0
  6
Continuous
 62
     7
370
    25
100
AcDbSpline
210
0.0
220
0.0
230
1.0
 70
     8
 71
     3
 72
    23
 73
    19
 74
     0
 42
0.000000001
 43
0.00000001
 40
0.0
 40
0.0
 40
0.0
 40
0.0
 40
0.0528601371436363
 40
0.1047448667750377
 40
0.1562728284377999
 40
0.2075922981474898
 40
0.2599007318595381
 40
0.3141504580051724
 40
0.3706244375158954
 40
0.429853782130483
 40
0.4908380029059214
 40
0.5535330248463258
 40
0.6188756005135401
 40
0.6870661251939983
 40
0.7588411038139777
 40
0.8345418622345367
 40
0.9146151475731426
 40
1.0
 40
1.0
 40
1.0
 40
1.0
 10
92.58002903756706
 20
196.3532258701114
 30
0.0
 10
92.54856972055659
 20
196.3523797735582
 30
0.0
 10
92.48623159305343
 20
196.3507031931416
 30
0.0
 10
92.39455859639988
 20
196.3337338585713
 30
0.0
 10
92.30606743516323
 20
196.307998646203
 30
0.0
 10
92.22120043491327
 20
196.2712942773522
 30
0.0
 10
92.13928966625834
 20
196.225029461774
 30
0.0
 10
92.06124589056303
 20
196.1672275382446
 30
0.0
 10
91.9855891450704
 20
196.1000129856247
 30
0.0
 10
91.91505068534461
 20
196.0219156532799
 30
0.0
 10
91.84965563104988
 20
195.9348264788807
 30
0.0
 10
91.79211165159693
 20
195.8380059484852
 30
0.0
 10
91.74423077412851
 20
195.7313584432086
 30
0.0
 10
91.70549957867638
 20
195.6154484266802
 30
0.0
 10
91.674275391442
 20
195.4909374010644
 30
0.0
 10
91.65266364623001
 20
195.3572561287799
 30
0.0
 10
91.6393913438806
 20
195.2143416964158
 30
0.0
 10
91.63815766571119
 20
195.1159434797102
 30
0.0
 10
91.63752102474653
 20
195.0651649726755
 30
0.0
  0
SPLINE
  5
26C
330
1F
100
AcDbEntity
  8
0
  6
Continuous
 62
     7
370
    25
100
AcDbSpline
210
0.0
220
0.0
230
1.0
 70
     8
 71
     3
 72
    23
 73
    19
 74
     0
 42
0.000000001
 43
0.00000001
 40
0.0
 40
0.0
 40
0.0
 40
0.0
 40
0.0904316899147514
 40
0.1755649903812629
 40
0.254566061534096
 40
0.3283511910158025
 40
0.3975314146688912
 40
0.4630399507814299
 40
0.5245065926244724
 40
0.583549255602751
 40
0.6404211172771327
 40
0.6945519888794293
 40
0.7461256125266397
 40
0.7968621687958876
 40
0.8471300740068829
 40
0.8971090718915236
 40
0.9480263766618582
 40
0.9999999999999999
 40
0.9999999999999999
 40
0.9999999999999999
 40
0.9999999999999999
 10
93.4964953837209
 20
195.0421281137012
 30
0.0
 10
93.4958618037447
 20
195.0962432989163
 30
0.0
 10
93.49463176522025
 20
195.201303062598
 30
0.0
 10
93.48134055881417
 20
195.3531681492206
 30
0.0
 10
93.46055492168105
 20
195.4940512766328
 30
0.0
 10
93.43211706069977
 20
195.6239435641865
 30
0.0
 10
93.39369744231986
 20
195.7427874283687
 30
0.0
 10
93.34819830400085
 20
195.8511365161185
 30
0.0
 10
93.2940020652434
 20
195.948687340006
 30
0.0
 10
93.23027672396745
 20
196.0339007037246
 30
0.0
 10
93.16109591779683
 20
196.1086415570579
 30
0.0
 10
93.08923222257394
 20
196.1744559840442
 30
0.0
 10
93.01295885936275
 20
196.2290267402425
 30
0.0
 10
92.9336918441146
 20
196.2746604549451
 30
0.0
 10
92.85018672339584
 20
196.3097286300078
 30
0.0
 10
92.76318244929224
 20
196.3349917446817
 30
0.0
 10
92.67272530544334
 20
196.3504063990357
 30
0.0
 10
92.6111385514387
 20
196.3522796359582
 30
0.0
 10
92.58002903756706
 20
196.3532258701114
 30
0.0
  0
SPLINE
  5
26D
330
1F
100
AcDbEntity
  8
0
  6
Continuous
 62
     7
370
    25
100
AcDbSpline
210
0.0
220
0.0
230
1.0
 70
     8
 71
     3
 72
    23
 73
    19
 74
     0
 42
0.000000001
 43
0.00000001
 40
0.0
 40
0.0
 40
0.0
 40
0.0
 40
0.0565334716532599
 40
0.1115461891186873
 40
0.1649244994578316
 40
0.2180491178686376
 40
0.2711684927697424
 40
0.3244501765230123
 40
0.3795236200311756
 40
0.4362538330887337
 40
0.494948409305655
 40
0.5555942458199475
 40
0.6188853651108734
 40
0.6863125331825394
 40
0.756971242577034
 40
0.8328919003057298
 40
0.913932326195405
 40
1.0
 40
1.0
 40
1.0
 40
1.0
 10
88.62670371705424
 20
193.7250207419063
 30
0.0
 10
88.662498868284
 20
193.7258387426161
 30
0.0
 10
88.73312627876919
 20
193.7274527397616
 30
0.0
 10
88.83631940800977
 20
193.7445402346807
 30
0.0
 10
88.9356337958839
 20
193.7690539614171
 30
0.0
 10
89.03024889601384
 20
193.8052253923934
 30
0.0
 10
89.11937748451884
 20
193.8529387917556
 30
0.0
 10
89.20474670968883
 20
193.9093774123229
 30
0.0
 10
89.28462616644606
 20
193.9769456729791
 30
0.0
 10
89.3603930182266
 20
194.0540010253725
 30
0.0
 10
89.4282389234882
 20
194.1426348153688
 30
0.0
 10
89.48909482414484
 20
194.2411285715458
 30
0.0
 10
89.53909523195136
 20
194.3517095828082
 30
0.0
 10
89.5795172017929
 20
194.4726845059083
 30
0.0
 10
89.61178849921302
 20
194.6043109057002
 30
0.0
 10
89.63462382301243
 20
194.7466390474812
 30
0.0
 10
89.64710903851761
 20
194.9000108066071
 30
0.0
 10
89.64924264224261
 20
195.005714914756
 30
0.0
 10
89.65034153756706
 20
195.060156959855
 30
0.0
  0
SPLINE
  5
26E
330
1F
100
AcDbEntity
  8
0
  6
Continuous
 62
     7
370
    25
100
AcDbSpline
210
0.0
220
0.0
230
1.0
 70
     8
 71
     3
 72
    23
 73
    19
 74
     0
 42
0.000000001
 43
0.00000001
 40
0.0
 40
0.0
 40
0.0
 40
0.0
 40
0.0850805643681266
 40
0.1645740274356304
 40
0.2394562421462068
 40
0.3095812404952178
 40
0.3759754663593712
 40
0.4392299600823422
 40
0.5000273994823393
 40
0.5587159943831703
 40
0.6158460447093388
 40
0.6709678993885629
 40
0.7250681481271363
 40
0.7787885022866791
 40
0.8322875455617057
 40
0.8866897999599798
 40
0.9425371576291861
 40
1.0
 40
1.0
 40
1.0
 40
1.0
 10
87.599059486285
 20
195.041126511137
 30
0.0
 10
87.60014735163654
 20
194.9876852861298
 30
0.0
 10
87.60225164400391
 20
194.884312233825
 30
0.0
 10
87.61481019594885
 20
194.7342699910047
 30
0.0
 10
87.63775235695886
 20
194.5949738825581
 30
0.0
 10
87.6696701785794
 20
194.4659178384413
 30
0.0
 10
87.71060854857532
 20
194.3470835587896
 30
0.0
 10
87.76078309385173
 20
194.2382698505307
 30
0.0
 10
87.81964641991836
 20
194.1393844711349
 30
0.0
 10
87.88847580831252
 20
194.0520394786058
 30
0.0
 10
87.96338563901169
 20
193.9748362010753
 30
0.0
 10
88.0441821260918
 20
193.9082422559435
 30
0.0
 10
88.12974163402362
 20
193.8516956999097
 30
0.0
 10
88.22020957418171
 20
193.8055892725176
 30
0.0
 10
88.315176266555
 20
193.7691610512569
 30
0.0
 10
88.41484833136775
 20
193.7429320697894
 30
0.0
 10
88.5194025253969
 20
193.7278713213817
 30
0.0
 10
88.59059830266703
 20
193.7259799237347
 30
0.0
 10
88.62670371705424
 20
193.7250207419063
 30
0.0
  0
SPLINE
  5
26F
330
1F
100
AcDbEntity
  8
0
  6
Continuous
 62
     7
370
    25
100
AcDbSpline
210
0.0
220
0.0
230
1.0
 70
     8
 71
     3
 72
    23
 73
    19
 74
     0
 42
0.000000001
 43
0.00000001
 40
0.0
 40
0.0
 40
0.0
 40
0.0
 40
0.0575604314582185
 40
0.1135026346387856
 40
0.1679972803309889
 40
0.2213990852369851
 40
0.2752106726199672
 40
0.3294027997565618
 40
0.3849585939278379
 40
0.4418055001615168
 40
0.5005937658440408
 40
0.5610389659958619
 40
0.6239181501904913
 40
0.6904251333016532
 40
0.7606692248648316
 40
0.8356786119653374
 40
0.9153070787012176
 40
1.0
 40
1.0
 40
1.0
 40
1.0
 10
88.62670371705424
 20
196.3532258701114
 30
0.0
 10
88.59060136990128
 20
196.3522587243081
 30
0.0
 10
88.51941164086878
 20
196.3503516226068
 30
0.0
 10
88.4148134413424
 20
196.3354051330554
 30
0.0
 10
88.31541667203166
 20
196.3087882039235
 30
0.0
 10
88.219966058362
 20
196.2739482012599
 30
0.0
 10
88.12983214675538
 20
196.227398597828
 30
0.0
 10
88.04377713566463
 20
196.1711624808795
 30
0.0
 10
87.96409158001777
 20
196.1033069307611
 30
0.0
 10
87.8880485468844
 20
196.0272975960044
 30
0.0
 10
87.82000881485797
 20
195.9399427344035
 30
0.0
 10
87.7607448513445
 20
195.8420511280997
 30
0.0
 10
87.7104089512391
 20
195.7339174134316
 30
0.0
 10
87.66969946824501
 20
195.6153230504862
 30
0.0
 10
87.6377438747892
 20
195.4862806326994
 30
0.0
 10
87.6148121269086
 20
195.3469805321808
 30
0.0
 10
87.6022812236298
 20
195.1972722669874
 30
0.0
 10
87.60015523997127
 20
195.0942336608698
 30
0.0
 10
87.599059486285
 20
195.041126511137
 30
0.0
  0
SPLINE
  5
270
330
1F
100
AcDbEntity
  8
0
  6
Continuous
 62
     7
370
    25
100
AcDbSpline
210
0.0
220
0.0
230
1.0
 70
     8
 71
     3
 72
    23
 73
    19
 74
     0
 42
0.000000001
 43
0.00000001
 40
0.0
 40
0.0
 40
0.0
 40
0.0
 40
0.0831190838675813
 40
0.1616530821883124
 40
0.2355282022390575
 40
0.3051339847929444
 40
0.3711786242395463
 40
0.4344025392142949
 40
0.49547247919513
 40
0.5553733011932166
 40
0.6133585367026423
 40
0.6696503505355256
 40
0.7245604310678335
 40
0.7781264908013855
 40
0.832426366368108
 40
0.8866001532712131
 40
0.9422158583354209
 40
1.0
 40
1.0
 40
1.0
 40
1.0
 10
89.65034153756706
 20
195.060156959855
 30
0.0
 10
89.64923337971759
 20
195.1115933046041
 30
0.0
 10
89.64707819316376
 20
195.2116286187376
 30
0.0
 10
89.63466021275329
 20
195.3570368647023
 30
0.0
 10
89.61142317585177
 20
195.4925827278684
 30
0.0
 10
89.58012611764957
 20
195.6186482632633
 30
0.0
 10
89.53722560679071
 20
195.7341953914388
 30
0.0
 10
89.48793142046863
 20
195.8414146551021
 30
0.0
 10
89.42707539645363
 20
195.9381795246424
 30
0.0
 10
89.35803494114087
 20
196.0250358046969
 30
0.0
 10
89.28268018113529
 20
196.10233224396
 30
0.0
 10
89.20259935956412
 20
196.1701678021343
 30
0.0
 10
89.11695828704056
 20
196.2258766410741
 30
0.0
 10
89.02782016459952
 20
196.2732384246652
 30
0.0
 10
88.93374133876809
 20
196.3086265698025
 30
0.0
 10
88.83561087395665
 20
196.3353953365018
 30
0.0
 10
88.73267269293225
 20
196.3504061278068
 30
0.0
 10
88.66247415546765
 20
196.3522740498488
 30
0.0
 10
88.62670371705424
 20
196.3532258701114
 30
0.0
  0
SPLINE
  5
271
330
1F
100
AcDbEntity
  8
0
  6
Continuous
 62
     7
370
    25
100
AcDbSpline
210
0.0
220
0.0
230
1.0
 70
     8
 71
     3
 72
    23
 73
    19
 74
     0
 42
0.000000001
 43
0.00000001
 40
0.0
 40
0.0
 40
0.0
 40
0.0
 40
0.056533471653259
 40
0.1115461891186882
 40
0.1649244994578307
 40
0.2180491178686376
 40
0.2711684927697433
 40
0.3244501765230116
 40
0.3795236200311748
 40
0.4362538330887329
 40
0.4949484093056554
 40
0.555594245819948
 40
0.6188853651108732
 40
0.6863125331825397
 40
0.7569712425770339
 40
0.8328919003057299
 40
0.913932326195405
 40
1.0
 40
1.0
 40
1.0
 40
1.0
 10
69.395934486285
 20
193.7250207419063
 30
0.0
 10
69.43172963751478
 20
193.7258387426161
 30
0.0
 10
69.50235704799996
 20
193.7274527397616
 30
0.0
 10
69.60555017724054
 20
193.7445402346807
 30
0.0
 10
69.70486456511468
 20
193.7690539614171
 30
0.0
 10
69.7994796652446
 20
193.8052253923934
 30
0.0
 10
69.8886082537496
 20
193.8529387917556
 30
0.0
 10
69.97397747891961
 20
193.9093774123229
 30
0.0
 10
70.05385693567682
 20
193.9769456729791
 30
0.0
 10
70.12962378745736
 20
194.0540010253725
 30
0.0
 10
70.19746969271898
 20
194.1426348153688
 30
0.0
 10
70.2583255933756
 20
194.2411285715458
 30
0.0
 10
70.30832600118214
 20
194.3517095828082
 30
0.0
 10
70.34874797102367
 20
194.4726845059083
 30
0.0
 10
70.38101926844377
 20
194.6043109057002
 30
0.0
 10
70.4038545922432
 20
194.7466390474812
 30
0.0
 10
70.41633980774837
 20
194.9000108066071
 30
0.0
 10
70.41847341147337
 20
195.005714914756
 30
0.0
 10
70.41957230679782
 20
195.060156959855
 30
0.0
  0
SPLINE
  5
272
330
1F
100
AcDbEntity
  8
0
  6
Continuous
 62
     7
370
    25
100
AcDbSpline
210
0.0
220
0.0
230
1.0
 70
     8
 71
     3
 72
    23
 73
    19
 74
     0
 42
0.000000001
 43
0.00000001
 40
0.0
 40
0.0
 40
0.0
 40
0.0
 40
0.0850805643681265
 40
0.1645740274356302
 40
0.2394562421462067
 40
0.3095812404952175
 40
0.3759754663593708
 40
0.4392299600823418
 40
0.5000273994823389
 40
0.5587159943831709
 40
0.6158460447093381
 40
0.6709678993885622
 40
0.7250681481271355
 40
0.7787885022866782
 40
0.8322875455617057
 40
0.8866897999599807
 40
0.9425371576291852
 40
1.0
 40
1.0
 40
1.0
 40
1.0
 10
68.36829025551577
 20
195.041126511137
 30
0.0
 10
68.36937812086731
 20
194.9876852861298
 30
0.0
 10
68.37148241323467
 20
194.884312233825
 30
0.0
 10
68.38404096517961
 20
194.7342699910047
 30
0.0
 10
68.40698312618962
 20
194.5949738825581
 30
0.0
 10
68.43890094781015
 20
194.4659178384413
 30
0.0
 10
68.47983931780608
 20
194.3470835587896
 30
0.0
 10
68.5300138630825
 20
194.2382698505307
 30
0.0
 10
68.58887718914912
 20
194.1393844711349
 30
0.0
 10
68.6577065775433
 20
194.0520394786058
 30
0.0
 10
68.73261640824246
 20
193.9748362010753
 30
0.0
 10
68.81341289532257
 20
193.9082422559435
 30
0.0
 10
68.89897240325439
 20
193.8516956999097
 30
0.0
 10
68.98944034341248
 20
193.8055892725176
 30
0.0
 10
69.08440703578576
 20
193.7691610512569
 30
0.0
 10
69.18407910059852
 20
193.7429320697894
 30
0.0
 10
69.28863329462767
 20
193.7278713213817
 30
0.0
 10
69.3598290718978
 20
193.7259799237347
 30
0.0
 10
69.395934486285
 20
193.7250207419063
 30
0.0
  0
SPLINE
  5
273
330
1F
100
AcDbEntity
  8
0
  6
Continuous
 62
     7
370
    25
100
AcDbSpline
210
0.0
220
0.0
230
1.0
 70
     8
 71
     3
 72
    23
 73
    19
 74
     0
 42
0.000000001
 43
0.00000001
 40
0.0
 40
0.0
 40
0.0
 40
0.0
 40
0.0575604314582194
 40
0.1135026346387846
 40
0.1679972803309888
 40
0.2213990852369858
 40
0.275210672619968
 40
0.3294027997565624
 40
0.3849585939278384
 40
0.441805500161516
 40
0.5005937658440411
 40
0.5610389659958622
 40
0.6239181501904917
 40
0.6904251333016534
 40
0.7606692248648315
 40
0.8356786119653377
 40
0.9153070787012176
 40
0.9999999999999999
 40
0.9999999999999999
 40
0.9999999999999999
 40
0.9999999999999999
 10
69.395934486285
 20
196.3532258701114
 30
0.0
 10
69.35983213913205
 20
196.3522587243081
 30
0.0
 10
69.28864241009956
 20
196.3503516226068
 30
0.0
 10
69.18404421057318
 20
196.3354051330554
 30
0.0
 10
69.08464744126245
 20
196.3087882039235
 30
0.0
 10
68.98919682759276
 20
196.2739482012599
 30
0.0
 10
68.89906291598615
 20
196.227398597828
 30
0.0
 10
68.81300790489539
 20
196.1711624808795
 30
0.0
 10
68.73332234924854
 20
196.1033069307611
 30
0.0
 10
68.65727931611518
 20
196.0272975960044
 30
0.0
 10
68.58923958408874
 20
195.9399427344035
 30
0.0
 10
68.52997562057526
 20
195.8420511280997
 30
0.0
 10
68.47963972046989
 20
195.7339174134316
 30
0.0
 10
68.43893023747579
 20
195.6153230504862
 30
0.0
 10
68.40697464401995
 20
195.4862806326994
 30
0.0
 10
68.38404289613938
 20
195.3469805321808
 30
0.0
 10
68.37151199286056
 20
195.1972722669874
 30
0.0
 10
68.36938600920206
 20
195.0942336608698
 30
0.0
 10
68.36829025551577
 20
195.041126511137
 30
0.0
  0
SPLINE
  5
274
330
1F
100
AcDbEntity
  8
0
  6
Continuous
 62
     7
370
    25
100
AcDbSpline
210
0.0
220
0.0
230
1.0
 70
     8
 71
     3
 72
    23
 73
    19
 74
     0
 42
0.000000001
 43
0.00000001
 40
0.0
 40
0.0
 40
0.0
 40
0.0
 40
0.0831190838675814
 40
0.1616530821883123
 40
0.2355282022390578
 40
0.3051339847929442
 40
0.3711786242395467
 40
0.4344025392142954
 40
0.4954724791951306
 40
0.555373301193216
 40
0.6133585367026424
 40
0.6696503505355257
 40
0.7245604310678336
 40
0.7781264908013865
 40
0.832426366368108
 40
0.886600153271214
 40
0.9422158583354218
 40
1.0
 40
1.0
 40
1.0
 40
1.0
 10
70.41957230679782
 20
195.060156959855
 30
0.0
 10
70.41846414894836
 20
195.1115933046041
 30
0.0
 10
70.41630896239454
 20
195.2116286187376
 30
0.0
 10
70.40389098198406
 20
195.3570368647023
 30
0.0
 10
70.38065394508254
 20
195.4925827278684
 30
0.0
 10
70.34935688688033
 20
195.6186482632633
 30
0.0
 10
70.30645637602149
 20
195.7341953914388
 30
0.0
 10
70.25716218969939
 20
195.8414146551021
 30
0.0
 10
70.19630616568439
 20
195.9381795246424
 30
0.0
 10
70.12726571037165
 20
196.0250358046969
 30
0.0
 10
70.05191095036606
 20
196.10233224396
 30
0.0
 10
69.97183012879489
 20
196.1701678021343
 30
0.0
 10
69.88618905627132
 20
196.2258766410741
 30
0.0
 10
69.79705093383029
 20
196.2732384246652
 30
0.0
 10
69.70297210799886
 20
196.3086265698025
 30
0.0
 10
69.60484164318743
 20
196.3353953365018
 30
0.0
 10
69.50190346216301
 20
196.3504061278068
 30
0.0
 10
69.43170492469841
 20
196.3522740498488
 30
0.0
 10
69.395934486285
 20
196.3532258701114
 30
0.0
  0
CIRCLE
  5
275
330
1F
100
AcDbEntity
  8
0
  6
Continuous
 62
     7
370
    25
100
AcDbCircle
 10
61.9777242471
 20
196.284959404
 30
0.0
 40
1.70000000000001
  0
LINE
  5
276
330
1F
100
AcDbEntity
  8
0
  6
Continuous
 62
     7
370
    25
100
AcDbLine
 10
109.5777247776
 20
200.7849598361
 30
0.0
 11
109.5777247776
 21
187.7849594515
 31
0.0
  0
LINE
  5
277
330
1F
100
AcDbEntity
  8
0
  6
Continuous
 62
     7
370
    25
100
AcDbLine
 10
55.3777237167
 20
187.7849594515
 30
0.0
 11
55.3777237167
 21
200.7849598361
 31
0.0
  0
LINE
  5
278
330
1F
100
AcDbEntity
  8
0
  6
Continuous
 62
     8
370
    25
100
AcDbLine
 10
109.5777247776
 20
184.784959309
 30
0.0
 11
109.5777247776
 21
172.7849589718
 31
0.0
  0
LINE
  5
279
330
1F
100
AcDbEntity
  8
0
  6
Continuous
 62
     8
370
    25
100
AcDbLine
 10
55.3777237167
 20
172.7849589718
 30
0.0
 11
55.3777237167
 21
184.784959309
 31
0.0
  0
DIMENSION
  5
27A
330
1F
100
AcDbEntity
  8
0
  6
Continuous
 62
     7
370
    18
100
AcDbDimension
  2
_D
 10
112.9777242471
 20
160.284959404
 30
0.0
 11
82.6919258942
 21
160.284959404
 31
0.0
 70
   160
  1
<>
 71
     2
 42
-1.0
  3
SLDDIMSTYLE0
100
AcDbAlignedDimension
 13
51.9777242471
 23
170.284959404
 33
0.0
 14
112.9777242471
 24
170.284959404
 34
0.0
 50
0.0
100
AcDbRotatedDimension
  0
DIMENSION
  5
286
330
1F
100
AcDbEntity
  8
0
  6
Continuous
 62
     7
370
    18
100
AcDbDimension
  2
_D_1
 10
44.1391759156
 20
170.284959404
 30
0.0
 11
44.1391759156
 21
187.6021790477
 31
0.0
 70
   160
  1
<>
 71
     2
 42
-1.0
  3
SLDDIMSTYLE0
100
AcDbAlignedDimension
 13
52.2657108842
 23
203.284959404
 33
0.0
 14
51.9777242471
 24
170.284959404
 34
0.0
 50
90.0
100
AcDbRotatedDimension
  0
LINE
  5
290
330
1F
100
AcDbEntity
  8
0
  6
Continuous
 62
     7
370
    25
100
AcDbLine
 10
155.2443497462
 20
170.2151438279
 30
0.0
 11
163.2443501262
 21
170.2849594934
 31
0.0
  0
LINE
  5
291
330
1F
100
AcDbEntity
  8
0
  6
Continuous
 62
     7
370
    25
100
AcDbLine
 10
163.2443501262
 20
170.2849594934
 30
0.0
 11
163.2453578172
 21
170.1694941206
 31
0.0
  0
LINE
  5
292
330
1F
100
AcDbEntity
  8
0
  6
Continuous
 62
     7
370
    25
100
AcDbLine
 10
155.2443497462
 20
170.0996691419
 30
0.0
 11
163.2453578172
 21
170.1694941206
 31
0.0
  0
LINE
  5
293
330
1F
100
AcDbEntity
  8
0
  6
Continuous
 62
     7
370
    25
100
AcDbLine
 10
155.2443497462
 20
170.0996691419
 30
0.0
 11
155.2443497462
 21
170.2151438279
 31
0.0
  0
LINE
  5
294
330
1F
100
AcDbEntity
  8
0
  6
Continuous
 62
     7
370
    25
100
AcDbLine
 10
154.1943497836
 20
201.3083407713
 30
0.0
 11
155.2443497462
 21
201.3083407713
 31
0.0
  0
LINE
  5
295
330
1F
100
AcDbEntity
  8
0
  6
Continuous
 62
     7
370
    25
100
AcDbLine
 10
154.1943497836
 20
170.3083412779
 30
0.0
 11
155.2443497462
 21
170.3083412779
 31
0.0
  0
LINE
  5
296
330
1F
100
AcDbEntity
  8
0
  6
Continuous
 62
     7
370
    25
100
AcDbLine
 10
154.1943497836
 20
171.4642364589
 30
0.0
 11
154.2043497433
 21
171.4642364589
 31
0.0
  0
LINE
  5
297
330
1F
100
AcDbEntity
  8
0
  6
Continuous
 62
     7
370
    25
100
AcDbLine
 10
154.2043497433
 20
171.7968648357
 30
0.0
 11
154.1943497836
 21
171.7968648357
 31
0.0
  0
LINE
  5
298
330
1F
100
AcDbEntity
  8
0
  6
Continuous
 62
     7
370
    25
100
AcDbLine
 10
154.1943497836
 20
171.7968648357
 30
0.0
 11
154.1943497836
 21
172.4785436002
 31
0.0
  0
LINE
  5
299
330
1F
100
AcDbEntity
  8
0
  6
Continuous
 62
     7
370
    25
100
AcDbLine
 10
154.1943497836
 20
172.4785436002
 30
0.0
 11
154.2043497433
 21
172.4785436002
 31
0.0
  0
LINE
  5
29A
330
1F
100
AcDbEntity
  8
0
  6
Continuous
 62
     7
370
    25
100
AcDbLine
 10
154.2043497433
 20
173.0216341151
 30
0.0
 11
154.1943497836
 21
173.0216341151
 31
0.0
  0
LINE
  5
29B
330
1F
100
AcDbEntity
  8
0
  6
Continuous
 62
     7
370
    25
100
AcDbLine
 10
154.1943497836
 20
173.0216341151
 30
0.0
 11
154.1943497836
 21
173.4647043107
 31
0.0
  0
LINE
  5
29C
330
1F
100
AcDbEntity
  8
0
  6
Continuous
 62
     7
370
    25
100
AcDbLine
 10
154.1943497836
 20
173.4647043107
 30
0.0
 11
154.2043497433
 21
173.4647043107
 31
0.0
  0
LINE
  5
29D
330
1F
100
AcDbEntity
  8
0
  6
Continuous
 62
     7
370
    25
100
AcDbLine
 10
154.2043497433
 20
173.8588139472
 30
0.0
 11
154.1943497836
 21
173.8588139472
 31
0.0
  0
LINE
  5
29E
330
1F
100
AcDbEntity
  8
0
  6
Continuous
 62
     7
370
    25
100
AcDbLine
 10
154.1943497836
 20
184.4642364943
 30
0.0
 11
154.2043497433
 21
184.4642364943
 31
0.0
  0
LINE
  5
29F
330
1F
100
AcDbEntity
  8
0
  6
Continuous
 62
     7
370
    25
100
AcDbLine
 10
154.2043497433
 20
184.4642364943
 30
0.0
 11
154.2043497433
 21
184.7968644055
 31
0.0
  0
LINE
  5
2A0
330
1F
100
AcDbEntity
  8
0
  6
Continuous
 62
     7
370
    25
100
AcDbLine
 10
154.2043497433
 20
184.7968644055
 30
0.0
 11
154.1943497836
 21
184.7968644055
 31
0.0
  0
LINE
  5
2A1
330
1F
100
AcDbEntity
  8
0
  6
Continuous
 62
     7
370
    25
100
AcDbLine
 10
154.1943497836
 20
184.7968644055
 30
0.0
 11
154.1943497836
 21
185.4785438685
 31
0.0
  0
LINE
  5
2A2
330
1F
100
AcDbEntity
  8
0
  6
Continuous
 62
     7
370
    25
100
AcDbLine
 10
154.1943497836
 20
185.4785438685
 30
0.0
 11
154.2043497433
 21
185.4785438685
 31
0.0
  0
LINE
  5
2A3
330
1F
100
AcDbEntity
  8
0
  6
Continuous
 62
     7
370
    25
100
AcDbLine
 10
154.2043497433
 20
185.4785438685
 30
0.0
 11
154.2043497433
 21
186.0216339176
 31
0.0
  0
LINE
  5
2A4
330
1F
100
AcDbEntity
  8
0
  6
Continuous
 62
     7
370
    25
100
AcDbLine
 10
154.2043497433
 20
186.0216339176
 30
0.0
 11
154.1943497836
 21
186.0216339176
 31
0.0
  0
LINE
  5
2A5
330
1F
100
AcDbEntity
  8
0
  6
Continuous
 62
     7
370
    25
100
AcDbLine
 10
154.1943497836
 20
186.0216339176
 30
0.0
 11
154.1943497836
 21
186.4647042879
 31
0.0
  0
LINE
  5
2A6
330
1F
100
AcDbEntity
  8
0
  6
Continuous
 62
     7
370
    25
100
AcDbLine
 10
154.1943497836
 20
186.4647042879
 30
0.0
 11
154.2043497433
 21
186.4647042879
 31
0.0
  0
LINE
  5
2A7
330
1F
100
AcDbEntity
  8
0
  6
Continuous
 62
     7
370
    25
100
AcDbLine
 10
154.2043497433
 20
186.4647042879
 30
0.0
 11
154.2043497433
 21
186.8588135534
 31
0.0
  0
LINE
  5
2A8
330
1F
100
AcDbEntity
  8
0
  6
Continuous
 62
     7
370
    25
100
AcDbLine
 10
154.2043497433
 20
186.8588135534
 30
0.0
 11
154.1943497836
 21
186.8588135534
 31
0.0
  0
LINE
  5
2A9
330
1F
100
AcDbEntity
  8
0
  6
Continuous
 62
     7
370
    25
100
AcDbLine
 10
154.1943497836
 20
197.4642360641
 30
0.0
 11
154.2043497433
 21
197.4642360641
 31
0.0
  0
LINE
  5
2AA
330
1F
100
AcDbEntity
  8
0
  6
Continuous
 62
     7
370
    25
100
AcDbLine
 10
154.2043497433
 20
197.4642360641
 30
0.0
 11
154.2043497433
 21
197.7968644408
 31
0.0
  0
LINE
  5
2AB
330
1F
100
AcDbEntity
  8
0
  6
Continuous
 62
     7
370
    25
100
AcDbLine
 10
154.2043497433
 20
197.7968644408
 30
0.0
 11
154.1943497836
 21
197.7968644408
 31
0.0
  0
LINE
  5
2AC
330
1F
100
AcDbEntity
  8
0
  6
Continuous
 62
     7
370
    25
100
AcDbLine
 10
154.1943497836
 20
197.7968644408
 30
0.0
 11
154.1943497836
 21
198.4785441367
 31
0.0
  0
LINE
  5
2AD
330
1F
100
AcDbEntity
  8
0
  6
Continuous
 62
     7
370
    25
100
AcDbLine
 10
154.1943497836
 20
198.4785441367
 30
0.0
 11
154.2043497433
 21
198.4785441367
 31
0.0
  0
LINE
  5
2AE
330
1F
100
AcDbEntity
  8
0
  6
Continuous
 62
     7
370
    25
100
AcDbLine
 10
154.2043497433
 20
198.4785441367
 30
0.0
 11
154.2043497433
 21
199.0216337202
 31
0.0
  0
LINE
  5
2AF
330
1F
100
AcDbEntity
  8
0
  6
Continuous
 62
     7
370
    25
100
AcDbLine
 10
154.2043497433
 20
199.0216337202
 30
0.0
 11
154.1943497836
 21
199.0216337202
 31
0.0
  0
LINE
  5
2B0
330
1F
100
AcDbEntity
  8
0
  6
Continuous
 62
     7
370
    25
100
AcDbLine
 10
154.1943497836
 20
199.0216337202
 30
0.0
 11
154.1943497836
 21
199.4647039158
 31
0.0
  0
LINE
  5
2B1
330
1F
100
AcDbEntity
  8
0
  6
Continuous
 62
     7
370
    25
100
AcDbLine
 10
154.1943497836
 20
199.4647039158
 30
0.0
 11
154.2043497433
 21
199.4647039158
 31
0.0
  0
LINE
  5
2B2
330
1F
100
AcDbEntity
  8
0
  6
Continuous
 62
     7
370
    25
100
AcDbLine
 10
154.2043497433
 20
199.4647039158
 30
0.0
 11
154.2043497433
 21
199.8588135524
 31
0.0
  0
LINE
  5
2B3
330
1F
100
AcDbEntity
  8
0
  6
Continuous
 62
     7
370
    25
100
AcDbLine
 10
154.2043497433
 20
199.8588135524
 30
0.0
 11
154.1943497836
 21
199.8588135524
 31
0.0
  0
LINE
  5
2B4
330
1F
100
AcDbEntity
  8
0
  6
Continuous
 62
     7
370
    25
100
AcDbLine
 10
154.1943497836
 20
186.8588135534
 30
0.0
 11
154.1943497836
 21
197.4642360641
 31
0.0
  0
LINE
  5
2B5
330
1F
100
AcDbEntity
  8
0
  6
Continuous
 62
     7
370
    25
100
AcDbLine
 10
154.1943497836
 20
173.8588139472
 30
0.0
 11
154.1943497836
 21
184.4642364943
 31
0.0
  0
LINE
  5
2B6
330
1F
100
AcDbEntity
  8
0
  6
Continuous
 62
     7
370
    25
100
AcDbLine
 10
154.1943497836
 20
170.3083412779
 30
0.0
 11
154.1943497836
 21
171.4642364589
 31
0.0
  0
LINE
  5
2B7
330
1F
100
AcDbEntity
  8
0
  6
Continuous
 62
     7
370
    25
100
AcDbLine
 10
154.1943497836
 20
199.8588135524
 30
0.0
 11
154.1943497836
 21
201.3083407713
 31
0.0
  0
LINE
  5
2B8
330
1F
100
AcDbEntity
  8
0
  6
Continuous
 62
     7
370
    25
100
AcDbLine
 10
154.2043497433
 20
173.4647043107
 30
0.0
 11
154.2043497433
 21
173.8588139472
 31
0.0
  0
LINE
  5
2B9
330
1F
100
AcDbEntity
  8
0
  6
Continuous
 62
     7
370
    25
100
AcDbLine
 10
154.2043497433
 20
172.4785436002
 30
0.0
 11
154.2043497433
 21
173.0216341151
 31
0.0
  0
LINE
  5
2BA
330
1F
100
AcDbEntity
  8
0
  6
Continuous
 62
     7
370
    25
100
AcDbLine
 10
154.2043497433
 20
171.4642364589
 30
0.0
 11
154.2043497433
 21
171.7968648357
 31
0.0
  0
LINE
  5
2BB
330
1F
100
AcDbEntity
  8
0
  6
Continuous
 62
     7
370
    25
100
AcDbLine
 10
154.2043497433
 20
171.7194002179
 30
0.0
 11
154.1943497836
 21
171.7194002179
 31
0.0
  0
LINE
  5
2BC
330
1F
100
AcDbEntity
  8
0
  6
Continuous
 62
     7
370
    25
100
AcDbLine
 10
154.2043497433
 20
184.7194004862
 30
0.0
 11
154.1943497836
 21
184.7194004862
 31
0.0
  0
LINE
  5
2BD
330
1F
100
AcDbEntity
  8
0
  6
Continuous
 62
     7
370
    25
100
AcDbLine
 10
154.2043497433
 20
197.7194007544
 30
0.0
 11
154.1943497836
 21
197.7194007544
 31
0.0
  0
LINE
  5
2BE
330
1F
100
AcDbEntity
  8
0
  6
Continuous
 62
     7
370
    25
100
AcDbLine
 10
154.2043497433
 20
199.6304579137
 30
0.0
 11
154.1943497836
 21
199.6304579137
 31
0.0
  0
LINE
  5
2BF
330
1F
100
AcDbEntity
  8
0
  6
Continuous
 62
     7
370
    25
100
AcDbLine
 10
154.2043497433
 20
173.6304583086
 30
0.0
 11
154.1943497836
 21
173.6304583086
 31
0.0
  0
LINE
  5
2C0
330
1F
100
AcDbEntity
  8
0
  6
Continuous
 62
     7
370
    25
100
AcDbLine
 10
154.2043497433
 20
186.6304581984
 30
0.0
 11
154.1943497836
 21
186.6304581984
 31
0.0
  0
LINE
  5
2C1
330
1F
100
AcDbEntity
  8
0
  6
Continuous
 62
     7
370
    25
100
AcDbLine
 10
154.2043497433
 20
172.5727655051
 30
0.0
 11
154.1943497836
 21
172.5727655051
 31
0.0
  0
LINE
  5
2C2
330
1F
100
AcDbEntity
  8
0
  6
Continuous
 62
     7
370
    25
100
AcDbLine
 10
154.2043497433
 20
198.5727660416
 30
0.0
 11
154.1943497836
 21
198.5727660416
 31
0.0
  0
LINE
  5
2C3
330
1F
100
AcDbEntity
  8
0
  6
Continuous
 62
     7
370
    25
100
AcDbLine
 10
154.2043497433
 20
185.5727658898
 30
0.0
 11
154.1943497836
 21
185.5727658898
 31
0.0
  0
LINE
  5
2C4
330
1F
100
AcDbEntity
  8
0
  6
Continuous
 62
     7
370
    25
100
AcDbLine
 10
154.2043497433
 20
172.8907749114
 30
0.0
 11
154.1943497836
 21
172.8907749114
 31
0.0
  0
LINE
  5
2C5
330
1F
100
AcDbEntity
  8
0
  6
Continuous
 62
     7
370
    25
100
AcDbLine
 10
154.2043497433
 20
185.890774714
 30
0.0
 11
154.1943497836
 21
185.890774714
 31
0.0
  0
LINE
  5
2C6
330
1F
100
AcDbEntity
  8
0
  6
Continuous
 62
     7
370
    25
100
AcDbLine
 10
154.2043497433
 20
198.8907745166
 30
0.0
 11
154.1943497836
 21
198.8907745166
 31
0.0
  0
LINE
  5
2C7
330
1F
100
AcDbEntity
  8
0
  6
Continuous
 62
     7
370
    25
100
AcDbLine
 10
154.2043497433
 20
198.8612273766
 30
0.0
 11
154.1943497836
 21
198.8612273766
 31
0.0
  0
LINE
  5
2C8
330
1F
100
AcDbEntity
  8
0
  6
Continuous
 62
     7
370
    25
100
AcDbLine
 10
154.2043497433
 20
185.8612273994
 30
0.0
 11
154.1943497836
 21
185.8612273994
 31
0.0
  0
LINE
  5
2C9
330
1F
100
AcDbEntity
  8
0
  6
Continuous
 62
     7
370
    25
100
AcDbLine
 10
154.2043497433
 20
172.8612277714
 30
0.0
 11
154.1943497836
 21
172.8612277714
 31
0.0
  0
LINE
  5
2CA
330
1F
100
AcDbEntity
  8
0
  6
Continuous
 62
     7
370
    25
100
AcDbLine
 10
154.2043497433
 20
171.7073815001
 30
0.0
 11
154.1943497836
 21
171.7073815001
 31
0.0
  0
LINE
  5
2CB
330
1F
100
AcDbEntity
  8
0
  6
Continuous
 62
     7
370
    25
100
AcDbLine
 10
154.2043497433
 20
184.7073813027
 30
0.0
 11
154.1943497836
 21
184.7073813027
 31
0.0
  0
LINE
  5
2CC
330
1F
100
AcDbEntity
  8
0
  6
Continuous
 62
     7
370
    25
100
AcDbLine
 10
154.2043497433
 20
197.7073811052
 30
0.0
 11
154.1943497836
 21
197.7073811052
 31
0.0
  0
LINE
  5
2CD
330
1F
100
AcDbEntity
  8
0
  6
Continuous
 62
     7
370
    25
100
AcDbLine
 10
154.1943497836
 20
171.4642364589
 30
0.0
 11
154.1943497836
 21
171.6954615025
 31
0.0
  0
LINE
  5
2CE
330
1F
100
AcDbEntity
  8
0
  6
Continuous
 62
     7
370
    25
100
AcDbLine
 10
154.1943497836
 20
172.5967051519
 30
0.0
 11
154.1943497836
 21
172.8372881247
 31
0.0
  0
LINE
  5
2CF
330
1F
100
AcDbEntity
  8
0
  6
Continuous
 62
     7
370
    25
100
AcDbLine
 10
154.1943497836
 20
173.654397024
 30
0.0
 11
154.1943497836
 21
173.8588139472
 31
0.0
  0
LINE
  5
2D0
330
1F
100
AcDbEntity
  8
0
  6
Continuous
 62
     7
370
    25
100
AcDbLine
 10
154.1943497836
 20
197.4642360641
 30
0.0
 11
154.1943497836
 21
197.6954620389
 31
0.0
  0
LINE
  5
2D1
330
1F
100
AcDbEntity
  8
0
  6
Continuous
 62
     7
370
    25
100
AcDbLine
 10
154.1943497836
 20
198.596704757
 30
0.0
 11
154.1943497836
 21
198.8372886611
 31
0.0
  0
LINE
  5
2D2
330
1F
100
AcDbEntity
  8
0
  6
Continuous
 62
     7
370
    25
100
AcDbLine
 10
154.1943497836
 20
199.6543975605
 30
0.0
 11
154.1943497836
 21
199.8588135524
 31
0.0
  0
LINE
  5
2D3
330
1F
100
AcDbEntity
  8
0
  6
Continuous
 62
     7
370
    25
100
AcDbLine
 10
154.1943497836
 20
184.4642364943
 30
0.0
 11
154.1943497836
 21
184.6954615379
 31
0.0
  0
LINE
  5
2D4
330
1F
100
AcDbEntity
  8
0
  6
Continuous
 62
     7
370
    25
100
AcDbLine
 10
154.1943497836
 20
185.596704838
 30
0.0
 11
154.1943497836
 21
185.8372885093
 31
0.0
  0
LINE
  5
2D5
330
1F
100
AcDbEntity
  8
0
  6
Continuous
 62
     7
370
    25
100
AcDbLine
 10
154.1943497836
 20
186.6543971031
 30
0.0
 11
154.1943497836
 21
186.8588135534
 31
0.0
  0
LINE
  5
2D6
330
1F
100
AcDbEntity
  8
0
  6
Continuous
 62
     7
370
    25
100
AcDbLine
 10
163.1023066697
 20
186.5614558104
 30
0.0
 11
159.786717279
 21
186.5899531752
 31
0.0
  0
LINE
  5
2D7
330
1F
100
AcDbEntity
  8
0
  6
Continuous
 62
     7
370
    25
100
AcDbLine
 10
163.1023066697
 20
186.5614558104
 30
0.0
 11
163.1483540518
 21
181.2849594338
 31
0.0
  0
ARC
  5
2D8
330
1F
100
AcDbEntity
  8
0
  6
Continuous
 62
     7
370
    25
100
AcDbCircle
 10
150.4916727122
 20
178.1742777433
 30
0.0
 40
13.0333390460261
100
AcDbArc
 50
347.1918777873
 51
13.8081222127
  0
LINE
  5
2D9
330
1F
100
AcDbEntity
  8
0
  6
Continuous
 62
     7
370
    25
100
AcDbLine
 10
163.2007158009
 20
175.2849593816
 30
0.0
 11
163.2443501262
 21
170.2849594934
 31
0.0
  0
LINE
  5
2DA
330
1F
100
AcDbEntity
  8
0
  6
Continuous
 62
     7
370
    25
100
AcDbLine
 10
161.0178861415
 20
184.784959309
 30
0.0
 11
161.144425871
 21
170.2849594934
 31
0.0
  0
LINE
  5
2DB
330
1F
100
AcDbEntity
  8
0
  6
Continuous
 62
     7
370
    25
100
AcDbLine
 10
159.7709653547
 20
184.784959309
 30
0.0
 11
161.0178861415
 21
184.784959309
 31
0.0
  0
LINE
  5
2DC
330
1F
100
AcDbEntity
  8
0
  6
Continuous
 62
     7
370
    25
100
AcDbLine
 10
159.6444260908
 20
170.2849594934
 30
0.0
 11
159.7709653547
 21
184.784959309
 31
0.0
  0
LINE
  5
2DD
330
1F
100
AcDbEntity
  8
0
  6
Continuous
 62
     7
370
    25
100
AcDbLine
 10
157.9323364535
 20
203.2849593146
 30
0.0
 11
162.9563633
 21
203.2849593146
 31
0.0
  0
LINE
  5
2DE
330
1F
100
AcDbEntity
  8
0
  6
Continuous
 62
     7
370
    25
100
AcDbLine
 10
162.9563633
 20
203.2849593146
 30
0.0
 11
163.0988235233
 21
186.9606276653
 31
0.0
  0
LINE
  5
2DF
330
1F
100
AcDbEntity
  8
0
  6
Continuous
 62
     7
370
    25
100
AcDbLine
 10
159.790207876
 20
186.9899379438
 30
0.0
 11
163.0988235233
 21
186.9606276653
 31
0.0
  0
ARC
  5
2E0
330
1F
100
AcDbEntity
  8
0
  6
Continuous
 62
     7
370
    25
100
AcDbCircle
 10
160.6304286327
 20
200.534959404
 30
0.0
 40
0.2499999999999871
100
AcDbArc
 50
0.5
 51
90.0
  0
LINE
  5
2E1
330
1F
100
AcDbEntity
  8
0
  6
Continuous
 62
     7
370
    25
100
AcDbLine
 10
159.9105952886
 20
200.7849598361
 30
0.0
 11
160.6304284764
 21
200.7849598361
 31
0.0
  0
LINE
  5
2E2
330
1F
100
AcDbEntity
  8
0
  6
Continuous
 62
     7
370
    25
100
AcDbLine
 10
159.7971462292
 20
187.7849594515
 30
0.0
 11
159.9105952886
 21
200.7849598361
 31
0.0
  0
LINE
  5
2E3
330
1F
100
AcDbEntity
  8
0
  6
Continuous
 62
     7
370
    25
100
AcDbLine
 10
160.9917057326
 20
187.7849594515
 30
0.0
 11
159.7971462292
 21
187.7849594515
 31
0.0
  0
LINE
  5
2E4
330
1F
100
AcDbEntity
  8
0
  6
Continuous
 62
     7
370
    25
100
AcDbLine
 10
160.8804192042
 20
200.5371414183
 30
0.0
 11
160.9917057326
 21
187.7849594515
 31
0.0
  0
LINE
  5
2E5
330
1F
100
AcDbEntity
  8
0
  6
Continuous
 62
     7
370
    25
100
AcDbLine
 10
157.9323364535
 20
203.2849593146
 30
0.0
 11
157.7902841495
 21
187.0073910162
 31
0.0
  0
LINE
  5
2E6
330
1F
100
AcDbEntity
  8
0
  6
Continuous
 62
     7
370
    25
100
AcDbLine
 10
157.7867935525
 20
186.6074062476
 30
0.0
 11
157.6443498602
 21
170.2849594934
 31
0.0
  0
LINE
  5
2E7
330
1F
100
AcDbEntity
  8
0
  6
Continuous
 62
     7
370
    25
100
AcDbLine
 10
161.144425871
 20
170.2849594934
 30
0.0
 11
163.2443501262
 21
170.2849594934
 31
0.0
  0
LINE
  5
2E8
330
1F
100
AcDbEntity
  8
0
  6
Continuous
 62
     7
370
    25
100
AcDbLine
 10
157.6443498602
 20
170.2849594934
 30
0.0
 11
159.6444260908
 21
170.2849594934
 31
0.0
  0
LINE
  5
2E9
330
1F
100
AcDbEntity
  8
0
  6
Continuous
 62
     7
370
    25
100
AcDbLine
 10
163.1005650965
 20
186.7610412813
 30
0.0
 11
163.0988235233
 21
186.9606276653
 31
0.0
  0
LINE
  5
2EA
330
1F
100
AcDbEntity
  8
0
  6
Continuous
 62
     7
370
    25
100
AcDbLine
 10
157.788538851
 20
186.8073986319
 30
0.0
 11
163.1005650965
 21
186.7610412813
 31
0.0
  0
LINE
  5
2EB
330
1F
100
AcDbEntity
  8
0
  6
Continuous
 62
     7
370
    25
100
AcDbLine
 10
157.788538851
 20
186.8073986319
 30
0.0
 11
157.7902841495
 21
187.0073910162
 31
0.0
  0
LINE
  5
2EC
330
1F
100
AcDbEntity
  8
0
  6
Continuous
 62
     7
370
    25
100
AcDbLine
 10
157.7902841495
 20
187.0073910162
 30
0.0
 11
159.790207876
 21
186.9899379438
 31
0.0
  0
LINE
  5
2ED
330
1F
100
AcDbEntity
  8
0
  6
Continuous
 62
     7
370
    25
100
AcDbLine
 10
157.7867935525
 20
186.6074062476
 30
0.0
 11
159.786717279
 21
186.5899531752
 31
0.0
  0
LINE
  5
2EE
330
1F
100
AcDbEntity
  8
0
  6
Continuous
 62
     7
370
    25
100
AcDbLine
 10
163.1023066697
 20
186.5614558104
 30
0.0
 11
163.1005650965
 21
186.7610412813
 31
0.0
  0
LINE
  5
2EF
330
1F
100
AcDbEntity
  8
0
  6
Continuous
 62
     7
370
    25
100
AcDbLine
 10
157.7867935525
 20
186.6074062476
 30
0.0
 11
157.788538851
 21
186.8073986319
 31
0.0
  0
LINE
  5
2F0
330
1F
100
AcDbEntity
  8
0
  6
Continuous
 62
     7
370
    25
100
AcDbLine
 10
159.8709693757
 20
184.784959309
 30
0.0
 11
159.7444296462
 21
170.2849594934
 31
0.0
  0
LINE
  5
2F1
330
1F
100
AcDbEntity
  8
0
  6
Continuous
 62
     7
370
    25
100
AcDbLine
 10
159.7444296462
 20
170.2849594934
 30
0.0
 11
159.6444260908
 21
170.2849594934
 31
0.0
  0
LINE
  5
2F2
330
1F
100
AcDbEntity
  8
0
  6
Continuous
 62
     7
370
    25
100
AcDbLine
 10
160.0105993097
 20
200.7849598361
 30
0.0
 11
159.8971497846
 21
187.7849594515
 31
0.0
  0
LINE
  5
2F3
330
1F
100
AcDbEntity
  8
0
  6
Continuous
 62
     7
370
    25
100
AcDbLine
 10
161.1226087084
 20
172.7849589718
 30
0.0
 11
160.2443496344
 21
172.7849589718
 31
0.0
  0
LINE
  5
2F4
330
1F
100
AcDbEntity
  8
0
  6
Continuous
 62
     7
370
    25
100
AcDbLine
 10
160.2443496344
 20
184.784959309
 30
0.0
 11
160.2443496344
 21
172.7849589718
 31
0.0
  0
LINE
  5
2F5
330
1F
100
AcDbEntity
  8
0
  6
Continuous
 62
     7
370
    25
100
AcDbLine
 10
161.144425871
 20
170.2849594934
 30
0.0
 11
159.7444296462
 21
170.2849594934
 31
0.0
  0
LINE
  5
2F6
330
1F
100
AcDbEntity
  8
0
  6
Continuous
 62
     7
370
    25
100
AcDbLine
 10
160.2443496344
 20
200.7849598361
 30
0.0
 11
160.2443496344
 21
187.7849594515
 31
0.0
  0
LINE
  5
2F7
330
1F
100
AcDbEntity
  8
0
  6
Continuous
 62
     7
370
    25
100
AcDbLine
 10
160.7443497164
 20
177.7849597914
 30
0.0
 11
160.2443496344
 21
177.7849597914
 31
0.0
  0
LINE
  5
2F8
330
1F
100
AcDbEntity
  8
0
  6
Continuous
 62
     7
370
    25
100
AcDbLine
 10
160.7443497164
 20
177.7849597914
 30
0.0
 11
160.7443497164
 21
176.2297656445
 31
0.0
  0
LINE
  5
2F9
330
1F
100
AcDbEntity
  8
0
  6
Continuous
 62
     7
370
    25
100
AcDbLine
 10
160.7443497164
 20
176.2297656445
 30
0.0
 11
160.2443496344
 21
176.2297656445
 31
0.0
  0
LINE
  5
2FA
330
1F
100
AcDbEntity
  8
0
  6
Continuous
 62
     7
370
    25
100
AcDbLine
 10
160.7443497164
 20
175.96694362
 30
0.0
 11
160.2443496344
 21
175.96694362
 31
0.0
  0
SPLINE
  5
2FB
330
1F
100
AcDbEntity
  8
0
  6
Continuous
 62
     7
370
    25
100
AcDbSpline
210
0.0
220
0.0
230
1.0
 70
    24
 71
     3
 72
     8
 73
     4
 74
     0
 42
0.000000001
 43
0.00000001
 40
0.5384615384615384
 40
0.5384615384615384
 40
0.5384615384615384
 40
0.5384615384615384
 40
0.6153846153846154
 40
0.6153846153846154
 40
0.6153846153846154
 40
0.6153846153846154
 10
160.7443497461748
 20
176.2297657573207
 30
0.0
 10
160.7443497461748
 20
176.1739311458507
 30
0.0
 10
160.7443497461748
 20
176.0643021995005
 30
0.0
 10
160.7443497461748
 20
175.9669436489806
 30
0.0
  0
LINE
  5
2FC
330
1F
100
AcDbEntity
  8
0
  6
Continuous
 62
     7
370
    25
100
AcDbLine
 10
160.7443497164
 20
175.2177737711
 30
0.0
 11
160.2443496344
 21
175.2177737711
 31
0.0
  0
SPLINE
  5
2FD
330
1F
100
AcDbEntity
  8
0
  6
Continuous
 62
     7
370
    25
100
AcDbSpline
210
0.0
220
0.0
230
1.0
 70
    24
 71
     3
 72
     8
 73
     4
 74
     0
 42
0.000000001
 43
0.00000001
 40
0.4615384615384616
 40
0.4615384615384616
 40
0.4615384615384616
 40
0.4615384615384616
 40
0.5384615384615384
 40
0.5384615384615384
 40
0.5384615384615384
 40
0.5384615384615384
 10
160.7443497461748
 20
175.9669436489806
 30
0.0
 10
160.7443497461748
 20
175.4696621505307
 30
0.0
 10
160.7443497461748
 20
175.2177742005355
 30
0.0
 10
160.7443497461748
 20
175.2177742005356
 30
0.0
  0
LINE
  5
2FE
330
1F
100
AcDbEntity
  8
0
  6
Continuous
 62
     7
370
    25
100
AcDbLine
 10
155.2443497462
 20
201.3083407713
 30
0.0
 11
157.9148832356
 21
201.2850353552
 31
0.0
  0
LINE
  5
2FF
330
1F
100
AcDbEntity
  8
0
  6
Continuous
 62
     7
370
    25
100
AcDbLine
 10
155.2443497462
 20
201.3083407713
 30
0.0
 11
155.2443497462
 21
170.2849594934
 31
0.0
  0
LINE
  5
300
330
1F
100
AcDbEntity
  8
0
  6
Continuous
 62
     7
370
    25
100
AcDbLine
 10
155.2443497462
 20
170.2849594934
 30
0.0
 11
157.6443498602
 21
170.2849594934
 31
0.0
  0
LINE
  5
301
330
1F
100
AcDbEntity
  8
0
  6
Continuous
 62
     7
370
    25
100
AcDbLine
 10
160.7443497164
 20
177.7854627056
 30
0.0
 11
160.2443496344
 21
177.7854627056
 31
0.0
  0
LINE
  5
302
330
1F
100
AcDbEntity
  8
0
  6
Continuous
 62
     7
370
    25
100
AcDbLine
 10
160.7443497164
 20
177.7854627056
 30
0.0
 11
160.7443497164
 21
177.7849597914
 31
0.0
  0
LINE
  5
303
330
1F
100
AcDbEntity
  8
0
  6
Continuous
 62
     7
370
    25
100
AcDbLine
 10
160.7443497164
 20
175.2139525546
 30
0.0
 11
160.2443496344
 21
175.2139525546
 31
0.0
  0
LINE
  5
304
330
1F
100
AcDbEntity
  8
0
  6
Continuous
 62
     7
370
    25
100
AcDbLine
 10
160.7443497164
 20
177.7855055464
 30
0.0
 11
160.2443496344
 21
177.7855055464
 31
0.0
  0
LINE
  5
305
330
1F
100
AcDbEntity
  8
0
  6
Continuous
 62
     7
370
    25
100
AcDbLine
 10
160.7443497164
 20
177.7855055464
 30
0.0
 11
160.7443497164
 21
177.7854627056
 31
0.0
  0
LINE
  5
306
330
1F
100
AcDbEntity
  8
0
  6
Continuous
 62
     7
370
    25
100
AcDbLine
 10
157.9333441445
 20
203.4004246874
 30
0.0
 11
162.955355609
 21
203.4004246874
 31
0.0
  0
LINE
  5
307
330
1F
100
AcDbEntity
  8
0
  6
Continuous
 62
     7
370
    25
100
AcDbLine
 10
162.955355609
 20
203.4004246874
 30
0.0
 11
162.9563633
 21
203.2849593146
 31
0.0
  0
LINE
  5
308
330
1F
100
AcDbEntity
  8
0
  6
Continuous
 62
     7
370
    25
100
AcDbLine
 10
157.9323364535
 20
203.2849593146
 30
0.0
 11
157.9333441445
 21
203.4004246874
 31
0.0
  0
ARC
  5
309
330
1F
100
AcDbEntity
  8
0
  6
Continuous
 62
     7
370
    25
100
AcDbCircle
 10
150.4919223584
 20
178.1712254019
 30
0.0
 40
13.03312203427566
100
AcDbArc
 50
347.1916521237
 51
0.6194976526
  0
DIMENSION
  5
30A
330
1F
100
AcDbEntity
  8
0
  6
Continuous
 62
     7
370
    18
100
AcDbDimension
  2
_D_2
 10
163.5250117583
 20
161.9998187925
 30
0.0
 11
173.5250443926
 21
161.9998187925
 31
0.0
 70
   160
  1
<>
 71
     2
 42
-1.0
  3
SLDDIMSTYLE0
100
AcDbAlignedDimension
 13
154.1943497462
 23
170.3083409512
 33
0.0
 14
163.5250117583
 24
178.1742777433
 34
0.0
100
AcDbRotatedDimension
  0
ENDSEC
  0
SECTION
  2
OBJECTS
  0
DICTIONARY
  5
C
330
0
100
AcDbDictionary
281
     1
  3
ACAD_GROUP
350
D
  3
ACAD_LAYOUT
350
1A
  3
ACAD_MLINESTYLE
350
17
  3
ACAD_PLOTSETTINGS
350
19
  3
ACAD_PLOTSTYLENAME
350
E
  3
ACAD_SCALELIST
350
47
  0
DICTIONARY
  5
D
102
{ACAD_REACTORS
330
C
102
}
330
C
100
AcDbDictionary
281
     1
  0
DICTIONARY
  5
1A
102
{ACAD_REACTORS
330
C
102
}
330
C
100
AcDbDictionary
281
     1
  3
Layout1
350
1E
  3
Layout2
350
26
  3
Model
350
22
  0
DICTIONARY
  5
17
102
{ACAD_REACTORS
330
C
102
}
330
C
100
AcDbDictionary
281
     1
  3
Standard
350
18
  0
DICTIONARY
  5
19
102
{ACAD_REACTORS
330
C
102
}
330
C
100
AcDbDictionary
281
     1
  0
ACDBDICTIONARYWDFLT
  5
E
102
{ACAD_REACTORS
330
C
102
}
330
C
100
AcDbDictionary
281
     1
  3
Normal
350
F
100
AcDbDictionaryWithDefault
340
F
  0
DICTIONARY
  5
47
102
{ACAD_REACTORS
330
C
102
}
330
C
100
AcDbDictionary
281
     1
  3
A0
350
48
  3
A1
350
49
  3
A2
350
4A
  3
A3
350
4B
  3
A4
350
4C
  3
A5
350
4D
  3
A6
350
4E
  3
A7
350
4F
  3
A8
350
50
  3
A9
350
51
  3
B0
350
52
  3
B1
350
53
  3
B2
350
54
  3
B3
350
55
  3
B4
350
56
  3
B5
350
57
  3
B6
350
58
  3
B7
350
59
  3
B8
350
5A
  3
B9
350
5B
  3
C0
350
5C
  3
C1
350
5D
  3
C2
350
5E
  3
C3
350
5F
  3
C4
350
60
  3
C5
350
61
  3
C6
350
62
  3
C7
350
63
  3
C8
350
64
  3
C9
350
65
  3
D0
350
66
  3
D1
350
67
  3
D2
350
68
  0
LAYOUT
  5
1E
102
{ACAD_REACTORS
330
1A
102
}
330
1A
100
AcDbPlotSettings
  1

  2
none_device
  4

  6

 40
0.0
 41
0.0
 42
0.0
 43
0.0
 44
0.0
 45
0.0
 46
0.0
 47
0.0
 48
0.0
 49
0.0
140
0.0
141
0.0
142
1.0
143
1.0
 70
   688
 72
     1
 73
     0
 74
     5
  7

 75
    16
147
1.0
148
0.0
149
0.0
100
AcDbLayout
  1
Layout1
 70
     1
 71
     1
 10
0.0
 20
0.0
 11
420.0
 21
297.0
 12
0.0
 22
0.0
 32
0.0
 14
1.0000000000E+20
 24
1.0000000000E+20
 34
1.0000000000E+20
 15
-1.0000000000E+20
 25
-1.0000000000E+20
 35
-1.0000000000E+20
146
0.0
 13
0.0
 23
0.0
 33
0.0
 16
1.0
 26
0.0
 36
0.0
 17
0.0
 27
1.0
 37
0.0
 76
     0
330
1B
  0
LAYOUT
  5
26
102
{ACAD_REACTORS
330
1A
102
}
330
1A
100
AcDbPlotSettings
  1

  2
none_device
  4

  6

 40
0.0
 41
0.0
 42
0.0
 43
0.0
 44
0.0
 45
0.0
 46
0.0
 47
0.0
 48
0.0
 49
0.0
140
0.0
141
0.0
142
1.0
143
1.0
 70
   688
 72
     1
 73
     0
 74
     5
  7

 75
    16
147
1.0
148
0.0
149
0.0
100
AcDbLayout
  1
Layout2
 70
     1
 71
     2
 10
0.0
 20
0.0
 11
0.0
 21
0.0
 12
0.0
 22
0.0
 32
0.0
 14
0.0
 24
0.0
 34
0.0
 15
0.0
 25
0.0
 35
0.0
146
0.0
 13
0.0
 23
0.0
 33
0.0
 16
1.0
 26
0.0
 36
0.0
 17
0.0
 27
1.0
 37
0.0
 76
     0
330
23
  0
LAYOUT
  5
22
102
{ACAD_REACTORS
330
1A
102
}
330
1A
100
AcDbPlotSettings
  1

  2
none_device
  4
Letter_(8.50_x_11.00_Inches)
  6

 40
6.35
 41
6.35
 42
6.35000508
 43
6.35000508
 44
215.9
 45
279.4
 46
0.0
 47
0.0
 48
0.0
 49
0.0
140
0.0
141
0.0
142
1.0
143
1.0
 70
  1712
 72
     1
 73
     0
 74
     0
  7

 75
     0
147
1.0
148
0.0
149
0.0
100
AcDbLayout
  1
Model
 70
     1
 71
     0
 10
0.0
 20
0.0
 11
210.0
 21
297.0
 12
0.0
 22
0.0
 32
0.0
 14
0.0
 24
0.0
 34
0.0
 15
210.0
 25
297.0
 35
0.0
146
0.0
 13
0.0
 23
0.0
 33
0.0
 16
1.0
 26
0.0
 36
0.0
 17
0.0
 27
1.0
 37
0.0
 76
     0
330
1F
331
29
  0
MLINESTYLE
  5
18
102
{ACAD_REACTORS
330
17
102
}
330
17
100
AcDbMlineStyle
  2
Standard
 70
     0
  3

 62
   256
 51
90.0
 52
90.0
 71
     2
 49
0.5
 62
   256
  6
BYLAYER
 49
-0.5
 62
   256
  6
BYLAYER
  0
ACDBPLACEHOLDER
  5
F
102
{ACAD_REACTORS
330
E
102
}
330
E
  0
SCALE
  5
48
102
{ACAD_REACTORS
330
47
102
}
330
47
100
AcDbScale
 70
     0
300
1:1
140
1.0
141
1.0
290
     1
  0
SCALE
  5
49
102
{ACAD_REACTORS
330
47
102
}
330
47
100
AcDbScale
 70
     0
300
1:2
140
1.0
141
2.0
290
     0
  0
SCALE
  5
4A
102
{ACAD_REACTORS
330
47
102
}
330
47
100
AcDbScale
 70
     0
300
1:4
140
1.0
141
4.0
290
     0
  0
SCALE
  5
4B
102
{ACAD_REACTORS
330
47
102
}
330
47
100
AcDbScale
 70
     0
300
1:5
140
1.0
141
5.0
290
     0
  0
SCALE
  5
4C
102
{ACAD_REACTORS
330
47
102
}
330
47
100
AcDbScale
 70
     0
300
1:8
140
1.0
141
8.0
290
     0
  0
SCALE
  5
4D
102
{ACAD_REACTORS
330
47
102
}
330
47
100
AcDbScale
 70
     0
300
1:10
140
1.0
141
10.0
290
     0
  0
SCALE
  5
4E
102
{ACAD_REACTORS
330
47
102
}
330
47
100
AcDbScale
 70
     0
300
1:16
140
1.0
141
16.0
290
     0
  0
SCALE
  5
4F
102
{ACAD_REACTORS
330
47
102
}
330
47
100
AcDbScale
 70
     0
300
1:20
140
1.0
141
20.0
290
     0
  0
SCALE
  5
50
102
{ACAD_REACTORS
330
47
102
}
330
47
100
AcDbScale
 70
     0
300
1:30
140
1.0
141
30.0
290
     0
  0
SCALE
  5
51
102
{ACAD_REACTORS
330
47
102
}
330
47
100
AcDbScale
 70
     0
300
1:40
140
1.0
141
40.0
290
     0
  0
SCALE
  5
52
102
{ACAD_REACTORS
330
47
102
}
330
47
100
AcDbScale
 70
     0
300
1:50
140
1.0
141
50.0
290
     0
  0
SCALE
  5
53
102
{ACAD_REACTORS
330
47
102
}
330
47
100
AcDbScale
 70
     0
300
1:100
140
1.0
141
100.0
290
     0
  0
SCALE
  5
54
102
{ACAD_REACTORS
330
47
102
}
330
47
100
AcDbScale
 70
     0
300
2:1
140
2.0
141
1.0
290
     0
  0
SCALE
  5
55
102
{ACAD_REACTORS
330
47
102
}
330
47
100
AcDbScale
 70
     0
300
4:1
140
4.0
141
1.0
290
     0
  0
SCALE
  5
56
102
{ACAD_REACTORS
330
47
102
}
330
47
100
AcDbScale
 70
     0
300
8:1
140
8.0
141
1.0
290
     0
  0
SCALE
  5
57
102
{ACAD_REACTORS
330
47
102
}
330
47
100
AcDbScale
 70
     0
300
10:1
140
10.0
141
1.0
290
     0
  0
SCALE
  5
58
102
{ACAD_REACTORS
330
47
102
}
330
47
100
AcDbScale
 70
     0
300
100:1
140
100.0
141
1.0
290
     0
  0
SCALE
  5
59
102
{ACAD_REACTORS
330
47
102
}
330
47
100
AcDbScale
 70
     0
300
1/128" = 1'-0"
140
0.0078125
141
12.0
290
     0
  0
SCALE
  5
5A
102
{ACAD_REACTORS
330
47
102
}
330
47
100
AcDbScale
 70
     0
300
1/64" = 1'-0"
140
0.015625
141
12.0
290
     0
  0
SCALE
  5
5B
102
{ACAD_REACTORS
330
47
102
}
330
47
100
AcDbScale
 70
     0
300
1/32" = 1'-0"
140
0.03125
141
12.0
290
     0
  0
SCALE
  5
5C
102
{ACAD_REACTORS
330
47
102
}
330
47
100
AcDbScale
 70
     0
300
1/16" = 1'-0"
140
0.0625
141
12.0
290
     0
  0
SCALE
  5
5D
102
{ACAD_REACTORS
330
47
102
}
330
47
100
AcDbScale
 70
     0
300
3/32" = 1'-0"
140
0.09375
141
12.0
290
     0
  0
SCALE
  5
5E
102
{ACAD_REACTORS
330
47
102
}
330
47
100
AcDbScale
 70
     0
300
1/8" = 1'-0"
140
0.125
141
12.0
290
     0
  0
SCALE
  5
5F
102
{ACAD_REACTORS
330
47
102
}
330
47
100
AcDbScale
 70
     0
300
3/16" = 1'-0"
140
0.1875
141
12.0
290
     0
  0
SCALE
  5
60
102
{ACAD_REACTORS
330
47
102
}
330
47
100
AcDbScale
 70
     0
300
1/4" = 1'-0"
140
0.25
141
12.0
290
     0
  0
SCALE
  5
61
102
{ACAD_REACTORS
330
47
102
}
330
47
100
AcDbScale
 70
     0
300
3/8" = 1'-0"
140
0.375
141
12.0
290
     0
  0
SCALE
  5
62
102
{ACAD_REACTORS
330
47
102
}
330
47
100
AcDbScale
 70
     0
300
1/2" = 1'-0"
140
0.5
141
12.0
290
     0
  0
SCALE
  5
63
102
{ACAD_REACTORS
330
47
102
}
330
47
100
AcDbScale
 70
     0
300
3/4" = 1'-0"
140
0.75
141
12.0
290
     0
  0
SCALE
  5
64
102
{ACAD_REACTORS
330
47
102
}
330
47
100
AcDbScale
 70
     0
300
1" = 1'-0"
140
1.0
141
12.0
290
     0
  0
SCALE
  5
65
102
{ACAD_REACTORS
330
47
102
}
330
47
100
AcDbScale
 70
     0
300
1-1/2" = 1'-0"
140
1.5
141
12.0
290
     0
  0
SCALE
  5
66
102
{ACAD_REACTORS
330
47
102
}
330
47
100
AcDbScale
 70
     0
300
3" = 1'-0"
140
3.0
141
12.0
290
     0
  0
SCALE
  5
67
102
{ACAD_REACTORS
330
47
102
}
330
47
100
AcDbScale
 70
     0
300
6" = 1'-0"
140
6.0
141
12.0
290
     0
  0
SCALE
  5
68
102
{ACAD_REACTORS
330
47
102
}
330
47
100
AcDbScale
 70
     0
300
1'-0" = 1'-0"
140
12.0
141
12.0
290
     0
  0
ENDSEC
  0
EOF
