  0
SECTION
  2
HEADER
  9
$ACADVER
  1
AC1015
  9
$ACADMAINTVER
 70
     6
  9
$DWGCODEPAGE
  3
ANSI_1252
  9
$INSBASE
 10
0.0
 20
0.0
 30
0.0
  9
$EXTMIN
 10
0.0
 20
0.0
 30
0.0
  9
$EXTMAX
 10
594.0
 20
420.0
 30
0.0
  9
$LIMMIN
 10
0.0
 20
0.0
  9
$LIMMAX
 10
594.0
 20
420.0
  9
$ORTHOMODE
 70
     0
  9
$REGENMODE
 70
     1
  9
$FILLMODE
 70
     1
  9
$QTEXTMODE
 70
     0
  9
$MIRRTEXT
 70
     1
  9
$LTSCALE
 40
1.0
  9
$ATTMODE
 70
     1
  9
$TEXTSIZE
 40
3.5
  9
$TRACEWID
 40
1.0
  9
$TEXTSTYLE
  7
Standard
  9
$CLAYER
  8
0
  9
$CELTYPE
  6
ByLayer
  9
$CECOLOR
 62
   256
  9
$CELTSCALE
 40
1.0
  9
$DISPSILH
 70
     0
  9
$DIMSCALE
 40
1.0
  9
$DIMASZ
 40
3.5
  9
$DIMEXO
 40
1.0
  9
$DIMDLI
 40
3.75
  9
$DIMRND
 40
0.0
  9
$DIMDLE
 40
0.0
  9
$DIMEXE
 40
1.0
  9
$DIMTP
 40
0.0
  9
$DIMTM
 40
0.0
  9
$DIMTXT
 40
3.5
  9
$DIMCEN
 40
2.5
  9
$DIMTSZ
 40
0.0
  9
$DIMTOL
 70
     0
  9
$DIMLIM
 70
     0
  9
$DIMTIH
 70
     1
  9
$DIMTOH
 70
     1
  9
$DIMSE1
 70
     0
  9
$DIMSE2
 70
     0
  9
$DIMTAD
 70
     1
  9
$DIMZIN
 70
     0
  9
$DIMBLK
  1

  9
$DIMASO
 70
     1
  9
$DIMSHO
 70
     1
  9
$DIMPOST
  1

  9
$DIMAPOST
  1

  9
$DIMALT
 70
     0
  9
$DIMALTD
 70
     3
  9
$DIMALTF
 40
0.0393700787
  9
$DIMLFAC
 40
1.0
  9
$DIMTOFL
 70
     1
  9
$DIMTVP
 40
0.0
  9
$DIMTIX
 70
     0
  9
$DIMSOXD
 70
     0
  9
$DIMSAH
 70
     0
  9
$DIMBLK1
  1

  9
$DIMBLK2
  1

  9
$DIMSTYLE
  2
ISO-25
  9
$DIMCLRD
 70
     0
  9
$DIMCLRE
 70
     0
  9
$DIMCLRT
 70
     0
  9
$DIMTFAC
 40
1.0
  9
$DIMGAP
 40
4.0
  9
$DIMJUST
 70
     0
  9
$DIMSD1
 70
     0
  9
$DIMSD2
 70
     0
  9
$DIMTOLJ
 70
     0
  9
$DIMTZIN
 70
     0
  9
$DIMALTZ
 70
     0
  9
$DIMALTTZ
 70
     0
  9
$DIMUPT
 70
     0
  9
$DIMDEC
 70
     1
  9
$DIMTDEC
 70
     1
  9
$DIMALTU
 70
     2
  9
$DIMALTTD
 70
     3
  9
$DIMTXSTY
  7
Standard
  9
$DIMAUNIT
 70
     0
  9
$DIMADEC
 70
     1
  9
$DIMALTRND
 40
0.0
  9
$DIMAZIN
 70
     0
  9
$DIMDSEP
 70
    44
  9
$DIMATFIT
 70
     3
  9
$DIMFRAC
 70
     0
  9
$DIMLDRBLK
  1

  9
$DIMLUNIT
 70
     2
  9
$DIMLWD
 70
    -2
  9
$DIMLWE
 70
    -2
  9
$DIMTMOVE
 70
     0
  9
$LUNITS
 70
     2
  9
$LUPREC
 70
     1
  9
$SKETCHINC
 40
1.0
  9
$FILLETRAD
 40
10.0
  9
$AUNITS
 70
     0
  9
$AUPREC
 70
     1
  9
$MENU
  1
.
  9
$ELEVATION
 40
0.0
  9
$PELEVATION
 40
0.0
  9
$THICKNESS
 40
0.0
  9
$LIMCHECK
 70
     0
  9
$CHAMFERA
 40
10.0
  9
$CHAMFERB
 40
10.0
  9
$CHAMFERC
 40
20.0
  9
$CHAMFERD
 40
0.0
  9
$SKPOLY
 70
     0
  9
$TDCREATE
 40
2456156.466816968
  9
$TDUCREATE
 40
2456156.383483634
  9
$TDUPDATE
 40
2456156.466816979
  9
$TDUUPDATE
 40
2456156.383483646
  9
$TDINDWG
 40
0.0000000116
  9
$TDUSRTIMER
 40
0.0000000116
  9
$USRTIMER
 70
     1
  9
$ANGBASE
 50
0.0
  9
$ANGDIR
 70
     0
  9
$PDMODE
 70
     0
  9
$PDSIZE
 40
-1.0
  9
$PLINEWID
 40
0.0
  9
$SPLFRAME
 70
     0
  9
$SPLINETYPE
 70
     6
  9
$SPLINESEGS
 70
     8
  9
$HANDSEED
  5
3A9
  9
$SURFTAB1
 70
     6
  9
$SURFTAB2
 70
     6
  9
$SURFTYPE
 70
     6
  9
$SURFU
 70
     6
  9
$SURFV
 70
     6
  9
$UCSBASE
  2

  9
$UCSNAME
  2

  9
$UCSORG
 10
0.0
 20
0.0
 30
0.0
  9
$UCSXDIR
 10
1.0
 20
0.0
 30
0.0
  9
$UCSYDIR
 10
0.0
 20
1.0
 30
0.0
  9
$UCSORTHOREF
  2

  9
$UCSORTHOVIEW
 70
     0
  9
$UCSORGTOP
 10
0.0
 20
0.0
 30
0.0
  9
$UCSORGBOTTOM
 10
0.0
 20
0.0
 30
0.0
  9
$UCSORGLEFT
 10
0.0
 20
0.0
 30
0.0
  9
$UCSORGRIGHT
 10
0.0
 20
0.0
 30
0.0
  9
$UCSORGFRONT
 10
0.0
 20
0.0
 30
0.0
  9
$UCSORGBACK
 10
0.0
 20
0.0
 30
0.0
  9
$PUCSBASE
  2

  9
$PUCSNAME
  2

  9
$PUCSORG
 10
0.0
 20
0.0
 30
0.0
  9
$PUCSXDIR
 10
1.0
 20
0.0
 30
0.0
  9
$PUCSYDIR
 10
0.0
 20
1.0
 30
0.0
  9
$PUCSORTHOREF
  2

  9
$PUCSORTHOVIEW
 70
     0
  9
$PUCSORGTOP
 10
0.0
 20
0.0
 30
0.0
  9
$PUCSORGBOTTOM
 10
0.0
 20
0.0
 30
0.0
  9
$PUCSORGLEFT
 10
0.0
 20
0.0
 30
0.0
  9
$PUCSORGRIGHT
 10
0.0
 20
0.0
 30
0.0
  9
$PUCSORGFRONT
 10
0.0
 20
0.0
 30
0.0
  9
$PUCSORGBACK
 10
0.0
 20
0.0
 30
0.0
  9
$USERI1
 70
     0
  9
$USERI2
 70
     0
  9
$USERI3
 70
     0
  9
$USERI4
 70
     0
  9
$USERI5
 70
     0
  9
$USERR1
 40
0.0
  9
$USERR2
 40
0.0
  9
$USERR3
 40
0.0
  9
$USERR4
 40
0.0
  9
$USERR5
 40
0.0
  9
$WORLDVIEW
 70
     1
  9
$SHADEDGE
 70
     3
  9
$SHADEDIF
 70
    70
  9
$TILEMODE
 70
     1
  9
$MAXACTVP
 70
    64
  9
$PINSBASE
 10
0.0
 20
0.0
 30
0.0
  9
$PLIMCHECK
 70
     0
  9
$PEXTMIN
 10
1.0000000000E+20
 20
1.0000000000E+20
 30
1.0000000000E+20
  9
$PEXTMAX
 10
-1.0000000000E+20
 20
-1.0000000000E+20
 30
-1.0000000000E+20
  9
$PLIMMIN
 10
0.0
 20
0.0
  9
$PLIMMAX
 10
420.0
 20
297.0
  9
$UNITMODE
 70
     0
  9
$VISRETAIN
 70
     1
  9
$PLINEGEN
 70
     0
  9
$PSLTSCALE
 70
     1
  9
$TREEDEPTH
 70
  3020
  9
$CMLSTYLE
  2
Standard
  9
$CMLJUST
 70
     0
  9
$CMLSCALE
 40
20.0
  9
$PROXYGRAPHICS
 70
     1
  9
$MEASUREMENT
 70
     1
  9
$CELWEIGHT
370
    -1
  9
$ENDCAPS
280
     0
  9
$JOINSTYLE
280
     0
  9
$LWDISPLAY
290
     1
  9
$INSUNITS
 70
     4
  9
$HYPERLINKBASE
  1

  9
$STYLESHEET
  1

  9
$XEDIT
290
     1
  9
$CEPSNTYPE
380
     0
  9
$PSTYLEMODE
290
     1
  9
$FINGERPRINTGUID
  2
{CF2CF42A-0188-4FA8-A426-FDB658CECD18}
  9
$VERSIONGUID
  2
{FAEB1C32-E019-11D5-929B-00C0DF256EC4}
  9
$EXTNAMES
290
     1
  9
$PSVPSCALE
 40
0.0
  9
$OLESTARTUP
290
     0
  0
ENDSEC
  0
SECTION
  2
CLASSES
  0
CLASS
  1
ACDBDICTIONARYWDFLT
  2
AcDbDictionaryWithDefault
  3
ObjectDBX Classes
 90
        0
280
     0
281
     0
  0
CLASS
  1
VISUALSTYLE
  2
AcDbVisualStyle
  3
ObjectDBX Classes
 90
     4095
280
     0
281
     0
  0
CLASS
  1
MATERIAL
  2
AcDbMaterial
  3
ObjectDBX Classes
 90
     1153
280
     0
281
     0
  0
CLASS
  1
ACDBPLACEHOLDER
  2
AcDbPlaceHolder
  3
ObjectDBX Classes
 90
        0
280
     0
281
     0
  0
CLASS
  1
LAYOUT
  2
AcDbLayout
  3
ObjectDBX Classes
 90
        0
280
     0
281
     0
  0
ENDSEC
  0
SECTION
  2
TABLES
  0
TABLE
  2
VPORT
  5
8
330
0
100
AcDbSymbolTable
 70
     1
  0
VPORT
  5
29
330
8
100
AcDbSymbolTableRecord
100
AcDbViewportTableRecord
  2
*Active
 70
     0
 10
0.0
 20
0.0
 11
1.0
 21
1.0
 12
297.0
 22
210.0
 13
0.0
 23
0.0
 14
10.0
 24
10.0
 15
10.0
 25
10.0
 16
0.0
 26
0.0
 36
1.0
 17
0.0
 27
0.0
 37
0.0
 40
420.0
 41
1.4142857143
 42
50.0
 43
0.0
 44
0.0
 50
0.0
 51
0.0
 71
     0
 72
  2000
 73
     1
 74
     3
 75
     0
 76
     0
 77
     0
 78
     0
281
     0
 65
     1
110
0.0
120
0.0
130
0.0
111
1.0
121
0.0
131
0.0
112
0.0
122
1.0
132
0.0
 79
     0
146
0.0
  0
ENDTAB
  0
TABLE
  2
LTYPE
  5
5
330
0
100
AcDbSymbolTable
 70
     6
  0
LTYPE
  5
14
330
5
100
AcDbSymbolTableRecord
100
AcDbLinetypeTableRecord
  2
ByBlock
 70
     0
  3

 72
    65
 73
     0
 40
0.0
  0
LTYPE
  5
15
330
5
100
AcDbSymbolTableRecord
100
AcDbLinetypeTableRecord
  2
ByLayer
 70
     0
  3

 72
    65
 73
     0
 40
0.0
  0
LTYPE
  5
16
330
5
100
AcDbSymbolTableRecord
100
AcDbLinetypeTableRecord
  2
Continuous
 70
     0
  3
Solid line
 72
    65
 73
     0
 40
0.0
  0
LTYPE
  5
3F
330
5
100
AcDbSymbolTableRecord
100
AcDbLinetypeTableRecord
  2
HIDDEN
 70
     0
  3
Hidden __ __ __ __ __ __ __ __ __ __ __ __ __ __
 72
    65
 73
     2
 40
1.905
 49
1.27
 74
     0
 49
-0.635
 74
     0
  0
LTYPE
  5
40
330
5
100
AcDbSymbolTableRecord
100
AcDbLinetypeTableRecord
  2
PHANTOM
 70
     0
  3
Phantom ______  __  __  ______  __  __  ______
 72
    65
 73
     6
 40
12.7
 49
6.35
 74
     0
 49
-1.27
 74
     0
 49
1.27
 74
     0
 49
-1.27
 74
     0
 49
1.27
 74
     0
 49
-1.27
 74
     0
  0
LTYPE
  5
41
330
5
100
AcDbSymbolTableRecord
100
AcDbLinetypeTableRecord
  2
CENTER
 70
     0
  3
Center ____ _ ____ _ ____ _ ____ _ ____ _ ____
 72
    65
 73
     4
 40
10.16
 49
6.35
 74
     0
 49
-1.27
 74
     0
 49
1.27
 74
     0
 49
-1.27
 74
     0
  0
LTYPE
  5
42
330
5
100
AcDbSymbolTableRecord
100
AcDbLinetypeTableRecord
  2
CENTERX2
 70
     0
  3
Center (2x) ________  __  ________  __  _____
 72
    65
 73
     4
 40
20.32
 49
12.7
 74
     0
 49
-2.54
 74
     0
 49
2.54
 74
     0
 49
-2.54
 74
     0
  0
LTYPE
  5
43
330
5
100
AcDbSymbolTableRecord
100
AcDbLinetypeTableRecord
  2
DOT2
 70
     0
  3
Dot (.5x) ........................................
 72
    65
 73
     2
 40
0.635
 49
0.0
 74
     0
 49
-0.635
 74
     0
  0
ENDTAB
  0
TABLE
  2
LAYER
  5
2
330
0
100
AcDbSymbolTable
 70
     5
  0
LAYER
  5
10
330
2
100
AcDbSymbolTableRecord
100
AcDbLayerTableRecord
  2
0
 70
     0
 62
     7
  6
Continuous
370
    -3
390
F
  0
LAYER
  5
44
330
2
100
AcDbSymbolTableRecord
100
AcDbLayerTableRecord
  2
VORLAGE
 70
     0
 62
    -1
  6
Continuous
370
    -3
390
F
  0
LAYER
  5
45
330
2
100
AcDbSymbolTableRecord
100
AcDbLayerTableRecord
  2
RAHMEN
 70
     0
 62
   179
  6
Continuous
370
    -3
390
F
  0
LAYER
  5
46
330
2
100
AcDbSymbolTableRecord
100
AcDbLayerTableRecord
  2
KOPF
 70
     0
 62
     7
  6
Continuous
370
    -3
390
F
  0
LAYER
  5
47
330
2
100
AcDbSymbolTableRecord
100
AcDbLayerTableRecord
  2
TEMP
 70
     0
 62
    -7
  6
Continuous
370
    -3
390
F
  0
ENDTAB
  0
TABLE
  2
STYLE
  5
3
330
0
100
AcDbSymbolTable
 70
     2
  0
STYLE
  5
11
330
3
100
AcDbSymbolTableRecord
100
AcDbTextStyleTableRecord
  2
Standard
 70
     0
 40
0.0
 41
1.0
 50
0.0
 71
     0
 42
2.5
  3
txt
  4

  0
STYLE
  5
C2
330
3
100
AcDbSymbolTableRecord
100
AcDbTextStyleTableRecord
  2
SLDTEXTSTYLE0
 70
     0
 40
0.0
 41
0.605
 50
0.0
 71
     0
 42
0.2
  3
TXT
  4

  0
ENDTAB
  0
TABLE
  2
VIEW
  5
6
330
0
100
AcDbSymbolTable
 70
     0
  0
ENDTAB
  0
TABLE
  2
UCS
  5
7
330
0
100
AcDbSymbolTable
 70
     0
  0
ENDTAB
  0
TABLE
  2
APPID
  5
9
330
0
100
AcDbSymbolTable
 70
     1
  0
APPID
  5
12
330
9
100
AcDbSymbolTableRecord
100
AcDbRegAppTableRecord
  2
ACAD
 70
     0
  0
ENDTAB
  0
TABLE
  2
DIMSTYLE
  5
A
330
0
100
AcDbSymbolTable
 70
     3
100
AcDbDimStyleTable
  0
DIMSTYLE
105
27
330
A
100
AcDbSymbolTableRecord
100
AcDbDimStyleTableRecord
  2
ISO-25
 70
     0
 41
2.5
 42
0.625
 43
3.75
 44
1.25
 73
     0
 74
     0
 77
     1
 78
     8
140
2.5
141
2.5
143
0.0393700787
147
0.625
171
     3
172
     1
178
     0
271
     2
272
     2
274
     3
278
    44
283
     0
284
     8
340
11
  0
DIMSTYLE
105
C3
102
{ACAD_REACTORS
330
C1
330
1CC
330
1D6
102
}
330
A
100
AcDbSymbolTableRecord
100
AcDbDimStyleTableRecord
  2
SLDDIMSTYLE0
 70
     0
 41
3.5
 44
0.0
 45
0.000000001
 73
     0
 74
     0
 77
     1
 78
    12
 79
     3
140
3.5
147
0.875
173
     1
178
     0
271
     1
272
     1
276
     2
284
    12
340
C2
  0
DIMSTYLE
105
1C2
102
{ACAD_REACTORS
330
1C1
330
399
102
}
330
A
100
AcDbSymbolTableRecord
100
AcDbDimStyleTableRecord
  2
SLDDIMSTYLE1
 70
     0
 41
3.5
 44
0.0
 45
0.000000001
 73
     0
 74
     0
 77
     1
 78
    12
 79
     3
140
3.5
147
0.875
173
     1
178
     0
271
     0
272
     0
276
     2
284
    12
340
C2
  0
ENDTAB
  0
TABLE
  2
BLOCK_RECORD
  5
1
330
0
100
AcDbSymbolTable
 70
     6
  0
BLOCK_RECORD
  5
1F
330
1
100
AcDbSymbolTableRecord
100
AcDbBlockTableRecord
  2
*Model_Space
340
22
  0
BLOCK_RECORD
  5
1B
330
1
100
AcDbSymbolTableRecord
100
AcDbBlockTableRecord
  2
*Paper_Space
340
1E
  0
BLOCK_RECORD
  5
23
330
1
100
AcDbSymbolTableRecord
100
AcDbBlockTableRecord
  2
*Paper_Space0
340
26
  0
BLOCK_RECORD
  5
C4
330
1
100
AcDbSymbolTableRecord
100
AcDbBlockTableRecord
  2
*D1
340
0
  0
BLOCK_RECORD
  5
1C3
330
1
100
AcDbSymbolTableRecord
100
AcDbBlockTableRecord
  2
*D2
340
0
  0
BLOCK_RECORD
  5
1CD
330
1
100
AcDbSymbolTableRecord
100
AcDbBlockTableRecord
  2
*D3
340
0
  0
BLOCK_RECORD
  5
1D7
330
1
100
AcDbSymbolTableRecord
100
AcDbBlockTableRecord
  2
*D4
340
0
  0
BLOCK_RECORD
  5
39A
330
1
100
AcDbSymbolTableRecord
100
AcDbBlockTableRecord
  2
*D5
340
0
  0
ENDTAB
  0
ENDSEC
  0
SECTION
  2
BLOCKS
  0
BLOCK
  5
20
330
1F
100
AcDbEntity
  8
0
100
AcDbBlockBegin
  2
*Model_Space
 70
     0
 10
0.0
 20
0.0
 30
0.0
  3
*Model_Space
  1

  0
ENDBLK
  5
21
330
1F
100
AcDbEntity
  8
0
100
AcDbBlockEnd
  0
BLOCK
  5
1C
330
1B
100
AcDbEntity
 67
     1
  8
0
100
AcDbBlockBegin
  2
*Paper_Space
 70
     0
 10
0.0
 20
0.0
 30
0.0
  3
*Paper_Space
  1

  0
ENDBLK
  5
1D
330
1B
100
AcDbEntity
 67
     1
  8
0
100
AcDbBlockEnd
  0
BLOCK
  5
24
330
23
100
AcDbEntity
  8
0
100
AcDbBlockBegin
  2
*Paper_Space0
 70
     0
 10
0.0
 20
0.0
 30
0.0
  3
*Paper_Space0
  1

  0
ENDBLK
  5
25
330
23
100
AcDbEntity
  8
0
100
AcDbBlockEnd
  0
BLOCK
  5
C5
330
C4
100
AcDbEntity
  8
0
100
AcDbBlockBegin
  2
*D1
 70
     1
 10
0.0
 20
0.0
 30
0.0
  3
*D1
  1

  0
SOLID
  5
C7
330
C4
100
AcDbEntity
  8
0
  6
Continuous
 62
     7
370
     0
100
AcDbTrace
 10
42.355025151
 20
407.1428977278
 30
0.0
 11
45.855025151
 21
406.2428977278
 31
0.0
 12
45.855025151
 22
408.0428977278
 32
0.0
 13
45.855025151
 23
408.0428977278
 33
0.0
  0
SOLID
  5
C8
330
C4
100
AcDbEntity
  8
0
  6
Continuous
 62
     7
370
     0
100
AcDbTrace
 10
350.355025151
 20
407.1428977278
 30
0.0
 11
346.855025151
 21
408.0428977278
 31
0.0
 12
346.855025151
 22
406.2428977278
 32
0.0
 13
346.855025151
 23
406.2428977278
 33
0.0
  0
LINE
  5
C9
330
C4
100
AcDbEntity
  8
0
  6
Continuous
 62
     7
370
     0
100
AcDbLine
 10
42.355025151
 20
387.6428977278
 30
0.0
 11
42.355025151
 21
408.1428977278
 31
0.0
  0
LINE
  5
CA
330
C4
100
AcDbEntity
  8
0
  6
Continuous
 62
     7
370
     0
100
AcDbLine
 10
350.355025151
 20
387.6428977278
 30
0.0
 11
350.355025151
 21
408.1428977278
 31
0.0
  0
LINE
  5
CB
330
C4
100
AcDbEntity
  8
0
  6
Continuous
 62
     7
370
     0
100
AcDbLine
 10
42.355025151
 20
407.1428977278
 30
0.0
 11
350.355025151
 21
407.1428977278
 31
0.0
  0
MTEXT
  5
CC
330
C4
100
AcDbEntity
  8
0
  6
Continuous
 62
     7
370
     0
100
AcDbMText
 10
192.4862365662
 20
411.6546350499
 30
0.0
 40
3.5
 41
0.0
 71
     1
 72
     1
  1
308
  7
SLDTEXTSTYLE0
 73
     1
 44
1.0
  0
ENDBLK
  5
C6
330
C4
100
AcDbEntity
  8
0
100
AcDbBlockEnd
  0
BLOCK
  5
1C4
330
1C3
100
AcDbEntity
  8
0
100
AcDbBlockBegin
  2
*D2
 70
     1
 10
0.0
 20
0.0
 30
0.0
  3
*D2
  1

  0
SOLID
  5
1C6
330
1C3
100
AcDbEntity
  8
0
  6
Continuous
 62
     7
370
     0
100
AcDbTrace
 10
380.355025151
 20
287.1413415004
 30
0.0
 11
379.455025151
 21
283.6413415004
 31
0.0
 12
381.255025151
 22
283.6413415004
 32
0.0
 13
381.255025151
 23
283.6413415004
 33
0.0
  0
SOLID
  5
1C7
330
1C3
100
AcDbEntity
  8
0
  6
Continuous
 62
     7
370
     0
100
AcDbTrace
 10
380.355025151
 20
151.9413415004
 30
0.0
 11
381.255025151
 21
155.4413415004
 31
0.0
 12
379.455025151
 22
155.4413415004
 32
0.0
 13
379.455025151
 23
155.4413415004
 33
0.0
  0
LINE
  5
1C8
330
1C3
100
AcDbEntity
  8
0
  6
Continuous
 62
     7
370
     0
100
AcDbLine
 10
219.855025151
 20
287.1413415004
 30
0.0
 11
381.355025151
 21
287.1413415004
 31
0.0
  0
LINE
  5
1C9
330
1C3
100
AcDbEntity
  8
0
  6
Continuous
 62
     7
370
     0
100
AcDbLine
 10
343.355025151
 20
151.9413415004
 30
0.0
 11
381.355025151
 21
151.9413415004
 31
0.0
  0
LINE
  5
1CA
330
1C3
100
AcDbEntity
  8
0
  6
Continuous
 62
     7
370
     0
100
AcDbLine
 10
380.355025151
 20
287.1413415004
 30
0.0
 11
380.355025151
 21
151.9413415004
 31
0.0
  0
MTEXT
  5
1CB
330
1C3
100
AcDbEntity
  8
0
  6
Continuous
 62
     7
370
     0
100
AcDbMText
 10
375.843287829
 20
212.3171859611
 30
0.0
 40
3.5
 41
0.0
 71
     1
 72
     1
  1
135
  7
SLDTEXTSTYLE0
 11
-7.044195017643634E-15
 21
1.0
 31
0.0
 73
     1
 44
1.0
  0
ENDBLK
  5
1C5
330
1C3
100
AcDbEntity
  8
0
100
AcDbBlockEnd
  0
BLOCK
  5
1CE
330
1CD
100
AcDbEntity
  8
0
100
AcDbBlockBegin
  2
*D3
 70
     1
 10
0.0
 20
0.0
 30
0.0
  3
*D3
  1

  0
SOLID
  5
1D0
330
1CD
100
AcDbEntity
  8
0
  6
Continuous
 62
     7
370
     0
100
AcDbTrace
 10
370.355025151
 20
261.4413415004
 30
0.0
 11
369.455025151
 21
257.9413415004
 31
0.0
 12
371.255025151
 22
257.9413415004
 32
0.0
 13
371.255025151
 23
257.9413415004
 33
0.0
  0
SOLID
  5
1D1
330
1CD
100
AcDbEntity
  8
0
  6
Continuous
 62
     7
370
     0
100
AcDbTrace
 10
370.355025151
 20
155.4413415004
 30
0.0
 11
371.255025151
 21
158.9413415004
 31
0.0
 12
369.455025151
 22
158.9413415004
 32
0.0
 13
369.455025151
 23
158.9413415004
 33
0.0
  0
LINE
  5
1D2
330
1CD
100
AcDbEntity
  8
0
  6
Continuous
 62
     7
370
     0
100
AcDbLine
 10
343.355025151
 20
261.4413415004
 30
0.0
 11
371.355025151
 21
261.4413415004
 31
0.0
  0
LINE
  5
1D3
330
1CD
100
AcDbEntity
  8
0
  6
Continuous
 62
     7
370
     0
100
AcDbLine
 10
343.355025151
 20
155.4413415004
 30
0.0
 11
371.355025151
 21
155.4413415004
 31
0.0
  0
LINE
  5
1D4
330
1CD
100
AcDbEntity
  8
0
  6
Continuous
 62
     7
370
     0
100
AcDbLine
 10
370.355025151
 20
261.4413415004
 30
0.0
 11
370.355025151
 21
155.4413415004
 31
0.0
  0
MTEXT
  5
1D5
330
1CD
100
AcDbEntity
  8
0
  6
Continuous
 62
     7
370
     0
100
AcDbMText
 10
365.843287829
 20
212.3171859611
 30
0.0
 40
3.5
 41
0.0
 71
     1
 72
     1
  1
106
  7
SLDTEXTSTYLE0
 11
-7.044195017643634E-15
 21
1.0
 31
0.0
 73
     1
 44
1.0
  0
ENDBLK
  5
1CF
330
1CD
100
AcDbEntity
  8
0
100
AcDbBlockEnd
  0
BLOCK
  5
1D8
330
1D7
100
AcDbEntity
  8
0
100
AcDbBlockBegin
  2
*D4
 70
     1
 10
0.0
 20
0.0
 30
0.0
  3
*D4
  1

  0
SOLID
  5
1DA
330
1D7
100
AcDbEntity
  8
0
  6
Continuous
 62
     7
370
     0
100
AcDbTrace
 10
46.355025151
 20
141.9413415004
 30
0.0
 11
49.855025151
 21
141.0413415004
 31
0.0
 12
49.855025151
 22
142.8413415004
 32
0.0
 13
49.855025151
 23
142.8413415004
 33
0.0
  0
SOLID
  5
1DB
330
1D7
100
AcDbEntity
  8
0
  6
Continuous
 62
     7
370
     0
100
AcDbTrace
 10
346.355025151
 20
141.9413415004
 30
0.0
 11
342.855025151
 21
142.8413415004
 31
0.0
 12
342.855025151
 22
141.0413415004
 32
0.0
 13
342.855025151
 23
141.0413415004
 33
0.0
  0
LINE
  5
1DC
330
1D7
100
AcDbEntity
  8
0
  6
Continuous
 62
     7
370
     0
100
AcDbLine
 10
46.355025151
 20
158.9413415004
 30
0.0
 11
46.355025151
 21
140.9413415004
 31
0.0
  0
LINE
  5
1DD
330
1D7
100
AcDbEntity
  8
0
  6
Continuous
 62
     7
370
     0
100
AcDbLine
 10
346.355025151
 20
158.9413415004
 30
0.0
 11
346.355025151
 21
140.9413415004
 31
0.0
  0
LINE
  5
1DE
330
1D7
100
AcDbEntity
  8
0
  6
Continuous
 62
     7
370
     0
100
AcDbLine
 10
46.355025151
 20
141.9413415004
 30
0.0
 11
346.355025151
 21
141.9413415004
 31
0.0
  0
MTEXT
  5
1DF
330
1D7
100
AcDbEntity
  8
0
  6
Continuous
 62
     7
370
     0
100
AcDbMText
 10
192.4723912712
 20
146.4530788224
 30
0.0
 40
3.5
 41
0.0
 71
     1
 72
     1
  1
300
  7
SLDTEXTSTYLE0
 73
     1
 44
1.0
  0
ENDBLK
  5
1D9
330
1D7
100
AcDbEntity
  8
0
100
AcDbBlockEnd
  0
BLOCK
  5
39B
330
39A
100
AcDbEntity
  8
0
100
AcDbBlockBegin
  2
*D5
 70
     1
 10
0.0
 20
0.0
 30
0.0
  3
*D5
  1

  0
SOLID
  5
39D
330
39A
100
AcDbEntity
  8
0
  6
Continuous
 62
     7
370
     0
100
AcDbTrace
 10
567.1425874091
 20
311.6032107107
 30
0.0
 11
568.0476789771
 21
315.1018975005
 31
0.0
 12
566.2476808824
 22
315.1045165111
 32
0.0
 13
566.2476808824
 23
315.1045165111
 33
0.0
  0
SOLID
  5
39E
330
39A
100
AcDbEntity
  8
0
  6
Continuous
 62
     7
370
     0
100
AcDbTrace
 10
567.2520316242
 20
386.8222184462
 30
0.0
 11
566.3469400562
 21
383.3235316563
 31
0.0
 12
568.1469381509
 22
383.3209126457
 32
0.0
 13
568.1469381509
 23
383.3209126457
 33
0.0
  0
LINE
  5
39F
330
39A
100
AcDbEntity
  8
0
  6
Continuous
 62
     7
370
     0
100
AcDbLine
 10
543.9224554989
 20
311.6369961751
 30
0.0
 11
568.1425863506
 21
311.6017557048
 31
0.0
  0
LINE
  5
3A0
330
39A
100
AcDbEntity
  8
0
  6
Continuous
 62
     7
370
     0
100
AcDbLine
 10
544.4818992376
 20
386.855349158
 30
0.0
 11
568.2520305657
 21
386.8207634403
 31
0.0
  0
LINE
  5
3A1
330
39A
100
AcDbEntity
  8
0
  6
Continuous
 62
     7
370
     0
100
AcDbLine
 10
567.1425874091
 20
311.6032107107
 30
0.0
 11
567.2520316242
 21
386.8222184462
 31
0.0
  0
MTEXT
  5
3A2
330
39A
100
AcDbEntity
  8
0
  6
Continuous
 62
     7
370
     0
100
AcDbMText
 10
562.6729542089
 20
340.543886024
 30
0.0
 40
3.5
 41
0.0
 71
     1
 72
     1
  1
75
  7
SLDTEXTSTYLE0
 11
0.001455005888432725
 21
0.9999989414783721
 31
0.0
 73
     1
 44
1.0
  0
ENDBLK
  5
39C
330
39A
100
AcDbEntity
  8
0
100
AcDbBlockEnd
  0
ENDSEC
  0
SECTION
  2
ENTITIES
  0
LINE
  5
48
330
1F
100
AcDbEntity
  8
0
  6
Continuous
 62
     7
370
    30
100
AcDbLine
 10
77.3550224092
 20
312.142896655
 30
0.0
 11
71.355025151
 21
312.142896655
 31
0.0
  0
LINE
  5
49
330
1F
100
AcDbEntity
  8
0
  6
Continuous
 62
     7
370
    30
100
AcDbLine
 10
71.355025151
 20
312.142896655
 30
0.0
 11
71.355025151
 21
316.1428973106
 31
0.0
  0
LINE
  5
4A
330
1F
100
AcDbEntity
  8
0
  6
Continuous
 62
     7
370
    30
100
AcDbLine
 10
77.3550224092
 20
316.1428973106
 30
0.0
 11
77.3550224092
 21
312.142896655
 31
0.0
  0
LINE
  5
4B
330
1F
100
AcDbEntity
  8
0
  6
Continuous
 62
     7
370
    30
100
AcDbLine
 10
321.355025151
 20
312.142896655
 30
0.0
 11
315.3550278929
 21
312.142896655
 31
0.0
  0
LINE
  5
4C
330
1F
100
AcDbEntity
  8
0
  6
Continuous
 62
     7
370
    30
100
AcDbLine
 10
321.355025151
 20
316.1428973106
 30
0.0
 11
321.355025151
 21
312.142896655
 31
0.0
  0
LINE
  5
4D
330
1F
100
AcDbEntity
  8
0
  6
Continuous
 62
     7
370
    30
100
AcDbLine
 10
315.3550278929
 20
312.142896655
 30
0.0
 11
315.3550278929
 21
316.1428973106
 31
0.0
  0
ARC
  5
4E
330
1F
100
AcDbEntity
  8
0
  6
Continuous
 62
     7
370
    30
100
AcDbCircle
 10
79.355025151
 20
326.1428977278
 30
0.0
 40
2.000000000000014
100
AcDbArc
 50
90.0
 51
180.0
  0
LINE
  5
4F
330
1F
100
AcDbEntity
  8
0
  6
Continuous
 62
     7
370
    30
100
AcDbLine
 10
315.3550278929
 20
334.1428983984
 30
0.0
 11
77.3550224092
 21
334.1428983984
 31
0.0
  0
LINE
  5
50
330
1F
100
AcDbEntity
  8
0
  6
Continuous
 62
     7
370
    30
100
AcDbLine
 10
313.3550238397
 20
328.1428992776
 30
0.0
 11
79.3550264623
 21
328.1428992776
 31
0.0
  0
ARC
  5
51
330
1F
100
AcDbEntity
  8
0
  6
Continuous
 62
     7
370
    30
100
AcDbCircle
 10
315.355025151
 20
328.1428977278
 30
0.0
 40
6.000000000000057
100
AcDbArc
 50
0.0
 51
90.0
  0
LINE
  5
52
330
1F
100
AcDbEntity
  8
0
  6
Continuous
 62
     7
370
    30
100
AcDbLine
 10
321.355025151
 20
316.1428973106
 30
0.0
 11
321.355025151
 21
328.1428992776
 31
0.0
  0
LINE
  5
53
330
1F
100
AcDbEntity
  8
0
  6
Continuous
 62
     7
370
    30
100
AcDbLine
 10
77.3550224092
 20
326.1428989497
 30
0.0
 11
77.3550224092
 21
316.1428973106
 31
0.0
  0
ARC
  5
54
330
1F
100
AcDbEntity
  8
0
  6
Continuous
 62
     7
370
    30
100
AcDbCircle
 10
313.355025151
 20
326.1428977278
 30
0.0
 40
2.0
100
AcDbArc
 50
0.0
 51
90.0
  0
LINE
  5
55
330
1F
100
AcDbEntity
  8
0
  6
Continuous
 62
     7
370
    30
100
AcDbLine
 10
71.355025151
 20
328.1428992776
 30
0.0
 11
71.355025151
 21
316.1428973106
 31
0.0
  0
ARC
  5
56
330
1F
100
AcDbEntity
  8
0
  6
Continuous
 62
     7
370
    30
100
AcDbCircle
 10
77.355025151
 20
328.1428977278
 30
0.0
 40
6.000000000000057
100
AcDbArc
 50
90.0
 51
180.0
  0
LINE
  5
57
330
1F
100
AcDbEntity
  8
0
  6
Continuous
 62
     7
370
    30
100
AcDbLine
 10
315.3550278929
 20
316.1428973106
 30
0.0
 11
315.3550278929
 21
326.1428989497
 31
0.0
  0
LINE
  5
58
330
1F
100
AcDbEntity
  8
0
  6
Continuous
 62
     7
370
    30
100
AcDbLine
 10
321.355025151
 20
314.1428969828
 30
0.0
 11
323.3550292042
 21
314.1428969828
 31
0.0
  0
LINE
  5
59
330
1F
100
AcDbEntity
  8
0
  6
Continuous
 62
     7
370
    30
100
AcDbLine
 10
323.3550292042
 20
312.142896655
 30
0.0
 11
321.355025151
 21
312.142896655
 31
0.0
  0
LINE
  5
5A
330
1F
100
AcDbEntity
  8
0
  6
Continuous
 62
     7
370
    30
100
AcDbLine
 10
69.3550210979
 20
314.1428969828
 30
0.0
 11
71.355025151
 21
314.1428969828
 31
0.0
  0
LINE
  5
5B
330
1F
100
AcDbEntity
  8
0
  6
Continuous
 62
     7
370
    30
100
AcDbLine
 10
71.355025151
 20
312.142896655
 30
0.0
 11
69.3550210979
 21
312.142896655
 31
0.0
  0
LINE
  5
5C
330
1F
100
AcDbEntity
  8
0
  6
Continuous
 62
     7
370
    30
100
AcDbLine
 10
77.3550224092
 20
314.1428969828
 30
0.0
 11
79.3550264623
 21
314.1428969828
 31
0.0
  0
LINE
  5
5D
330
1F
100
AcDbEntity
  8
0
  6
Continuous
 62
     7
370
    30
100
AcDbLine
 10
79.3550264623
 20
312.142896655
 30
0.0
 11
77.3550224092
 21
312.142896655
 31
0.0
  0
LINE
  5
5E
330
1F
100
AcDbEntity
  8
0
  6
Continuous
 62
     7
370
    30
100
AcDbLine
 10
313.3550238397
 20
314.1428969828
 30
0.0
 11
315.3550278929
 21
314.1428969828
 31
0.0
  0
LINE
  5
5F
330
1F
100
AcDbEntity
  8
0
  6
Continuous
 62
     7
370
    30
100
AcDbLine
 10
315.3550278929
 20
312.142896655
 30
0.0
 11
313.3550238397
 21
312.142896655
 31
0.0
  0
ARC
  5
60
330
1F
100
AcDbEntity
  8
0
  6
Continuous
 62
     7
370
    30
100
AcDbCircle
 10
47.355025151
 20
316.1428977278
 30
0.0
 40
4.0
100
AcDbArc
 50
180.0
 51
270.0
  0
ARC
  5
61
330
1F
100
AcDbEntity
  8
0
  6
Continuous
 62
     7
370
    30
100
AcDbCircle
 10
47.355025151
 20
316.1428977278
 30
0.0
 40
2.0
100
AcDbArc
 50
180.0
 51
270.0
  0
LINE
  5
62
330
1F
100
AcDbEntity
  8
0
  6
Continuous
 62
     7
370
    30
100
AcDbLine
 10
69.3550210979
 20
314.1428969828
 30
0.0
 11
47.3550212171
 21
314.1428969828
 31
0.0
  0
LINE
  5
63
330
1F
100
AcDbEntity
  8
0
  6
Continuous
 62
     7
370
    30
100
AcDbLine
 10
47.3550212171
 20
312.142896655
 30
0.0
 11
69.3550210979
 21
312.142896655
 31
0.0
  0
LINE
  5
64
330
1F
100
AcDbEntity
  8
0
  6
Continuous
 62
     7
370
    30
100
AcDbLine
 10
43.3550280121
 20
361.1428977018
 30
0.0
 11
43.3550280121
 21
316.1428973106
 31
0.0
  0
LINE
  5
65
330
1F
100
AcDbEntity
  8
0
  6
Continuous
 62
     7
370
    30
100
AcDbLine
 10
45.3550320652
 20
361.1428977018
 30
0.0
 11
45.3550320652
 21
316.1428973106
 31
0.0
  0
LINE
  5
66
330
1F
100
AcDbEntity
  8
0
  6
Continuous
 62
     7
370
    30
100
AcDbLine
 10
347.3550182369
 20
363.1428976803
 30
0.0
 11
349.35502229
 21
363.1428976803
 31
0.0
  0
LINE
  5
67
330
1F
100
AcDbEntity
  8
0
  6
Continuous
 62
     7
370
    30
100
AcDbLine
 10
349.35502229
 20
363.1428976803
 30
0.0
 11
349.35502229
 21
361.1428977018
 31
0.0
  0
LINE
  5
68
330
1F
100
AcDbEntity
  8
0
  6
Continuous
 62
     7
370
    30
100
AcDbLine
 10
347.3550182369
 20
361.1428977018
 30
0.0
 11
347.3550182369
 21
363.1428976803
 31
0.0
  0
LINE
  5
69
330
1F
100
AcDbEntity
  8
0
  6
Continuous
 62
     7
370
    30
100
AcDbLine
 10
43.3550280121
 20
363.1428976803
 30
0.0
 11
45.3550320652
 21
363.1428976803
 31
0.0
  0
LINE
  5
6A
330
1F
100
AcDbEntity
  8
0
  6
Continuous
 62
     7
370
    30
100
AcDbLine
 10
43.3550280121
 20
361.1428977018
 30
0.0
 11
43.3550280121
 21
363.1428976803
 31
0.0
  0
LINE
  5
6B
330
1F
100
AcDbEntity
  8
0
  6
Continuous
 62
     7
370
    30
100
AcDbLine
 10
45.3550320652
 20
363.1428976803
 30
0.0
 11
45.3550320652
 21
361.1428977018
 31
0.0
  0
LINE
  5
6C
330
1F
100
AcDbEntity
  8
0
  6
Continuous
 62
     7
370
    30
100
AcDbLine
 10
345.355029085
 20
314.1428969828
 30
0.0
 11
323.3550292042
 21
314.1428969828
 31
0.0
  0
LINE
  5
6D
330
1F
100
AcDbEntity
  8
0
  6
Continuous
 62
     7
370
    30
100
AcDbLine
 10
323.3550292042
 20
312.142896655
 30
0.0
 11
345.355029085
 21
312.142896655
 31
0.0
  0
LINE
  5
6E
330
1F
100
AcDbEntity
  8
0
  6
Continuous
 62
     7
370
    30
100
AcDbLine
 10
347.3550182369
 20
361.1428977018
 30
0.0
 11
347.3550182369
 21
316.1428973106
 31
0.0
  0
LINE
  5
6F
330
1F
100
AcDbEntity
  8
0
  6
Continuous
 62
     7
370
    30
100
AcDbLine
 10
349.35502229
 20
316.1428973106
 30
0.0
 11
349.35502229
 21
361.1428977018
 31
0.0
  0
LINE
  5
70
330
1F
100
AcDbEntity
  8
0
  6
Continuous
 62
     7
370
    30
100
AcDbLine
 10
79.3550264623
 20
314.1428969828
 30
0.0
 11
313.3550238397
 21
314.1428969828
 31
0.0
  0
LINE
  5
71
330
1F
100
AcDbEntity
  8
0
  6
Continuous
 62
     7
370
    30
100
AcDbLine
 10
79.3550264623
 20
312.142896655
 30
0.0
 11
313.3550238397
 21
312.142896655
 31
0.0
  0
ARC
  5
72
330
1F
100
AcDbEntity
  8
0
  6
Continuous
 62
     7
370
    30
100
AcDbCircle
 10
345.355025151
 20
316.1428977278
 30
0.0
 40
2.0
100
AcDbArc
 50
270.0
 51
0.0
  0
ARC
  5
73
330
1F
100
AcDbEntity
  8
0
  6
Continuous
 62
     7
370
    30
100
AcDbCircle
 10
345.355025151
 20
316.1428977278
 30
0.0
 40
4.0
100
AcDbArc
 50
270.0
 51
0.0
  0
LINE
  5
74
330
1F
100
AcDbEntity
  8
0
  6
Continuous
 62
     7
370
    30
100
AcDbLine
 10
43.3550280121
 20
363.1428976803
 30
0.0
 11
43.3550280121
 21
365.1428977753
 31
0.0
  0
LINE
  5
75
330
1F
100
AcDbEntity
  8
0
  6
Continuous
 62
     7
370
    30
100
AcDbLine
 10
45.3550320652
 20
365.1428977753
 30
0.0
 11
45.3550320652
 21
363.1428976803
 31
0.0
  0
LINE
  5
76
330
1F
100
AcDbEntity
  8
0
  6
Continuous
 62
     7
370
    30
100
AcDbLine
 10
347.3550182369
 20
363.1428976803
 30
0.0
 11
347.3550182369
 21
365.1428977753
 31
0.0
  0
LINE
  5
77
330
1F
100
AcDbEntity
  8
0
  6
Continuous
 62
     7
370
    30
100
AcDbLine
 10
349.35502229
 20
365.1428977753
 30
0.0
 11
349.35502229
 21
363.1428976803
 31
0.0
  0
LINE
  5
78
330
1F
100
AcDbEntity
  8
0
  6
Continuous
 62
     7
370
    30
100
AcDbLine
 10
50.3550272968
 20
365.1428977753
 30
0.0
 11
42.8550195482
 21
365.1428977753
 31
0.0
  0
ARC
  5
79
330
1F
100
AcDbEntity
  8
0
  6
Continuous
 62
     7
370
    30
100
AcDbCircle
 10
42.855025151
 20
365.6428977278
 30
0.0
 40
0.5000000000000284
100
AcDbArc
 50
180.0
 51
270.0
  0
LINE
  5
7A
330
1F
100
AcDbEntity
  8
0
  6
Continuous
 62
     7
370
    30
100
AcDbLine
 10
42.3550259855
 20
386.6428986219
 30
0.0
 11
42.3550259855
 21
365.6428977409
 31
0.0
  0
LINE
  5
7B
330
1F
100
AcDbEntity
  8
0
  6
Continuous
 62
     7
370
    30
100
AcDbLine
 10
342.3550230053
 20
365.1428977753
 30
0.0
 11
50.3550272968
 21
365.1428977753
 31
0.0
  0
LINE
  5
7C
330
1F
100
AcDbEntity
  8
0
  6
Continuous
 62
     7
370
    30
100
AcDbLine
 10
50.3550272968
 20
387.1428977725
 30
0.0
 11
342.3550230053
 21
387.1428977725
 31
0.0
  0
LINE
  5
7D
330
1F
100
AcDbEntity
  8
0
  6
Continuous
 62
     7
370
    30
100
AcDbLine
 10
350.3550243166
 20
386.6428986219
 30
0.0
 11
350.3550243166
 21
365.6428977409
 31
0.0
  0
ARC
  5
7E
330
1F
100
AcDbEntity
  8
0
  6
Continuous
 62
     7
370
    30
100
AcDbCircle
 10
42.855025151
 20
386.6428977278
 30
0.0
 40
0.5000000000000284
100
AcDbArc
 50
90.0
 51
180.0
  0
LINE
  5
7F
330
1F
100
AcDbEntity
  8
0
  6
Continuous
 62
     7
370
    30
100
AcDbLine
 10
42.8550195482
 20
387.1428977725
 30
0.0
 11
50.3550272968
 21
387.1428977725
 31
0.0
  0
LINE
  5
80
330
1F
100
AcDbEntity
  8
0
  6
Continuous
 62
     7
370
    30
100
AcDbLine
 10
349.8550307539
 20
365.1428977753
 30
0.0
 11
342.3550230053
 21
365.1428977753
 31
0.0
  0
ARC
  5
81
330
1F
100
AcDbEntity
  8
0
  6
Continuous
 62
     7
370
    30
100
AcDbCircle
 10
349.855025151
 20
365.6428977278
 30
0.0
 40
0.5000000000000568
100
AcDbArc
 50
270.0
 51
0.0
  0
LINE
  5
82
330
1F
100
AcDbEntity
  8
0
  6
Continuous
 62
     7
370
    30
100
AcDbLine
 10
342.3550230053
 20
387.1428977725
 30
0.0
 11
349.8550307539
 21
387.1428977725
 31
0.0
  0
ARC
  5
83
330
1F
100
AcDbEntity
  8
0
  6
Continuous
 62
     7
370
    30
100
AcDbCircle
 10
349.855025151
 20
386.6428977278
 30
0.0
 40
0.5000000000000568
100
AcDbArc
 50
0.0
 51
90.0
  0
ELLIPSE
  5
84
330
1F
100
AcDbEntity
  8
0
  6
Continuous
 62
     7
370
    30
100
AcDbEllipse
 10
170.655025151
 20
364.3923423779
 30
0.0
 11
0.2999999999999829
 21
0.0
 31
0.0
210
0.0
220
0.0
230
1.0
 40
0.5773502692
 41
1.570796326794897
 42
3.141592653589793
  0
LINE
  5
85
330
1F
100
AcDbEntity
  8
0
  6
Continuous
 62
     7
370
    30
100
AcDbLine
 10
170.3550246146
 20
364.3923423804
 30
0.0
 11
170.3550246146
 21
364.8428977029
 31
0.0
  0
ARC
  5
86
330
1F
100
AcDbEntity
  8
0
  6
Continuous
 62
     7
370
    30
100
AcDbCircle
 10
170.655025151
 20
364.8428977278
 30
0.0
 40
0.3000000000000114
100
AcDbArc
 50
90.0
 51
180.0
  0
ARC
  5
87
330
1F
100
AcDbEntity
  8
0
  6
Continuous
 62
     7
370
    30
100
AcDbCircle
 10
170.655025151
 20
361.9428977278
 30
0.0
 40
0.3000000000000114
100
AcDbArc
 50
180.0
 51
270.0
  0
LINE
  5
88
330
1F
100
AcDbEntity
  8
0
  6
Continuous
 62
     7
370
    30
100
AcDbLine
 10
170.3550246146
 20
361.9428977398
 30
0.0
 11
170.3550246146
 21
364.3923423804
 31
0.0
  0
LINE
  5
89
330
1F
100
AcDbEntity
  8
0
  6
Continuous
 62
     7
370
    30
100
AcDbLine
 10
222.3550256875
 20
364.3923423804
 30
0.0
 11
222.3550256875
 21
361.9428977398
 31
0.0
  0
ARC
  5
8A
330
1F
100
AcDbEntity
  8
0
  6
Continuous
 62
     7
370
    30
100
AcDbCircle
 10
222.055025151
 20
361.9428977278
 30
0.0
 40
0.3000000000000114
100
AcDbArc
 50
270.0
 51
0.0
  0
ELLIPSE
  5
8B
330
1F
100
AcDbEntity
  8
0
  6
Continuous
 62
     7
370
    30
100
AcDbEllipse
 10
222.055025151
 20
364.3923423779
 30
0.0
 11
0.3000000000000114
 21
0.0
 31
0.0
210
0.0
220
0.0
230
1.0
 40
0.5773502692
 41
0.0
 42
1.570796326794897
  0
ARC
  5
8C
330
1F
100
AcDbEntity
  8
0
  6
Continuous
 62
     7
370
    30
100
AcDbCircle
 10
222.055025151
 20
364.8428977278
 30
0.0
 40
0.3000000000000114
100
AcDbArc
 50
0.0
 51
90.0
  0
LINE
  5
8D
330
1F
100
AcDbEntity
  8
0
  6
Continuous
 62
     7
370
    30
100
AcDbLine
 10
222.3550256875
 20
364.8428977029
 30
0.0
 11
222.3550256875
 21
364.3923423804
 31
0.0
  0
LINE
  5
8E
330
1F
100
AcDbEntity
  8
0
  6
Continuous
 62
     7
370
    30
100
AcDbLine
 10
170.6550259676
 20
361.6428977837
 30
0.0
 11
222.0550243345
 21
361.6428977837
 31
0.0
  0
LINE
  5
8F
330
1F
100
AcDbEntity
  8
0
  6
Continuous
 62
     7
370
    30
100
AcDbLine
 10
222.0550243345
 20
364.5655474536
 30
0.0
 11
170.6550259676
 21
364.5655474536
 31
0.0
  0
LINE
  5
90
330
1F
100
AcDbEntity
  8
0
  6
Continuous
 62
     7
370
    30
100
AcDbLine
 10
170.3550246146
 20
358.6428977576
 30
0.0
 11
170.3550246146
 21
361.9428977398
 31
0.0
  0
LINE
  5
91
330
1F
100
AcDbEntity
  8
0
  6
Continuous
 62
     7
370
    30
100
AcDbLine
 10
222.3550256875
 20
361.9428977398
 30
0.0
 11
222.3550256875
 21
358.6428977576
 31
0.0
  0
LINE
  5
92
330
1F
100
AcDbEntity
  8
0
  6
Continuous
 62
     7
370
    30
100
AcDbLine
 10
170.3550246146
 20
364.8428977029
 30
0.0
 11
170.3550246146
 21
365.1428977753
 31
0.0
  0
ARC
  5
93
330
1F
100
AcDbEntity
  8
0
  6
Continuous
 62
     7
370
    30
100
AcDbCircle
 10
222.055025151
 20
343.4428977278
 30
0.0
 40
0.3000000000000114
100
AcDbArc
 50
270.0
 51
0.0
  0
LINE
  5
94
330
1F
100
AcDbEntity
  8
0
  6
Continuous
 62
     7
370
    30
100
AcDbLine
 10
170.3550246146
 20
343.4428975013
 30
0.0
 11
170.3550246146
 21
358.6428977576
 31
0.0
  0
LINE
  5
95
330
1F
100
AcDbEntity
  8
0
  6
Continuous
 62
     7
370
    30
100
AcDbLine
 10
222.3550256875
 20
358.6428977576
 30
0.0
 11
222.3550256875
 21
343.4428975013
 31
0.0
  0
LINE
  5
96
330
1F
100
AcDbEntity
  8
0
  6
Continuous
 62
     7
370
    30
100
AcDbLine
 10
222.3550256875
 20
365.1428977753
 30
0.0
 11
222.3550256875
 21
364.8428977029
 31
0.0
  0
ARC
  5
97
330
1F
100
AcDbEntity
  8
0
  6
Continuous
 62
     7
370
    30
100
AcDbCircle
 10
170.655025151
 20
343.4428977278
 30
0.0
 40
0.3000000000000114
100
AcDbArc
 50
180.0
 51
270.0
  0
LINE
  5
98
330
1F
100
AcDbEntity
  8
0
  6
Continuous
 62
     7
370
    30
100
AcDbLine
 10
222.0550243345
 20
343.142898011
 30
0.0
 11
170.6550259676
 21
343.142898011
 31
0.0
  0
LINE
  5
99
330
1F
100
AcDbEntity
  8
0
  6
Continuous
 62
     8
370
     0
100
AcDbLine
 10
71.355025151
 20
316.1428973106
 30
0.0
 11
77.3550224092
 21
316.1428973106
 31
0.0
  0
LINE
  5
9A
330
1F
100
AcDbEntity
  8
0
  6
Continuous
 62
     8
370
     0
100
AcDbLine
 10
315.3550278929
 20
316.1428973106
 30
0.0
 11
321.355025151
 21
316.1428973106
 31
0.0
  0
LINE
  5
9B
330
1F
100
AcDbEntity
  8
0
  6
Continuous
 62
     8
370
     0
100
AcDbLine
 10
323.3550292042
 20
314.1428969828
 30
0.0
 11
323.3550292042
 21
312.142896655
 31
0.0
  0
LINE
  5
9C
330
1F
100
AcDbEntity
  8
0
  6
Continuous
 62
     8
370
     0
100
AcDbLine
 10
69.3550210979
 20
312.142896655
 30
0.0
 11
69.3550210979
 21
314.1428969828
 31
0.0
  0
LINE
  5
9D
330
1F
100
AcDbEntity
  8
0
  6
Continuous
 62
     8
370
     0
100
AcDbLine
 10
79.3550264623
 20
314.1428969828
 30
0.0
 11
79.3550264623
 21
312.142896655
 31
0.0
  0
LINE
  5
9E
330
1F
100
AcDbEntity
  8
0
  6
Continuous
 62
     8
370
     0
100
AcDbLine
 10
313.3550238397
 20
312.142896655
 30
0.0
 11
313.3550238397
 21
314.1428969828
 31
0.0
  0
LINE
  5
9F
330
1F
100
AcDbEntity
  8
0
  6
Continuous
 62
     8
370
     0
100
AcDbLine
 10
47.3550212171
 20
314.1428969828
 30
0.0
 11
47.3550212171
 21
312.142896655
 31
0.0
  0
LINE
  5
A0
330
1F
100
AcDbEntity
  8
0
  6
Continuous
 62
     8
370
     0
100
AcDbLine
 10
45.3550320652
 20
316.1428973106
 30
0.0
 11
43.3550280121
 21
316.1428973106
 31
0.0
  0
LINE
  5
A1
330
1F
100
AcDbEntity
  8
0
  6
Continuous
 62
     8
370
     0
100
AcDbLine
 10
45.3550320652
 20
361.1428977018
 30
0.0
 11
43.3550280121
 21
361.1428977018
 31
0.0
  0
LINE
  5
A2
330
1F
100
AcDbEntity
  8
0
  6
Continuous
 62
     8
370
     0
100
AcDbLine
 10
349.35502229
 20
361.1428977018
 30
0.0
 11
347.3550182369
 21
361.1428977018
 31
0.0
  0
LINE
  5
A3
330
1F
100
AcDbEntity
  8
0
  6
Continuous
 62
     8
370
     0
100
AcDbLine
 10
345.355029085
 20
314.1428969828
 30
0.0
 11
345.355029085
 21
312.142896655
 31
0.0
  0
LINE
  5
A4
330
1F
100
AcDbEntity
  8
0
  6
Continuous
 62
     8
370
     0
100
AcDbLine
 10
347.3550182369
 20
316.1428973106
 30
0.0
 11
349.35502229
 21
316.1428973106
 31
0.0
  0
LINE
  5
A5
330
1F
100
AcDbEntity
  8
0
  6
Continuous
 62
     8
370
     0
100
AcDbLine
 10
42.3550259855
 20
365.6428977409
 30
0.0
 11
50.3550272968
 21
365.6428977409
 31
0.0
  0
LINE
  5
A6
330
1F
100
AcDbEntity
  8
0
  6
Continuous
 62
     8
370
     0
100
AcDbLine
 10
50.3550272968
 20
365.1428977753
 30
0.0
 11
50.3550272968
 21
365.6428977409
 31
0.0
  0
LINE
  5
A7
330
1F
100
AcDbEntity
  8
0
  6
Continuous
 62
     8
370
     0
100
AcDbLine
 10
50.3550272968
 20
365.6428977409
 30
0.0
 11
342.3550230053
 21
365.6428977409
 31
0.0
  0
LINE
  5
A8
330
1F
100
AcDbEntity
  8
0
  6
Continuous
 62
     8
370
     0
100
AcDbLine
 10
50.3550272968
 20
365.6428977409
 30
0.0
 11
50.3550272968
 21
386.6428986219
 31
0.0
  0
LINE
  5
A9
330
1F
100
AcDbEntity
  8
0
  6
Continuous
 62
     8
370
     0
100
AcDbLine
 10
342.3550230053
 20
386.6428986219
 30
0.0
 11
50.3550272968
 21
386.6428986219
 31
0.0
  0
LINE
  5
AA
330
1F
100
AcDbEntity
  8
0
  6
Continuous
 62
     8
370
     0
100
AcDbLine
 10
342.3550230053
 20
365.6428977409
 30
0.0
 11
342.3550230053
 21
386.6428986219
 31
0.0
  0
LINE
  5
AB
330
1F
100
AcDbEntity
  8
0
  6
Continuous
 62
     8
370
     0
100
AcDbLine
 10
50.3550272968
 20
386.6428986219
 30
0.0
 11
42.3550259855
 21
386.6428986219
 31
0.0
  0
LINE
  5
AC
330
1F
100
AcDbEntity
  8
0
  6
Continuous
 62
     8
370
     0
100
AcDbLine
 10
342.3550230053
 20
365.1428977753
 30
0.0
 11
342.3550230053
 21
365.6428977409
 31
0.0
  0
LINE
  5
AD
330
1F
100
AcDbEntity
  8
0
  6
Continuous
 62
     8
370
     0
100
AcDbLine
 10
50.3550272968
 20
386.6428986219
 30
0.0
 11
50.3550272968
 21
387.1428977725
 31
0.0
  0
LINE
  5
AE
330
1F
100
AcDbEntity
  8
0
  6
Continuous
 62
     8
370
     0
100
AcDbLine
 10
342.3550230053
 20
386.6428986219
 30
0.0
 11
342.3550230053
 21
387.1428977725
 31
0.0
  0
LINE
  5
AF
330
1F
100
AcDbEntity
  8
0
  6
Continuous
 62
     8
370
     0
100
AcDbLine
 10
342.3550230053
 20
365.6428977409
 30
0.0
 11
350.3550243166
 21
365.6428977409
 31
0.0
  0
LINE
  5
B0
330
1F
100
AcDbEntity
  8
0
  6
Continuous
 62
     8
370
     0
100
AcDbLine
 10
350.3550243166
 20
386.6428986219
 30
0.0
 11
342.3550230053
 21
386.6428986219
 31
0.0
  0
LINE
  5
B1
330
1F
100
AcDbEntity
  8
0
  6
Continuous
 62
     8
370
     0
100
AcDbLine
 10
170.6550259676
 20
365.1428977753
 30
0.0
 11
170.6550259676
 21
364.5655474536
 31
0.0
  0
LINE
  5
B2
330
1F
100
AcDbEntity
  8
0
  6
Continuous
 62
     8
370
     0
100
AcDbLine
 10
170.6550259676
 20
364.5655474536
 30
0.0
 11
170.6550259676
 21
361.6428977837
 31
0.0
  0
LINE
  5
B3
330
1F
100
AcDbEntity
  8
0
  6
Continuous
 62
     8
370
     0
100
AcDbLine
 10
222.0550243345
 20
361.6428977837
 30
0.0
 11
222.0550243345
 21
364.5655474536
 31
0.0
  0
LINE
  5
B4
330
1F
100
AcDbEntity
  8
0
  6
Continuous
 62
     8
370
     0
100
AcDbLine
 10
222.0550243345
 20
364.5655474536
 30
0.0
 11
222.0550243345
 21
365.1428977753
 31
0.0
  0
LINE
  5
B5
330
1F
100
AcDbEntity
  8
0
  6
Continuous
 62
     8
370
     0
100
AcDbLine
 10
222.0550243345
 20
358.6428977576
 30
0.0
 11
222.0550243345
 21
361.6428977837
 31
0.0
  0
LINE
  5
B6
330
1F
100
AcDbEntity
  8
0
  6
Continuous
 62
     8
370
     0
100
AcDbLine
 10
222.0550243345
 20
358.6428977576
 30
0.0
 11
170.6550259676
 21
358.6428977576
 31
0.0
  0
LINE
  5
B7
330
1F
100
AcDbEntity
  8
0
  6
Continuous
 62
     8
370
     0
100
AcDbLine
 10
170.6550259676
 20
361.6428977837
 30
0.0
 11
170.6550259676
 21
358.6428977576
 31
0.0
  0
LINE
  5
B8
330
1F
100
AcDbEntity
  8
0
  6
Continuous
 62
     8
370
     0
100
AcDbLine
 10
170.3550246146
 20
358.6428977576
 30
0.0
 11
170.6550259676
 21
358.6428977576
 31
0.0
  0
LINE
  5
B9
330
1F
100
AcDbEntity
  8
0
  6
Continuous
 62
     8
370
     0
100
AcDbLine
 10
222.3550256875
 20
358.6428977576
 30
0.0
 11
222.0550243345
 21
358.6428977576
 31
0.0
  0
LINE
  5
BA
330
1F
100
AcDbEntity
  8
0
  6
Continuous
 62
     8
370
     0
100
AcDbLine
 10
222.0550243345
 20
343.142898011
 30
0.0
 11
222.0550243345
 21
343.4428975013
 31
0.0
  0
LINE
  5
BB
330
1F
100
AcDbEntity
  8
0
  6
Continuous
 62
     8
370
     0
100
AcDbLine
 10
222.3550256875
 20
343.4428975013
 30
0.0
 11
222.0550243345
 21
343.4428975013
 31
0.0
  0
LINE
  5
BC
330
1F
100
AcDbEntity
  8
0
  6
Continuous
 62
     8
370
     0
100
AcDbLine
 10
170.6550259676
 20
358.6428977576
 30
0.0
 11
170.6550259676
 21
343.4428975013
 31
0.0
  0
LINE
  5
BD
330
1F
100
AcDbEntity
  8
0
  6
Continuous
 62
     8
370
     0
100
AcDbLine
 10
170.3550246146
 20
343.4428975013
 30
0.0
 11
170.6550259676
 21
343.4428975013
 31
0.0
  0
LINE
  5
BE
330
1F
100
AcDbEntity
  8
0
  6
Continuous
 62
     8
370
     0
100
AcDbLine
 10
222.0550243345
 20
343.4428975013
 30
0.0
 11
222.0550243345
 21
358.6428977576
 31
0.0
  0
LINE
  5
BF
330
1F
100
AcDbEntity
  8
0
  6
Continuous
 62
     8
370
     0
100
AcDbLine
 10
170.6550259676
 20
343.142898011
 30
0.0
 11
170.6550259676
 21
343.4428975013
 31
0.0
  0
LINE
  5
C0
330
1F
100
AcDbEntity
  8
0
  6
Continuous
 62
     8
370
     0
100
AcDbLine
 10
170.6550259676
 20
343.4428975013
 30
0.0
 11
222.0550243345
 21
343.4428975013
 31
0.0
  0
DIMENSION
  5
C1
330
1F
100
AcDbEntity
  8
0
  6
Continuous
 62
     7
370
     0
100
AcDbDimension
  2
*D1
 10
350.355025151
 20
407.1428977278
 30
0.0
 11
196.4947510117
 21
407.1428977278
 31
0.0
 70
   160
 71
     2
 42
-1.0
  3
SLDDIMSTYLE0
100
AcDbAlignedDimension
 13
42.355025151
 23
386.6428977278
 33
0.0
 14
350.355025151
 24
386.6428977278
 34
0.0
100
AcDbRotatedDimension
  0
LINE
  5
CD
330
1F
100
AcDbEntity
  8
0
  6
CENTER
 62
     7
370
     0
100
AcDbLine
 10
196.355025151
 20
401.11574541
 30
0.0
 11
196.213512556
 21
303.8567264605
 31
0.0
  0
LINE
  5
CE
330
1F
100
AcDbEntity
  8
0
  6
Continuous
 62
     7
370
     0
100
AcDbLine
 10
184.3521278415
 20
399.1332075977
 30
0.0
 11
196.3521151393
 21
399.115747527
 31
0.0
  0
SOLID
  5
CF
330
1F
100
AcDbEntity
  8
0
  6
Continuous
 62
     7
370
     0
100
AcDbTrace
 10
196.3521151393
 20
399.115747527
 30
0.0
 11
190.3543039992
 21
400.6244759745
 31
0.0
 12
190.3499389816
 22
397.6244791501
 32
0.0
 13
190.3499389816
 23
397.6244791501
 33
0.0
  0
LINE
  5
D0
330
1F
100
AcDbEntity
  8
0
  6
Continuous
 62
     7
370
     0
100
AcDbLine
 10
184.21643527
 20
305.8741844141
 30
0.0
 11
196.2164225678
 21
305.8567243434
 31
0.0
  0
SOLID
  5
D1
330
1F
100
AcDbEntity
  8
0
  6
Continuous
 62
     7
370
     0
100
AcDbTrace
 10
196.2164225678
 20
305.8567243434
 30
0.0
 11
190.2186114277
 21
307.365452791
 31
0.0
 12
190.2142464101
 22
304.3654559665
 32
0.0
 13
190.2142464101
 23
304.3654559665
 33
0.0
  0
MTEXT
  5
D2
330
1F
100
AcDbEntity
  8
0
  6
Continuous
 62
     7
100
AcDbMText
 10
178.4866711241
 20
402.2739278389
 30
0.0
 40
5.0
 41
0.0
 71
     1
 72
     1
  1
A
  7
SLDTEXTSTYLE0
 73
     1
 44
1.0
  0
MTEXT
  5
D3
330
1F
100
AcDbEntity
  8
0
  6
Continuous
 62
     7
100
AcDbMText
 10
177.9534084224
 20
308.0358780466
 30
0.0
 40
5.0
 41
0.0
 71
     1
 72
     1
  1
A
  7
SLDTEXTSTYLE0
 73
     1
 44
1.0
  0
LINE
  5
D4
330
1F
100
AcDbEntity
  8
0
  6
Continuous
 62
     7
370
    30
100
AcDbLine
 10
180.5665761766
 20
256.92884111
 30
0.0
 11
180.5665761766
 21
256.9413413216
 31
0.0
  0
LINE
  5
D5
330
1F
100
AcDbEntity
  8
0
  6
Continuous
 62
     7
370
    30
100
AcDbLine
 10
173.855024257
 20
286.4413415004
 30
0.0
 11
173.855024257
 21
287.1413414754
 31
0.0
  0
LINE
  5
D6
330
1F
100
AcDbEntity
  8
0
  6
Continuous
 62
     7
370
    30
100
AcDbLine
 10
173.855024257
 20
287.1413414754
 30
0.0
 11
180.8550254044
 21
287.1413414754
 31
0.0
  0
LINE
  5
D7
330
1F
100
AcDbEntity
  8
0
  6
Continuous
 62
     7
370
    30
100
AcDbLine
 10
211.8550248977
 20
287.1413414754
 30
0.0
 11
180.8550254044
 21
287.1413414754
 31
0.0
  0
LINE
  5
D8
330
1F
100
AcDbEntity
  8
0
  6
Continuous
 62
     7
370
    30
100
AcDbLine
 10
218.8550260451
 20
287.1413414754
 30
0.0
 11
218.8550260451
 21
286.4413415004
 31
0.0
  0
LINE
  5
D9
330
1F
100
AcDbEntity
  8
0
  6
Continuous
 62
     7
370
    30
100
AcDbLine
 10
211.8550248977
 20
287.1413414754
 30
0.0
 11
218.8550260451
 21
287.1413414754
 31
0.0
  0
LINE
  5
DA
330
1F
100
AcDbEntity
  8
0
  6
Continuous
 62
     7
370
    30
100
AcDbLine
 10
222.3550256875
 20
260.6413406242
 30
0.0
 11
222.3550256875
 21
258.9413416494
 31
0.0
  0
LINE
  5
DB
330
1F
100
AcDbEntity
  8
0
  6
Continuous
 62
     7
370
    30
100
AcDbLine
 10
194.8416320209
 20
260.9413419772
 30
0.0
 11
197.8684182812
 21
260.9413419772
 31
0.0
  0
ARC
  5
DC
330
1F
100
AcDbEntity
  8
0
  6
Continuous
 62
     7
370
    30
100
AcDbCircle
 10
170.655025151
 20
260.6413415004
 30
0.0
 40
0.3000000000000114
100
AcDbArc
 50
90.0
 51
180.0
  0
ARC
  5
DD
330
1F
100
AcDbEntity
  8
0
  6
Continuous
 62
     7
370
    30
100
AcDbCircle
 10
222.055025151
 20
260.6413415004
 30
0.0
 40
0.3000000000000114
100
AcDbArc
 50
0.0
 51
90.0
  0
LINE
  5
DE
330
1F
100
AcDbEntity
  8
0
  6
Continuous
 62
     7
370
    30
100
AcDbLine
 10
170.3550246146
 20
258.9413416494
 30
0.0
 11
170.3550246146
 21
260.6413406242
 31
0.0
  0
ARC
  5
DF
330
1F
100
AcDbEntity
  8
0
  6
Continuous
 62
     7
370
    30
100
AcDbCircle
 10
172.355025151
 20
258.9413415004
 30
0.0
 40
2.0
100
AcDbArc
 50
180.0
 51
270.0
  0
ARC
  5
E0
330
1F
100
AcDbEntity
  8
0
  6
Continuous
 62
     7
370
    30
100
AcDbCircle
 10
220.355025151
 20
258.9413415004
 30
0.0
 40
2.0
100
AcDbArc
 50
270.0
 51
0.0
  0
LINE
  5
E1
330
1F
100
AcDbEntity
  8
0
  6
Continuous
 62
     7
370
    30
100
AcDbLine
 10
220.3550253597
 20
256.9413413216
 30
0.0
 11
172.3550249424
 21
256.9413413216
 31
0.0
  0
LINE
  5
E2
330
1F
100
AcDbEntity
  8
0
  6
Continuous
 62
     7
370
    30
100
AcDbLine
 10
77.3550224092
 20
260.8913411308
 30
0.0
 11
170.48919467
 21
260.8913411308
 31
0.0
  0
LINE
  5
E3
330
1F
100
AcDbEntity
  8
0
  6
Continuous
 62
     7
370
    30
100
AcDbLine
 10
222.2208556321
 20
260.8913411308
 30
0.0
 11
315.3550278929
 21
260.8913411308
 31
0.0
  0
LINE
  5
E4
330
1F
100
AcDbEntity
  8
0
  6
Continuous
 62
     7
370
    30
100
AcDbLine
 10
321.355025151
 20
260.9413419772
 30
0.0
 11
321.355025151
 21
260.8913411308
 31
0.0
  0
LINE
  5
E5
330
1F
100
AcDbEntity
  8
0
  6
Continuous
 62
     7
370
    30
100
AcDbLine
 10
321.355025151
 20
260.8913411308
 30
0.0
 11
315.3550278929
 21
260.8913411308
 31
0.0
  0
LINE
  5
E6
330
1F
100
AcDbEntity
  8
0
  6
Continuous
 62
     7
370
    30
100
AcDbLine
 10
77.3550224092
 20
260.8913411308
 30
0.0
 11
71.355025151
 21
260.8913411308
 31
0.0
  0
LINE
  5
E7
330
1F
100
AcDbEntity
  8
0
  6
Continuous
 62
     7
370
    30
100
AcDbLine
 10
71.355025151
 20
260.8913411308
 30
0.0
 11
71.355025151
 21
260.9413419772
 31
0.0
  0
LINE
  5
E8
330
1F
100
AcDbEntity
  8
0
  6
Continuous
 62
     7
370
    30
100
AcDbLine
 10
46.3550191906
 20
256.3913413245
 30
0.0
 11
47.3550212171
 21
256.3913413245
 31
0.0
  0
LINE
  5
E9
330
1F
100
AcDbEntity
  8
0
  6
Continuous
 62
     7
370
    30
100
AcDbLine
 10
46.3550191906
 20
250.3913422037
 30
0.0
 11
47.3550212171
 21
250.3913422037
 31
0.0
  0
LINE
  5
EA
330
1F
100
AcDbEntity
  8
0
  6
Continuous
 62
     7
370
    30
100
AcDbLine
 10
345.355029085
 20
250.3913422037
 30
0.0
 11
346.3550311115
 21
250.3913422037
 31
0.0
  0
LINE
  5
EB
330
1F
100
AcDbEntity
  8
0
  6
Continuous
 62
     7
370
    30
100
AcDbLine
 10
345.355029085
 20
256.3913413245
 30
0.0
 11
346.3550311115
 21
256.3913413245
 31
0.0
  0
LINE
  5
EC
330
1F
100
AcDbEntity
  8
0
  6
Continuous
 62
     7
370
    30
100
AcDbLine
 10
71.355025151
 20
260.8913411308
 30
0.0
 11
71.355025151
 21
258.891340803
 31
0.0
  0
LINE
  5
ED
330
1F
100
AcDbEntity
  8
0
  6
Continuous
 62
     7
370
    30
100
AcDbLine
 10
77.3550224092
 20
258.891340803
 30
0.0
 11
77.3550224092
 21
260.8913411308
 31
0.0
  0
LINE
  5
EE
330
1F
100
AcDbEntity
  8
0
  6
Continuous
 62
     7
370
    30
100
AcDbLine
 10
321.355025151
 20
258.891340803
 30
0.0
 11
321.355025151
 21
260.8913411308
 31
0.0
  0
LINE
  5
EF
330
1F
100
AcDbEntity
  8
0
  6
Continuous
 62
     7
370
    30
100
AcDbLine
 10
315.3550278929
 20
260.8913411308
 30
0.0
 11
315.3550278929
 21
258.891340803
 31
0.0
  0
LINE
  5
F0
330
1F
100
AcDbEntity
  8
0
  6
Continuous
 62
     7
370
    30
100
AcDbLine
 10
47.3550212171
 20
241.3913425911
 30
0.0
 11
46.3550191906
 21
241.3913425911
 31
0.0
  0
LINE
  5
F1
330
1F
100
AcDbEntity
  8
0
  6
Continuous
 62
     7
370
    30
100
AcDbLine
 10
46.3550191906
 20
235.3913416077
 30
0.0
 11
47.3550212171
 21
235.3913416077
 31
0.0
  0
LINE
  5
F2
330
1F
100
AcDbEntity
  8
0
  6
Continuous
 62
     7
370
    30
100
AcDbLine
 10
346.3550311115
 20
241.3913425911
 30
0.0
 11
345.355029085
 21
241.3913425911
 31
0.0
  0
LINE
  5
F3
330
1F
100
AcDbEntity
  8
0
  6
Continuous
 62
     7
370
    30
100
AcDbLine
 10
345.355029085
 20
235.3913416077
 30
0.0
 11
346.3550311115
 21
235.3913416077
 31
0.0
  0
LINE
  5
F4
330
1F
100
AcDbEntity
  8
0
  6
Continuous
 62
     7
370
    30
100
AcDbLine
 10
46.3550191906
 20
220.3913410116
 30
0.0
 11
47.3550212171
 21
220.3913410116
 31
0.0
  0
LINE
  5
F5
330
1F
100
AcDbEntity
  8
0
  6
Continuous
 62
     7
370
    30
100
AcDbLine
 10
47.3550212171
 20
226.3913419951
 30
0.0
 11
46.3550191906
 21
226.3913419951
 31
0.0
  0
LINE
  5
F6
330
1F
100
AcDbEntity
  8
0
  6
Continuous
 62
     7
370
    30
100
AcDbLine
 10
345.355029085
 20
220.3913410116
 30
0.0
 11
346.3550311115
 21
220.3913410116
 31
0.0
  0
LINE
  5
F7
330
1F
100
AcDbEntity
  8
0
  6
Continuous
 62
     7
370
    30
100
AcDbLine
 10
346.3550311115
 20
226.3913419951
 30
0.0
 11
345.355029085
 21
226.3913419951
 31
0.0
  0
LINE
  5
F8
330
1F
100
AcDbEntity
  8
0
  6
Continuous
 62
     7
370
    30
100
AcDbLine
 10
345.355029085
 20
205.3913404156
 30
0.0
 11
346.3550311115
 21
205.3913404156
 31
0.0
  0
LINE
  5
F9
330
1F
100
AcDbEntity
  8
0
  6
Continuous
 62
     7
370
    30
100
AcDbLine
 10
346.3550311115
 20
211.3913451243
 30
0.0
 11
345.355029085
 21
211.3913451243
 31
0.0
  0
LINE
  5
FA
330
1F
100
AcDbEntity
  8
0
  6
Continuous
 62
     7
370
    30
100
AcDbLine
 10
46.3550191906
 20
205.3913404156
 30
0.0
 11
47.3550212171
 21
205.3913404156
 31
0.0
  0
LINE
  5
FB
330
1F
100
AcDbEntity
  8
0
  6
Continuous
 62
     7
370
    30
100
AcDbLine
 10
47.3550212171
 20
211.3913451243
 30
0.0
 11
46.3550191906
 21
211.3913451243
 31
0.0
  0
LINE
  5
FC
330
1F
100
AcDbEntity
  8
0
  6
Continuous
 62
     7
370
    30
100
AcDbLine
 10
345.355029085
 20
190.3913398195
 30
0.0
 11
346.3550311115
 21
190.3913398195
 31
0.0
  0
LINE
  5
FD
330
1F
100
AcDbEntity
  8
0
  6
Continuous
 62
     7
370
    30
100
AcDbLine
 10
346.3550311115
 20
196.3913445283
 30
0.0
 11
345.355029085
 21
196.3913445283
 31
0.0
  0
LINE
  5
FE
330
1F
100
AcDbEntity
  8
0
  6
Continuous
 62
     7
370
    30
100
AcDbLine
 10
46.3550191906
 20
190.3913398195
 30
0.0
 11
47.3550212171
 21
190.3913398195
 31
0.0
  0
LINE
  5
FF
330
1F
100
AcDbEntity
  8
0
  6
Continuous
 62
     7
370
    30
100
AcDbLine
 10
47.3550212171
 20
196.3913445283
 30
0.0
 11
46.3550191906
 21
196.3913445283
 31
0.0
  0
LINE
  5
100
330
1F
100
AcDbEntity
  8
0
  6
Continuous
 62
     7
370
    30
100
AcDbLine
 10
345.355029085
 20
175.3913392235
 30
0.0
 11
346.3550311115
 21
175.3913392235
 31
0.0
  0
LINE
  5
101
330
1F
100
AcDbEntity
  8
0
  6
Continuous
 62
     7
370
    30
100
AcDbLine
 10
346.3550311115
 20
181.3913439322
 30
0.0
 11
345.355029085
 21
181.3913439322
 31
0.0
  0
LINE
  5
102
330
1F
100
AcDbEntity
  8
0
  6
Continuous
 62
     7
370
    30
100
AcDbLine
 10
46.3550191906
 20
175.3913392235
 30
0.0
 11
47.3550212171
 21
175.3913392235
 31
0.0
  0
LINE
  5
103
330
1F
100
AcDbEntity
  8
0
  6
Continuous
 62
     7
370
    30
100
AcDbLine
 10
47.3550212171
 20
181.3913439322
 30
0.0
 11
46.3550191906
 21
181.3913439322
 31
0.0
  0
LINE
  5
104
330
1F
100
AcDbEntity
  8
0
  6
Continuous
 62
     7
370
    30
100
AcDbLine
 10
346.3550311115
 20
160.391346078
 30
0.0
 11
345.355029085
 21
160.391346078
 31
0.0
  0
LINE
  5
105
330
1F
100
AcDbEntity
  8
0
  6
Continuous
 62
     7
370
    30
100
AcDbLine
 10
346.3550311115
 20
166.3913433362
 30
0.0
 11
345.355029085
 21
166.3913433362
 31
0.0
  0
LINE
  5
106
330
1F
100
AcDbEntity
  8
0
  6
Continuous
 62
     7
370
    30
100
AcDbLine
 10
47.3550212171
 20
160.391346078
 30
0.0
 11
46.3550191906
 21
160.391346078
 31
0.0
  0
LINE
  5
107
330
1F
100
AcDbEntity
  8
0
  6
Continuous
 62
     7
370
    30
100
AcDbLine
 10
47.3550212171
 20
166.3913433362
 30
0.0
 11
46.3550191906
 21
166.3913433362
 31
0.0
  0
LINE
  5
108
330
1F
100
AcDbEntity
  8
0
  6
Continuous
 62
     7
370
    30
100
AcDbLine
 10
71.355025151
 20
157.8913484622
 30
0.0
 11
71.355025151
 21
155.9413378049
 31
0.0
  0
LINE
  5
109
330
1F
100
AcDbEntity
  8
0
  6
Continuous
 62
     7
370
    30
100
AcDbLine
 10
77.3550224092
 20
155.9413378049
 30
0.0
 11
77.3550224092
 21
157.8913484622
 31
0.0
  0
LINE
  5
10A
330
1F
100
AcDbEntity
  8
0
  6
Continuous
 62
     7
370
    30
100
AcDbLine
 10
321.355025151
 20
155.9413378049
 30
0.0
 11
321.355025151
 21
157.8913484622
 31
0.0
  0
LINE
  5
10B
330
1F
100
AcDbEntity
  8
0
  6
Continuous
 62
     7
370
    30
100
AcDbLine
 10
315.3550278929
 20
157.8913484622
 30
0.0
 11
315.3550278929
 21
155.9413378049
 31
0.0
  0
LINE
  5
10C
330
1F
100
AcDbEntity
  8
0
  6
Continuous
 62
     7
370
    30
100
AcDbLine
 10
321.355025151
 20
258.891340803
 30
0.0
 11
321.355025151
 21
258.3913416524
 31
0.0
  0
LINE
  5
10D
330
1F
100
AcDbEntity
  8
0
  6
Continuous
 62
     7
370
    30
100
AcDbLine
 10
345.355029085
 20
256.3913413245
 30
0.0
 11
323.3550292042
 21
256.3913413245
 31
0.0
  0
LINE
  5
10E
330
1F
100
AcDbEntity
  8
0
  6
Continuous
 62
     7
370
    30
100
AcDbLine
 10
47.3550212171
 20
250.3913422037
 30
0.0
 11
345.355029085
 21
250.3913422037
 31
0.0
  0
LINE
  5
10F
330
1F
100
AcDbEntity
  8
0
  6
Continuous
 62
     7
370
    30
100
AcDbLine
 10
69.3550210979
 20
256.3913413245
 30
0.0
 11
47.3550212171
 21
256.3913413245
 31
0.0
  0
LINE
  5
110
330
1F
100
AcDbEntity
  8
0
  6
Continuous
 62
     7
370
    30
100
AcDbLine
 10
71.355025151
 20
258.891340803
 30
0.0
 11
71.355025151
 21
258.3913416524
 31
0.0
  0
ARC
  5
111
330
1F
100
AcDbEntity
  8
0
  6
Continuous
 62
     7
370
    30
100
AcDbCircle
 10
79.355025151
 20
258.3913415004
 30
0.0
 40
2.000000000000014
100
AcDbArc
 50
180.0
 51
270.0
  0
LINE
  5
112
330
1F
100
AcDbEntity
  8
0
  6
Continuous
 62
     7
370
    30
100
AcDbLine
 10
313.3550238397
 20
256.3913413245
 30
0.0
 11
79.3550264623
 21
256.3913413245
 31
0.0
  0
ARC
  5
113
330
1F
100
AcDbEntity
  8
0
  6
Continuous
 62
     7
370
    30
100
AcDbCircle
 10
313.355025151
 20
258.3913415004
 30
0.0
 40
2.0
100
AcDbArc
 50
270.0
 51
0.0
  0
ARC
  5
114
330
1F
100
AcDbEntity
  8
0
  6
Continuous
 62
     7
370
    30
100
AcDbCircle
 10
323.355025151
 20
258.3913415004
 30
0.0
 40
2.0
100
AcDbArc
 50
180.0
 51
270.0
  0
ARC
  5
115
330
1F
100
AcDbEntity
  8
0
  6
Continuous
 62
     7
370
    30
100
AcDbCircle
 10
69.355025151
 20
258.3913415004
 30
0.0
 40
2.0
100
AcDbArc
 50
270.0
 51
0.0
  0
LINE
  5
116
330
1F
100
AcDbEntity
  8
0
  6
Continuous
 62
     7
370
    30
100
AcDbLine
 10
77.3550224092
 20
258.3913416524
 30
0.0
 11
77.3550224092
 21
258.891340803
 31
0.0
  0
LINE
  5
117
330
1F
100
AcDbEntity
  8
0
  6
Continuous
 62
     7
370
    30
100
AcDbLine
 10
315.3550278929
 20
258.891340803
 30
0.0
 11
315.3550278929
 21
258.3913416524
 31
0.0
  0
LINE
  5
118
330
1F
100
AcDbEntity
  8
0
  6
Continuous
 62
     7
370
    30
100
AcDbLine
 10
47.3550212171
 20
235.3913416077
 30
0.0
 11
345.355029085
 21
235.3913416077
 31
0.0
  0
LINE
  5
119
330
1F
100
AcDbEntity
  8
0
  6
Continuous
 62
     7
370
    30
100
AcDbLine
 10
47.3550212171
 20
241.3913425911
 30
0.0
 11
345.355029085
 21
241.3913425911
 31
0.0
  0
LINE
  5
11A
330
1F
100
AcDbEntity
  8
0
  6
Continuous
 62
     7
370
    30
100
AcDbLine
 10
47.3550212171
 20
220.3913410116
 30
0.0
 11
345.355029085
 21
220.3913410116
 31
0.0
  0
LINE
  5
11B
330
1F
100
AcDbEntity
  8
0
  6
Continuous
 62
     7
370
    30
100
AcDbLine
 10
345.355029085
 20
226.3913419951
 30
0.0
 11
47.3550212171
 21
226.3913419951
 31
0.0
  0
LINE
  5
11C
330
1F
100
AcDbEntity
  8
0
  6
Continuous
 62
     7
370
    30
100
AcDbLine
 10
47.3550212171
 20
205.3913404156
 30
0.0
 11
345.355029085
 21
205.3913404156
 31
0.0
  0
LINE
  5
11D
330
1F
100
AcDbEntity
  8
0
  6
Continuous
 62
     7
370
    30
100
AcDbLine
 10
345.355029085
 20
211.3913451243
 30
0.0
 11
47.3550212171
 21
211.3913451243
 31
0.0
  0
LINE
  5
11E
330
1F
100
AcDbEntity
  8
0
  6
Continuous
 62
     7
370
    30
100
AcDbLine
 10
47.3550212171
 20
190.3913398195
 30
0.0
 11
345.355029085
 21
190.3913398195
 31
0.0
  0
LINE
  5
11F
330
1F
100
AcDbEntity
  8
0
  6
Continuous
 62
     7
370
    30
100
AcDbLine
 10
345.355029085
 20
196.3913445283
 30
0.0
 11
47.3550212171
 21
196.3913445283
 31
0.0
  0
LINE
  5
120
330
1F
100
AcDbEntity
  8
0
  6
Continuous
 62
     7
370
    30
100
AcDbLine
 10
47.3550212171
 20
175.3913392235
 30
0.0
 11
345.355029085
 21
175.3913392235
 31
0.0
  0
LINE
  5
121
330
1F
100
AcDbEntity
  8
0
  6
Continuous
 62
     7
370
    30
100
AcDbLine
 10
345.355029085
 20
181.3913439322
 30
0.0
 11
47.3550212171
 21
181.3913439322
 31
0.0
  0
LINE
  5
122
330
1F
100
AcDbEntity
  8
0
  6
Continuous
 62
     7
370
    30
100
AcDbLine
 10
71.355025151
 20
157.8913484622
 30
0.0
 11
71.355025151
 21
158.3913420249
 31
0.0
  0
ARC
  5
123
330
1F
100
AcDbEntity
  8
0
  6
Continuous
 62
     7
370
    30
100
AcDbCircle
 10
69.355025151
 20
158.3913415004
 30
0.0
 40
2.0
100
AcDbArc
 50
0.0
 51
90.0
  0
LINE
  5
124
330
1F
100
AcDbEntity
  8
0
  6
Continuous
 62
     7
370
    30
100
AcDbLine
 10
69.3550210979
 20
160.391346078
 30
0.0
 11
47.3550212171
 21
160.391346078
 31
0.0
  0
LINE
  5
125
330
1F
100
AcDbEntity
  8
0
  6
Continuous
 62
     7
370
    30
100
AcDbLine
 10
345.355029085
 20
160.391346078
 30
0.0
 11
323.3550292042
 21
160.391346078
 31
0.0
  0
ARC
  5
126
330
1F
100
AcDbEntity
  8
0
  6
Continuous
 62
     7
370
    30
100
AcDbCircle
 10
323.355025151
 20
158.3913415004
 30
0.0
 40
2.0
100
AcDbArc
 50
90.0
 51
180.0
  0
LINE
  5
127
330
1F
100
AcDbEntity
  8
0
  6
Continuous
 62
     7
370
    30
100
AcDbLine
 10
321.355025151
 20
157.8913484622
 30
0.0
 11
321.355025151
 21
158.3913420249
 31
0.0
  0
ARC
  5
128
330
1F
100
AcDbEntity
  8
0
  6
Continuous
 62
     7
370
    30
100
AcDbCircle
 10
313.355025151
 20
158.3913415004
 30
0.0
 40
2.0
100
AcDbArc
 50
0.0
 51
90.0
  0
LINE
  5
129
330
1F
100
AcDbEntity
  8
0
  6
Continuous
 62
     7
370
    30
100
AcDbLine
 10
79.3550264623
 20
160.391346078
 30
0.0
 11
313.3550238397
 21
160.391346078
 31
0.0
  0
ARC
  5
12A
330
1F
100
AcDbEntity
  8
0
  6
Continuous
 62
     7
370
    30
100
AcDbCircle
 10
79.355025151
 20
158.3913415004
 30
0.0
 40
2.000000000000014
100
AcDbArc
 50
90.0
 51
180.0
  0
LINE
  5
12B
330
1F
100
AcDbEntity
  8
0
  6
Continuous
 62
     7
370
    30
100
AcDbLine
 10
345.355029085
 20
166.3913433362
 30
0.0
 11
47.3550212171
 21
166.3913433362
 31
0.0
  0
LINE
  5
12C
330
1F
100
AcDbEntity
  8
0
  6
Continuous
 62
     7
370
    30
100
AcDbLine
 10
77.3550224092
 20
157.8913484622
 30
0.0
 11
77.3550224092
 21
158.3913420249
 31
0.0
  0
LINE
  5
12D
330
1F
100
AcDbEntity
  8
0
  6
Continuous
 62
     7
370
    30
100
AcDbLine
 10
315.3550278929
 20
158.3913420249
 30
0.0
 11
315.3550278929
 21
157.8913484622
 31
0.0
  0
LINE
  5
12E
330
1F
100
AcDbEntity
  8
0
  6
Continuous
 62
     7
370
    30
100
AcDbLine
 10
199.3550251771
 20
264.9413407702
 30
0.0
 11
342.3550230053
 21
264.9413407702
 31
0.0
  0
ARC
  5
12F
330
1F
100
AcDbEntity
  8
0
  6
Continuous
 62
     7
370
    30
100
AcDbCircle
 10
342.355025151
 20
256.9413415004
 30
0.0
 40
8.0
100
AcDbArc
 50
0.0
 51
90.0
  0
ARC
  5
130
330
1F
100
AcDbEntity
  8
0
  6
Continuous
 62
     7
370
    30
100
AcDbCircle
 10
342.355025151
 20
256.9413415004
 30
0.0
 40
4.0
100
AcDbArc
 50
0.0
 51
90.0
  0
LINE
  5
131
330
1F
100
AcDbEntity
  8
0
  6
Continuous
 62
     7
370
    30
100
AcDbLine
 10
342.3550230053
 20
260.9413419772
 30
0.0
 11
199.3550251771
 21
260.9413419772
 31
0.0
  0
LINE
  5
132
330
1F
100
AcDbEntity
  8
0
  6
Continuous
 62
     7
370
    30
100
AcDbLine
 10
350.3550243166
 20
256.9413413216
 30
0.0
 11
350.3550243166
 21
159.9413459111
 31
0.0
  0
LINE
  5
133
330
1F
100
AcDbEntity
  8
0
  6
Continuous
 62
     7
370
    30
100
AcDbLine
 10
346.3550311115
 20
159.9413459111
 30
0.0
 11
346.3550311115
 21
256.9413413216
 31
0.0
  0
LINE
  5
134
330
1F
100
AcDbEntity
  8
0
  6
Continuous
 62
     7
370
    30
100
AcDbLine
 10
197.3550251985
 20
261.4413411278
 30
0.0
 11
197.3550251985
 21
264.4413416196
 31
0.0
  0
LINE
  5
135
330
1F
100
AcDbEntity
  8
0
  6
Continuous
 62
     7
370
    30
100
AcDbLine
 10
197.8550251641
 20
264.9413407702
 30
0.0
 11
199.3550251771
 21
264.9413407702
 31
0.0
  0
ARC
  5
136
330
1F
100
AcDbEntity
  8
0
  6
Continuous
 62
     7
370
    30
100
AcDbCircle
 10
197.855025151
 20
264.4413415004
 30
0.0
 40
0.5000000000000284
100
AcDbArc
 50
90.0
 51
180.0
  0
LINE
  5
137
330
1F
100
AcDbEntity
  8
0
  6
Continuous
 62
     7
370
    30
100
AcDbLine
 10
199.3550251771
 20
260.9413419772
 30
0.0
 11
197.8684182812
 21
260.9413419772
 31
0.0
  0
ARC
  5
138
330
1F
100
AcDbEntity
  8
0
  6
Continuous
 62
     7
370
    30
100
AcDbCircle
 10
197.855025151
 20
261.4413415004
 30
0.0
 40
0.5000000000000284
100
AcDbArc
 50
180.0
 51
270.0
  0
LINE
  5
139
330
1F
100
AcDbEntity
  8
0
  6
Continuous
 62
     7
370
    30
100
AcDbLine
 10
42.3550259855
 20
159.9413459111
 30
0.0
 11
42.3550259855
 21
256.9413413216
 31
0.0
  0
ARC
  5
13A
330
1F
100
AcDbEntity
  8
0
  6
Continuous
 62
     7
370
    30
100
AcDbCircle
 10
342.355025151
 20
159.9413415004
 30
0.0
 40
4.0
100
AcDbArc
 50
270.0
 51
0.0
  0
ARC
  5
13B
330
1F
100
AcDbEntity
  8
0
  6
Continuous
 62
     7
370
    30
100
AcDbCircle
 10
342.355025151
 20
159.9413415004
 30
0.0
 40
8.000000000000057
100
AcDbArc
 50
270.0
 51
0.0
  0
LINE
  5
13C
330
1F
100
AcDbEntity
  8
0
  6
Continuous
 62
     7
370
    30
100
AcDbLine
 10
50.3550272968
 20
264.9413407702
 30
0.0
 11
193.355025125
 21
264.9413407702
 31
0.0
  0
LINE
  5
13D
330
1F
100
AcDbEntity
  8
0
  6
Continuous
 62
     7
370
    30
100
AcDbLine
 10
193.355025125
 20
264.9413407702
 30
0.0
 11
194.855025138
 21
264.9413407702
 31
0.0
  0
ARC
  5
13E
330
1F
100
AcDbEntity
  8
0
  6
Continuous
 62
     7
370
    30
100
AcDbCircle
 10
194.855025151
 20
264.4413415004
 30
0.0
 40
0.5
100
AcDbArc
 50
0.0
 51
90.0
  0
LINE
  5
13F
330
1F
100
AcDbEntity
  8
0
  6
Continuous
 62
     7
370
    30
100
AcDbLine
 10
195.3550251035
 20
261.4413411278
 30
0.0
 11
195.3550251035
 21
264.4413416196
 31
0.0
  0
ARC
  5
140
330
1F
100
AcDbEntity
  8
0
  6
Continuous
 62
     7
370
    30
100
AcDbCircle
 10
50.355025151
 20
256.9413415004
 30
0.0
 40
8.000000000000007
100
AcDbArc
 50
90.0
 51
180.0
  0
LINE
  5
141
330
1F
100
AcDbEntity
  8
0
  6
Continuous
 62
     7
370
    30
100
AcDbLine
 10
50.3550272968
 20
155.9413378049
 30
0.0
 11
342.3550230053
 21
155.9413378049
 31
0.0
  0
LINE
  5
142
330
1F
100
AcDbEntity
  8
0
  6
Continuous
 62
     7
370
    30
100
AcDbLine
 10
193.355025125
 20
260.9413419772
 30
0.0
 11
50.3550272968
 21
260.9413419772
 31
0.0
  0
LINE
  5
143
330
1F
100
AcDbEntity
  8
0
  6
Continuous
 62
     7
370
    30
100
AcDbLine
 10
194.8416320209
 20
260.9413419772
 30
0.0
 11
193.355025125
 21
260.9413419772
 31
0.0
  0
ARC
  5
144
330
1F
100
AcDbEntity
  8
0
  6
Continuous
 62
     7
370
    30
100
AcDbCircle
 10
194.855025151
 20
261.4413415004
 30
0.0
 40
0.5
100
AcDbArc
 50
270.0
 51
0.0
  0
ARC
  5
145
330
1F
100
AcDbEntity
  8
0
  6
Continuous
 62
     7
370
    30
100
AcDbCircle
 10
50.355025151
 20
256.9413415004
 30
0.0
 40
4.000000000000007
100
AcDbArc
 50
90.0
 51
180.0
  0
LINE
  5
146
330
1F
100
AcDbEntity
  8
0
  6
Continuous
 62
     7
370
    30
100
AcDbLine
 10
342.3550230053
 20
151.9413445998
 30
0.0
 11
50.3550272968
 21
151.9413445998
 31
0.0
  0
LINE
  5
147
330
1F
100
AcDbEntity
  8
0
  6
Continuous
 62
     7
370
    30
100
AcDbLine
 10
46.3550191906
 20
256.9413413216
 30
0.0
 11
46.3550191906
 21
159.9413459111
 31
0.0
  0
ARC
  5
148
330
1F
100
AcDbEntity
  8
0
  6
Continuous
 62
     7
370
    30
100
AcDbCircle
 10
50.355025151
 20
159.9413415004
 30
0.0
 40
8.000000000000007
100
AcDbArc
 50
180.0
 51
270.0
  0
ARC
  5
149
330
1F
100
AcDbEntity
  8
0
  6
Continuous
 62
     7
370
    30
100
AcDbCircle
 10
50.355025151
 20
159.9413415004
 30
0.0
 40
4.000000000000007
100
AcDbArc
 50
180.0
 51
270.0
  0
LINE
  5
14A
330
1F
100
AcDbEntity
  8
0
  6
Continuous
 62
     7
370
    30
100
AcDbLine
 10
222.0550243345
 20
266.4413419474
 30
0.0
 11
222.3550256875
 21
266.4413419474
 31
0.0
  0
LINE
  5
14B
330
1F
100
AcDbEntity
  8
0
  6
Continuous
 62
     7
370
    30
100
AcDbLine
 10
222.3550256875
 20
266.4413419474
 30
0.0
 11
222.3550256875
 21
264.9413407702
 31
0.0
  0
LINE
  5
14C
330
1F
100
AcDbEntity
  8
0
  6
Continuous
 62
     7
370
    30
100
AcDbLine
 10
170.3550246146
 20
264.9413407702
 30
0.0
 11
170.3550246146
 21
266.4413419474
 31
0.0
  0
LINE
  5
14D
330
1F
100
AcDbEntity
  8
0
  6
Continuous
 62
     7
370
    30
100
AcDbLine
 10
170.3550246146
 20
266.4413419474
 30
0.0
 11
170.6550259676
 21
266.4413419474
 31
0.0
  0
LINE
  5
14E
330
1F
100
AcDbEntity
  8
0
  6
Continuous
 62
     7
370
    30
100
AcDbLine
 10
222.0550243345
 20
266.4413419474
 30
0.0
 11
170.6550259676
 21
266.4413419474
 31
0.0
  0
LINE
  5
14F
330
1F
100
AcDbEntity
  8
0
  6
Continuous
 62
     7
370
    30
100
AcDbLine
 10
197.8550251641
 20
264.9413407702
 30
0.0
 11
194.855025138
 21
264.9413407702
 31
0.0
  0
ARC
  5
150
330
1F
100
AcDbEntity
  8
0
  6
Continuous
 62
     7
370
    30
100
AcDbCircle
 10
170.655025151
 20
286.1413415004
 30
0.0
 40
0.3000000000000114
100
AcDbArc
 50
90.0
 51
180.0
  0
LINE
  5
151
330
1F
100
AcDbEntity
  8
0
  6
Continuous
 62
     7
370
    30
100
AcDbLine
 10
170.6550259676
 20
286.4413415004
 30
0.0
 11
222.0550243345
 21
286.4413415004
 31
0.0
  0
LINE
  5
152
330
1F
100
AcDbEntity
  8
0
  6
Continuous
 62
     7
370
    30
100
AcDbLine
 10
170.3550246146
 20
266.7413414378
 30
0.0
 11
170.3550246146
 21
286.1413414861
 31
0.0
  0
ARC
  5
153
330
1F
100
AcDbEntity
  8
0
  6
Continuous
 62
     7
370
    30
100
AcDbCircle
 10
222.055025151
 20
286.1413415004
 30
0.0
 40
0.3000000000000114
100
AcDbArc
 50
0.0
 51
90.0
  0
LINE
  5
154
330
1F
100
AcDbEntity
  8
0
  6
Continuous
 62
     7
370
    30
100
AcDbLine
 10
222.3550256875
 20
286.1413414861
 30
0.0
 11
222.3550256875
 21
266.7413414378
 31
0.0
  0
ARC
  5
155
330
1F
100
AcDbEntity
  8
0
  6
Continuous
 62
     7
370
    30
100
AcDbCircle
 10
222.055025151
 20
266.7413415004
 30
0.0
 40
0.3000000000000114
100
AcDbArc
 50
270.0
 51
0.0
  0
ARC
  5
156
330
1F
100
AcDbEntity
  8
0
  6
Continuous
 62
     7
370
    30
100
AcDbCircle
 10
170.655025151
 20
266.7413415004
 30
0.0
 40
0.3000000000000114
100
AcDbArc
 50
180.0
 51
270.0
  0
LINE
  5
157
330
1F
100
AcDbEntity
  8
0
  6
Continuous
 62
     7
370
    30
100
AcDbLine
 10
222.3550256875
 20
266.7413414378
 30
0.0
 11
222.3550256875
 21
266.4413419474
 31
0.0
  0
LINE
  5
158
330
1F
100
AcDbEntity
  8
0
  6
Continuous
 62
     7
370
    30
100
AcDbLine
 10
170.3550246146
 20
266.4413419474
 30
0.0
 11
170.3550246146
 21
266.7413414378
 31
0.0
  0
LINE
  5
159
330
1F
100
AcDbEntity
  8
0
  6
Continuous
 62
     7
370
    30
100
AcDbLine
 10
195.3550251035
 20
263.4413414557
 30
0.0
 11
197.3550251985
 21
263.4413414557
 31
0.0
  0
LINE
  5
15A
330
1F
100
AcDbEntity
  8
0
  6
Continuous
 62
     7
370
    30
100
AcDbLine
 10
197.3550251985
 20
262.4413412918
 30
0.0
 11
195.3550251035
 21
262.4413412918
 31
0.0
  0
LINE
  5
15B
330
1F
100
AcDbEntity
  8
0
  6
Continuous
 62
     8
370
     0
100
AcDbLine
 10
180.8550254044
 20
287.1413414754
 30
0.0
 11
180.8550254044
 21
286.4413415004
 31
0.0
  0
LINE
  5
15C
330
1F
100
AcDbEntity
  8
0
  6
Continuous
 62
     8
370
     0
100
AcDbLine
 10
211.8550248977
 20
286.4413415004
 30
0.0
 11
211.8550248977
 21
287.1413414754
 31
0.0
  0
ARC
  5
15D
330
1F
100
AcDbEntity
  8
0
  6
Continuous
 62
     8
370
     0
100
AcDbCircle
 10
220.355025151
 20
258.9413415004
 30
0.0
 40
1.699999999999989
100
AcDbArc
 50
270.0
 51
0.0
  0
LINE
  5
15E
330
1F
100
AcDbEntity
  8
0
  6
Continuous
 62
     8
370
     0
100
AcDbLine
 10
172.3550249424
 20
257.2413408119
 30
0.0
 11
220.3550253597
 21
257.2413408119
 31
0.0
  0
ARC
  5
15F
330
1F
100
AcDbEntity
  8
0
  6
Continuous
 62
     8
370
     0
100
AcDbCircle
 10
172.355025151
 20
258.9413415004
 30
0.0
 40
1.699999999999989
100
AcDbArc
 50
180.0
 51
270.0
  0
LINE
  5
160
330
1F
100
AcDbEntity
  8
0
  6
Continuous
 62
     8
370
     0
100
AcDbLine
 10
170.6550259676
 20
260.6413406242
 30
0.0
 11
170.6550259676
 21
258.9413416494
 31
0.0
  0
LINE
  5
161
330
1F
100
AcDbEntity
  8
0
  6
Continuous
 62
     8
370
     0
100
AcDbLine
 10
222.0550243345
 20
260.6413406242
 30
0.0
 11
170.6550259676
 21
260.6413406242
 31
0.0
  0
LINE
  5
162
330
1F
100
AcDbEntity
  8
0
  6
Continuous
 62
     8
370
     0
100
AcDbLine
 10
222.0550243345
 20
258.9413416494
 30
0.0
 11
222.0550243345
 21
260.6413406242
 31
0.0
  0
LINE
  5
163
330
1F
100
AcDbEntity
  8
0
  6
Continuous
 62
     8
370
     0
100
AcDbLine
 10
222.0550243345
 20
260.6413406242
 30
0.0
 11
222.3550256875
 21
260.6413406242
 31
0.0
  0
LINE
  5
164
330
1F
100
AcDbEntity
  8
0
  6
Continuous
 62
     8
370
     0
100
AcDbLine
 10
222.0550243345
 20
258.9413416494
 30
0.0
 11
222.3550256875
 21
258.9413416494
 31
0.0
  0
LINE
  5
165
330
1F
100
AcDbEntity
  8
0
  6
Continuous
 62
     8
370
     0
100
AcDbLine
 10
170.6550259676
 20
260.6413406242
 30
0.0
 11
170.6550259676
 21
260.9413419772
 31
0.0
  0
LINE
  5
166
330
1F
100
AcDbEntity
  8
0
  6
Continuous
 62
     8
370
     0
100
AcDbLine
 10
222.0550243345
 20
260.6413406242
 30
0.0
 11
222.0550243345
 21
260.9413419772
 31
0.0
  0
LINE
  5
167
330
1F
100
AcDbEntity
  8
0
  6
Continuous
 62
     8
370
     0
100
AcDbLine
 10
170.3550246146
 20
260.6413406242
 30
0.0
 11
170.6550259676
 21
260.6413406242
 31
0.0
  0
LINE
  5
168
330
1F
100
AcDbEntity
  8
0
  6
Continuous
 62
     8
370
     0
100
AcDbLine
 10
170.3550246146
 20
258.9413416494
 30
0.0
 11
170.6550259676
 21
258.9413416494
 31
0.0
  0
LINE
  5
169
330
1F
100
AcDbEntity
  8
0
  6
Continuous
 62
     8
370
     0
100
AcDbLine
 10
172.3550249424
 20
256.9413413216
 30
0.0
 11
172.3550249424
 21
257.2413408119
 31
0.0
  0
LINE
  5
16A
330
1F
100
AcDbEntity
  8
0
  6
Continuous
 62
     8
370
     0
100
AcDbLine
 10
220.3550253597
 20
256.9413413216
 30
0.0
 11
220.3550253597
 21
257.2413408119
 31
0.0
  0
LINE
  5
16B
330
1F
100
AcDbEntity
  8
0
  6
Continuous
 62
     8
370
     0
100
AcDbLine
 10
315.3550278929
 20
260.8913411308
 30
0.0
 11
315.3550278929
 21
260.9413419772
 31
0.0
  0
LINE
  5
16C
330
1F
100
AcDbEntity
  8
0
  6
Continuous
 62
     8
370
     0
100
AcDbLine
 10
77.3550224092
 20
260.9413419772
 30
0.0
 11
77.3550224092
 21
260.8913411308
 31
0.0
  0
LINE
  5
16D
330
1F
100
AcDbEntity
  8
0
  6
Continuous
 62
     8
370
     0
100
AcDbLine
 10
47.3550212171
 20
250.3913422037
 30
0.0
 11
47.3550212171
 21
256.3913413245
 31
0.0
  0
LINE
  5
16E
330
1F
100
AcDbEntity
  8
0
  6
Continuous
 62
     8
370
     0
100
AcDbLine
 10
345.355029085
 20
256.3913413245
 30
0.0
 11
345.355029085
 21
250.3913422037
 31
0.0
  0
LINE
  5
16F
330
1F
100
AcDbEntity
  8
0
  6
Continuous
 62
     8
370
     0
100
AcDbLine
 10
71.355025151
 20
258.891340803
 30
0.0
 11
77.3550224092
 21
258.891340803
 31
0.0
  0
LINE
  5
170
330
1F
100
AcDbEntity
  8
0
  6
Continuous
 62
     8
370
     0
100
AcDbLine
 10
315.3550278929
 20
258.891340803
 30
0.0
 11
321.355025151
 21
258.891340803
 31
0.0
  0
LINE
  5
171
330
1F
100
AcDbEntity
  8
0
  6
Continuous
 62
     8
370
     0
100
AcDbLine
 10
47.3550212171
 20
235.3913416077
 30
0.0
 11
47.3550212171
 21
241.3913425911
 31
0.0
  0
LINE
  5
172
330
1F
100
AcDbEntity
  8
0
  6
Continuous
 62
     8
370
     0
100
AcDbLine
 10
345.355029085
 20
241.3913425911
 30
0.0
 11
345.355029085
 21
235.3913416077
 31
0.0
  0
LINE
  5
173
330
1F
100
AcDbEntity
  8
0
  6
Continuous
 62
     8
370
     0
100
AcDbLine
 10
47.3550212171
 20
220.3913410116
 30
0.0
 11
47.3550212171
 21
226.3913419951
 31
0.0
  0
LINE
  5
174
330
1F
100
AcDbEntity
  8
0
  6
Continuous
 62
     8
370
     0
100
AcDbLine
 10
345.355029085
 20
226.3913419951
 30
0.0
 11
345.355029085
 21
220.3913410116
 31
0.0
  0
LINE
  5
175
330
1F
100
AcDbEntity
  8
0
  6
Continuous
 62
     8
370
     0
100
AcDbLine
 10
345.355029085
 20
211.3913451243
 30
0.0
 11
345.355029085
 21
205.3913404156
 31
0.0
  0
LINE
  5
176
330
1F
100
AcDbEntity
  8
0
  6
Continuous
 62
     8
370
     0
100
AcDbLine
 10
47.3550212171
 20
205.3913404156
 30
0.0
 11
47.3550212171
 21
211.3913451243
 31
0.0
  0
LINE
  5
177
330
1F
100
AcDbEntity
  8
0
  6
Continuous
 62
     8
370
     0
100
AcDbLine
 10
345.355029085
 20
196.3913445283
 30
0.0
 11
345.355029085
 21
190.3913398195
 31
0.0
  0
LINE
  5
178
330
1F
100
AcDbEntity
  8
0
  6
Continuous
 62
     8
370
     0
100
AcDbLine
 10
47.3550212171
 20
190.3913398195
 30
0.0
 11
47.3550212171
 21
196.3913445283
 31
0.0
  0
LINE
  5
179
330
1F
100
AcDbEntity
  8
0
  6
Continuous
 62
     8
370
     0
100
AcDbLine
 10
345.355029085
 20
181.3913439322
 30
0.0
 11
345.355029085
 21
175.3913392235
 31
0.0
  0
LINE
  5
17A
330
1F
100
AcDbEntity
  8
0
  6
Continuous
 62
     8
370
     0
100
AcDbLine
 10
47.3550212171
 20
175.3913392235
 30
0.0
 11
47.3550212171
 21
181.3913439322
 31
0.0
  0
LINE
  5
17B
330
1F
100
AcDbEntity
  8
0
  6
Continuous
 62
     8
370
     0
100
AcDbLine
 10
345.355029085
 20
166.3913433362
 30
0.0
 11
345.355029085
 21
160.391346078
 31
0.0
  0
LINE
  5
17C
330
1F
100
AcDbEntity
  8
0
  6
Continuous
 62
     8
370
     0
100
AcDbLine
 10
47.3550212171
 20
160.391346078
 30
0.0
 11
47.3550212171
 21
166.3913433362
 31
0.0
  0
LINE
  5
17D
330
1F
100
AcDbEntity
  8
0
  6
Continuous
 62
     8
370
     0
100
AcDbLine
 10
77.3550224092
 20
157.8913484622
 30
0.0
 11
71.355025151
 21
157.8913484622
 31
0.0
  0
LINE
  5
17E
330
1F
100
AcDbEntity
  8
0
  6
Continuous
 62
     8
370
     0
100
AcDbLine
 10
321.355025151
 20
157.8913484622
 30
0.0
 11
315.3550278929
 21
157.8913484622
 31
0.0
  0
LINE
  5
17F
330
1F
100
AcDbEntity
  8
0
  6
Continuous
 62
     8
370
     0
100
AcDbLine
 10
342.3550230053
 20
264.9413407702
 30
0.0
 11
342.3550230053
 21
264.4413416196
 31
0.0
  0
LINE
  5
180
330
1F
100
AcDbEntity
  8
0
  6
Continuous
 62
     8
370
     0
100
AcDbLine
 10
342.3550230053
 20
264.4413416196
 30
0.0
 11
199.3550251771
 21
264.4413416196
 31
0.0
  0
LINE
  5
181
330
1F
100
AcDbEntity
  8
0
  6
Continuous
 62
     8
370
     0
100
AcDbLine
 10
199.3550251771
 20
264.9413407702
 30
0.0
 11
199.3550251771
 21
264.4413416196
 31
0.0
  0
LINE
  5
182
330
1F
100
AcDbEntity
  8
0
  6
Continuous
 62
     8
370
     0
100
AcDbLine
 10
350.3550243166
 20
256.9413413216
 30
0.0
 11
349.8550307539
 21
256.9413413216
 31
0.0
  0
ARC
  5
183
330
1F
100
AcDbEntity
  8
0
  6
Continuous
 62
     8
370
     0
100
AcDbCircle
 10
342.355025151
 20
256.9413415004
 30
0.0
 40
7.500000000000057
100
AcDbArc
 50
0.0
 51
90.0
  0
ARC
  5
184
330
1F
100
AcDbEntity
  8
0
  6
Continuous
 62
     8
370
     0
100
AcDbCircle
 10
342.355025151
 20
256.9413415004
 30
0.0
 40
4.499999999999943
100
AcDbArc
 50
0.0
 51
90.0
  0
LINE
  5
185
330
1F
100
AcDbEntity
  8
0
  6
Continuous
 62
     8
370
     0
100
AcDbLine
 10
342.3550230053
 20
261.4413411278
 30
0.0
 11
342.3550230053
 21
264.4413416196
 31
0.0
  0
LINE
  5
186
330
1F
100
AcDbEntity
  8
0
  6
Continuous
 62
     8
370
     0
100
AcDbLine
 10
346.8550246742
 20
256.9413413216
 30
0.0
 11
349.8550307539
 21
256.9413413216
 31
0.0
  0
LINE
  5
187
330
1F
100
AcDbEntity
  8
0
  6
Continuous
 62
     8
370
     0
100
AcDbLine
 10
199.3550251771
 20
261.4413411278
 30
0.0
 11
342.3550230053
 21
261.4413411278
 31
0.0
  0
LINE
  5
188
330
1F
100
AcDbEntity
  8
0
  6
Continuous
 62
     8
370
     0
100
AcDbLine
 10
199.3550251771
 20
261.4413411278
 30
0.0
 11
199.3550251771
 21
264.4413416196
 31
0.0
  0
LINE
  5
189
330
1F
100
AcDbEntity
  8
0
  6
Continuous
 62
     8
370
     0
100
AcDbLine
 10
346.8550246742
 20
256.9413413216
 30
0.0
 11
346.3550311115
 21
256.9413413216
 31
0.0
  0
LINE
  5
18A
330
1F
100
AcDbEntity
  8
0
  6
Continuous
 62
     8
370
     0
100
AcDbLine
 10
342.3550230053
 20
261.4413411278
 30
0.0
 11
342.3550230053
 21
260.9413419772
 31
0.0
  0
LINE
  5
18B
330
1F
100
AcDbEntity
  8
0
  6
Continuous
 62
     8
370
     0
100
AcDbLine
 10
199.3550251771
 20
261.4413411278
 30
0.0
 11
199.3550251771
 21
260.9413419772
 31
0.0
  0
LINE
  5
18C
330
1F
100
AcDbEntity
  8
0
  6
Continuous
 62
     8
370
     0
100
AcDbLine
 10
350.3550243166
 20
159.9413459111
 30
0.0
 11
349.8550307539
 21
159.9413459111
 31
0.0
  0
LINE
  5
18D
330
1F
100
AcDbEntity
  8
0
  6
Continuous
 62
     8
370
     0
100
AcDbLine
 10
349.8550307539
 20
159.9413459111
 30
0.0
 11
349.8550307539
 21
256.9413413216
 31
0.0
  0
LINE
  5
18E
330
1F
100
AcDbEntity
  8
0
  6
Continuous
 62
     8
370
     0
100
AcDbLine
 10
346.8550246742
 20
256.9413413216
 30
0.0
 11
346.8550246742
 21
159.9413459111
 31
0.0
  0
LINE
  5
18F
330
1F
100
AcDbEntity
  8
0
  6
Continuous
 62
     8
370
     0
100
AcDbLine
 10
346.8550246742
 20
159.9413459111
 30
0.0
 11
349.8550307539
 21
159.9413459111
 31
0.0
  0
LINE
  5
190
330
1F
100
AcDbEntity
  8
0
  6
Continuous
 62
     8
370
     0
100
AcDbLine
 10
346.8550246742
 20
159.9413459111
 30
0.0
 11
346.3550311115
 21
159.9413459111
 31
0.0
  0
LINE
  5
191
330
1F
100
AcDbEntity
  8
0
  6
Continuous
 62
     8
370
     0
100
AcDbLine
 10
197.3550251985
 20
261.4413411278
 30
0.0
 11
199.3550251771
 21
261.4413411278
 31
0.0
  0
LINE
  5
192
330
1F
100
AcDbEntity
  8
0
  6
Continuous
 62
     8
370
     0
100
AcDbLine
 10
199.3550251771
 20
264.4413416196
 30
0.0
 11
197.3550251985
 21
264.4413416196
 31
0.0
  0
LINE
  5
193
330
1F
100
AcDbEntity
  8
0
  6
Continuous
 62
     8
370
     0
100
AcDbLine
 10
42.3550259855
 20
256.9413413216
 30
0.0
 11
42.8550195482
 21
256.9413413216
 31
0.0
  0
LINE
  5
194
330
1F
100
AcDbEntity
  8
0
  6
Continuous
 62
     8
370
     0
100
AcDbLine
 10
42.8550195482
 20
256.9413413216
 30
0.0
 11
42.8550195482
 21
159.9413459111
 31
0.0
  0
LINE
  5
195
330
1F
100
AcDbEntity
  8
0
  6
Continuous
 62
     8
370
     0
100
AcDbLine
 10
42.3550259855
 20
159.9413459111
 30
0.0
 11
42.8550195482
 21
159.9413459111
 31
0.0
  0
ARC
  5
196
330
1F
100
AcDbEntity
  8
0
  6
Continuous
 62
     8
370
     0
100
AcDbCircle
 10
342.355025151
 20
159.9413415004
 30
0.0
 40
4.5
100
AcDbArc
 50
270.0
 51
360.0
  0
ARC
  5
197
330
1F
100
AcDbEntity
  8
0
  6
Continuous
 62
     8
370
     0
100
AcDbCircle
 10
342.355025151
 20
159.9413415004
 30
0.0
 40
7.500000000000057
100
AcDbArc
 50
270.0
 51
0.0
  0
LINE
  5
198
330
1F
100
AcDbEntity
  8
0
  6
Continuous
 62
     8
370
     0
100
AcDbLine
 10
342.3550230053
 20
155.4413442422
 30
0.0
 11
342.3550230053
 21
152.4413381625
 31
0.0
  0
LINE
  5
199
330
1F
100
AcDbEntity
  8
0
  6
Continuous
 62
     8
370
     0
100
AcDbLine
 10
342.3550230053
 20
155.4413442422
 30
0.0
 11
342.3550230053
 21
155.9413378049
 31
0.0
  0
LINE
  5
19A
330
1F
100
AcDbEntity
  8
0
  6
Continuous
 62
     8
370
     0
100
AcDbLine
 10
342.3550230053
 20
151.9413445998
 30
0.0
 11
342.3550230053
 21
152.4413381625
 31
0.0
  0
LINE
  5
19B
330
1F
100
AcDbEntity
  8
0
  6
Continuous
 62
     8
370
     0
100
AcDbLine
 10
193.355025125
 20
264.4413416196
 30
0.0
 11
50.3550272968
 21
264.4413416196
 31
0.0
  0
LINE
  5
19C
330
1F
100
AcDbEntity
  8
0
  6
Continuous
 62
     8
370
     0
100
AcDbLine
 10
50.3550272968
 20
264.4413416196
 30
0.0
 11
50.3550272968
 21
264.9413407702
 31
0.0
  0
LINE
  5
19D
330
1F
100
AcDbEntity
  8
0
  6
Continuous
 62
     8
370
     0
100
AcDbLine
 10
193.355025125
 20
264.4413416196
 30
0.0
 11
193.355025125
 21
264.9413407702
 31
0.0
  0
LINE
  5
19E
330
1F
100
AcDbEntity
  8
0
  6
Continuous
 62
     8
370
     0
100
AcDbLine
 10
50.3550272968
 20
261.4413411278
 30
0.0
 11
193.355025125
 21
261.4413411278
 31
0.0
  0
LINE
  5
19F
330
1F
100
AcDbEntity
  8
0
  6
Continuous
 62
     8
370
     0
100
AcDbLine
 10
50.3550272968
 20
261.4413411278
 30
0.0
 11
50.3550272968
 21
264.4413416196
 31
0.0
  0
LINE
  5
1A0
330
1F
100
AcDbEntity
  8
0
  6
Continuous
 62
     8
370
     0
100
AcDbLine
 10
193.355025125
 20
261.4413411278
 30
0.0
 11
193.355025125
 21
264.4413416196
 31
0.0
  0
LINE
  5
1A1
330
1F
100
AcDbEntity
  8
0
  6
Continuous
 62
     8
370
     0
100
AcDbLine
 10
195.3550251035
 20
264.4413416196
 30
0.0
 11
193.355025125
 21
264.4413416196
 31
0.0
  0
ARC
  5
1A2
330
1F
100
AcDbEntity
  8
0
  6
Continuous
 62
     8
370
     0
100
AcDbCircle
 10
50.355025151
 20
256.9413415004
 30
0.0
 40
4.500000000000007
100
AcDbArc
 50
90.0
 51
180.0
  0
LINE
  5
1A3
330
1F
100
AcDbEntity
  8
0
  6
Continuous
 62
     8
370
     0
100
AcDbLine
 10
45.8550256279
 20
256.9413413216
 30
0.0
 11
42.8550195482
 21
256.9413413216
 31
0.0
  0
ARC
  5
1A4
330
1F
100
AcDbEntity
  8
0
  6
Continuous
 62
     8
370
     0
100
AcDbCircle
 10
50.355025151
 20
256.9413415004
 30
0.0
 40
7.500000000000007
100
AcDbArc
 50
90.0
 51
180.0
  0
LINE
  5
1A5
330
1F
100
AcDbEntity
  8
0
  6
Continuous
 62
     8
370
     0
100
AcDbLine
 10
193.355025125
 20
261.4413411278
 30
0.0
 11
195.3550251035
 21
261.4413411278
 31
0.0
  0
LINE
  5
1A6
330
1F
100
AcDbEntity
  8
0
  6
Continuous
 62
     8
370
     0
100
AcDbLine
 10
342.3550230053
 20
155.4413442422
 30
0.0
 11
50.3550272968
 21
155.4413442422
 31
0.0
  0
LINE
  5
1A7
330
1F
100
AcDbEntity
  8
0
  6
Continuous
 62
     8
370
     0
100
AcDbLine
 10
50.3550272968
 20
152.4413381625
 30
0.0
 11
342.3550230053
 21
152.4413381625
 31
0.0
  0
LINE
  5
1A8
330
1F
100
AcDbEntity
  8
0
  6
Continuous
 62
     8
370
     0
100
AcDbLine
 10
50.3550272968
 20
155.4413442422
 30
0.0
 11
50.3550272968
 21
152.4413381625
 31
0.0
  0
LINE
  5
1A9
330
1F
100
AcDbEntity
  8
0
  6
Continuous
 62
     8
370
     0
100
AcDbLine
 10
50.3550272968
 20
155.4413442422
 30
0.0
 11
50.3550272968
 21
155.9413378049
 31
0.0
  0
LINE
  5
1AA
330
1F
100
AcDbEntity
  8
0
  6
Continuous
 62
     8
370
     0
100
AcDbLine
 10
50.3550272968
 20
260.9413419772
 30
0.0
 11
50.3550272968
 21
261.4413411278
 31
0.0
  0
LINE
  5
1AB
330
1F
100
AcDbEntity
  8
0
  6
Continuous
 62
     8
370
     0
100
AcDbLine
 10
193.355025125
 20
260.9413419772
 30
0.0
 11
193.355025125
 21
261.4413411278
 31
0.0
  0
LINE
  5
1AC
330
1F
100
AcDbEntity
  8
0
  6
Continuous
 62
     8
370
     0
100
AcDbLine
 10
45.8550256279
 20
256.9413413216
 30
0.0
 11
46.3550191906
 21
256.9413413216
 31
0.0
  0
LINE
  5
1AD
330
1F
100
AcDbEntity
  8
0
  6
Continuous
 62
     8
370
     0
100
AcDbLine
 10
50.3550272968
 20
151.9413445998
 30
0.0
 11
50.3550272968
 21
152.4413381625
 31
0.0
  0
LINE
  5
1AE
330
1F
100
AcDbEntity
  8
0
  6
Continuous
 62
     8
370
     0
100
AcDbLine
 10
45.8550256279
 20
159.9413459111
 30
0.0
 11
45.8550256279
 21
256.9413413216
 31
0.0
  0
LINE
  5
1AF
330
1F
100
AcDbEntity
  8
0
  6
Continuous
 62
     8
370
     0
100
AcDbLine
 10
45.8550256279
 20
159.9413459111
 30
0.0
 11
46.3550191906
 21
159.9413459111
 31
0.0
  0
LINE
  5
1B0
330
1F
100
AcDbEntity
  8
0
  6
Continuous
 62
     8
370
     0
100
AcDbLine
 10
45.8550256279
 20
159.9413459111
 30
0.0
 11
42.8550195482
 21
159.9413459111
 31
0.0
  0
ARC
  5
1B1
330
1F
100
AcDbEntity
  8
0
  6
Continuous
 62
     8
370
     0
100
AcDbCircle
 10
50.355025151
 20
159.9413415004
 30
0.0
 40
7.500000000000114
100
AcDbArc
 50
180.0
 51
270.0
  0
ARC
  5
1B2
330
1F
100
AcDbEntity
  8
0
  6
Continuous
 62
     8
370
     0
100
AcDbCircle
 10
50.355025151
 20
159.9413415004
 30
0.0
 40
4.500000000000007
100
AcDbArc
 50
180.0
 51
270.0
  0
LINE
  5
1B3
330
1F
100
AcDbEntity
  8
0
  6
Continuous
 62
     8
370
     0
100
AcDbLine
 10
222.0550243345
 20
264.9413407702
 30
0.0
 11
222.0550243345
 21
266.4413419474
 31
0.0
  0
LINE
  5
1B4
330
1F
100
AcDbEntity
  8
0
  6
Continuous
 62
     8
370
     0
100
AcDbLine
 10
170.6550259676
 20
266.4413419474
 30
0.0
 11
170.6550259676
 21
264.9413407702
 31
0.0
  0
LINE
  5
1B5
330
1F
100
AcDbEntity
  8
0
  6
Continuous
 62
     8
370
     0
100
AcDbLine
 10
170.6550259676
 20
286.1413414861
 30
0.0
 11
170.6550259676
 21
286.4413415004
 31
0.0
  0
LINE
  5
1B6
330
1F
100
AcDbEntity
  8
0
  6
Continuous
 62
     8
370
     0
100
AcDbLine
 10
170.6550259676
 20
286.1413414861
 30
0.0
 11
170.3550246146
 21
286.1413414861
 31
0.0
  0
LINE
  5
1B7
330
1F
100
AcDbEntity
  8
0
  6
Continuous
 62
     8
370
     0
100
AcDbLine
 10
222.0550243345
 20
286.1413414861
 30
0.0
 11
170.6550259676
 21
286.1413414861
 31
0.0
  0
LINE
  5
1B8
330
1F
100
AcDbEntity
  8
0
  6
Continuous
 62
     8
370
     0
100
AcDbLine
 10
222.0550243345
 20
286.1413414861
 30
0.0
 11
222.0550243345
 21
286.4413415004
 31
0.0
  0
LINE
  5
1B9
330
1F
100
AcDbEntity
  8
0
  6
Continuous
 62
     8
370
     0
100
AcDbLine
 10
170.6550259676
 20
286.1413414861
 30
0.0
 11
170.6550259676
 21
266.7413414378
 31
0.0
  0
LINE
  5
1BA
330
1F
100
AcDbEntity
  8
0
  6
Continuous
 62
     8
370
     0
100
AcDbLine
 10
170.6550259676
 20
266.7413414378
 30
0.0
 11
170.3550246146
 21
266.7413414378
 31
0.0
  0
LINE
  5
1BB
330
1F
100
AcDbEntity
  8
0
  6
Continuous
 62
     8
370
     0
100
AcDbLine
 10
222.3550256875
 20
286.1413414861
 30
0.0
 11
222.0550243345
 21
286.1413414861
 31
0.0
  0
LINE
  5
1BC
330
1F
100
AcDbEntity
  8
0
  6
Continuous
 62
     8
370
     0
100
AcDbLine
 10
222.3550256875
 20
266.7413414378
 30
0.0
 11
222.0550243345
 21
266.7413414378
 31
0.0
  0
LINE
  5
1BD
330
1F
100
AcDbEntity
  8
0
  6
Continuous
 62
     8
370
     0
100
AcDbLine
 10
222.0550243345
 20
266.7413414378
 30
0.0
 11
222.0550243345
 21
286.1413414861
 31
0.0
  0
LINE
  5
1BE
330
1F
100
AcDbEntity
  8
0
  6
Continuous
 62
     8
370
     0
100
AcDbLine
 10
170.6550259676
 20
266.7413414378
 30
0.0
 11
222.0550243345
 21
266.7413414378
 31
0.0
  0
LINE
  5
1BF
330
1F
100
AcDbEntity
  8
0
  6
Continuous
 62
     8
370
     0
100
AcDbLine
 10
222.0550243345
 20
266.4413419474
 30
0.0
 11
222.0550243345
 21
266.7413414378
 31
0.0
  0
LINE
  5
1C0
330
1F
100
AcDbEntity
  8
0
  6
Continuous
 62
     8
370
     0
100
AcDbLine
 10
170.6550259676
 20
266.4413419474
 30
0.0
 11
170.6550259676
 21
266.7413414378
 31
0.0
  0
DIMENSION
  5
1C1
330
1F
100
AcDbEntity
  8
0
  6
Continuous
 62
     7
370
     0
100
AcDbDimension
  2
*D2
 10
380.355025151
 20
151.9413415004
 30
0.0
 11
380.355025151
 21
216.3257004065
 31
0.0
 70
   160
 71
     2
 42
-1.0
  3
SLDDIMSTYLE1
100
AcDbAlignedDimension
 13
218.855025151
 23
287.1413415004
 33
0.0
 14
342.355025151
 24
151.9413415004
 34
0.0
 50
90.0
100
AcDbRotatedDimension
  0
DIMENSION
  5
1CC
330
1F
100
AcDbEntity
  8
0
  6
Continuous
 62
     7
370
     0
100
AcDbDimension
  2
*D3
 10
370.355025151
 20
155.4413415004
 30
0.0
 11
370.355025151
 21
216.3257004065
 31
0.0
 70
   160
 71
     2
 42
-1.0
  3
SLDDIMSTYLE0
100
AcDbAlignedDimension
 13
342.355025151
 23
261.4413415004
 33
0.0
 14
342.355025151
 24
155.4413415004
 34
0.0
 50
90.0
100
AcDbRotatedDimension
  0
DIMENSION
  5
1D6
330
1F
100
AcDbEntity
  8
0
  6
Continuous
 62
     7
370
     0
100
AcDbDimension
  2
*D4
 10
346.355025151
 20
141.9413415004
 30
0.0
 11
196.4809057167
 21
141.9413415004
 31
0.0
 70
   160
 71
     2
 42
-1.0
  3
SLDDIMSTYLE0
100
AcDbAlignedDimension
 13
46.355025151
 23
159.9413415004
 33
0.0
 14
346.355025151
 24
159.9413415004
 34
0.0
 50
0.0
100
AcDbRotatedDimension
  0
LINE
  5
1E0
330
1F
100
AcDbEntity
  8
0
  6
CENTERX2
 62
     7
370
     0
100
AcDbLine
 10
196.355025151
 20
288.5438006154
 30
0.0
 11
196.355025151
 21
148.5891647575
 31
0.0
  0
SPLINE
  5
1E1
330
1F
100
AcDbEntity
  8
0
  6
Continuous
 62
     7
370
    30
100
AcDbSpline
210
0.0
220
0.0
230
1.0
 70
     8
 71
     3
 72
     9
 73
     5
 74
     0
 42
0.00000001
 43
0.00000001
 40
0.0
 40
0.0
 40
0.0
 40
0.0
 40
0.9890447464033235
 40
1.0
 40
1.0
 40
1.0
 40
1.0
 10
446.3016837661914
 20
385.2874746333812
 30
0.0
 10
446.28892120349
 20
385.2934355826622
 30
0.0
 10
446.2760172749794
 20
385.2994625589974
 30
0.0
 10
446.2625310470002
 20
385.3024787167122
 30
0.0
 10
446.2623833019526
 20
385.3025117594849
 30
0.0
  0
SPLINE
  5
1E2
330
1F
100
AcDbEntity
  8
0
  6
Continuous
 62
     7
370
    30
100
AcDbSpline
210
0.0
220
0.0
230
1.0
 70
     8
 71
     3
 72
    10
 73
     6
 74
     0
 42
0.00000001
 43
0.00000001
 40
0.0
 40
0.0
 40
0.0
 40
0.0
 40
0.0891262478831393
 40
0.5204879623193704
 40
1.0
 40
1.0
 40
1.0
 40
1.0
 10
438.8880173910473
 20
386.9931450480729
 30
0.0
 10
438.8801211855207
 20
386.991678994597
 30
0.0
 10
438.8340081714283
 20
386.9831173956917
 30
0.0
 10
438.7269844803196
 20
386.9440429468024
 30
0.0
 10
438.6561021727221
 20
386.8784873261566
 30
0.0
 10
438.6187875397418
 20
386.8439768254817
 30
0.0
  0
SPLINE
  5
1E3
330
1F
100
AcDbEntity
  8
0
  6
Continuous
 62
     7
370
    30
100
AcDbSpline
210
0.0
220
0.0
230
1.0
 70
     8
 71
     3
 72
    11
 73
     7
 74
     0
 42
0.00000001
 43
0.00000001
 40
0.0
 40
0.0
 40
0.0
 40
0.0
 40
0.170937397736137
 40
0.5251893568815577
 40
0.8138885723900035
 40
1.0
 40
1.0
 40
1.0
 40
1.0
 10
551.3236634071662
 20
386.6986076207949
 30
0.0
 10
551.312234017233
 20
386.7107850189449
 30
0.0
 10
551.2771182729422
 20
386.7481989493518
 30
0.0
 10
551.2075450732839
 20
386.7876048163023
 30
0.0
 10
551.1318260574391
 20
386.8182227295413
 30
0.0
 10
551.0908986038348
 20
386.8268621083599
 30
0.0
 10
551.0748562784803
 20
386.8302484838528
 30
0.0
  0
LINE
  5
1E4
330
1F
100
AcDbEntity
  8
0
  6
Continuous
 62
     7
370
    30
100
AcDbLine
 10
426.9278668293
 20
349.8074184494
 30
0.0
 11
426.0021446846
 21
350.735836369
 31
0.0
  0
LINE
  5
1E5
330
1F
100
AcDbEntity
  8
0
  6
Continuous
 62
     7
370
    30
100
AcDbLine
 10
421.8562991112
 20
350.7418686051
 30
0.0
 11
420.9278791819
 21
349.816148476
 31
0.0
  0
LINE
  5
1E6
330
1F
100
AcDbEntity
  8
0
  6
Continuous
 62
     7
370
    30
100
AcDbLine
 10
426.9181503901
 20
343.1275672234
 30
0.0
 11
426.9184101695
 21
343.3061088335
 31
0.0
  0
LINE
  5
1E7
330
1F
100
AcDbEntity
  8
0
  6
Continuous
 62
     7
370
    30
100
AcDbLine
 10
426.9242321039
 20
347.3074179083
 30
0.0
 11
426.927869614
 21
349.8074120942
 31
0.0
  0
LINE
  5
1E8
330
1F
100
AcDbEntity
  8
0
  6
Continuous
 62
     7
370
    30
100
AcDbLine
 10
420.9278763787
 20
349.8161421289
 30
0.0
 11
420.9242388686
 21
347.3161479431
 31
0.0
  0
LINE
  5
1E9
330
1F
100
AcDbEntity
  8
0
  6
Continuous
 62
     7
370
    30
100
AcDbLine
 10
420.9184169341
 20
343.3148388682
 30
0.0
 11
420.9181571548
 21
343.1362972581
 31
0.0
  0
LINE
  5
1EA
330
1F
100
AcDbEntity
  8
0
  6
Continuous
 62
     7
370
    30
100
AcDbLine
 10
420.918166452
 20
343.1362862441
 30
0.0
 11
421.4721983475
 21
342.8153418844
 31
0.0
  0
LINE
  5
1EB
330
1F
100
AcDbEntity
  8
0
  6
Continuous
 62
     7
370
    30
100
AcDbLine
 10
426.3631775603
 20
342.8082254733
 30
0.0
 11
426.9181410609
 21
343.1275562364
 31
0.0
  0
LINE
  5
1EC
330
1F
100
AcDbEntity
  8
0
  6
Continuous
 62
     7
370
    30
100
AcDbLine
 10
432.9730053801
 20
380.8233578556
 30
0.0
 11
430.5235940772
 21
380.5695167014
 31
0.0
  0
LINE
  5
1ED
330
1F
100
AcDbEntity
  8
0
  6
Continuous
 62
     7
370
    30
100
AcDbLine
 10
430.5097930678
 20
371.0843352813
 30
0.0
 11
432.9584553204
 21
370.8233678594
 31
0.0
  0
ARC
  5
1EE
330
1F
100
AcDbEntity
  8
0
  6
Continuous
 62
     7
370
    30
100
AcDbCircle
 10
438.1657240855
 20
375.8157964909
 30
0.0
 40
9.000000000000009
100
AcDbArc
 50
194.3941464599
 51
211.7165859565
  0
ARC
  5
1EF
330
1F
100
AcDbEntity
  8
0
  6
Continuous
 62
     7
370
    30
100
AcDbCircle
 10
438.1657240855
 20
375.8157964909
 30
0.0
 40
9.000000000000073
100
AcDbArc
 50
148.1166825916
 51
165.4391220881
  0
LINE
  5
1F0
330
1F
100
AcDbEntity
  8
0
  6
Continuous
 62
     7
370
    30
100
AcDbLine
 10
419.4278775636
 20
349.8182167264
 30
0.0
 11
416.2278810317
 21
349.8228727452
 31
0.0
  0
LINE
  5
1F1
330
1F
100
AcDbEntity
  8
0
  6
Continuous
 62
     7
370
    30
100
AcDbLine
 10
416.2744412689
 20
381.8228724024
 30
0.0
 11
416.2278810317
 21
349.8228727452
 31
0.0
  0
LINE
  5
1F2
330
1F
100
AcDbEntity
  8
0
  6
Continuous
 62
     7
370
    30
100
AcDbLine
 10
416.2744412689
 20
381.8228724024
 30
0.0
 11
419.4744378008
 21
381.8182163837
 31
0.0
  0
LINE
  5
1F3
330
1F
100
AcDbEntity
  8
0
  6
Continuous
 62
     7
370
    30
100
AcDbLine
 10
419.4744378008
 20
381.8182163837
 30
0.0
 11
419.4278775636
 21
349.8182167264
 31
0.0
  0
LINE
  5
1F4
330
1F
100
AcDbEntity
  8
0
  6
Continuous
 62
     7
370
    30
100
AcDbLine
 10
419.4744706734
 20
381.8408091171
 30
0.0
 11
416.2744741415
 21
381.8454651358
 31
0.0
  0
LINE
  5
1F5
330
1F
100
AcDbEntity
  8
0
  6
Continuous
 62
     7
370
    30
100
AcDbLine
 10
419.4744706734
 20
381.8408091171
 30
0.0
 11
419.4744378008
 21
381.8182163837
 31
0.0
  0
LINE
  5
1F6
330
1F
100
AcDbEntity
  8
0
  6
Continuous
 62
     7
370
    30
100
AcDbLine
 10
416.2744741415
 20
381.8454651358
 30
0.0
 11
416.2744412689
 21
381.8228724024
 31
0.0
  0
LINE
  5
1F7
330
1F
100
AcDbEntity
  8
0
  6
Continuous
 62
     7
370
    30
100
AcDbLine
 10
426.002036652
 20
350.7358370161
 30
0.0
 11
427.9292176217
 21
350.7330329535
 31
0.0
  0
LINE
  5
1F8
330
1F
100
AcDbEntity
  8
0
  6
Continuous
 62
     7
370
    30
100
AcDbLine
 10
426.002036652
 20
350.7358370161
 30
0.0
 11
423.9322380952
 21
352.8116696913
 31
0.0
  0
LINE
  5
1F9
330
1F
100
AcDbEntity
  8
0
  6
Continuous
 62
     7
370
    30
100
AcDbLine
 10
423.9322380952
 20
352.8116696913
 30
0.0
 11
421.8564071453
 21
350.7418689378
 31
0.0
  0
LINE
  5
1FA
330
1F
100
AcDbEntity
  8
0
  6
Continuous
 62
     7
370
    30
100
AcDbLine
 10
419.4292266229
 20
350.7454005035
 30
0.0
 11
421.8564071453
 21
350.7418689378
 31
0.0
  0
LINE
  5
1FB
330
1F
100
AcDbEntity
  8
0
  6
Continuous
 62
     7
370
    30
100
AcDbLine
 10
421.9440041972
 20
380.8436409382
 30
0.0
 11
419.4730250174
 21
380.8472362312
 31
0.0
  0
LINE
  5
1FC
330
1F
100
AcDbEntity
  8
0
  6
Continuous
 62
     7
370
    30
100
AcDbLine
 10
421.9440041972
 20
380.8436409382
 30
0.0
 11
423.9700682877
 21
378.8116692964
 31
0.0
  0
LINE
  5
1FD
330
1F
100
AcDbEntity
  8
0
  6
Continuous
 62
     7
370
    30
100
AcDbLine
 10
423.9700682877
 20
378.8116692964
 30
0.0
 11
426.0020368549
 21
380.8377364705
 31
0.0
  0
LINE
  5
1FE
330
1F
100
AcDbEntity
  8
0
  6
Continuous
 62
     7
370
    30
100
AcDbLine
 10
427.9730160163
 20
380.8348686812
 30
0.0
 11
426.0020368549
 21
380.8377364705
 31
0.0
  0
LINE
  5
1FF
330
1F
100
AcDbEntity
  8
0
  6
Continuous
 62
     7
370
    30
100
AcDbLine
 10
427.9730160163
 20
380.8348686812
 30
0.0
 11
427.971217444
 21
379.5987428543
 31
0.0
  0
ARC
  5
200
330
1F
100
AcDbEntity
  8
0
  6
Continuous
 62
     7
370
    30
100
AcDbCircle
 10
425.4712201499
 20
379.602380342
 30
0.0
 40
2.500001323153752
100
AcDbArc
 50
314.9166039496
 51
359.916634274
  0
LINE
  5
201
330
1F
100
AcDbEntity
  8
0
  6
Continuous
 62
     7
370
    30
100
AcDbLine
 10
427.236413289
 20
377.8320415955
 30
0.0
 11
425.5519870981
 21
376.1525082103
 31
0.0
  0
ARC
  5
202
330
1F
100
AcDbEntity
  8
0
  6
Continuous
 62
     7
370
    30
100
AcDbCircle
 10
426.9641414627
 20
374.7362368025
 30
0.0
 40
2.000001058523034
100
AcDbArc
 50
134.9166039496
 51
179.916634274
  0
LINE
  5
203
330
1F
100
AcDbEntity
  8
0
  6
Continuous
 62
     7
370
    30
100
AcDbLine
 10
424.9641439603
 20
374.7391472029
 30
0.0
 11
424.9437847942
 21
360.7466646394
 31
0.0
  0
LINE
  5
204
330
1F
100
AcDbEntity
  8
0
  6
Continuous
 62
     7
370
    30
100
AcDbLine
 10
424.8437841386
 20
360.7468101411
 30
0.0
 11
424.9437847942
 21
360.7466646394
 31
0.0
  0
LINE
  5
205
330
1F
100
AcDbEntity
  8
0
  6
Continuous
 62
     7
370
    30
100
AcDbLine
 10
424.8435208402
 20
360.5658499739
 30
0.0
 11
424.8437841386
 21
360.7468101411
 31
0.0
  0
LINE
  5
206
330
1F
100
AcDbEntity
  8
0
  6
Continuous
 62
     7
370
    30
100
AcDbLine
 10
424.9435214958
 20
360.5657044722
 30
0.0
 11
424.8435208402
 21
360.5658499739
 31
0.0
  0
LINE
  5
207
330
1F
100
AcDbEntity
  8
0
  6
Continuous
 62
     7
370
    30
100
AcDbLine
 10
424.9435214958
 20
360.5657044722
 30
0.0
 11
424.9424377584
 21
359.8208715598
 31
0.0
  0
LINE
  5
208
330
1F
100
AcDbEntity
  8
0
  6
Continuous
 62
     7
370
    30
100
AcDbLine
 10
424.8424371028
 20
359.8210170615
 30
0.0
 11
424.9424377584
 21
359.8208715598
 31
0.0
  0
LINE
  5
209
330
1F
100
AcDbEntity
  8
0
  6
Continuous
 62
     7
370
    30
100
AcDbLine
 10
424.8422249194
 20
359.6751873131
 30
0.0
 11
424.8424371028
 21
359.8210170615
 31
0.0
  0
LINE
  5
20A
330
1F
100
AcDbEntity
  8
0
  6
Continuous
 62
     7
370
    30
100
AcDbLine
 10
424.942225575
 20
359.6750418114
 30
0.0
 11
424.8422249194
 21
359.6751873131
 31
0.0
  0
LINE
  5
20B
330
1F
100
AcDbEntity
  8
0
  6
Continuous
 62
     7
370
    30
100
AcDbLine
 10
424.942225575
 20
359.6750418114
 30
0.0
 11
424.9412574182
 21
359.0096453595
 31
0.0
  0
LINE
  5
20C
330
1F
100
AcDbEntity
  8
0
  6
Continuous
 62
     7
370
    30
100
AcDbLine
 10
424.8412567626
 20
359.0097908612
 30
0.0
 11
424.9412574182
 21
359.0096453595
 31
0.0
  0
LINE
  5
20D
330
1F
100
AcDbEntity
  8
0
  6
Continuous
 62
     7
370
    30
100
AcDbLine
 10
424.8410465347
 20
358.8653050113
 30
0.0
 11
424.8412567626
 21
359.0097908612
 31
0.0
  0
LINE
  5
20E
330
1F
100
AcDbEntity
  8
0
  6
Continuous
 62
     7
370
    30
100
AcDbLine
 10
424.9410471903
 20
358.8651595096
 30
0.0
 11
424.8410465347
 21
358.8653050113
 31
0.0
  0
LINE
  5
20F
330
1F
100
AcDbEntity
  8
0
  6
Continuous
 62
     7
370
    30
100
AcDbLine
 10
424.9410471903
 20
358.8651595096
 30
0.0
 11
424.9381606341
 21
356.8812822382
 31
0.0
  0
ARC
  5
210
330
1F
100
AcDbEntity
  8
0
  6
Continuous
 62
     7
370
    30
100
AcDbCircle
 10
426.9381581374
 20
356.8783724262
 30
0.0
 40
2.000001058522975
100
AcDbArc
 50
179.916634274
 51
224.9166645984
  0
LINE
  5
211
330
1F
100
AcDbEntity
  8
0
  6
Continuous
 62
     7
370
    30
100
AcDbLine
 10
425.5218883894
 20
355.4662161208
 30
0.0
 11
427.2014199929
 21
353.7817890834
 31
0.0
  0
ARC
  5
212
330
1F
100
AcDbEntity
  8
0
  6
Continuous
 62
     7
370
    30
100
AcDbCircle
 10
425.4310826257
 20
352.0165939043
 30
0.0
 40
2.500001323153779
100
AcDbArc
 50
359.916634274
 51
44.9166645984
  0
LINE
  5
213
330
1F
100
AcDbEntity
  8
0
  6
Continuous
 62
     7
370
    30
100
AcDbLine
 10
427.9310799194
 20
352.012956087
 30
0.0
 11
427.9292176217
 21
350.7330329535
 31
0.0
  0
LINE
  5
214
330
1F
100
AcDbEntity
  8
0
  6
Continuous
 62
     7
370
    30
100
AcDbLine
 10
419.4292266229
 20
350.7454005035
 30
0.0
 11
419.4730250174
 21
380.8472362312
 31
0.0
  0
ELLIPSE
  5
215
330
1F
100
AcDbEntity
  8
0
  6
Continuous
 62
     7
370
    30
100
AcDbEllipse
 10
427.9642767025
 20
374.8284571614
 30
0.0
 11
-6.989805698925693
 21
7.010175775971844
 31
0.0
210
0.0
220
0.0
230
1.0
 40
0.0007275033
 41
5.321362062536438
 42
5.502661554145063
  0
LINE
  5
216
330
1F
100
AcDbEntity
  8
0
  6
Continuous
 62
     7
370
    30
100
AcDbLine
 10
423.9701133311
 20
378.8426267456
 30
0.0
 11
423.9700682877
 21
378.8116692964
 31
0.0
  0
ELLIPSE
  5
217
330
1F
100
AcDbEntity
  8
0
  6
Continuous
 62
     7
370
    30
100
AcDbEllipse
 10
419.9642851707
 20
374.8400972086
 30
0.0
 11
7.010175776716324
 21
6.989805699668069
 31
0.0
210
0.0
220
0.0
230
1.0
 40
0.0007275033
 41
0.7805237530903532
 42
0.9618232447003346
  0
SPLINE
  5
218
330
1F
100
AcDbEntity
  8
0
  6
Continuous
 62
     7
370
    30
100
AcDbSpline
210
0.0
220
0.0
230
1.0
 70
     8
 71
     3
 72
    11
 73
     7
 74
     0
 42
0.00000001
 43
0.00000001
 40
0.0
 40
0.0
 40
0.0
 40
0.0
 40
0.2705092274467987
 40
0.5509040948391708
 40
0.9271723340823896
 40
1.0
 40
1.0
 40
1.0
 40
1.0
 10
427.9311236844114
 20
352.0430350072224
 30
0.0
 10
427.9232740118823
 20
352.1996962083217
 30
0.0
 10
427.9072878040171
 20
352.5187437247503
 30
0.0
 10
427.7321700013501
 20
353.0929293892196
 30
0.0
 10
427.4648775982467
 20
353.5384042745347
 30
0.0
 10
427.2382219442993
 20
353.7752223527664
 30
0.0
 10
427.2014663158148
 20
353.813625971429
 30
0.0
  0
LINE
  5
219
330
1F
100
AcDbEntity
  8
0
  6
Continuous
 62
     7
370
    30
100
AcDbLine
 10
427.9311236844
 20
352.0430350072
 30
0.0
 11
427.9310799194
 21
352.012956087
 31
0.0
  0
ELLIPSE
  5
21A
330
1F
100
AcDbEntity
  8
0
  6
Continuous
 62
     7
370
    30
100
AcDbEllipse
 10
424.1807312886
 20
356.8339622481
 30
0.0
 11
-6.989805699634475
 21
7.010175776682616
 31
0.0
210
0.0
220
0.0
230
1.0
 40
0.0007275033
 41
4.266228867180582
 42
4.520041173831168
  0
ARC
  5
21B
330
1F
100
AcDbEntity
  8
0
  6
Continuous
 62
     7
370
    30
100
AcDbCircle
 10
426.9344362579
 20
356.9111361479
 30
0.0
 40
1.996230074384899
100
AcDbArc
 50
179.9145647197
 51
181.9547806224
  0
SPLINE
  5
21C
330
1F
100
AcDbEntity
  8
0
  6
Continuous
 62
     7
370
    30
100
AcDbSpline
210
0.0
220
0.0
230
1.0
 70
     8
 71
     3
 72
    10
 73
     6
 74
     0
 42
0.00000001
 43
0.00000001
 40
0.0
 40
0.0
 40
0.0
 40
0.0
 40
0.4481737988077033
 40
0.8967859729021492
 40
1.0
 40
1.0
 40
1.0
 40
1.0
 10
425.5219358870715
 20
355.4988604055292
 30
0.0
 10
425.3799999044627
 20
355.6719797073207
 30
0.0
 10
425.095989106437
 20
356.0183876452641
 30
0.0
 10
424.9587996887386
 20
356.5163506973579
 30
0.0
 10
424.9424297227627
 20
356.7915666458537
 30
0.0
 10
424.939367870846
 20
356.8430432634997
 30
0.0
  0
LINE
  5
21D
330
1F
100
AcDbEntity
  8
0
  6
Continuous
 62
     7
370
    30
100
AcDbLine
 10
424.9411751266
 20
358.9530878124
 30
0.0
 11
424.9410471903
 21
358.8651595096
 31
0.0
  0
SPLINE
  5
21E
330
1F
100
AcDbEntity
  8
0
  6
Continuous
 62
     7
370
    30
100
AcDbSpline
210
0.0
220
0.0
230
1.0
 70
    24
 71
     3
 72
     9
 73
     5
 74
     0
 42
0.00000001
 43
0.00000001
 40
0.0
 40
0.0
 40
0.0
 40
0.0
 40
0.5598427599225957
 40
1.0
 40
1.0
 40
1.0
 40
1.0
 10
424.9424377583903
 20
359.8208715597746
 30
0.0
 10
424.9424340772584
 20
359.818341585174
 30
0.0
 10
424.9424275019624
 20
359.8138225044933
 30
0.0
 10
424.9424203393535
 20
359.8088997743623
 30
0.0
 10
424.9424171866793
 20
359.8067329990541
 30
0.0
  0
LINE
  5
21F
330
1F
100
AcDbEntity
  8
0
  6
Continuous
 62
     7
370
    30
100
AcDbLine
 10
424.8436656537
 20
360.6653776123
 30
0.0
 11
424.9436663093
 21
360.6652321106
 31
0.0
  0
SPLINE
  5
220
330
1F
100
AcDbEntity
  8
0
  6
Continuous
 62
     7
370
    30
100
AcDbSpline
210
0.0
220
0.0
230
1.0
 70
    24
 71
     3
 72
     9
 73
     5
 74
     0
 42
0.00000001
 43
0.00000001
 40
0.0
 40
0.0
 40
0.0
 40
0.0
 40
0.5599364967729109
 40
1.0
 40
1.0
 40
1.0
 40
1.0
 10
424.9437847941985
 20
360.7466646394372
 30
0.0
 10
424.9437649914939
 20
360.7330546026844
 30
0.0
 10
424.943729625511
 20
360.7087482093145
 30
0.0
 10
424.9436856578341
 20
360.6785300289554
 30
0.0
 10
424.9436663092642
 20
360.6652321106454
 30
0.0
  0
LINE
  5
221
330
1F
100
AcDbEntity
  8
0
  6
Continuous
 62
     7
370
    30
100
AcDbLine
 10
420.9729433975
 20
381.8175312208
 30
0.0
 11
419.4744399763
 21
381.8197115544
 31
0.0
  0
LINE
  5
222
330
1F
100
AcDbEntity
  8
0
  6
Continuous
 62
     7
370
    30
100
AcDbLine
 10
427.9744309751
 20
381.8073440044
 30
0.0
 11
426.9759275722
 21
381.8087968343
 31
0.0
  0
LINE
  5
223
330
1F
100
AcDbEntity
  8
0
  6
Continuous
 62
     7
370
    30
100
AcDbLine
 10
427.9730160143
 20
380.8348673208
 30
0.0
 11
427.9744309751
 21
381.8073440044
 31
0.0
  0
SPLINE
  5
224
330
1F
100
AcDbEntity
  8
0
  6
Continuous
 62
     7
370
    30
100
AcDbSpline
210
0.0
220
0.0
230
1.0
 70
    24
 71
     3
 72
     9
 73
     5
 74
     0
 42
0.00000001
 43
0.00000001
 40
0.0
 40
0.0
 40
0.0
 40
0.0
 40
0.799412429381489
 40
1.0
 40
1.0
 40
1.0
 40
1.0
 10
424.9424171866793
 20
359.8067329990541
 30
0.0
 10
424.9423851469796
 20
359.7847126992596
 30
0.0
 10
424.9423450679182
 20
359.7571670932805
 30
0.0
 10
424.9422669527116
 20
359.703479940175
 30
0.0
 10
424.9422512837721
 20
359.6927109645602
 30
0.0
  0
LINE
  5
225
330
1F
100
AcDbEntity
  8
0
  6
Continuous
 62
     7
370
    30
100
AcDbLine
 10
419.4278798376
 20
349.8197796425
 30
0.0
 11
420.9278784957
 21
349.8175971333
 31
0.0
  0
LINE
  5
226
330
1F
100
AcDbEntity
  8
0
  6
Continuous
 62
     7
370
    30
100
AcDbLine
 10
420.9278784957
 20
349.8175971333
 30
0.0
 11
421.8561952694
 21
350.7418691113
 31
0.0
  0
LINE
  5
227
330
1F
100
AcDbEntity
  8
0
  6
Continuous
 62
     7
370
    30
100
AcDbLine
 10
427.9278708365
 20
349.8074120925
 30
0.0
 11
426.9278717311
 21
349.8088670986
 31
0.0
  0
LINE
  5
228
330
1F
100
AcDbEntity
  8
0
  6
Continuous
 62
     7
370
    30
100
AcDbLine
 10
427.9278708365
 20
349.8074120925
 30
0.0
 11
427.9292176215
 21
350.7330328187
 31
0.0
  0
LINE
  5
229
330
1F
100
AcDbEntity
  8
0
  6
Continuous
 62
     7
370
    30
100
AcDbLine
 10
426.0022489931
 20
350.7358365724
 30
0.0
 11
426.9278717311
 21
349.8088670986
 31
0.0
  0
LINE
  5
22A
330
1F
100
AcDbEntity
  8
0
  6
Continuous
 62
     7
370
    30
100
AcDbLine
 10
424.9436505718
 20
360.6544160674
 30
0.0
 11
424.9435214959
 21
360.5657045203
 31
0.0
  0
LINE
  5
22B
330
1F
100
AcDbEntity
  8
0
  6
Continuous
 62
     7
370
    30
100
AcDbLine
 10
420.951876401
 20
381.8386594807
 30
0.0
 11
419.4744706734
 21
381.8408091171
 31
0.0
  0
LINE
  5
22C
330
1F
100
AcDbEntity
  8
0
  6
Continuous
 62
     7
370
    30
100
AcDbLine
 10
419.4744706734
 20
381.8408091171
 30
0.0
 11
419.4744399763
 21
381.8197115544
 31
0.0
  0
LINE
  5
22D
330
1F
100
AcDbEntity
  8
0
  6
Continuous
 62
     7
370
    30
100
AcDbLine
 10
427.9744616722
 20
381.828441567
 30
0.0
 11
426.9970554973
 21
381.8298637003
 31
0.0
  0
LINE
  5
22E
330
1F
100
AcDbEntity
  8
0
  6
Continuous
 62
     7
370
    30
100
AcDbLine
 10
427.9744616722
 20
381.828441567
 30
0.0
 11
427.9744309751
 21
381.8073440044
 31
0.0
  0
LINE
  5
22F
330
1F
100
AcDbEntity
  8
0
  6
Continuous
 62
     7
370
    30
100
AcDbLine
 10
442.7795065975
 20
385.2843162502
 30
0.0
 11
446.1795028108
 21
385.2793692304
 31
0.0
  0
ARC
  5
230
330
1F
100
AcDbEntity
  8
0
  6
Continuous
 62
     7
370
    30
100
AcDbCircle
 10
446.179065619
 20
384.9793685013
 30
0.0
 40
0.300000317556779
100
AcDbArc
 50
359.916634274
 51
89.916634274
  0
LINE
  5
231
330
1F
100
AcDbEntity
  8
0
  6
Continuous
 62
     7
370
    30
100
AcDbLine
 10
446.4790654794
 20
384.9789313764
 30
0.0
 11
446.4660779835
 21
376.0528629437
 31
0.0
  0
LINE
  5
232
330
1F
100
AcDbEntity
  8
0
  6
Continuous
 62
     7
370
    30
100
AcDbLine
 10
446.4660779835
 20
376.0528629437
 30
0.0
 11
446.3660782592
 21
376.0530084441
 31
0.0
  0
LINE
  5
233
330
1F
100
AcDbEntity
  8
0
  6
Continuous
 62
     7
370
    30
100
AcDbLine
 10
446.3660782592
 20
376.0530084441
 30
0.0
 11
446.3623864149
 21
373.5156713123
 31
0.0
  0
LINE
  5
234
330
1F
100
AcDbEntity
  8
0
  6
Continuous
 62
     7
370
    30
100
AcDbLine
 10
446.3623864149
 20
373.5156713123
 30
0.0
 11
446.4623861391
 21
373.5155258119
 31
0.0
  0
LINE
  5
235
330
1F
100
AcDbEntity
  8
0
  6
Continuous
 62
     7
370
    30
100
AcDbLine
 10
446.4623861391
 20
373.5155258119
 30
0.0
 11
446.4522933435
 21
366.5789318994
 31
0.0
  0
ARC
  5
236
330
1F
100
AcDbEntity
  8
0
  6
Continuous
 62
     7
370
    30
100
AcDbCircle
 10
446.1522934823
 20
366.5793685013
 30
0.0
 40
0.300000317556836
100
AcDbArc
 50
269.916634274
 51
359.916634274
  0
LINE
  5
237
330
1F
100
AcDbEntity
  8
0
  6
Continuous
 62
     7
370
    30
100
AcDbLine
 10
446.1518576685
 20
366.2793684444
 30
0.0
 11
442.7518614552
 21
366.2843154641
 31
0.0
  0
ARC
  5
238
330
1F
100
AcDbEntity
  8
0
  6
Continuous
 62
     7
370
    30
100
AcDbCircle
 10
442.7522970813
 20
366.5843155213
 30
0.0
 40
0.3000003175568359
100
AcDbArc
 50
179.916634274
 51
269.916634274
  0
LINE
  5
239
330
1F
100
AcDbEntity
  8
0
  6
Continuous
 62
     7
370
    30
100
AcDbLine
 10
442.4790690578
 20
384.9847514009
 30
0.0
 11
442.4522969219
 21
366.5847519239
 31
0.0
  0
ARC
  5
23A
330
1F
100
AcDbEntity
  8
0
  6
Continuous
 62
     7
370
    30
100
AcDbCircle
 10
442.779069218
 20
384.9843155213
 30
0.0
 40
0.3000003175568359
100
AcDbArc
 50
89.916634274
 51
179.916634274
  0
ARC
  5
23B
330
1F
100
AcDbEntity
  8
0
  6
Continuous
 62
     7
370
    30
100
AcDbCircle
 10
442.7791236576
 20
385.0217424763
 30
0.0
 40
0.3000004599507358
100
AcDbArc
 50
89.9164637095
 51
179.9167441897
  0
LINE
  5
23C
330
1F
100
AcDbEntity
  8
0
  6
Continuous
 62
     7
370
    30
100
AcDbLine
 10
442.4790690578
 20
384.9847514009
 30
0.0
 11
442.4790723103
 21
384.9869867862
 31
0.0
  0
ARC
  5
23D
330
1F
100
AcDbEntity
  8
0
  6
Continuous
 62
     7
370
    30
100
AcDbCircle
 10
446.1791107433
 20
385.0143184212
 30
0.0
 40
0.3000059069305764
100
AcDbArc
 50
359.9171999563
 51
65.8404326644
  0
LINE
  5
23E
330
1F
100
AcDbEntity
  8
0
  6
Continuous
 62
     7
370
    30
100
AcDbLine
 10
446.479116337
 20
385.0138848728
 30
0.0
 11
446.4790654794
 21
384.9789313764
 31
0.0
  0
SPLINE
  5
23F
330
1F
100
AcDbEntity
  8
0
  6
Continuous
 62
     7
370
    30
100
AcDbSpline
210
0.0
220
0.0
230
1.0
 70
    24
 71
     3
 72
     9
 73
     5
 74
     0
 42
0.00000001
 43
0.00000001
 40
0.0
 40
0.0
 40
0.0
 40
0.0
 40
0.5637172716631604
 40
0.9999999999999999
 40
0.9999999999999999
 40
0.9999999999999999
 40
0.9999999999999999
 10
446.465905254835
 20
375.9341496853529
 30
0.0
 10
446.465937733562
 20
375.9564717205095
 30
0.0
 10
446.4659953488394
 20
375.9960696471275
 30
0.0
 10
446.4660528825456
 20
376.0356115113377
 30
0.0
 10
446.4660779835079
 20
376.0528629437388
 30
0.0
  0
LINE
  5
240
330
1F
100
AcDbEntity
  8
0
  6
Continuous
 62
     7
370
    30
100
AcDbLine
 10
444.4795582284
 20
385.3192691089
 30
0.0
 11
442.7795610531
 21
385.3217426174
 31
0.0
  0
ARC
  5
241
330
1F
100
AcDbEntity
  8
0
  6
Continuous
 62
     7
370
    30
100
AcDbCircle
 10
444.4795543271
 20
93.2218137644
 30
0.0
 40
292.0974553445027
100
AcDbArc
 50
89.6665382205
 51
89.9999992347
  0
LINE
  5
242
330
1F
100
AcDbEntity
  8
0
  6
Continuous
 62
     7
370
    30
100
AcDbLine
 10
446.3623864299
 20
373.5156816568
 30
0.0
 11
446.4623861542
 21
373.5155361564
 31
0.0
  0
LINE
  5
243
330
1F
100
AcDbEntity
  8
0
  6
Continuous
 62
     7
370
    30
100
AcDbLine
 10
446.4623861391
 20
373.5155258119
 30
0.0
 11
446.4623861542
 21
373.5155361564
 31
0.0
  0
LINE
  5
244
330
1F
100
AcDbEntity
  8
0
  6
Continuous
 62
     7
370
    30
100
AcDbLine
 10
446.4623861542
 20
373.5155361564
 30
0.0
 11
446.4659052548
 21
375.9341496854
 31
0.0
  0
LINE
  5
245
330
1F
100
AcDbEntity
  8
0
  6
Continuous
 62
     7
370
    30
100
AcDbLine
 10
442.4545734728
 20
333.7846799428
 30
0.0
 11
442.4458434295
 21
327.7846808219
 31
0.0
  0
LINE
  5
246
330
1F
100
AcDbEntity
  8
0
  6
Continuous
 62
     7
370
    30
100
AcDbLine
 10
442.4458434295
 20
327.7846808219
 30
0.0
 11
440.4458452187
 21
327.7875908342
 31
0.0
  0
LINE
  5
247
330
1F
100
AcDbEntity
  8
0
  6
Continuous
 62
     7
370
    30
100
AcDbLine
 10
440.454575262
 20
333.787589955
 30
0.0
 11
440.4458452187
 21
327.7875908342
 31
0.0
  0
LINE
  5
248
330
1F
100
AcDbEntity
  8
0
  6
Continuous
 62
     7
370
    30
100
AcDbLine
 10
440.454575262
 20
333.787589955
 30
0.0
 11
442.4545734728
 21
333.7846799428
 31
0.0
  0
LINE
  5
249
330
1F
100
AcDbEntity
  8
0
  6
Continuous
 62
     7
370
    30
100
AcDbLine
 10
549.4457309426
 20
327.6289951907
 30
0.0
 11
549.4544609859
 21
333.6289943116
 31
0.0
  0
LINE
  5
24A
330
1F
100
AcDbEntity
  8
0
  6
Continuous
 62
     7
370
    30
100
AcDbLine
 10
549.4457309426
 20
327.6289951907
 30
0.0
 11
547.4457290065
 21
327.6319052084
 31
0.0
  0
LINE
  5
24B
330
1F
100
AcDbEntity
  8
0
  6
Continuous
 62
     7
370
    30
100
AcDbLine
 10
547.4457290065
 20
327.6319052084
 30
0.0
 11
547.4544590498
 21
333.6319043293
 31
0.0
  0
LINE
  5
24C
330
1F
100
AcDbEntity
  8
0
  6
Continuous
 62
     7
370
    30
100
AcDbLine
 10
547.4544590498
 20
333.6319043293
 30
0.0
 11
549.4544609859
 21
333.6289943116
 31
0.0
  0
LINE
  5
24D
330
1F
100
AcDbEntity
  8
0
  6
Continuous
 62
     7
370
    30
100
AcDbLine
 10
446.9225583498
 20
311.7781306731
 30
0.0
 11
446.9254683651
 21
313.778131001
 31
0.0
  0
LINE
  5
24E
330
1F
100
AcDbEntity
  8
0
  6
Continuous
 62
     7
370
    30
100
AcDbLine
 10
446.9254683651
 20
313.778131001
 30
0.0
 11
452.9254611348
 21
313.7694009669
 31
0.0
  0
LINE
  5
24F
330
1F
100
AcDbEntity
  8
0
  6
Continuous
 62
     7
370
    30
100
AcDbLine
 10
452.9225511195
 20
311.7694006391
 30
0.0
 11
452.9254611348
 21
313.7694009669
 31
0.0
  0
LINE
  5
250
330
1F
100
AcDbEntity
  8
0
  6
Continuous
 62
     7
370
    30
100
AcDbLine
 10
452.9225511195
 20
311.7694006391
 30
0.0
 11
446.9225583498
 21
311.7781306731
 31
0.0
  0
LINE
  5
251
330
1F
100
AcDbEntity
  8
0
  6
Continuous
 62
     7
370
    30
100
AcDbLine
 10
467.9225358377
 20
311.7475755499
 30
0.0
 11
467.925445853
 21
313.7475758777
 31
0.0
  0
LINE
  5
252
330
1F
100
AcDbEntity
  8
0
  6
Continuous
 62
     7
370
    30
100
AcDbLine
 10
467.9225358377
 20
311.7475755499
 30
0.0
 11
461.9225412054
 21
311.7563055866
 31
0.0
  0
LINE
  5
253
330
1F
100
AcDbEntity
  8
0
  6
Continuous
 62
     7
370
    30
100
AcDbLine
 10
461.9254512207
 20
313.7563059145
 30
0.0
 11
461.9225412054
 21
311.7563055866
 31
0.0
  0
LINE
  5
254
330
1F
100
AcDbEntity
  8
0
  6
Continuous
 62
     7
370
    30
100
AcDbLine
 10
461.9254512207
 20
313.7563059145
 30
0.0
 11
467.925445853
 21
313.7475758777
 31
0.0
  0
LINE
  5
255
330
1F
100
AcDbEntity
  8
0
  6
Continuous
 62
     7
370
    30
100
AcDbLine
 10
476.9254359389
 20
313.7344808253
 30
0.0
 11
476.9225259236
 21
311.7344804974
 31
0.0
  0
LINE
  5
256
330
1F
100
AcDbEntity
  8
0
  6
Continuous
 62
     7
370
    30
100
AcDbLine
 10
476.9254359389
 20
313.7344808253
 30
0.0
 11
482.9254305713
 21
313.7257507885
 31
0.0
  0
LINE
  5
257
330
1F
100
AcDbEntity
  8
0
  6
Continuous
 62
     7
370
    30
100
AcDbLine
 10
482.9225205559
 20
311.7257504607
 30
0.0
 11
482.9254305713
 21
313.7257507885
 31
0.0
  0
LINE
  5
258
330
1F
100
AcDbEntity
  8
0
  6
Continuous
 62
     7
370
    30
100
AcDbLine
 10
482.9225205559
 20
311.7257504607
 30
0.0
 11
476.9225259236
 21
311.7344804974
 31
0.0
  0
LINE
  5
259
330
1F
100
AcDbEntity
  8
0
  6
Continuous
 62
     7
370
    30
100
AcDbLine
 10
491.9254169319
 20
313.7126557415
 30
0.0
 11
491.9225069165
 21
311.7126554137
 31
0.0
  0
LINE
  5
25A
330
1F
100
AcDbEntity
  8
0
  6
Continuous
 62
     7
370
    30
100
AcDbLine
 10
491.9254169319
 20
313.7126557415
 30
0.0
 11
497.9254152895
 21
313.7039256993
 31
0.0
  0
LINE
  5
25B
330
1F
100
AcDbEntity
  8
0
  6
Continuous
 62
     7
370
    30
100
AcDbLine
 10
497.9225052742
 20
311.7039253715
 30
0.0
 11
497.9254152895
 21
313.7039256993
 31
0.0
  0
LINE
  5
25C
330
1F
100
AcDbEntity
  8
0
  6
Continuous
 62
     7
370
    30
100
AcDbLine
 10
497.9225052742
 20
311.7039253715
 30
0.0
 11
491.9225069165
 21
311.7126554137
 31
0.0
  0
LINE
  5
25D
330
1F
100
AcDbEntity
  8
0
  6
Continuous
 62
     7
370
    30
100
AcDbLine
 10
506.9254016501
 20
313.6908306523
 30
0.0
 11
506.9224916347
 21
311.6908303245
 31
0.0
  0
LINE
  5
25E
330
1F
100
AcDbEntity
  8
0
  6
Continuous
 62
     7
370
    30
100
AcDbLine
 10
506.9254016501
 20
313.6908306523
 30
0.0
 11
512.9254000077
 21
313.6821006101
 31
0.0
  0
LINE
  5
25F
330
1F
100
AcDbEntity
  8
0
  6
Continuous
 62
     7
370
    30
100
AcDbLine
 10
512.9224899924
 20
311.6821002823
 30
0.0
 11
512.9254000077
 21
313.6821006101
 31
0.0
  0
LINE
  5
260
330
1F
100
AcDbEntity
  8
0
  6
Continuous
 62
     7
370
    30
100
AcDbLine
 10
512.9224899924
 20
311.6821002823
 30
0.0
 11
506.9224916347
 21
311.6908303245
 31
0.0
  0
LINE
  5
261
330
1F
100
AcDbEntity
  8
0
  6
Continuous
 62
     7
370
    30
100
AcDbLine
 10
521.9253863683
 20
313.6690055631
 30
0.0
 11
521.922476353
 21
311.6690052353
 31
0.0
  0
LINE
  5
262
330
1F
100
AcDbEntity
  8
0
  6
Continuous
 62
     7
370
    30
100
AcDbLine
 10
521.9253863683
 20
313.6690055631
 30
0.0
 11
527.9253847259
 21
313.6602755209
 31
0.0
  0
LINE
  5
263
330
1F
100
AcDbEntity
  8
0
  6
Continuous
 62
     7
370
    30
100
AcDbLine
 10
527.9224747106
 20
311.6602751931
 30
0.0
 11
527.9253847259
 21
313.6602755209
 31
0.0
  0
LINE
  5
264
330
1F
100
AcDbEntity
  8
0
  6
Continuous
 62
     7
370
    30
100
AcDbLine
 10
527.9224747106
 20
311.6602751931
 30
0.0
 11
521.922476353
 21
311.6690052353
 31
0.0
  0
LINE
  5
265
330
1F
100
AcDbEntity
  8
0
  6
Continuous
 62
     7
370
    30
100
AcDbLine
 10
542.9253619936
 20
313.6384504426
 30
0.0
 11
542.9224519782
 21
311.6384501148
 31
0.0
  0
LINE
  5
266
330
1F
100
AcDbEntity
  8
0
  6
Continuous
 62
     7
370
    30
100
AcDbLine
 10
542.9224519782
 20
311.6384501148
 30
0.0
 11
536.9224610712
 21
311.6471801461
 31
0.0
  0
LINE
  5
267
330
1F
100
AcDbEntity
  8
0
  6
Continuous
 62
     7
370
    30
100
AcDbLine
 10
536.9253710865
 20
313.6471804739
 30
0.0
 11
536.9224610712
 21
311.6471801461
 31
0.0
  0
LINE
  5
268
330
1F
100
AcDbEntity
  8
0
  6
Continuous
 62
     7
370
    30
100
AcDbLine
 10
536.9253710865
 20
313.6471804739
 30
0.0
 11
542.9253619936
 21
313.6384504426
 31
0.0
  0
ARC
  5
269
330
1F
100
AcDbEntity
  8
0
  6
Continuous
 62
     7
370
    30
100
AcDbCircle
 10
444.9257142672
 20
-29.6902736433
 30
0.0
 40
343.6446443031317
100
AcDbArc
 50
89.6665383097
 51
89.9999986523
  0
LINE
  5
26A
330
1F
100
AcDbEntity
  8
0
  6
Continuous
 62
     7
370
    30
100
AcDbLine
 10
444.4257237289
 20
313.9550981615
 30
0.0
 11
444.9257223503
 21
313.9543706598
 31
0.0
  0
LINE
  5
26B
330
1F
100
AcDbEntity
  8
0
  6
Continuous
 62
     7
370
    30
100
AcDbLine
 10
444.4257364311
 20
313.9638281836
 30
0.0
 11
444.9257350525
 21
313.9631006819
 31
0.0
  0
ARC
  5
26C
330
1F
100
AcDbEntity
  8
0
  6
Continuous
 62
     7
370
    30
100
AcDbCircle
 10
445.9257358729
 20
657.6052597847
 30
0.0
 40
343.6436141039685
100
AcDbArc
 50
269.8332693959
 51
270.1667307382
  0
LINE
  5
26D
330
1F
100
AcDbEntity
  8
0
  6
Continuous
 62
     7
370
    30
100
AcDbLine
 10
446.9257840723
 20
313.9951107797
 30
0.0
 11
446.9257374974
 21
313.9631006843
 31
0.0
  0
LINE
  5
26E
330
1F
100
AcDbEntity
  8
0
  6
Continuous
 62
     7
370
    30
100
AcDbLine
 10
452.9254611348
 20
313.7694009669
 30
0.0
 11
452.925776842
 21
313.9863807457
 31
0.0
  0
LINE
  5
26F
330
1F
100
AcDbEntity
  8
0
  6
Continuous
 62
     7
370
    30
100
AcDbLine
 10
446.925716327
 20
313.948550633
 30
0.0
 11
446.9254683651
 21
313.778131001
 31
0.0
  0
LINE
  5
270
330
1F
100
AcDbEntity
  8
0
  6
Continuous
 62
     7
370
    30
100
AcDbLine
 10
442.4548256071
 20
333.9579672485
 30
0.0
 11
440.4548273964
 21
333.9608772608
 31
0.0
  0
LINE
  5
271
330
1F
100
AcDbEntity
  8
0
  6
Continuous
 62
     7
370
    30
100
AcDbLine
 10
442.4545734728
 20
333.7846799428
 30
0.0
 11
442.4548256071
 21
333.9579672485
 31
0.0
  0
LINE
  5
272
330
1F
100
AcDbEntity
  8
0
  6
Continuous
 62
     7
370
    30
100
AcDbLine
 10
440.454575262
 20
333.787589955
 30
0.0
 11
440.4548273964
 21
333.9608772608
 31
0.0
  0
LINE
  5
273
330
1F
100
AcDbEntity
  8
0
  6
Continuous
 62
     7
370
    30
100
AcDbLine
 10
467.925445853
 20
313.7475758777
 30
0.0
 11
467.9257615602
 21
313.9645556565
 31
0.0
  0
LINE
  5
274
330
1F
100
AcDbEntity
  8
0
  6
Continuous
 62
     7
370
    30
100
AcDbLine
 10
461.9254512207
 20
313.7563059145
 30
0.0
 11
461.9257669279
 21
313.9732856933
 31
0.0
  0
LINE
  5
275
330
1F
100
AcDbEntity
  8
0
  6
Continuous
 62
     7
370
    30
100
AcDbLine
 10
482.9254305713
 20
313.7257507885
 30
0.0
 11
482.9257462785
 21
313.9427305673
 31
0.0
  0
LINE
  5
276
330
1F
100
AcDbEntity
  8
0
  6
Continuous
 62
     7
370
    30
100
AcDbLine
 10
476.9257516461
 20
313.9514606041
 30
0.0
 11
476.9254359389
 21
313.7344808253
 31
0.0
  0
LINE
  5
277
330
1F
100
AcDbEntity
  8
0
  6
Continuous
 62
     7
370
    30
100
AcDbLine
 10
497.9254152895
 20
313.7039256993
 30
0.0
 11
497.9257309967
 21
313.9209054781
 31
0.0
  0
LINE
  5
278
330
1F
100
AcDbEntity
  8
0
  6
Continuous
 62
     7
370
    30
100
AcDbLine
 10
491.925732639
 20
313.9296355203
 30
0.0
 11
491.9254169319
 21
313.7126557415
 31
0.0
  0
LINE
  5
279
330
1F
100
AcDbEntity
  8
0
  6
Continuous
 62
     7
370
    30
100
AcDbLine
 10
512.9254000077
 20
313.6821006101
 30
0.0
 11
512.9257157149
 21
313.8990803889
 31
0.0
  0
LINE
  5
27A
330
1F
100
AcDbEntity
  8
0
  6
Continuous
 62
     7
370
    30
100
AcDbLine
 10
506.9257173573
 20
313.9078104311
 30
0.0
 11
506.9254016501
 21
313.6908306523
 31
0.0
  0
LINE
  5
27B
330
1F
100
AcDbEntity
  8
0
  6
Continuous
 62
     7
370
    30
100
AcDbLine
 10
527.9253847259
 20
313.6602755209
 30
0.0
 11
527.9257004331
 21
313.8772552997
 31
0.0
  0
LINE
  5
27C
330
1F
100
AcDbEntity
  8
0
  6
Continuous
 62
     7
370
    30
100
AcDbLine
 10
521.9257020755
 20
313.8859853419
 30
0.0
 11
521.9253863683
 21
313.6690055631
 31
0.0
  0
LINE
  5
27D
330
1F
100
AcDbEntity
  8
0
  6
Continuous
 62
     7
370
    30
100
AcDbLine
 10
542.9256777008
 20
313.8554302214
 30
0.0
 11
542.9256311258
 21
313.8234201259
 31
0.0
  0
ARC
  5
27E
330
1F
100
AcDbEntity
  8
0
  6
Continuous
 62
     7
370
    30
100
AcDbCircle
 10
544.9256432994
 20
657.4653998421
 30
0.0
 40
343.6477997484997
100
AcDbArc
 50
269.6665396853
 51
269.9999975872
  0
LINE
  5
27F
330
1F
100
AcDbEntity
  8
0
  6
Continuous
 62
     7
370
    30
100
AcDbLine
 10
545.4256218613
 20
313.8168726
 30
0.0
 11
544.9256288278
 21
313.8176000936
 31
0.0
  0
LINE
  5
280
330
1F
100
AcDbEntity
  8
0
  6
Continuous
 62
     7
370
    30
100
AcDbLine
 10
544.9256161256
 20
313.8088700715
 30
0.0
 11
545.425609159
 21
313.8081425779
 31
0.0
  0
ARC
  5
281
330
1F
100
AcDbEntity
  8
0
  6
Continuous
 62
     7
370
    30
100
AcDbCircle
 10
543.9256125112
 20
-29.8385048882
 30
0.0
 40
343.64882994699
100
AcDbArc
 50
89.8332714607
 51
90.1667283629
  0
LINE
  5
282
330
1F
100
AcDbEntity
  8
0
  6
Continuous
 62
     7
370
    30
100
AcDbLine
 10
542.9253619936
 20
313.6384504426
 30
0.0
 11
542.9256099554
 21
313.8088700746
 31
0.0
  0
LINE
  5
283
330
1F
100
AcDbEntity
  8
0
  6
Continuous
 62
     7
370
    30
100
AcDbLine
 10
536.9256867937
 20
313.8641602527
 30
0.0
 11
536.9253710865
 21
313.6471804739
 31
0.0
  0
LINE
  5
284
330
1F
100
AcDbEntity
  8
0
  6
Continuous
 62
     7
370
    30
100
AcDbLine
 10
549.4547131202
 20
333.8022816174
 30
0.0
 11
547.4547111841
 21
333.805191635
 31
0.0
  0
LINE
  5
285
330
1F
100
AcDbEntity
  8
0
  6
Continuous
 62
     7
370
    30
100
AcDbLine
 10
549.4547131202
 20
333.8022816174
 30
0.0
 11
549.4544609859
 21
333.6289943116
 31
0.0
  0
LINE
  5
286
330
1F
100
AcDbEntity
  8
0
  6
Continuous
 62
     7
370
    30
100
AcDbLine
 10
547.4547111841
 20
333.805191635
 30
0.0
 11
547.4544590498
 21
333.6319043293
 31
0.0
  0
LINE
  5
287
330
1F
100
AcDbEntity
  8
0
  6
Continuous
 62
     7
370
    30
100
AcDbLine
 10
442.445843426
 20
327.7846784304
 30
0.0
 11
442.4431855732
 21
325.9579847362
 31
0.0
  0
LINE
  5
288
330
1F
100
AcDbEntity
  8
0
  6
Continuous
 62
     7
370
    30
100
AcDbLine
 10
440.4431873624
 20
325.9608947485
 30
0.0
 11
440.4458452153
 21
327.7875884426
 31
0.0
  0
LINE
  5
289
330
1F
100
AcDbEntity
  8
0
  6
Continuous
 62
     7
370
    30
100
AcDbLine
 10
549.4457309391
 20
327.6289927992
 30
0.0
 11
549.4430730862
 21
325.802299105
 31
0.0
  0
LINE
  5
28A
330
1F
100
AcDbEntity
  8
0
  6
Continuous
 62
     7
370
    30
100
AcDbLine
 10
547.4430711501
 20
325.8052091227
 30
0.0
 11
547.445729003
 21
327.6319028168
 31
0.0
  0
ARC
  5
28B
330
1F
100
AcDbEntity
  8
0
  6
Continuous
 62
     7
370
    30
100
AcDbCircle
 10
444.922804258
 20
-31.690269737
 30
0.0
 40
343.6446443030474
100
AcDbArc
 50
89.6665383097
 51
89.9999986523
  0
ARC
  5
28C
330
1F
100
AcDbEntity
  8
0
  6
Continuous
 62
     7
370
    30
100
AcDbCircle
 10
543.9227025021
 20
-31.8385009959
 30
0.0
 40
343.6488299609077
100
AcDbArc
 50
89.8332714607
 51
90.1667283628
  0
ARC
  5
28D
330
1F
100
AcDbEntity
  8
0
  6
Continuous
 62
     7
370
    30
100
AcDbCircle
 10
444.4286339891
 20
315.9550987336
 30
0.0
 40
4.000000900215449
100
AcDbArc
 50
179.916698426
 51
269.9166307709
  0
ARC
  5
28E
330
1F
100
AcDbEntity
  8
0
  6
Continuous
 62
     7
370
    30
100
AcDbCircle
 10
444.4286345992
 20
315.9550972279
 30
0.0
 40
2.000001184621635
100
AcDbArc
 50
179.9167194682
 51
269.9166097287
  0
LINE
  5
28F
330
1F
100
AcDbEntity
  8
0
  6
Continuous
 62
     7
370
    30
100
AcDbLine
 10
444.9228123411
 20
311.9543745661
 30
0.0
 11
444.4228137197
 21
311.9551020678
 31
0.0
  0
LINE
  5
290
330
1F
100
AcDbEntity
  8
0
  6
Continuous
 62
     7
370
    30
100
AcDbLine
 10
442.4431855732
 20
325.9579847362
 30
0.0
 11
442.4286355273
 21
315.9580042675
 31
0.0
  0
LINE
  5
291
330
1F
100
AcDbEntity
  8
0
  6
Continuous
 62
     7
370
    30
100
AcDbLine
 10
440.4431873624
 20
325.9608947485
 30
0.0
 11
440.4286373165
 21
315.9609142798
 31
0.0
  0
ARC
  5
292
330
1F
100
AcDbEntity
  8
0
  6
Continuous
 62
     7
370
    30
100
AcDbCircle
 10
545.428521103
 20
315.8081484329
 30
0.0
 40
4.000006185610583
100
AcDbArc
 50
269.916606763
 51
359.9164944146
  0
ARC
  5
293
330
1F
100
AcDbEntity
  8
0
  6
Continuous
 62
     7
370
    30
100
AcDbCircle
 10
545.4285209898
 20
315.8081426957
 30
0.0
 40
2.00000223740905
100
AcDbArc
 50
269.9165822578
 51
359.9165189198
  0
LINE
  5
294
330
1F
100
AcDbEntity
  8
0
  6
Continuous
 62
     7
370
    30
100
AcDbLine
 10
544.9227061164
 20
311.8088739778
 30
0.0
 11
545.4226991498
 21
311.8081464842
 31
0.0
  0
LINE
  5
295
330
1F
100
AcDbEntity
  8
0
  6
Continuous
 62
     7
370
    30
100
AcDbLine
 10
549.4285230403
 20
315.8023186363
 30
0.0
 11
549.4430730862
 21
325.802299105
 31
0.0
  0
LINE
  5
296
330
1F
100
AcDbEntity
  8
0
  6
Continuous
 62
     7
370
    30
100
AcDbLine
 10
547.4285211043
 20
315.805228654
 30
0.0
 11
547.4430711501
 21
325.8052091227
 31
0.0
  0
ARC
  5
297
330
1F
100
AcDbEntity
  8
0
  6
Continuous
 62
     7
370
    30
100
AcDbCircle
 10
444.4286473014
 20
315.96382725
 30
0.0
 40
2.000001184621637
100
AcDbArc
 50
179.9167194682
 51
269.9166097287
  0
ARC
  5
298
330
1F
100
AcDbEntity
  8
0
  6
Continuous
 62
     7
370
    30
100
AcDbCircle
 10
545.428533692
 20
315.8168727178
 30
0.0
 40
2.000002237408993
100
AcDbArc
 50
269.9165822578
 51
359.9165189198
  0
LINE
  5
299
330
1F
100
AcDbEntity
  8
0
  6
Continuous
 62
     7
370
    30
100
AcDbLine
 10
452.925776842
 20
313.9863807457
 30
0.0
 11
452.9286910853
 21
315.9892868323
 31
0.0
  0
LINE
  5
29A
330
1F
100
AcDbEntity
  8
0
  6
Continuous
 62
     7
370
    30
100
AcDbLine
 10
446.9257840723
 20
313.9951107797
 30
0.0
 11
446.9286983155
 21
315.9980168664
 31
0.0
  0
LINE
  5
29B
330
1F
100
AcDbEntity
  8
0
  6
Continuous
 62
     7
370
    30
100
AcDbLine
 10
461.9286811711
 20
315.9761917799
 30
0.0
 11
461.9257669279
 21
313.9732856933
 31
0.0
  0
LINE
  5
29C
330
1F
100
AcDbEntity
  8
0
  6
Continuous
 62
     7
370
    30
100
AcDbLine
 10
467.9257615602
 20
313.9645556565
 30
0.0
 11
467.9286758035
 21
315.9674617432
 31
0.0
  0
LINE
  5
29D
330
1F
100
AcDbEntity
  8
0
  6
Continuous
 62
     7
370
    30
100
AcDbLine
 10
476.9286658893
 20
315.9543666907
 30
0.0
 11
476.9257516461
 21
313.9514606041
 31
0.0
  0
LINE
  5
29E
330
1F
100
AcDbEntity
  8
0
  6
Continuous
 62
     7
370
    30
100
AcDbLine
 10
482.9257462785
 20
313.9427305673
 30
0.0
 11
482.9286605217
 21
315.945636654
 31
0.0
  0
LINE
  5
29F
330
1F
100
AcDbEntity
  8
0
  6
Continuous
 62
     7
370
    30
100
AcDbLine
 10
491.9286468823
 20
315.9325416069
 30
0.0
 11
491.925732639
 21
313.9296355203
 31
0.0
  0
LINE
  5
2A0
330
1F
100
AcDbEntity
  8
0
  6
Continuous
 62
     7
370
    30
100
AcDbLine
 10
497.9257309967
 20
313.9209054781
 30
0.0
 11
497.9286452399
 21
315.9238115648
 31
0.0
  0
LINE
  5
2A1
330
1F
100
AcDbEntity
  8
0
  6
Continuous
 62
     7
370
    30
100
AcDbLine
 10
506.9286316005
 20
315.9107165178
 30
0.0
 11
506.9257173573
 21
313.9078104311
 31
0.0
  0
LINE
  5
2A2
330
1F
100
AcDbEntity
  8
0
  6
Continuous
 62
     7
370
    30
100
AcDbLine
 10
512.9257157149
 20
313.8990803889
 30
0.0
 11
512.9286299581
 21
315.9019864756
 31
0.0
  0
LINE
  5
2A3
330
1F
100
AcDbEntity
  8
0
  6
Continuous
 62
     7
370
    30
100
AcDbLine
 10
527.9257004331
 20
313.8772552997
 30
0.0
 11
527.9286146764
 21
315.8801613864
 31
0.0
  0
LINE
  5
2A4
330
1F
100
AcDbEntity
  8
0
  6
Continuous
 62
     7
370
    30
100
AcDbLine
 10
521.9286163187
 20
315.8888914286
 30
0.0
 11
521.9257020755
 21
313.8859853419
 31
0.0
  0
LINE
  5
2A5
330
1F
100
AcDbEntity
  8
0
  6
Continuous
 62
     7
370
    30
100
AcDbLine
 10
542.928591944
 20
315.858336308
 30
0.0
 11
542.9256777008
 21
313.8554302214
 31
0.0
  0
LINE
  5
2A6
330
1F
100
AcDbEntity
  8
0
  6
Continuous
 62
     7
370
    30
100
AcDbLine
 10
536.9286010369
 20
315.8670663394
 30
0.0
 11
536.9256867937
 21
313.8641602527
 31
0.0
  0
ARC
  5
2A7
330
1F
100
AcDbEntity
  8
0
  6
Continuous
 62
     7
370
    30
100
AcDbCircle
 10
465.9999737711
 20
364.9702698709
 30
0.0
 40
1.999999365153786
100
AcDbArc
 50
269.9166066955
 51
359.9165945336
  0
ARC
  5
2A8
330
1F
100
AcDbEntity
  8
0
  6
Continuous
 62
     7
370
    30
100
AcDbCircle
 10
478.9999583532
 20
364.9513547967
 30
0.0
 40
1.999999365153417
100
AcDbArc
 50
179.9166740144
 51
269.9166618526
  0
LINE
  5
2A9
330
1F
100
AcDbEntity
  8
0
  6
Continuous
 62
     7
370
    30
100
AcDbLine
 10
510.997013227
 20
362.904797362
 30
0.0
 11
478.997049305
 21
362.9513575472
 31
0.0
  0
ARC
  5
2AA
330
1F
100
AcDbEntity
  8
0
  6
Continuous
 62
     7
370
    30
100
AcDbCircle
 10
510.9999226411
 20
364.9047999034
 30
0.0
 40
2.000004657540964
100
AcDbArc
 50
269.9166515892
 51
359.9164429183
  0
ARC
  5
2AB
330
1F
100
AcDbEntity
  8
0
  6
Continuous
 62
     7
370
    30
100
AcDbCircle
 10
523.9999140827
 20
364.8858848193
 30
0.0
 40
2.000004657541246
100
AcDbArc
 50
179.9168256297
 51
269.9166169589
  0
LINE
  5
2AC
330
1F
100
AcDbEntity
  8
0
  6
Continuous
 62
     7
370
    30
100
AcDbLine
 10
540.9969826634
 20
362.8611471836
 30
0.0
 11
523.9970034597
 21
362.8858822796
 31
0.0
  0
ARC
  5
2AD
330
1F
100
AcDbEntity
  8
0
  6
Continuous
 62
     7
370
    30
100
AcDbCircle
 10
540.994087142
 20
360.8611671414
 30
0.0
 40
1.999982138221547
100
AcDbArc
 50
359.9161838287
 51
89.9170486515
  0
LINE
  5
2AE
330
1F
100
AcDbEntity
  8
0
  6
Continuous
 62
     7
370
    30
100
AcDbLine
 10
542.9940671402
 20
360.8582414323
 30
0.0
 11
542.928591944
 21
315.858336308
 31
0.0
  0
LINE
  5
2AF
330
1F
100
AcDbEntity
  8
0
  6
Continuous
 62
     7
370
    30
100
AcDbLine
 10
536.9853462077
 20
354.8669845794
 30
0.0
 11
536.9286010369
 21
315.8670663394
 31
0.0
  0
ARC
  5
2B0
330
1F
100
AcDbEntity
  8
0
  6
Continuous
 62
     7
370
    30
100
AcDbCircle
 10
534.9853550664
 20
354.8698985966
 30
0.0
 40
1.999993264181816
100
AcDbArc
 50
359.9165192443
 51
89.9167299112
  0
LINE
  5
2B1
330
1F
100
AcDbEntity
  8
0
  6
Continuous
 62
     7
370
    30
100
AcDbLine
 10
529.9882643404
 20
356.877164782
 30
0.0
 11
534.98826173
 21
356.8698897486
 31
0.0
  0
ARC
  5
2B2
330
1F
100
AcDbEntity
  8
0
  6
Continuous
 62
     7
370
    30
100
AcDbCircle
 10
529.9853510001
 20
354.8771736397
 30
0.0
 40
1.999993264181538
100
AcDbArc
 50
89.9165386368
 51
179.9167493037
  0
LINE
  5
2B3
330
1F
100
AcDbEntity
  8
0
  6
Continuous
 62
     7
370
    30
100
AcDbLine
 10
527.9286146764
 20
315.8801613864
 30
0.0
 11
527.9853598471
 21
354.8800796264
 31
0.0
  0
LINE
  5
2B4
330
1F
100
AcDbEntity
  8
0
  6
Continuous
 62
     7
370
    30
100
AcDbLine
 10
521.9853614895
 20
354.8888096686
 30
0.0
 11
521.9286163187
 21
315.8888914286
 31
0.0
  0
ARC
  5
2B5
330
1F
100
AcDbEntity
  8
0
  6
Continuous
 62
     7
370
    30
100
AcDbCircle
 10
519.9853703482
 20
354.8917236858
 30
0.0
 40
1.999993264181535
100
AcDbArc
 50
359.9165192443
 51
89.9167299112
  0
LINE
  5
2B6
330
1F
100
AcDbEntity
  8
0
  6
Continuous
 62
     7
370
    30
100
AcDbLine
 10
514.9882796222
 20
356.8989898712
 30
0.0
 11
519.9882770118
 21
356.8917148378
 31
0.0
  0
ARC
  5
2B7
330
1F
100
AcDbEntity
  8
0
  6
Continuous
 62
     7
370
    30
100
AcDbCircle
 10
514.9853662819
 20
354.8989987289
 30
0.0
 40
1.999993264181523
100
AcDbArc
 50
89.9165386368
 51
179.9167493037
  0
LINE
  5
2B8
330
1F
100
AcDbEntity
  8
0
  6
Continuous
 62
     7
370
    30
100
AcDbLine
 10
512.9286299581
 20
315.9019864756
 30
0.0
 11
512.9853751289
 21
354.9019047156
 31
0.0
  0
LINE
  5
2B9
330
1F
100
AcDbEntity
  8
0
  6
Continuous
 62
     7
370
    30
100
AcDbLine
 10
506.9853767713
 20
354.9106347578
 30
0.0
 11
506.9286316005
 21
315.9107165178
 31
0.0
  0
ARC
  5
2BA
330
1F
100
AcDbEntity
  8
0
  6
Continuous
 62
     7
370
    30
100
AcDbCircle
 10
504.98538563
 20
354.913548775
 30
0.0
 40
1.999993264181475
100
AcDbArc
 50
359.9165192443
 51
89.9167299112
  0
LINE
  5
2BB
330
1F
100
AcDbEntity
  8
0
  6
Continuous
 62
     7
370
    30
100
AcDbLine
 10
499.988294904
 20
356.9208149604
 30
0.0
 11
504.9882922936
 21
356.913539927
 31
0.0
  0
ARC
  5
2BC
330
1F
100
AcDbEntity
  8
0
  6
Continuous
 62
     7
370
    30
100
AcDbCircle
 10
499.9853846593
 20
354.9208207134
 30
0.0
 40
1.999996364371134
100
AcDbArc
 50
89.9166274511
 51
179.9166604894
  0
LINE
  5
2BD
330
1F
100
AcDbEntity
  8
0
  6
Continuous
 62
     7
370
    30
100
AcDbLine
 10
497.9286452399
 20
315.9238115648
 30
0.0
 11
497.9853904107
 21
354.9237298048
 31
0.0
  0
LINE
  5
2BE
330
1F
100
AcDbEntity
  8
0
  6
Continuous
 62
     7
370
    30
100
AcDbLine
 10
491.985392053
 20
354.932459847
 30
0.0
 11
491.9286468823
 21
315.9325416069
 31
0.0
  0
ARC
  5
2BF
330
1F
100
AcDbEntity
  8
0
  6
Continuous
 62
     7
370
    30
100
AcDbCircle
 10
489.9854051575
 20
354.9353780977
 30
0.0
 40
1.999989024565724
100
AcDbArc
 50
359.916397787
 51
89.9168513685
  0
LINE
  5
2C0
330
1F
100
AcDbEntity
  8
0
  6
Continuous
 62
     7
370
    30
100
AcDbLine
 10
484.9883101858
 20
356.9426400496
 30
0.0
 11
489.9883075754
 21
356.9353650162
 31
0.0
  0
ARC
  5
2C1
330
1F
100
AcDbEntity
  8
0
  6
Continuous
 62
     7
370
    30
100
AcDbCircle
 10
484.9853999411
 20
354.9426458026
 30
0.0
 40
1.999996364371186
100
AcDbArc
 50
89.9166274511
 51
179.9166604894
  0
LINE
  5
2C2
330
1F
100
AcDbEntity
  8
0
  6
Continuous
 62
     7
370
    30
100
AcDbLine
 10
482.9286605217
 20
315.945636654
 30
0.0
 11
482.9854056924
 21
354.945554894
 31
0.0
  0
LINE
  5
2C3
330
1F
100
AcDbEntity
  8
0
  6
Continuous
 62
     7
370
    30
100
AcDbLine
 10
476.9854110601
 20
354.9542849307
 30
0.0
 11
476.9286658893
 21
315.9543666907
 31
0.0
  0
ARC
  5
2C4
330
1F
100
AcDbEntity
  8
0
  6
Continuous
 62
     7
370
    30
100
AcDbCircle
 10
474.9854146188
 20
354.9571936634
 30
0.0
 40
1.999998556526544
100
AcDbArc
 50
359.9166708593
 51
89.916685018
  0
LINE
  5
2C5
330
1F
100
AcDbEntity
  8
0
  6
Continuous
 62
     7
370
    30
100
AcDbLine
 10
469.9883291928
 20
356.9644651333
 30
0.0
 11
474.9883228571
 21
356.9571901054
 31
0.0
  0
ARC
  5
2C6
330
1F
100
AcDbEntity
  8
0
  6
Continuous
 62
     7
370
    30
100
AcDbCircle
 10
469.9854174119
 20
354.9644686964
 30
0.0
 40
1.99999855652676
100
AcDbArc
 50
89.91658353
 51
179.9165976888
  0
LINE
  5
2C7
330
1F
100
AcDbEntity
  8
0
  6
Continuous
 62
     7
370
    30
100
AcDbLine
 10
467.9286758035
 20
315.9674617432
 30
0.0
 11
467.9854209742
 21
354.9673799832
 31
0.0
  0
LINE
  5
2C8
330
1F
100
AcDbEntity
  8
0
  6
Continuous
 62
     7
370
    30
100
AcDbLine
 10
461.9854263419
 20
354.9761100199
 30
0.0
 11
461.9286811711
 21
315.9761917799
 31
0.0
  0
ARC
  5
2C9
330
1F
100
AcDbEntity
  8
0
  6
Continuous
 62
     7
370
    30
100
AcDbCircle
 10
459.9854299005
 20
354.9790187525
 30
0.0
 40
1.999998556526649
100
AcDbArc
 50
359.9166708593
 51
89.916685018
  0
LINE
  5
2CA
330
1F
100
AcDbEntity
  8
0
  6
Continuous
 62
     7
370
    30
100
AcDbLine
 10
454.9883444746
 20
356.9862902225
 30
0.0
 11
459.9883381389
 21
356.9790151946
 31
0.0
  0
ARC
  5
2CB
330
1F
100
AcDbEntity
  8
0
  6
Continuous
 62
     7
370
    30
100
AcDbCircle
 10
454.9854326936
 20
354.9862937856
 30
0.0
 40
1.99999855652659
100
AcDbArc
 50
89.91658353
 51
179.9165976888
  0
LINE
  5
2CC
330
1F
100
AcDbEntity
  8
0
  6
Continuous
 62
     7
370
    30
100
AcDbLine
 10
452.9286910853
 20
315.9892868323
 30
0.0
 11
452.985436256
 21
354.9892050724
 31
0.0
  0
LINE
  5
2CD
330
1F
100
AcDbEntity
  8
0
  6
Continuous
 62
     7
370
    30
100
AcDbLine
 10
446.9941735118
 20
360.9979219907
 30
0.0
 11
446.9286983155
 21
315.9980168664
 31
0.0
  0
ARC
  5
2CE
330
1F
100
AcDbEntity
  8
0
  6
Continuous
 62
     7
370
    30
100
AcDbCircle
 10
448.9941713213
 20
360.9950099109
 30
0.0
 40
1.999999929584022
100
AcDbArc
 50
89.9166762261
 51
179.9165750288
  0
LINE
  5
2CF
330
1F
100
AcDbEntity
  8
0
  6
Continuous
 62
     7
370
    30
100
AcDbLine
 10
465.9970627976
 20
362.9702726242
 30
0.0
 11
448.9970798686
 21
362.9950077256
 31
0.0
  0
ARC
  5
2D0
330
1F
100
AcDbEntity
  8
0
  6
Continuous
 62
     7
370
    30
100
AcDbCircle
 10
465.9999780052
 20
364.9731798855
 30
0.0
 40
1.999999365153732
100
AcDbArc
 50
269.9166066955
 51
359.9165945336
  0
ARC
  5
2D1
330
1F
100
AcDbEntity
  8
0
  6
Continuous
 62
     7
370
    30
100
AcDbCircle
 10
478.9999625873
 20
364.9542648113
 30
0.0
 40
1.999999365153531
100
AcDbArc
 50
179.9166740144
 51
269.9166618526
  0
ARC
  5
2D2
330
1F
100
AcDbEntity
  8
0
  6
Continuous
 62
     7
370
    30
100
AcDbCircle
 10
510.9999268752
 20
364.907709918
 30
0.0
 40
2.000004657540867
100
AcDbArc
 50
269.9166515892
 51
359.9164429183
  0
ARC
  5
2D3
330
1F
100
AcDbEntity
  8
0
  6
Continuous
 62
     7
370
    30
100
AcDbCircle
 10
523.9999183168
 20
364.8887948338
 30
0.0
 40
2.000004657541307
100
AcDbArc
 50
179.9168256297
 51
269.9166169589
  0
LINE
  5
2D4
330
1F
100
AcDbEntity
  8
0
  6
Continuous
 62
     7
370
    30
100
AcDbLine
 10
465.9970670317
 20
362.9731826388
 30
0.0
 11
448.9970841027
 21
362.9979177402
 31
0.0
  0
LINE
  5
2D5
330
1F
100
AcDbEntity
  8
0
  6
Continuous
 62
     7
370
    30
100
AcDbLine
 10
446.9941735118
 20
360.9979219907
 30
0.0
 11
446.9941777459
 21
361.0008320053
 31
0.0
  0
ARC
  5
2D6
330
1F
100
AcDbEntity
  8
0
  6
Continuous
 62
     7
370
    30
100
AcDbCircle
 10
448.9941755554
 20
360.9979199255
 30
0.0
 40
1.999999929584022
100
AcDbArc
 50
89.9166762261
 51
179.9165750288
  0
LINE
  5
2D7
330
1F
100
AcDbEntity
  8
0
  6
Continuous
 62
     7
370
    30
100
AcDbLine
 10
510.9970174611
 20
362.9077073766
 30
0.0
 11
478.9970535391
 21
362.9542675618
 31
0.0
  0
LINE
  5
2D8
330
1F
100
AcDbEntity
  8
0
  6
Continuous
 62
     7
370
    30
100
AcDbLine
 10
540.9969868975
 20
362.8640571982
 30
0.0
 11
523.9970076938
 21
362.8887922942
 31
0.0
  0
ARC
  5
2D9
330
1F
100
AcDbEntity
  8
0
  6
Continuous
 62
     7
370
    30
100
AcDbCircle
 10
540.9940913761
 20
360.864077156
 30
0.0
 40
1.999982138221673
100
AcDbArc
 50
359.9161838287
 51
89.9170486515
  0
LINE
  5
2DA
330
1F
100
AcDbEntity
  8
0
  6
Continuous
 62
     7
370
    30
100
AcDbLine
 10
542.9940713743
 20
360.8611514469
 30
0.0
 11
542.9940671402
 21
360.8582414323
 31
0.0
  0
ARC
  5
2DB
330
1F
100
AcDbEntity
  8
0
  6
Continuous
 62
     7
370
    30
100
AcDbCircle
 10
547.9502942152
 20
365.1312489018
 30
0.0
 40
0.5000005292613744
100
AcDbArc
 50
179.916634274
 51
269.916634274
  0
LINE
  5
2DC
330
1F
100
AcDbEntity
  8
0
  6
Continuous
 62
     7
370
    30
100
AcDbLine
 10
547.4808535972
 20
386.1319772935
 30
0.0
 11
547.45029844
 21
365.1319764124
 31
0.0
  0
ARC
  5
2DD
330
1F
100
AcDbEntity
  8
0
  6
Continuous
 62
     7
370
    30
100
AcDbCircle
 10
547.9808493712
 20
386.1312489018
 30
0.0
 40
0.5000005292613744
100
AcDbArc
 50
89.916634274
 51
179.916634274
  0
LINE
  5
2DE
330
1F
100
AcDbEntity
  8
0
  6
Continuous
 62
     7
370
    30
100
AcDbLine
 10
547.9815741332
 20
386.6312489505
 30
0.0
 11
550.9815770373
 21
386.626883924
 31
0.0
  0
ARC
  5
2DF
330
1F
100
AcDbEntity
  8
0
  6
Continuous
 62
     7
370
    30
100
AcDbCircle
 10
550.9808461956
 20
386.1268838842
 30
0.0
 40
0.5000005292613741
100
AcDbArc
 50
359.916634274
 51
89.916634274
  0
LINE
  5
2E0
330
1F
100
AcDbEntity
  8
0
  6
Continuous
 62
     7
370
    30
100
AcDbLine
 10
551.4502874109
 20
365.1261563988
 30
0.0
 11
551.4808425682
 21
386.1261572798
 31
0.0
  0
ARC
  5
2E1
330
1F
100
AcDbEntity
  8
0
  6
Continuous
 62
     7
370
    30
100
AcDbCircle
 10
550.9502910396
 20
365.1268838842
 30
0.0
 40
0.5000005292613741
100
AcDbArc
 50
269.916634274
 51
359.916634274
  0
LINE
  5
2E2
330
1F
100
AcDbEntity
  8
0
  6
Continuous
 62
     7
370
    30
100
AcDbLine
 10
547.9495639697
 20
364.6312489533
 30
0.0
 11
550.9495668738
 21
364.6268839268
 31
0.0
  0
LINE
  5
2E3
330
1F
100
AcDbEntity
  8
0
  6
Continuous
 62
     7
370
    30
100
AcDbLine
 10
547.4808535972
 20
386.1319772935
 30
0.0
 11
547.48116273
 21
386.3444385648
 31
0.0
  0
ARC
  5
2E4
330
1F
100
AcDbEntity
  8
0
  6
Continuous
 62
     7
370
    30
100
AcDbCircle
 10
550.9811754617
 20
386.3393510755
 30
0.0
 40
0.4999767758333
100
AcDbArc
 50
359.9160549636
 51
46.4411134985
  0
LINE
  5
2E5
330
1F
100
AcDbEntity
  8
0
  6
Continuous
 62
     7
370
    30
100
AcDbLine
 10
551.481151701
 20
386.3386185511
 30
0.0
 11
551.4808425682
 21
386.1261572798
 31
0.0
  0
LINE
  5
2E6
330
1F
100
AcDbEntity
  8
0
  6
Continuous
 62
     7
370
    30
100
AcDbLine
 10
438.4787867227
 20
384.7927880842
 30
0.0
 11
438.4809724065
 21
386.2949685923
 31
0.0
  0
LINE
  5
2E7
330
1F
100
AcDbEntity
  8
0
  6
Continuous
 62
     7
370
    30
100
AcDbLine
 10
442.4809669654
 20
386.2891485705
 30
0.0
 11
442.4790723103
 21
384.9869867862
 31
0.0
  0
ARC
  5
2E8
330
1F
100
AcDbEntity
  8
0
  6
Continuous
 62
     7
370
    30
100
AcDbCircle
 10
438.9504152161
 20
365.2942836652
 30
0.0
 40
0.4999984329905507
100
AcDbArc
 50
179.9165193051
 51
269.9167165102
  0
LINE
  5
2E9
330
1F
100
AcDbEntity
  8
0
  6
Continuous
 62
     7
370
    30
100
AcDbLine
 10
441.9496857493
 20
364.7899207421
 30
0.0
 11
438.9496884331
 21
364.7942857604
 31
0.0
  0
LINE
  5
2EA
330
1F
100
AcDbEntity
  8
0
  6
Continuous
 62
     7
370
    30
100
AcDbLine
 10
442.4522969219
 20
366.5847519601
 30
0.0
 11
442.4504118728
 21
365.2891921474
 31
0.0
  0
ARC
  5
2EB
330
1F
100
AcDbEntity
  8
0
  6
Continuous
 62
     7
370
    30
100
AcDbCircle
 10
441.9504139676
 20
365.2899186448
 30
0.0
 40
0.4999984329904964
100
AcDbArc
 50
269.9165520378
 51
359.916749243
  0
ARC
  5
2EC
330
1F
100
AcDbEntity
  8
0
  6
Continuous
 62
     7
370
    30
100
AcDbCircle
 10
438.9812735551
 20
386.5023066989
 30
0.0
 40
0.4999989408911997
100
AcDbArc
 50
136.7033144432
 51
179.916633053
  0
LINE
  5
2ED
330
1F
100
AcDbEntity
  8
0
  6
Continuous
 62
     7
370
    30
100
AcDbLine
 10
438.4809724065
 20
386.2949685923
 30
0.0
 11
438.4812751435
 21
386.503034211
 31
0.0
  0
LINE
  5
2EE
330
1F
100
AcDbEntity
  8
0
  6
Continuous
 62
     7
370
    30
100
AcDbLine
 10
442.4812697024
 20
386.4972141892
 30
0.0
 11
442.4809669654
 21
386.2891485705
 31
0.0
  0
LWPOLYLINE
  5
2EF
330
1F
100
AcDbEntity
  8
0
  6
Continuous
 62
     7
370
    30
100
AcDbPolyline
 90
       11
 70
   128
 43
0.0
 10
441.981998582
 20
386.997939783
 10
442.037402531
 20
386.9988834378
 10
442.2022460431
 20
386.9996426202
 10
442.4724722459
 20
387.0001986681
 10
442.8414258811
 20
387.0005378491
 10
443.3000228067
 20
387.0006518511
 10
443.836969789
 20
387.000537853
 10
444.4390476255
 20
387.0001986542
 10
445.0914277947
 20
386.9996426266
 10
445.7780487103
 20
386.9988834266
 10
446.4820031516
 20
386.9979397788
  0
LWPOLYLINE
  5
2F0
330
1F
100
AcDbEntity
  8
0
  6
Continuous
 62
     7
370
    30
100
AcDbPolyline
 90
       14
 70
   128
 43
0.0
 10
446.4820095027
 20
387.0023048007
 10
445.5779848339
 20
387.0035405929
 10
444.6871437237
 20
387.004599233
 10
443.822474388
 20
387.005465292
 10
442.9965869294
 20
387.0061261461
 10
442.2215252101
 20
387.0065721198
 10
441.5085899008
 20
387.0067967658
 10
440.8681801557
 20
387.0067967695
 10
440.3096296993
 20
387.0065721228
 10
439.8410876177
 20
387.0061261455
 10
439.4693842474
 20
387.0054653123
 10
439.199941768
 20
387.0045992523
 10
439.0366866581
 20
387.0035405948
 10
438.9821764626
 20
387.002379
  0
LWPOLYLINE
  5
2F1
330
1F
100
AcDbEntity
  8
0
  6
Continuous
 62
     7
370
    30
100
AcDbPolyline
 90
       11
 70
   128
 43
0.0
 10
543.4818958855
 20
386.8568042143
 10
544.1858556801
 20
386.8556993365
 10
544.8724703099
 20
386.8544604685
 10
545.5248567854
 20
386.853118051
 10
546.1269218839
 20
386.8517052128
 10
546.6638687871
 20
386.8502566874
 10
547.1224653019
 20
386.8488081621
 10
547.4914163879
 20
386.8473953242
 10
547.7616472789
 20
386.8460529073
 10
547.926482296
 20
386.8448140402
 10
547.9818832643
 20
386.8437091633
  0
LWPOLYLINE
  5
2F2
330
1F
100
AcDbEntity
  8
0
  6
Continuous
 62
     7
370
    30
100
AcDbPolyline
 90
       14
 70
   128
 43
0.0
 10
550.9818861684
 20
386.8393441368
 10
550.9272008786
 20
386.8407390655
 10
550.7639458154
 20
386.8422727976
 10
550.4945051344
 20
386.8439229366
 10
550.1228127115
 20
386.8456654163
 10
549.6542776368
 20
386.8474748477
 10
549.0957246112
 20
386.8493248884
 10
548.4553194402
 20
386.8511884799
 10
547.7423902212
 20
386.8530384774
 10
546.9673230352
 20
386.8548479527
 10
546.1414427383
 20
386.856590433
 10
545.2767745434
 20
386.8582405729
 10
544.3859248112
 20
386.8597743062
 10
543.4819022366
 20
386.8611692362
  0
LWPOLYLINE
  5
2F3
330
1F
100
AcDbEntity
  8
0
  6
Continuous
 62
     7
370
    30
100
AcDbPolyline
 90
        9
 70
   128
 43
0.0
 10
446.449993056
 20
364.9979863565
 10
445.7460386146
 20
364.9989300044
 10
445.059417699
 20
364.9996892043
 10
444.4070375299
 20
365.000245232
 10
443.8049596933
 20
365.0005844307
 10
443.268012711
 20
365.0006984288
 10
442.8094157855
 20
365.0005844268
 10
442.4404621502
 20
365.0002452458
 10
442.357861014
 20
365.0001167032
  0
LWPOLYLINE
  5
2F4
330
1F
100
AcDbEntity
  8
0
  6
Continuous
 62
     7
370
    30
100
AcDbPolyline
 90
        9
 70
   128
 43
0.0
 10
547.5388886544
 20
364.847087435
 10
547.4594062922
 20
364.847441902
 10
547.0904552062
 20
364.8488547398
 10
546.6318586915
 20
364.8503032651
 10
546.0949117883
 20
364.8517517905
 10
545.4928466898
 20
364.8531646287
 10
544.8404602142
 20
364.8545070463
 10
544.1538455845
 20
364.8557459142
 10
543.4498857898
 20
364.856850792
  0
LINE
  5
2F5
330
1F
100
AcDbEntity
  8
0
  6
Continuous
 62
     7
370
    30
100
AcDbLine
 10
543.4498857898
 20
364.856850792
 30
0.0
 11
446.449993056
 21
364.9979863565
 31
0.0
  0
LINE
  5
2F6
330
1F
100
AcDbEntity
  8
0
  6
Continuous
 62
     7
370
    30
100
AcDbLine
 10
543.4819022366
 20
386.8611692362
 30
0.0
 11
446.4820095027
 21
387.0023048007
 31
0.0
  0
LINE
  5
2F7
330
1F
100
AcDbEntity
  8
0
  6
Continuous
 62
     7
370
    30
100
AcDbLine
 10
436.9787839085
 20
384.792754273
 30
0.0
 11
438.4787834979
 21
384.7905717624
 31
0.0
  0
LINE
  5
2F8
330
1F
100
AcDbEntity
  8
0
  6
Continuous
 62
     7
370
    30
100
AcDbLine
 10
438.4787834979
 20
384.7905717624
 30
0.0
 11
438.4496833498
 21
364.790572093
 31
0.0
  0
LINE
  5
2F9
330
1F
100
AcDbEntity
  8
0
  6
Continuous
 62
     7
370
    30
100
AcDbLine
 10
438.4496833498
 20
364.790572093
 30
0.0
 11
436.9496837604
 21
364.7927546036
 31
0.0
  0
LINE
  5
2FA
330
1F
100
AcDbEntity
  8
0
  6
Continuous
 62
     7
370
    30
100
AcDbLine
 10
436.9787839085
 20
384.792754273
 30
0.0
 11
436.9496837604
 21
364.7927546036
 31
0.0
  0
LINE
  5
2FB
330
1F
100
AcDbEntity
  8
0
  6
Continuous
 62
     7
370
    30
100
AcDbLine
 10
438.4788379551
 20
384.8279991882
 30
0.0
 11
436.9788383657
 21
384.8301816987
 31
0.0
  0
LINE
  5
2FC
330
1F
100
AcDbEntity
  8
0
  6
Continuous
 62
     7
370
    30
100
AcDbLine
 10
438.4787867227
 20
384.7927880842
 30
0.0
 11
438.4787834979
 21
384.7905717624
 31
0.0
  0
LINE
  5
2FD
330
1F
100
AcDbEntity
  8
0
  6
Continuous
 62
     7
370
    30
100
AcDbLine
 10
436.9788383657
 20
384.8301816987
 30
0.0
 11
436.9787839085
 21
384.792754273
 31
0.0
  0
LINE
  5
2FE
330
1F
100
AcDbEntity
  8
0
  6
Continuous
 62
     7
370
    30
100
AcDbLine
 10
436.9496837604
 20
364.7927546036
 30
0.0
 11
439.9496810766
 21
364.7883895852
 31
0.0
  0
LINE
  5
2FF
330
1F
100
AcDbEntity
  8
0
  6
Continuous
 62
     7
370
    30
100
AcDbLine
 10
440.948840133
 20
364.2095842574
 30
0.0
 11
439.9496810766
 21
364.7883895852
 31
0.0
  0
LINE
  5
300
330
1F
100
AcDbEntity
  8
0
  6
Continuous
 62
     7
370
    30
100
AcDbLine
 10
440.948840133
 20
364.2095842574
 30
0.0
 11
440.944587656
 21
361.2869345875
 31
0.0
  0
LINE
  5
301
330
1F
100
AcDbEntity
  8
0
  6
Continuous
 62
     7
370
    30
100
AcDbLine
 10
440.944587656
 20
361.2869345875
 30
0.0
 11
439.9445885506
 21
361.2883895936
 31
0.0
  0
ARC
  5
302
330
1F
100
AcDbEntity
  8
0
  6
Continuous
 62
     7
370
    30
100
AcDbCircle
 10
439.9402234835
 20
358.2883895378
 30
0.0
 40
3.000003175568245
100
AcDbArc
 50
89.916634274
 51
179.916634274
  0
LINE
  5
303
330
1F
100
AcDbEntity
  8
0
  6
Continuous
 62
     7
370
    30
100
AcDbLine
 10
436.9402262121
 20
358.2927545859
 30
0.0
 11
436.9181100988
 21
343.0927543296
 31
0.0
  0
ARC
  5
304
330
1F
100
AcDbEntity
  8
0
  6
Continuous
 62
     7
370
    30
100
AcDbCircle
 10
436.6181108637
 20
343.0931910572
 30
0.0
 40
0.3000003175568359
100
AcDbArc
 50
269.916634274
 51
359.916634274
  0
LINE
  5
305
330
1F
100
AcDbEntity
  8
0
  6
Continuous
 62
     7
370
    30
100
AcDbLine
 10
436.6176744245
 20
342.7931913402
 30
0.0
 11
427.4166678869
 21
342.8065788731
 31
0.0
  0
LINE
  5
306
330
1F
100
AcDbEntity
  8
0
  6
Continuous
 62
     7
370
    30
100
AcDbLine
 10
427.4166678869
 20
342.8065788731
 30
0.0
 11
426.9172309711
 21
343.3072908655
 31
0.0
  0
LINE
  5
307
330
1F
100
AcDbEntity
  8
0
  6
Continuous
 62
     7
370
    30
100
AcDbLine
 10
426.9232233179
 20
347.3073061716
 30
0.0
 11
431.9242265348
 21
347.3000296748
 31
0.0
  0
ARC
  5
308
330
1F
100
AcDbEntity
  8
0
  6
Continuous
 62
     7
370
    30
100
AcDbCircle
 10
431.9256818774
 20
348.3000295849
 30
0.0
 40
1.000001058522748
100
AcDbArc
 50
269.916634274
 51
359.916634274
  0
LINE
  5
309
330
1F
100
AcDbEntity
  8
0
  6
Continuous
 62
     7
370
    30
100
AcDbLine
 10
432.9256815792
 20
348.2985748312
 30
0.0
 11
432.9744243266
 21
381.798573803
 31
0.0
  0
ARC
  5
30A
330
1F
100
AcDbEntity
  8
0
  6
Continuous
 62
     7
370
    30
100
AcDbCircle
 10
431.9744246263
 20
381.8000295849
 30
0.0
 40
1.000001058522748
100
AcDbArc
 50
359.916634274
 51
89.916634274
  0
LINE
  5
30B
330
1F
100
AcDbEntity
  8
0
  6
Continuous
 62
     7
370
    30
100
AcDbLine
 10
431.9758792975
 20
382.8000289744
 30
0.0
 11
427.9758838073
 21
382.8058489976
 31
0.0
  0
LINE
  5
30C
330
1F
100
AcDbEntity
  8
0
  6
Continuous
 62
     7
370
    30
100
AcDbLine
 10
427.9758838073
 20
382.8058489976
 30
0.0
 11
424.9715224021
 21
379.8102153855
 31
0.0
  0
LINE
  5
30D
330
1F
100
AcDbEntity
  8
0
  6
Continuous
 62
     7
370
    30
100
AcDbLine
 10
424.9715224021
 20
379.8102153855
 30
0.0
 11
422.9715241914
 21
379.8131253978
 31
0.0
  0
LINE
  5
30E
330
1F
100
AcDbEntity
  8
0
  6
Continuous
 62
     7
370
    30
100
AcDbLine
 10
422.9715241914
 20
379.8131253978
 30
0.0
 11
419.9758923611
 21
382.8174890446
 31
0.0
  0
LINE
  5
30F
330
1F
100
AcDbEntity
  8
0
  6
Continuous
 62
     7
370
    30
100
AcDbLine
 10
419.9758923611
 20
382.8174890446
 30
0.0
 11
416.9758955106
 21
382.8218540623
 31
0.0
  0
LINE
  5
310
330
1F
100
AcDbEntity
  8
0
  6
Continuous
 62
     7
370
    30
100
AcDbLine
 10
416.9758955106
 20
382.8218540623
 30
0.0
 11
416.9783690245
 21
384.5218548997
 31
0.0
  0
ARC
  5
311
330
1F
100
AcDbEntity
  8
0
  6
Continuous
 62
     7
370
    30
100
AcDbCircle
 10
417.2783687066
 20
384.5214181714
 30
0.0
 40
0.3000003175568927
100
AcDbArc
 50
89.916634274
 51
179.916634274
  0
LINE
  5
312
330
1F
100
AcDbEntity
  8
0
  6
Continuous
 62
     7
370
    30
100
AcDbLine
 10
417.2788052227
 20
384.8214178883
 30
0.0
 11
436.6787847357
 21
384.793190774
 31
0.0
  0
ARC
  5
313
330
1F
100
AcDbEntity
  8
0
  6
Continuous
 62
     7
370
    30
100
AcDbCircle
 10
436.6783481713
 20
384.4931910572
 30
0.0
 40
0.3000003175568358
100
AcDbArc
 50
359.916634274
 51
89.916634274
  0
LINE
  5
314
330
1F
100
AcDbEntity
  8
0
  6
Continuous
 62
     7
370
    30
100
AcDbLine
 10
436.978347407
 20
384.4927547826
 30
0.0
 11
436.9496837604
 21
364.7927546036
 31
0.0
  0
LINE
  5
315
330
1F
100
AcDbEntity
  8
0
  6
Continuous
 62
     7
370
    30
100
AcDbLine
 10
416.9242427479
 20
347.3218547626
 30
0.0
 11
420.9252477908
 21
347.3160332705
 31
0.0
  0
LINE
  5
316
330
1F
100
AcDbEntity
  8
0
  6
Continuous
 62
     7
370
    30
100
AcDbLine
 10
420.9195991016
 20
343.3160174644
 30
0.0
 11
420.4187081555
 21
342.8167609565
 31
0.0
  0
LINE
  5
317
330
1F
100
AcDbEntity
  8
0
  6
Continuous
 62
     7
370
    30
100
AcDbLine
 10
420.4187081555
 20
342.8167609565
 30
0.0
 11
417.2176949115
 21
342.8214184545
 31
0.0
  0
ARC
  5
318
330
1F
100
AcDbEntity
  8
0
  6
Continuous
 62
     7
370
    30
100
AcDbCircle
 10
417.2181313991
 20
343.1214181714
 30
0.0
 40
0.300000317556779
100
AcDbArc
 50
179.916634274
 51
269.916634274
  0
LINE
  5
319
330
1F
100
AcDbEntity
  8
0
  6
Continuous
 62
     7
370
    30
100
AcDbLine
 10
416.9181317163
 20
343.1218544467
 30
0.0
 11
416.9242427479
 21
347.3218547626
 31
0.0
  0
ARC
  5
31A
330
1F
100
AcDbEntity
  8
0
  6
Continuous
 62
     7
370
    30
100
AcDbCircle
 10
421.2001623325
 20
213.9582956046
 30
0.0
 40
128.8609726287878
100
AcDbArc
 50
89.8818472059
 51
90.3479124298
  0
ARC
  5
31B
330
1F
100
AcDbEntity
  8
0
  6
Continuous
 62
     7
370
    30
100
AcDbCircle
 10
426.3587994378
 20
234.0039546615
 30
0.0
 40
108.8079053333819
100
AcDbArc
 50
89.4424084452
 51
89.9943687509
  0
LINE
  5
31C
330
1F
100
AcDbEntity
  8
0
  6
Continuous
 62
     7
370
    30
100
AcDbLine
 10
439.9496810766
 20
364.7883895852
 30
0.0
 11
439.9496875385
 21
364.7928307543
 31
0.0
  0
LINE
  5
31D
330
1F
100
AcDbEntity
  8
0
  6
Continuous
 62
     7
370
    30
100
AcDbLine
 10
440.9488946535
 20
364.2470552463
 30
0.0
 11
440.0068948984
 21
364.7927474698
 31
0.0
  0
LINE
  5
31E
330
1F
100
AcDbEntity
  8
0
  6
Continuous
 62
     7
370
    30
100
AcDbLine
 10
440.9488946535
 20
364.2470552463
 30
0.0
 11
440.948840133
 21
364.2095842574
 31
0.0
  0
ARC
  5
31F
330
1F
100
AcDbEntity
  8
0
  6
Continuous
 62
     7
370
    30
100
AcDbCircle
 10
417.2784233107
 20
384.5588454843
 30
0.0
 40
0.3000001470886028
100
AcDbArc
 50
89.9166596441
 51
179.9164482034
  0
LINE
  5
320
330
1F
100
AcDbEntity
  8
0
  6
Continuous
 62
     7
370
    30
100
AcDbLine
 10
416.9783690245
 20
384.5218548997
 30
0.0
 11
416.9784234826
 21
384.5592829606
 31
0.0
  0
ARC
  5
321
330
1F
100
AcDbEntity
  8
0
  6
Continuous
 62
     7
370
    30
100
AcDbCircle
 10
436.6784017209
 20
384.5306180588
 30
0.0
 40
0.3000004599539743
100
AcDbArc
 50
359.916880097
 51
89.9164490999
  0
LINE
  5
322
330
1F
100
AcDbEntity
  8
0
  6
Continuous
 62
     7
370
    30
100
AcDbLine
 10
416.9242884291
 20
347.3532505614
 30
0.0
 11
416.9242427479
 21
347.3218547626
 31
0.0
  0
LINE
  5
323
330
1F
100
AcDbEntity
  8
0
  6
Continuous
 62
     7
370
    30
100
AcDbLine
 10
436.6788391929
 20
384.8306181997
 30
0.0
 11
417.2788596798
 21
384.8588453141
 31
0.0
  0
LINE
  5
324
330
1F
100
AcDbEntity
  8
0
  6
Continuous
 62
     7
370
    30
100
AcDbLine
 10
438.7710251903
 20
364.8275743842
 30
0.0
 11
438.4497378686
 21
364.8280418596
 31
0.0
  0
LINE
  5
325
330
1F
100
AcDbEntity
  8
0
  6
Continuous
 62
     7
370
    30
100
AcDbLine
 10
419.9758923628
 20
382.8174901995
 30
0.0
 11
419.9744702284
 21
381.8400832238
 31
0.0
  0
LINE
  5
326
330
1F
100
AcDbEntity
  8
0
  6
Continuous
 62
     7
370
    30
100
AcDbLine
 10
416.9744733755
 20
381.8444466225
 30
0.0
 11
416.975895511
 21
382.8218543465
 31
0.0
  0
LINE
  5
327
330
1F
100
AcDbEntity
  8
0
  6
Continuous
 62
     7
370
    30
100
AcDbLine
 10
416.9242884291
 20
347.3532505614
 30
0.0
 11
416.9279312318
 21
349.8568822574
 31
0.0
  0
LWPOLYLINE
  5
328
330
1F
100
AcDbEntity
  8
0
  6
Continuous
 62
     7
370
    30
100
AcDbPolyline
 90
       19
 70
   128
 43
0.0
 10
426.927869614
 20
349.8074120942
 10
426.8767882518
 20
349.8066843472
 10
426.7252843851
 20
349.8061300292
 10
426.4785185051
 20
349.8057680152
 10
426.1448930311
 20
349.8056106345
 10
425.7357701181
 20
349.8056632447
 10
425.2650814328
 20
349.8059240557
 10
424.7488550407
 20
349.8063841862
 10
424.2046715138
 20
349.8070279658
 10
423.6510618308
 20
349.807833472
 10
423.1068787347
 20
349.8087732739
 10
422.590653655
 20
349.809815368
 10
422.119965738
 20
349.8109242669
 10
421.7108444042
 20
349.8120622082
 10
421.3772208007
 20
349.8131904412
 10
421.130457019
 20
349.8142705446
 10
420.9789558725
 20
349.8152657371
 10
420.9278763787
 20
349.8161421289
 10
420.9278791819
 20
349.816148476
  0
LWPOLYLINE
  5
329
330
1F
100
AcDbEntity
  8
0
  6
Continuous
 62
     7
370
    30
100
AcDbPolyline
 90
       19
 70
   128
 43
0.0
 10
426.9181503901
 20
343.1275672234
 10
426.8670690279
 20
343.1268394764
 10
426.7155651612
 20
343.1262851584
 10
426.4687992812
 20
343.1259231444
 10
426.1351738072
 20
343.1257657637
 10
425.7260508942
 20
343.1258183739
 10
425.2553622089
 20
343.1260791849
 10
424.7391358168
 20
343.1265393154
 10
424.1949522899
 20
343.127183095
 10
423.6413426069
 20
343.1279886012
 10
423.0971595108
 20
343.1289284031
 10
422.5809344311
 20
343.1299704971
 10
422.1102465141
 20
343.1310793961
 10
421.7011251803
 20
343.1322173374
 10
421.3675015768
 20
343.1333455704
 10
421.1207377951
 20
343.1344256738
 10
420.9692366486
 20
343.1354208663
 10
420.9181571548
 20
343.1362972581
 10
420.9181571548
 20
343.1362972581
  0
LWPOLYLINE
  5
32A
330
1F
100
AcDbEntity
  8
0
  6
Continuous
 62
     7
370
    30
100
AcDbPolyline
 90
       17
 70
   128
 43
0.0
 10
426.3631850239
 20
342.8082344297
 10
426.313124515
 20
342.8075910036
 10
426.1649949542
 20
342.8071195926
 10
425.9248602171
 20
342.8068394973
 10
425.6025513721
 20
342.8067621846
 10
425.211263416
 20
342.8068908208
 10
424.7670169689
 20
342.807220137
 10
424.2879988977
 20
342.8077366526
 10
423.7938205175
 20
342.8084192203
 10
423.3047129294
 20
342.8092398972
 10
422.8407004724
 20
342.8101650841
 10
422.4207802293
 20
342.8111569034
 10
422.0621434427
 20
342.8121747501
 10
421.7794732991
 20
342.8131769529
 10
421.5843414342
 20
342.8141224826
 10
421.4847371507
 20
342.8149726284
 10
421.4721983475
 20
342.8153418844
  0
LINE
  5
32B
330
1F
100
AcDbEntity
  8
0
  6
Continuous
 62
     7
370
    30
100
AcDbLine
 10
430.5166835322
 20
375.8200254945
 30
0.0
 11
430.5235940772
 21
380.5695167014
 31
0.0
  0
LINE
  5
32C
330
1F
100
AcDbEntity
  8
0
  6
Continuous
 62
     7
370
    30
100
AcDbLine
 10
430.5097930678
 20
371.0843352813
 30
0.0
 11
430.5166835322
 21
375.8200254945
 31
0.0
  0
LINE
  5
32D
330
1F
100
AcDbEntity
  8
0
  6
Continuous
 62
     7
370
    30
100
AcDbLine
 10
429.4482468227
 20
373.5784806875
 30
0.0
 11
429.4498795766
 21
374.7006426317
 31
0.0
  0
LINE
  5
32E
330
1F
100
AcDbEntity
  8
0
  6
Continuous
 62
     7
370
    30
100
AcDbLine
 10
429.4498795766
 20
374.7006426317
 30
0.0
 11
429.4531533363
 21
376.9506377715
 31
0.0
  0
LINE
  5
32F
330
1F
100
AcDbEntity
  8
0
  6
Continuous
 62
     7
370
    30
100
AcDbLine
 10
429.4531533363
 20
376.9506377715
 30
0.0
 11
429.4547943419
 21
378.0784709671
 31
0.0
  0
LINE
  5
330
330
1F
100
AcDbEntity
  8
0
  6
Continuous
 62
     8
370
     0
100
AcDbLine
 10
427.2014199929
 20
353.7817890834
 30
0.0
 11
427.2014663158
 21
353.8136259714
 31
0.0
  0
LINE
  5
331
330
1F
100
AcDbEntity
  8
0
  6
Continuous
 62
     8
370
     0
100
AcDbLine
 10
425.5219358871
 20
355.4988604055
 30
0.0
 11
425.5218883894
 21
355.4662161208
 31
0.0
  0
LINE
  5
332
330
1F
100
AcDbEntity
  8
0
  6
Continuous
 62
     8
370
     0
100
AcDbLine
 10
424.8424165311
 20
359.8068785008
 30
0.0
 11
424.9424171867
 21
359.8067329991
 31
0.0
  0
LINE
  5
333
330
1F
100
AcDbEntity
  8
0
  6
Continuous
 62
     8
370
     0
100
AcDbLine
 10
442.7795610531
 20
385.3217426174
 30
0.0
 11
442.7795065975
 21
385.2843162502
 31
0.0
  0
LINE
  5
334
330
1F
100
AcDbEntity
  8
0
  6
Continuous
 62
     8
370
     0
100
AcDbLine
 10
446.1795028108
 20
385.2793692304
 30
0.0
 11
446.1795536674
 21
385.3143220918
 31
0.0
  0
ARC
  5
335
330
1F
100
AcDbEntity
  8
0
  6
Continuous
 62
     8
370
     0
100
AcDbCircle
 10
446.1791164033
 20
385.0143229738
 30
0.0
 40
0.2999994365950094
100
AcDbArc
 50
65.8410630974
 51
89.9164885166
  0
LINE
  5
336
330
1F
100
AcDbEntity
  8
0
  6
Continuous
 62
     8
370
     0
100
AcDbLine
 10
446.3659055306
 20
375.9342951857
 30
0.0
 11
446.4659052548
 21
375.9341496854
 31
0.0
  0
LINE
  5
337
330
1F
100
AcDbEntity
  8
0
  6
Continuous
 62
     8
370
     0
100
AcDbLine
 10
444.4257237289
 20
313.9550981615
 30
0.0
 11
444.4257364311
 21
313.9638281836
 31
0.0
  0
LINE
  5
338
330
1F
100
AcDbEntity
  8
0
  6
Continuous
 62
     8
370
     0
100
AcDbLine
 10
446.9257840723
 20
313.9951107797
 30
0.0
 11
452.925776842
 21
313.9863807457
 31
0.0
  0
LINE
  5
339
330
1F
100
AcDbEntity
  8
0
  6
Continuous
 62
     8
370
     0
100
AcDbLine
 10
461.9257669279
 20
313.9732856933
 30
0.0
 11
467.9257615602
 21
313.9645556565
 31
0.0
  0
LINE
  5
33A
330
1F
100
AcDbEntity
  8
0
  6
Continuous
 62
     8
370
     0
100
AcDbLine
 10
476.9257516461
 20
313.9514606041
 30
0.0
 11
482.9257462785
 21
313.9427305673
 31
0.0
  0
LINE
  5
33B
330
1F
100
AcDbEntity
  8
0
  6
Continuous
 62
     8
370
     0
100
AcDbLine
 10
491.925732639
 20
313.9296355203
 30
0.0
 11
497.9257309967
 21
313.9209054781
 31
0.0
  0
LINE
  5
33C
330
1F
100
AcDbEntity
  8
0
  6
Continuous
 62
     8
370
     0
100
AcDbLine
 10
506.9257173573
 20
313.9078104311
 30
0.0
 11
512.9257157149
 21
313.8990803889
 31
0.0
  0
LINE
  5
33D
330
1F
100
AcDbEntity
  8
0
  6
Continuous
 62
     8
370
     0
100
AcDbLine
 10
521.9257020755
 20
313.8859853419
 30
0.0
 11
527.9257004331
 21
313.8772552997
 31
0.0
  0
LINE
  5
33E
330
1F
100
AcDbEntity
  8
0
  6
Continuous
 62
     8
370
     0
100
AcDbLine
 10
536.9256867937
 20
313.8641602527
 30
0.0
 11
542.9256777008
 21
313.8554302214
 31
0.0
  0
LINE
  5
33F
330
1F
100
AcDbEntity
  8
0
  6
Continuous
 62
     8
370
     0
100
AcDbLine
 10
545.4256218613
 20
313.8168726
 30
0.0
 11
545.425609159
 21
313.8081425779
 31
0.0
  0
LINE
  5
340
330
1F
100
AcDbEntity
  8
0
  6
Continuous
 62
     8
370
     0
100
AcDbLine
 10
442.4431855732
 20
325.9579847362
 30
0.0
 11
440.4431873624
 21
325.9608947485
 31
0.0
  0
LINE
  5
341
330
1F
100
AcDbEntity
  8
0
  6
Continuous
 62
     8
370
     0
100
AcDbLine
 10
549.4430730862
 20
325.802299105
 30
0.0
 11
547.4430711501
 21
325.8052091227
 31
0.0
  0
LINE
  5
342
330
1F
100
AcDbEntity
  8
0
  6
Continuous
 62
     8
370
     0
100
AcDbLine
 10
444.9228123411
 20
311.9543745661
 30
0.0
 11
444.9257223503
 21
313.9543706598
 31
0.0
  0
LINE
  5
343
330
1F
100
AcDbEntity
  8
0
  6
Continuous
 62
     8
370
     0
100
AcDbLine
 10
544.9256161256
 20
313.8088700715
 30
0.0
 11
544.9227061164
 21
311.8088739778
 31
0.0
  0
LINE
  5
344
330
1F
100
AcDbEntity
  8
0
  6
Continuous
 62
     8
370
     0
100
AcDbLine
 10
446.9286983155
 20
315.9980168664
 30
0.0
 11
452.9286910853
 21
315.9892868323
 31
0.0
  0
LINE
  5
345
330
1F
100
AcDbEntity
  8
0
  6
Continuous
 62
     8
370
     0
100
AcDbLine
 10
461.9286811711
 20
315.9761917799
 30
0.0
 11
467.9286758035
 21
315.9674617432
 31
0.0
  0
LINE
  5
346
330
1F
100
AcDbEntity
  8
0
  6
Continuous
 62
     8
370
     0
100
AcDbLine
 10
476.9286658893
 20
315.9543666907
 30
0.0
 11
482.9286605217
 21
315.945636654
 31
0.0
  0
LINE
  5
347
330
1F
100
AcDbEntity
  8
0
  6
Continuous
 62
     8
370
     0
100
AcDbLine
 10
491.9286468823
 20
315.9325416069
 30
0.0
 11
497.9286452399
 21
315.9238115648
 31
0.0
  0
LINE
  5
348
330
1F
100
AcDbEntity
  8
0
  6
Continuous
 62
     8
370
     0
100
AcDbLine
 10
506.9286316005
 20
315.9107165178
 30
0.0
 11
512.9286299581
 21
315.9019864756
 31
0.0
  0
LINE
  5
349
330
1F
100
AcDbEntity
  8
0
  6
Continuous
 62
     8
370
     0
100
AcDbLine
 10
521.9286163187
 20
315.8888914286
 30
0.0
 11
527.9286146764
 21
315.8801613864
 31
0.0
  0
LINE
  5
34A
330
1F
100
AcDbEntity
  8
0
  6
Continuous
 62
     8
370
     0
100
AcDbLine
 10
536.9286010369
 20
315.8670663394
 30
0.0
 11
542.928591944
 21
315.858336308
 31
0.0
  0
LINE
  5
34B
330
1F
100
AcDbEntity
  8
0
  6
Continuous
 62
     8
370
     0
100
AcDbLine
 10
465.9970627976
 20
362.9702726242
 30
0.0
 11
465.9970670317
 21
362.9731826388
 31
0.0
  0
LINE
  5
34C
330
1F
100
AcDbEntity
  8
0
  6
Continuous
 62
     8
370
     0
100
AcDbLine
 10
478.9970535391
 20
362.9542675618
 30
0.0
 11
478.997049305
 21
362.9513575472
 31
0.0
  0
LINE
  5
34D
330
1F
100
AcDbEntity
  8
0
  6
Continuous
 62
     8
370
     0
100
AcDbLine
 10
510.997013227
 20
362.904797362
 30
0.0
 11
510.9970174611
 21
362.9077073766
 31
0.0
  0
LINE
  5
34E
330
1F
100
AcDbEntity
  8
0
  6
Continuous
 62
     8
370
     0
100
AcDbLine
 10
523.9970076938
 20
362.8887922942
 30
0.0
 11
523.9970034597
 21
362.8858822796
 31
0.0
  0
LINE
  5
34F
330
1F
100
AcDbEntity
  8
0
  6
Continuous
 62
     8
370
     0
100
AcDbLine
 10
448.9970841027
 20
362.9979177402
 30
0.0
 11
448.9970798686
 21
362.9950077256
 31
0.0
  0
LINE
  5
350
330
1F
100
AcDbEntity
  8
0
  6
Continuous
 62
     8
370
     0
100
AcDbLine
 10
540.9969826634
 20
362.8611471836
 30
0.0
 11
540.9969868975
 21
362.8640571982
 31
0.0
  0
ARC
  5
351
330
1F
100
AcDbEntity
  8
0
  6
Continuous
 62
     8
370
     0
100
AcDbCircle
 10
547.9811555596
 20
386.3437163417
 30
0.0
 40
0.4999933512178587
100
AcDbArc
 50
89.9166100366
 51
179.9172381974
  0
LINE
  5
352
330
1F
100
AcDbEntity
  8
0
  6
Continuous
 62
     8
370
     0
100
AcDbLine
 10
547.9818832643
 20
386.8437091633
 30
0.0
 11
547.9815741332
 21
386.6312489505
 31
0.0
  0
LINE
  5
353
330
1F
100
AcDbEntity
  8
0
  6
Continuous
 62
     8
370
     0
100
AcDbLine
 10
550.9815770373
 20
386.626883924
 30
0.0
 11
550.9818861684
 21
386.8393441368
 31
0.0
  0
ARC
  5
354
330
1F
100
AcDbEntity
  8
0
  6
Continuous
 62
     8
370
     0
100
AcDbCircle
 10
550.9811784537
 20
386.3394195241
 30
0.0
 40
0.499925113639226
100
AcDbArc
 50
46.4359561356
 51
89.9188896922
  0
LINE
  5
355
330
1F
100
AcDbEntity
  8
0
  6
Continuous
 62
     8
370
     0
100
AcDbLine
 10
547.9818832643
 20
386.8437091633
 30
0.0
 11
550.9818861684
 21
386.8393441368
 31
0.0
  0
LINE
  5
356
330
1F
100
AcDbEntity
  8
0
  6
Continuous
 62
     8
370
     0
100
AcDbLine
 10
441.9787816017
 20
384.7869680619
 30
0.0
 11
441.981695845
 21
386.7898741643
 31
0.0
  0
LINE
  5
357
330
1F
100
AcDbEntity
  8
0
  6
Continuous
 62
     8
370
     0
100
AcDbLine
 10
441.9787816017
 20
384.7869680619
 30
0.0
 11
438.9787842855
 21
384.7913330803
 31
0.0
  0
LINE
  5
358
330
1F
100
AcDbEntity
  8
0
  6
Continuous
 62
     8
370
     0
100
AcDbLine
 10
438.9816985288
 20
386.7942391827
 30
0.0
 11
438.9787842855
 21
384.7913330803
 31
0.0
  0
LINE
  5
359
330
1F
100
AcDbEntity
  8
0
  6
Continuous
 62
     8
370
     0
100
AcDbLine
 10
441.981695845
 20
386.7898741643
 30
0.0
 11
438.9816985288
 21
386.7942391827
 31
0.0
  0
ARC
  5
35A
330
1F
100
AcDbEntity
  8
0
  6
Continuous
 62
     8
370
     0
100
AcDbCircle
 10
438.9809699156
 20
386.2942416761
 30
0.0
 40
0.4999980375060546
100
AcDbArc
 50
89.9165067184
 51
179.9167011807
  0
ARC
  5
35B
330
1F
100
AcDbEntity
  8
0
  6
Continuous
 62
     8
370
     0
100
AcDbCircle
 10
438.9787842551
 20
470.7016392501
 30
0.0
 40
85.91030616979475
100
AcDbArc
 50
269.6665369805
 51
270.0000000203
  0
ARC
  5
35C
330
1F
100
AcDbEntity
  8
0
  6
Continuous
 62
     8
370
     0
100
AcDbCircle
 10
441.980969458
 20
386.2898766545
 30
0.0
 40
0.4999980375061057
100
AcDbArc
 50
359.9165673673
 51
89.9167618296
  0
ARC
  5
35D
330
1F
100
AcDbEntity
  8
0
  6
Continuous
 62
     8
370
     0
100
AcDbCircle
 10
442.2287813702
 20
470.696910504
 30
0.0
 40
85.91030619365583
100
AcDbArc
 50
269.8332685278
 51
270.1667315675
  0
LINE
  5
35E
330
1F
100
AcDbEntity
  8
0
  6
Continuous
 62
     8
370
     0
100
AcDbLine
 10
438.9787842855
 20
384.7913330803
 30
0.0
 11
438.9525942077
 21
366.7913714963
 31
0.0
  0
ARC
  5
35F
330
1F
100
AcDbEntity
  8
0
  6
Continuous
 62
     8
370
     0
100
AcDbCircle
 10
438.9525941773
 20
452.7016776862
 30
0.0
 40
85.9103061898781
100
AcDbArc
 50
269.6665369805
 51
270.0000000203
  0
LINE
  5
360
330
1F
100
AcDbEntity
  8
0
  6
Continuous
 62
     8
370
     0
100
AcDbLine
 10
441.9525915239
 20
366.7870064779
 30
0.0
 11
441.9787816017
 21
384.7869680619
 31
0.0
  0
LINE
  5
361
330
1F
100
AcDbEntity
  8
0
  6
Continuous
 62
     8
370
     0
100
AcDbLine
 10
441.9525915239
 20
366.7870064779
 30
0.0
 11
438.9525942077
 21
366.7913714963
 31
0.0
  0
ARC
  5
362
330
1F
100
AcDbEntity
  8
0
  6
Continuous
 62
     8
370
     0
100
AcDbCircle
 10
442.2025912924
 20
452.6969489054
 30
0.0
 40
85.91030617905844
100
AcDbArc
 50
269.8332685277
 51
270.1667315675
  0
LINE
  5
363
330
1F
100
AcDbEntity
  8
0
  6
Continuous
 62
     8
370
     0
100
AcDbLine
 10
438.9525942077
 20
366.7913714963
 30
0.0
 11
438.9496884331
 21
364.7942857604
 31
0.0
  0
LINE
  5
364
330
1F
100
AcDbEntity
  8
0
  6
Continuous
 62
     8
370
     0
100
AcDbLine
 10
441.9496857493
 20
364.7899207421
 30
0.0
 11
441.9525915239
 21
366.7870064779
 31
0.0
  0
ARC
  5
365
330
1F
100
AcDbEntity
  8
0
  6
Continuous
 62
     8
370
     0
100
AcDbCircle
 10
438.9812806876
 20
386.5022891624
 30
0.0
 40
0.5000161581618022
100
AcDbArc
 50
89.9174304584
 51
136.7024124094
  0
LINE
  5
366
330
1F
100
AcDbEntity
  8
0
  6
Continuous
 62
     8
370
     0
100
AcDbLine
 10
438.9820012658
 20
387.0023048014
 30
0.0
 11
438.9816985288
 21
386.7942391827
 31
0.0
  0
LINE
  5
367
330
1F
100
AcDbEntity
  8
0
  6
Continuous
 62
     8
370
     0
100
AcDbLine
 10
441.981695845
 20
386.7898741643
 30
0.0
 11
441.981998582
 21
386.997939783
 31
0.0
  0
LINE
  5
368
330
1F
100
AcDbEntity
  8
0
  6
Continuous
 62
     8
370
     0
100
AcDbLine
 10
441.981998582
 20
386.997939783
 30
0.0
 11
438.9820012658
 21
387.0023048014
 31
0.0
  0
ARC
  5
369
330
1F
100
AcDbEntity
  8
0
  6
Continuous
 62
     8
370
     0
100
AcDbCircle
 10
441.981272195
 20
386.4979422731
 30
0.0
 40
0.4999980375061179
100
AcDbArc
 50
359.9165673673
 51
89.9167618296
  0
LINE
  5
36A
330
1F
100
AcDbEntity
  8
0
  6
Continuous
 62
     8
370
     0
100
AcDbLine
 10
438.9821764626
 20
387.002379
 30
0.0
 11
438.9820012658
 21
387.0023048014
 31
0.0
  0
LINE
  5
36B
330
1F
100
AcDbEntity
  8
0
  6
Continuous
 62
     8
370
     0
100
AcDbLine
 10
446.4820031516
 20
386.9979397788
 30
0.0
 11
446.4820095027
 21
387.0023048007
 31
0.0
  0
LINE
  5
36C
330
1F
100
AcDbEntity
  8
0
  6
Continuous
 62
     8
370
     0
100
AcDbLine
 10
446.4820031516
 20
386.9979397788
 30
0.0
 11
446.4812745922
 21
386.4972141938
 31
0.0
  0
LWPOLYLINE
  5
36D
330
1F
100
AcDbEntity
  8
0
  6
Continuous
 62
     8
370
     0
100
AcDbPolyline
 90
       10
 70
   128
 43
0.0
 10
446.4812745922
 20
386.4972141938
 10
445.7866817841
 20
386.4981363935
 10
445.1131943325
 20
386.4988537622
 10
444.4812752468
 20
386.4993444615
 10
443.9101246721
 20
386.4995936071
 10
443.4170968804
 20
386.499593597
 10
443.0171731425
 20
386.4993444664
 10
442.722501654
 20
386.4988537551
 10
442.5420399066
 20
386.4981363985
 10
442.4812697024
 20
386.4972141892
  0
LWPOLYLINE
  5
36E
330
1F
100
AcDbEntity
  8
0
  6
Continuous
 62
     8
370
     0
100
AcDbPolyline
 90
       10
 70
   128
 43
0.0
 10
547.48116273
 20
386.3444385648
 10
547.4203973294
 20
386.3455376094
 10
547.239930983
 20
386.346780119
 10
546.9452621701
 20
386.3481283249
 10
546.5453464385
 20
386.3495412278
 10
546.0523132837
 20
386.3509759639
 10
545.4811681275
 20
386.352388867
 10
544.8492558775
 20
386.3537370518
 10
544.17576919
 20
386.3549795405
 10
543.481167326
 20
386.3560786293
  0
LINE
  5
36F
330
1F
100
AcDbEntity
  8
0
  6
Continuous
 62
     8
370
     0
100
AcDbLine
 10
543.4818958855
 20
386.8568042143
 30
0.0
 11
543.481167326
 21
386.3560786293
 31
0.0
  0
LINE
  5
370
330
1F
100
AcDbEntity
  8
0
  6
Continuous
 62
     8
370
     0
100
AcDbLine
 10
543.4818958855
 20
386.8568042143
 30
0.0
 11
543.4819022366
 21
386.8611692362
 31
0.0
  0
LWPOLYLINE
  5
371
330
1F
100
AcDbEntity
  8
0
  6
Continuous
 62
     8
370
     0
100
AcDbPolyline
 90
       10
 70
   128
 43
0.0
 10
442.4507146098
 20
365.497257766
 10
442.511484814
 20
365.4981799754
 10
442.6919465614
 20
365.4988973319
 10
442.9866180499
 20
365.4993880433
 10
443.3865417878
 20
365.4996371738
 10
443.8795695795
 20
365.4996371839
 10
444.4507201543
 20
365.4993880383
 10
445.0826392399
 20
365.4988973391
 10
445.7561266915
 20
365.4981799704
 10
446.4507194996
 20
365.4972577707
  0
LINE
  5
372
330
1F
100
AcDbEntity
  8
0
  6
Continuous
 62
     8
370
     0
100
AcDbLine
 10
446.4507194996
 20
365.4972577707
 30
0.0
 11
446.4522933435
 21
366.578931936
 31
0.0
  0
LINE
  5
373
330
1F
100
AcDbEntity
  8
0
  6
Continuous
 62
     8
370
     0
100
AcDbLine
 10
446.4791163371
 20
385.0138849684
 30
0.0
 11
446.4812745922
 21
386.4972141938
 31
0.0
  0
LWPOLYLINE
  5
374
330
1F
100
AcDbEntity
  8
0
  6
Continuous
 62
     8
370
     0
100
AcDbPolyline
 90
       10
 70
   128
 43
0.0
 10
543.4506122334
 20
365.3561222062
 10
544.1452140974
 20
365.3550231173
 10
544.8187007849
 20
365.3537806286
 10
545.450613035
 20
365.3524324439
 10
546.0217581911
 20
365.3510195407
 10
546.5147913459
 20
365.3495848046
 10
546.9147070776
 20
365.3481719017
 10
547.2093758904
 20
365.3468236958
 10
547.3898422368
 20
365.3455811862
 10
547.4506076374
 20
365.3444821417
  0
LINE
  5
375
330
1F
100
AcDbEntity
  8
0
  6
Continuous
 62
     8
370
     0
100
AcDbLine
 10
543.4506122334
 20
365.3561222062
 30
0.0
 11
543.481167326
 21
386.3560786293
 31
0.0
  0
LINE
  5
376
330
1F
100
AcDbEntity
  8
0
  6
Continuous
 62
     8
370
     0
100
AcDbLine
 10
446.4507194996
 20
365.4972577707
 30
0.0
 11
446.449993056
 21
364.9979863565
 31
0.0
  0
LINE
  5
377
330
1F
100
AcDbEntity
  8
0
  6
Continuous
 62
     8
370
     0
100
AcDbLine
 10
543.4506122334
 20
365.3561222062
 30
0.0
 11
543.4498857898
 21
364.856850792
 31
0.0
  0
LINE
  5
378
330
1F
100
AcDbEntity
  8
0
  6
Continuous
 62
     8
370
     0
100
AcDbLine
 10
446.4820031516
 20
386.9979397788
 30
0.0
 11
543.4818958855
 21
386.8568042143
 31
0.0
  0
LINE
  5
379
330
1F
100
AcDbEntity
  8
0
  6
Continuous
 62
     8
370
     0
100
AcDbLine
 10
543.481167326
 20
386.3560786293
 30
0.0
 11
446.4812745922
 21
386.4972141938
 31
0.0
  0
LINE
  5
37A
330
1F
100
AcDbEntity
  8
0
  6
Continuous
 62
     8
370
     0
100
AcDbLine
 10
446.4507194996
 20
365.4972577707
 30
0.0
 11
543.4506122334
 21
365.3561222062
 31
0.0
  0
ARC
  5
37B
330
1F
100
AcDbEntity
  8
0
  6
Continuous
 62
     8
370
     0
100
AcDbCircle
 10
431.9257281126
 20
348.3314246186
 30
0.0
 40
1.00000020478511
100
AcDbArc
 50
269.9165832549
 51
359.9165712834
  0
LINE
  5
37C
330
1F
100
AcDbEntity
  8
0
  6
Continuous
 62
     8
370
     0
100
AcDbLine
 10
431.9242265348
 20
347.3000296748
 30
0.0
 11
431.924272216
 21
347.3314254736
 31
0.0
  0
LINE
  5
37D
330
1F
100
AcDbEntity
  8
0
  6
Continuous
 62
     8
370
     0
100
AcDbLine
 10
417.2788596798
 20
384.8588453141
 30
0.0
 11
417.2788052227
 21
384.8214178883
 31
0.0
  0
LINE
  5
37E
330
1F
100
AcDbEntity
  8
0
  6
Continuous
 62
     8
370
     0
100
AcDbLine
 10
436.6787847357
 20
384.793190774
 30
0.0
 11
436.6788391929
 21
384.8306181997
 31
0.0
  0
LINE
  5
37F
330
1F
100
AcDbEntity
  8
0
  6
Continuous
 62
     8
370
     0
100
AcDbLine
 10
431.924272216
 20
347.3314254736
 30
0.0
 11
426.9242776203
 21
347.3387005029
 31
0.0
  0
LINE
  5
380
330
1F
100
AcDbEntity
  8
0
  6
Continuous
 62
     8
370
     0
100
AcDbLine
 10
420.924284385
 20
347.3474305376
 30
0.0
 11
416.9242884291
 21
347.3532505614
 31
0.0
  0
LINE
  5
381
330
1F
100
AcDbEntity
  8
0
  6
Continuous
 62
     8
370
     0
100
AcDbLine
 10
431.972852414
 20
380.7197072892
 30
0.0
 11
431.9758792992
 21
382.8000301294
 31
0.0
  0
LINE
  5
382
330
1F
100
AcDbEntity
  8
0
  6
Continuous
 62
     8
370
     0
100
AcDbLine
 10
429.4515354016
 20
375.8386608567
 30
0.0
 11
425.2994169117
 21
375.84470222
 31
0.0
  0
LINE
  5
383
330
1F
100
AcDbEntity
  8
0
  6
Continuous
 62
     8
370
     0
100
AcDbLine
 10
420.9614407951
 20
349.851013471
 30
0.0
 11
420.962843831
 21
349.8510114296
 31
0.0
  0
LINE
  5
384
330
1F
100
AcDbEntity
  8
0
  6
Continuous
 62
     8
370
     0
100
AcDbLine
 10
426.893003314
 20
349.8423830035
 30
0.0
 11
426.8944068157
 21
349.8423809614
 31
0.0
  0
LINE
  5
385
330
1F
100
AcDbEntity
  8
0
  6
Continuous
 62
     8
370
     0
100
AcDbLine
 10
427.9279195284
 20
349.8408771927
 30
0.0
 11
431.9279150187
 21
349.8350571696
 31
0.0
  0
LINE
  5
386
330
1F
100
AcDbEntity
  8
0
  6
Continuous
 62
     8
370
     0
100
AcDbLine
 10
431.924272216
 20
347.3314254736
 30
0.0
 11
431.9279150187
 21
349.8350571696
 31
0.0
  0
ARC
  5
387
330
1F
100
AcDbEntity
  8
0
  6
Continuous
 62
     8
370
     0
100
AcDbCircle
 10
431.9279122976
 20
178.0127887294
 30
0.0
 40
171.8222684401327
100
AcDbArc
 50
89.6665383352
 51
89.9999990926
  0
LINE
  5
388
330
1F
100
AcDbEntity
  8
0
  6
Continuous
 62
     8
370
     0
100
AcDbLine
 10
431.9279150187
 20
349.8350571696
 30
0.0
 11
431.958608211
 21
370.9299270365
 31
0.0
  0
HATCH
  5
389
330
1F
100
AcDbEntity
  8
0
  6
Continuous
 62
     7
370
     0
100
AcDbHatch
 10
0.0
 20
0.0
 30
0.0
210
0.0
220
0.0
230
1.0
  2
ANSI31
 70
     0
 71
     0
 91
        1
 92
        0
 93
       24
 72
     1
 10
436.949684207376
 20
364.7927545554376
 11
436.9783478537191
 21
384.4927545554376
 72
     3
 10
436.6783481712756
 20
384.4931910572041
 11
-0.0004365022285765038
 21
-0.2999999999999999
 40
0.9999989414783725
 50
89.9999999999946
 51
179.9999999999991
 73
     1
 72
     1
 10
436.6787846735042
 20
384.7931910572041
 11
417.2788052088238
 21
384.8214181714397
 72
     3
 10
417.2783687065952
 20
384.5214181714397
 11
-0.0004365022285765038
 21
-0.2999999999999999
 40
0.9999989414783725
 50
179.9999999999991
 51
269.9999999999954
 73
     1
 72
     1
 10
416.9783690241517
 20
384.5218546732062
 11
416.9758955115231
 21
382.8218546732062
 72
     1
 10
416.9758955115231
 20
382.8218546732062
 11
419.9758923359582
 21
382.8174896555409
 72
     1
 10
419.9758923359582
 20
382.8174896555409
 11
422.9715241381075
 21
379.8131246378757
 72
     1
 10
422.9715241381075
 20
379.8131246378757
 11
424.9715220210643
 21
379.8102146260987
 72
     1
 10
424.9715220210643
 20
379.8102146260987
 11
427.9758838677852
 21
382.8058496084334
 72
     1
 10
427.9758838677852
 20
382.8058496084334
 11
431.9758796336986
 21
382.8000295848797
 72
     3
 10
431.97442462627
 20
381.8000295848797
 11
-0.001455007428588346
 21
-0.9999999999999998
 40
0.9999989414783723
 50
180.0000000000016
 51
270.0000000000007
 73
     0
 72
     1
 10
432.9744235677484
 20
381.7985745789913
 11
432.9256808188907
 21
348.2985745789913
 72
     3
 10
431.9256818774124
 20
348.3000295848798
 11
0.001455007428588346
 21
0.9999999999999998
 40
0.9999989414783723
 50
89.99999999999997
 51
180.0000000000016
 73
     0
 72
     1
 10
431.9242268699838
 20
347.3000295848797
 11
426.4230217263285
 21
347.3080338792299
 72
     3
 10
424.0020387287622
 20
400.7845173141635
 11
-2.499999999999999
 21
-1718.204286025885
 40
0.0014550058884315
 50
357.324514339189
 51
357.48882390808
 73
     0
 72
     4
 94
        3
 73
     1
 74
     0
 95
        8
 96
        4
 40
0.0000002829138582
 40
0.0000002829138582
 40
0.0000002829138582
 40
0.0000002829138582
 40
0.0014147504884748
 40
0.0014147504884748
 40
0.0014147504884748
 40
0.0014147504884748
 10
426.4177654427364
 20
343.8080341174984
 42
1.0
 10
426.7507567872166
 20
343.474239536597
 42
1.0
 10
427.0837172892981
 20
343.140414187621
 42
1.0
 10
427.4166675135735
 20
342.8065785905183
 42
1.0
 72
     1
 10
427.4166675135735
 20
342.8065785905183
 11
436.6176743615035
 21
342.7931910572041
 72
     3
 10
436.6181108637321
 20
343.0931910572041
 11
-0.0004365022285765038
 21
-0.2999999999999999
 40
0.9999989414783725
 50
0.0
 51
90.00000000000546
 73
     1
 72
     1
 10
436.9181105461756
 20
343.0927545554376
 11
436.9402266590901
 21
358.2927545554376
 72
     3
 10
439.9402234835252
 20
358.2883895377723
 11
-0.004365022285765039
 21
-3.0
 40
0.9999989414783722
 50
89.99999999999997
 51
179.9999999999998
 73
     0
 72
     1
 10
439.944588505811
 20
361.2883895377723
 11
440.9445874472894
 21
361.2869345318839
 72
     1
 10
440.9445874472894
 20
361.2869345318839
 11
440.9488399243588
 21
364.2095842626942
 72
     1
 10
440.9488399243588
 20
364.2095842626942
 11
439.9496810318111
 21
364.7883895377723
 72
     1
 10
439.9496810318111
 20
364.7883895377723
 11
436.949684207376
 21
364.7927545554376
 97
        0
 75
     0
 76
     1
 52
0.0
 41
1.0
 77
     0
 78
     1
 53
45.0
 43
0.0
 44
0.0
 45
-2.245064030267288
 46
2.245064030267288
 79
     0
 98
        1
 10
0.0
 20
0.0
  0
HATCH
  5
38A
330
1F
100
AcDbEntity
  8
0
  6
Continuous
 62
     7
370
     0
100
AcDbHatch
 10
0.0
 20
0.0
 30
0.0
210
0.0
220
0.0
230
1.0
  2
ANSI31
 70
     0
 71
     0
 91
        1
 92
        0
 93
        6
 72
     1
 10
416.9242427478082
 20
347.3218546732062
 11
416.9181317166081
 21
343.1218546732062
 72
     3
 10
417.2181313990516
 20
343.1214181714397
 11
-0.0004365022285765038
 21
-0.2999999999999999
 40
0.9999989414783725
 50
270.0000000000063
 51
360.0
 73
     1
 72
     1
 10
417.2176948968231
 20
342.8214181714397
 11
420.4187080958828
 21
342.816760673456
 72
     4
 94
        3
 73
     1
 74
     0
 95
        8
 96
        4
 40
0.0000002828789897
 40
0.0000002828789897
 40
0.0000002828789897
 40
0.0000002828789897
 40
0.0014147504536063
 40
0.0014147504536063
 40
0.0014147504536063
 40
0.0014147504536063
 10
420.4187080958828
 20
342.816760673456
 42
1.0
 10
420.7526283749097
 20
343.1496259690226
 42
1.0
 10
421.086558901877
 20
343.4824809865972
 42
1.0
 10
421.4205201815772
 20
343.8153051464759
 42
1.0
 72
     3
 10
424.0020387287622
 20
400.7845173141635
 11
-2.499999999999999
 21
-1718.204286025885
 40
0.0014550058884315
 50
2.511176091920821
 51
2.675485660811833
 73
     0
 72
     1
 10
421.4254489499851
 20
347.3153053847444
 11
416.9242427478082
 21
347.3218546732062
 97
        0
 75
     0
 76
     1
 52
0.0
 41
1.0
 77
     0
 78
     1
 53
45.0
 43
0.0
 44
0.0
 45
-2.245064030267288
 46
2.245064030267288
 79
     0
 98
        1
 10
0.0
 20
0.0
  0
HATCH
  5
38B
330
1F
100
AcDbEntity
  8
0
  6
Continuous
 62
     7
370
     0
100
AcDbHatch
 10
0.0
 20
0.0
 30
0.0
210
0.0
220
0.0
230
1.0
  2
NET
 70
     0
 71
     0
 91
        1
 92
        0
 93
        4
 72
     1
 10
436.949684207376
 20
364.7927545554376
 11
438.4496826195935
 21
364.7905720466049
 72
     1
 10
438.4496826195935
 20
364.7905720466049
 11
438.4787827681653
 21
384.790572046605
 72
     1
 10
438.4787827681653
 20
384.790572046605
 11
436.9787843559477
 21
384.7927545554376
 72
     1
 10
436.9787843559477
 20
384.7927545554376
 11
436.949684207376
 21
364.7927545554376
 97
        0
 75
     0
 76
     1
 52
134.999991007
 41
1.0
 77
     0
 78
     2
 53
134.9999910069555
 43
0.0
 44
0.0
 45
-2.24506438264855
 46
-2.245063677885971
 79
     0
 53
224.9999910069555
 43
0.0
 44
0.0
 45
2.245063677885971
 46
-2.24506438264855
 79
     0
 98
        1
 10
0.0
 20
0.0
  0
HATCH
  5
38C
330
1F
100
AcDbEntity
  8
0
  6
Continuous
 62
     7
370
     0
100
AcDbHatch
 10
0.0
 20
0.0
 30
0.0
210
0.0
220
0.0
230
1.0
  2
ANSI33
 70
     0
 71
     0
 91
        1
 92
        0
 93
        8
 72
     1
 10
547.9495667114752
 20
364.6312489018212
 11
550.9495635359104
 21
364.6268838841558
 72
     3
 10
550.9502910396246
 20
365.1268838841558
 11
0.0007275037142623798
 21
0.4999999999999999
 40
0.9999989414783723
 50
180.0000000000093
 51
270.0000000000005
 73
     1
 72
     1
 10
551.4502905103637
 20
365.1261563812116
 11
551.4808456663642
 21
386.1261563812116
 72
     3
 10
550.9808461956252
 20
386.1268838841559
 11
-0.0007275037142623798
 21
-0.4999999999999999
 40
0.9999989414783723
 50
89.9999999999931
 51
180.0000000000223
 73
     1
 72
     1
 10
550.9815736993393
 20
386.6268838841559
 11
547.9815768749041
 21
386.6312489018212
 72
     3
 10
547.9808493711898
 20
386.1312489018212
 11
-0.0007275037142623798
 21
-0.4999999999999999
 40
0.9999989414783723
 50
179.9999999999955
 51
270.0000000000005
 73
     1
 72
     1
 10
547.4808499004506
 20
386.1319764047653
 11
547.4502947444504
 21
365.1319764047653
 72
     3
 10
547.9502942151895
 20
365.1312489018212
 11
0.0007275037142623798
 21
0.4999999999999999
 40
0.9999989414783723
 50
89.99999999999963
 51
179.9999999999955
 73
     1
 97
        0
 75
     0
 76
     1
 52
0.0
 41
1.0
 77
     0
 78
     2
 53
45.0
 43
0.0
 44
0.0
 45
-4.490128060534576
 46
4.490128060534577
 79
     0
 53
45.0
 43
4.49013
 44
0.0
 45
-4.490128060534576
 46
4.490128060534577
 79
     2
 49
3.175
 49
-1.5875
 98
        1
 10
0.0
 20
0.0
  0
HATCH
  5
38D
330
1F
100
AcDbEntity
  8
0
  6
Continuous
 62
     7
370
     0
100
AcDbHatch
 10
0.0
 20
0.0
 30
0.0
210
0.0
220
0.0
230
1.0
  2
ANSI33
 70
     0
 71
     0
 91
        1
 92
        0
 93
        4
 72
     1
 10
521.9224787863965
 20
311.6690063046258
 11
527.9224724352667
 21
311.6602762692953
 72
     1
 10
527.9224724352667
 20
311.6602762692953
 11
527.9253824501238
 21
313.6602762692953
 72
     1
 10
527.9253824501238
 20
313.6602762692953
 11
521.9253888012537
 21
313.6690063046258
 72
     1
 10
521.9253888012537
 20
313.6690063046258
 11
521.9224787863965
 21
311.6690063046258
 97
        0
 75
     0
 76
     1
 52
0.0
 41
1.0
 77
     0
 78
     2
 53
45.0
 43
0.0
 44
0.0
 45
-4.490128060534576
 46
4.490128060534577
 79
     0
 53
45.0
 43
4.49013
 44
0.0
 45
-4.490128060534576
 46
4.490128060534577
 79
     2
 49
3.175
 49
-1.5875
 98
        1
 10
0.0
 20
0.0
  0
HATCH
  5
38E
330
1F
100
AcDbEntity
  8
0
  6
Continuous
 62
     7
370
     0
100
AcDbHatch
 10
0.0
 20
0.0
 30
0.0
210
0.0
220
0.0
230
1.0
  2
ANSI33
 70
     0
 71
     0
 91
        1
 92
        0
 93
        4
 72
     1
 10
442.4545731022948
 20
333.7846792727561
 11
440.454575219338
 21
333.787589284533
 72
     1
 10
440.454575219338
 20
333.787589284533
 11
440.4458451747665
 21
327.787589284533
 72
     1
 10
440.4458451747665
 20
327.787589284533
 11
442.4458430577233
 21
327.7846792727561
 72
     1
 10
442.4458430577233
 20
327.7846792727561
 11
442.4545731022948
 21
333.7846792727561
 97
        0
 75
     0
 76
     1
 52
0.0
 41
1.0
 77
     0
 78
     2
 53
45.0
 43
0.0
 44
0.0
 45
-4.490128060534576
 46
4.490128060534577
 79
     0
 53
45.0
 43
4.49013
 44
0.0
 45
-4.490128060534576
 46
4.490128060534577
 79
     2
 49
3.175
 49
-1.5875
 98
        1
 10
0.0
 20
0.0
  0
HATCH
  5
38F
330
1F
100
AcDbEntity
  8
0
  6
Continuous
 62
     7
370
     0
100
AcDbHatch
 10
0.0
 20
0.0
 30
0.0
210
0.0
220
0.0
230
1.0
  2
ANSI33
 70
     0
 71
     0
 91
        1
 92
        0
 93
        4
 72
     1
 10
446.9225581755186
 20
311.7781317462582
 11
452.9225518243888
 21
311.7694017109276
 72
     1
 10
452.9225518243888
 20
311.7694017109276
 11
452.925461839246
 21
313.7694017109276
 72
     1
 10
452.925461839246
 20
313.7694017109276
 11
446.9254681903757
 21
313.7781317462582
 72
     1
 10
446.9254681903757
 20
313.7781317462582
 11
446.9225581755186
 21
311.7781317462582
 97
        0
 75
     0
 76
     1
 52
0.0
 41
1.0
 77
     0
 78
     2
 53
45.0
 43
0.0
 44
0.0
 45
-4.490128060534576
 46
4.490128060534577
 79
     0
 53
45.0
 43
4.49013
 44
0.0
 45
-4.490128060534576
 46
4.490128060534577
 79
     2
 49
3.175
 49
-1.5875
 98
        1
 10
0.0
 20
0.0
  0
HATCH
  5
390
330
1F
100
AcDbEntity
  8
0
  6
Continuous
 62
     7
370
     0
100
AcDbHatch
 10
0.0
 20
0.0
 30
0.0
210
0.0
220
0.0
230
1.0
  2
ANSI33
 70
     0
 71
     0
 91
        1
 92
        0
 93
        4
 72
     1
 10
549.4544598404807
 20
333.628993642694
 11
547.4544619575239
 21
333.6319036544708
 72
     1
 10
547.4544619575239
 20
333.6319036544708
 11
547.4457319129524
 21
327.6319036544708
 72
     1
 10
547.4457319129524
 20
327.6319036544708
 11
549.4457297959091
 21
327.628993642694
 72
     1
 10
549.4457297959091
 20
327.628993642694
 11
549.4544598404807
 21
333.628993642694
 97
        0
 75
     0
 76
     1
 52
0.0
 41
1.0
 77
     0
 78
     2
 53
45.0
 43
0.0
 44
0.0
 45
-4.490128060534576
 46
4.490128060534577
 79
     0
 53
45.0
 43
4.49013
 44
0.0
 45
-4.490128060534576
 46
4.490128060534577
 79
     2
 49
3.175
 49
-1.5875
 98
        1
 10
0.0
 20
0.0
  0
HATCH
  5
391
330
1F
100
AcDbEntity
  8
0
  6
Continuous
 62
     7
370
     0
100
AcDbHatch
 10
0.0
 20
0.0
 30
0.0
210
0.0
220
0.0
230
1.0
  2
ANSI33
 70
     0
 71
     0
 91
        1
 92
        0
 93
        4
 72
     1
 10
542.9253665722995
 20
313.6384511809688
 11
536.9253729234292
 21
313.6471812162994
 72
     1
 10
536.9253729234292
 20
313.6471812162994
 11
536.922462908572
 21
311.6471812162994
 72
     1
 10
536.922462908572
 20
311.6471812162994
 11
542.9224565574423
 21
311.6384511809688
 72
     1
 10
542.9224565574423
 20
311.6384511809688
 11
542.9253665722995
 21
313.6384511809688
 97
        0
 75
     0
 76
     1
 52
0.0
 41
1.0
 77
     0
 78
     2
 53
45.0
 43
0.0
 44
0.0
 45
-4.490128060534576
 46
4.490128060534577
 79
     0
 53
45.0
 43
4.49013
 44
0.0
 45
-4.490128060534576
 46
4.490128060534577
 79
     2
 49
3.175
 49
-1.5875
 98
        1
 10
0.0
 20
0.0
  0
HATCH
  5
392
330
1F
100
AcDbEntity
  8
0
  6
Continuous
 62
     7
370
     0
100
AcDbHatch
 10
0.0
 20
0.0
 30
0.0
210
0.0
220
0.0
230
1.0
  2
ANSI33
 70
     0
 71
     0
 91
        1
 92
        0
 93
        4
 72
     1
 10
476.9225264198698
 20
311.7344815696052
 11
482.92252006874
 21
311.7257515342747
 72
     1
 10
482.92252006874
 20
311.7257515342747
 11
482.9254300835972
 21
313.7257515342747
 72
     1
 10
482.9254300835972
 20
313.7257515342747
 11
476.925436434727
 21
313.7344815696052
 72
     1
 10
476.925436434727
 20
313.7344815696052
 11
476.9225264198698
 21
311.7344815696052
 97
        0
 75
     0
 76
     1
 52
0.0
 41
1.0
 77
     0
 78
     2
 53
45.0
 43
0.0
 44
0.0
 45
-4.490128060534576
 46
4.490128060534577
 79
     0
 53
45.0
 43
4.49013
 44
0.0
 45
-4.490128060534576
 46
4.490128060534577
 79
     2
 49
3.175
 49
-1.5875
 98
        1
 10
0.0
 20
0.0
  0
HATCH
  5
393
330
1F
100
AcDbEntity
  8
0
  6
Continuous
 62
     7
370
     0
100
AcDbHatch
 10
0.0
 20
0.0
 30
0.0
210
0.0
220
0.0
230
1.0
  2
ANSI33
 70
     0
 71
     0
 91
        1
 92
        0
 93
        4
 72
     1
 10
467.9254459614216
 20
313.7475766226012
 11
461.9254523125513
 21
313.7563066579318
 72
     1
 10
461.9254523125513
 20
313.7563066579318
 11
461.9225422976941
 21
311.7563066579318
 72
     1
 10
461.9225422976941
 20
311.7563066579318
 11
467.9225359465644
 21
311.7475766226012
 72
     1
 10
467.9225359465644
 20
311.7475766226012
 11
467.9254459614216
 21
313.7475766226012
 97
        0
 75
     0
 76
     1
 52
0.0
 41
1.0
 77
     0
 78
     2
 53
45.0
 43
0.0
 44
0.0
 45
-4.490128060534576
 46
4.490128060534577
 79
     0
 53
45.0
 43
4.49013
 44
0.0
 45
-4.490128060534576
 46
4.490128060534577
 79
     2
 49
3.175
 49
-1.5875
 98
        1
 10
0.0
 20
0.0
  0
HATCH
  5
394
330
1F
100
AcDbEntity
  8
0
  6
Continuous
 62
     7
370
     0
100
AcDbHatch
 10
0.0
 20
0.0
 30
0.0
210
0.0
220
0.0
230
1.0
  2
ANSI33
 70
     0
 71
     0
 91
        1
 92
        0
 93
        4
 72
     1
 10
491.9225105420454
 20
311.7126564812788
 11
497.9225041909156
 21
311.7039264459482
 72
     1
 10
497.9225041909156
 20
311.7039264459482
 11
497.9254142057728
 21
313.7039264459482
 72
     1
 10
497.9254142057728
 20
313.7039264459482
 11
491.9254205569025
 21
313.7126564812788
 72
     1
 10
491.9254205569025
 20
313.7126564812788
 11
491.9225105420454
 21
311.7126564812788
 97
        0
 75
     0
 76
     1
 52
0.0
 41
1.0
 77
     0
 78
     2
 53
45.0
 43
0.0
 44
0.0
 45
-4.490128060534576
 46
4.490128060534577
 79
     0
 53
45.0
 43
4.49013
 44
0.0
 45
-4.490128060534576
 46
4.490128060534577
 79
     2
 49
3.175
 49
-1.5875
 98
        1
 10
0.0
 20
0.0
  0
HATCH
  5
395
330
1F
100
AcDbEntity
  8
0
  6
Continuous
 62
     7
370
     0
100
AcDbHatch
 10
0.0
 20
0.0
 30
0.0
210
0.0
220
0.0
230
1.0
  2
ANSI33
 70
     0
 71
     0
 91
        1
 92
        0
 93
        4
 72
     1
 10
506.9224946642209
 20
311.6908313929523
 11
512.9224883130912
 21
311.6821013576217
 72
     1
 10
512.9224883130912
 20
311.6821013576217
 11
512.9253983279484
 21
313.6821013576217
 72
     1
 10
512.9253983279484
 20
313.6821013576217
 11
506.9254046790781
 21
313.6908313929523
 72
     1
 10
506.9254046790781
 20
313.6908313929523
 11
506.9224946642209
 21
311.6908313929523
 97
        0
 75
     0
 76
     1
 52
0.0
 41
1.0
 77
     0
 78
     2
 53
45.0
 43
0.0
 44
0.0
 45
-4.490128060534576
 46
4.490128060534577
 79
     0
 53
45.0
 43
4.49013
 44
0.0
 45
-4.490128060534576
 46
4.490128060534577
 79
     2
 49
3.175
 49
-1.5875
 98
        1
 10
0.0
 20
0.0
  0
HATCH
  5
396
330
1F
100
AcDbEntity
  8
0
  6
Continuous
 62
     7
370
     0
100
AcDbHatch
 10
0.0
 20
0.0
 30
0.0
210
0.0
220
0.0
230
1.0
  2
ANSI31
 70
     0
 71
     0
 91
        1
 92
        0
 93
       12
 72
     3
 10
442.7790692180075
 20
384.9843155212845
 11
0.0004365022285765038
 21
0.2999999999999999
 40
0.9999989414783725
 50
360.0
 51
450.0000000000063
 73
     1
 72
     1
 10
442.4790695355641
 20
384.984752023051
 11
442.452297398878
 21
366.584752023051
 72
     3
 10
442.7522970813215
 20
366.5843155212845
 11
-0.0004365022285765038
 21
-0.2999999999999999
 40
0.9999989414783725
 50
269.9999999999953
 51
360.0
 73
     1
 72
     1
 10
442.7518605790929
 20
366.2843155212845
 11
446.1518569801194
 21
366.2793685012638
 72
     3
 10
446.152293482348
 20
366.5793685012638
 11
0.0004365022285765038
 21
0.2999999999999999
 40
0.9999989414783725
 50
179.9999999999883
 51
269.9999999999954
 73
     1
 72
     1
 10
446.4522931647915
 20
366.5789319994973
 11
446.4623859609126
 21
373.5155262208243
 72
     1
 10
446.4623859609126
 20
373.5155262208243
 11
446.3623860667648
 21
373.5156717214131
 72
     1
 10
446.3623860667648
 20
373.5156717214131
 11
446.3660779103053
 21
376.0530082792692
 72
     1
 10
446.3660779103053
 20
376.0530082792692
 11
446.4660778044531
 21
376.0528627786801
 72
     1
 10
446.4660778044531
 20
376.0528627786801
 11
446.4790653014775
 21
384.9789319994973
 72
     3
 10
446.179065619034
 20
384.9793685012638
 11
-0.0004365022285765038
 21
-0.2999999999999999
 40
0.9999989414783725
 50
89.9999999999946
 51
180.0000000000107
 73
     1
 72
     1
 10
446.1795021212625
 20
385.2793685012638
 11
442.7795057202361
 21
385.2843155212844
 97
        0
 75
     0
 76
     1
 52
0.0
 41
1.0
 77
     0
 78
     1
 53
45.0
 43
0.0
 44
0.0
 45
-2.245064030267288
 46
2.245064030267288
 79
     0
 98
        1
 10
0.0
 20
0.0
  0
HATCH
  5
397
330
1F
100
AcDbEntity
  8
0
  6
Continuous
 62
     7
370
     0
100
AcDbHatch
 10
0.0
 20
0.0
 30
0.0
210
0.0
220
0.0
230
1.0
  2
ANSI33
 70
     0
 71
     0
 91
        1
 92
        0
 93
       30
 72
     1
 10
427.9292176810656
 20
350.7330327948234
 11
427.931079979404
 21
352.0129563896201
 72
     3
 10
425.4310826257081
 20
352.0165939043411
 11
-0.003637518571470865
 21
-2.5
 40
0.9999989414783722
 50
90.00000000000068
 51
135.0000303244265
 73
     1
 72
     1
 10
427.2014198215036
 20
353.7817887459815
 11
425.5218883807214
 21
355.4662165528751
 72
     3
 10
426.9381581373577
 20
356.8783724261874
 11
0.002910014857176692
 21
2.0
 40
0.9999989414783723
 50
224.9999696755734
 51
269.9999999999991
 73
     0
 72
     1
 10
424.9381602544009
 20
356.8812824379642
 11
424.9410468100909
 21
358.8651593813058
 72
     1
 10
424.9410468100909
 20
358.8651593813058
 11
424.8410469159438
 21
358.8653048823566
 72
     1
 10
424.8410469159438
 20
358.8653048823566
 11
424.841257143991
 21
359.0097907750419
 72
     1
 10
424.841257143991
 20
359.0097907750419
 11
424.9412570381386
 21
359.0096452742855
 72
     1
 10
424.9412570381386
 20
359.0096452742855
 11
424.9422251952719
 21
359.6750419686991
 72
     1
 10
424.9422251952719
 20
359.6750419686991
 11
424.8422253011176
 21
359.6751874648661
 72
     1
 10
424.8422253011176
 20
359.6751874648661
 11
424.8424374841509
 21
359.8210169837805
 72
     1
 10
424.8424374841509
 20
359.8210169837805
 11
424.9424373782934
 21
359.8208714794908
 72
     1
 10
424.9424373782934
 20
359.8208714794908
 11
424.9435211159764
 21
360.5657045722137
 72
     1
 10
424.9435211159764
 20
360.5657045722137
 11
424.8435212218163
 21
360.5658500644345
 72
     1
 10
424.8435212218163
 20
360.5658500644345
 11
424.8437845200641
 21
360.7468101355536
 72
     1
 10
424.8437845200641
 20
360.7468101355536
 11
424.9437844142045
 21
360.7466646298294
 72
     1
 10
424.9437844142045
 20
360.7466646298294
 11
424.9641435797272
 21
374.7391468142333
 72
     3
 10
426.9641414626839
 20
374.7362368024564
 11
0.002910014857176692
 21
2.0
 40
0.9999989414783723
 50
270.0000000000007
 51
315.0000303244273
 73
     0
 72
     1
 10
425.5519870885253
 20
376.1525080538902
 11
427.2364131175966
 21
377.8320412776757
 72
     3
 10
425.4712201498983
 20
379.6023803419679
 11
-0.003637518571470865
 21
-2.5
 40
0.9999989414783722
 50
44.99996967557347
 51
90.00000000000068
 73
     1
 72
     1
 10
427.9712175035943
 20
379.5987428272469
 11
427.9730160749443
 21
380.8348680281648
 72
     1
 10
427.9730160749443
 20
380.8348680281648
 11
426.0020365810023
 21
380.8377358179701
 72
     1
 10
426.0020365810023
 20
380.8377358179701
 11
423.9700680721573
 21
378.8116696319872
 72
     1
 10
423.9700680721573
 20
378.8116696319872
 11
421.9440040370594
 21
380.843640285467
 72
     1
 10
421.9440040370594
 20
380.843640285467
 11
419.4730250723781
 21
380.8472355782165
 72
     1
 10
419.4730250723781
 20
380.8472355782165
 11
419.4292266784994
 21
350.7454003448751
 72
     1
 10
419.4292266784994
 20
350.7454003448751
 11
421.8564072956635
 21
350.7418687790466
 72
     1
 10
421.8564072956635
 20
350.7418687790466
 11
423.9322378790141
 21
352.8116696319872
 72
     1
 10
423.9322378790141
 20
352.8116696319872
 11
426.0020365346408
 21
350.7358368577077
 72
     1
 10
426.0020365346408
 20
350.7358368577077
 11
427.9292176810656
 21
350.7330327948234
 97
        0
 75
     0
 76
     1
 52
90.0
 41
1.0
 77
     0
 78
     2
 53
135.0000000000002
 43
0.0
 44
0.0
 45
-4.490128060534562
 46
-4.490128060534592
 79
     0
 53
135.0000000000002
 43
-0.0000000000000157
 44
4.49013
 45
-4.490128060534562
 46
-4.490128060534592
 79
     2
 49
3.175
 49
-1.5875
 98
        1
 10
0.0
 20
0.0
  0
HATCH
  5
398
330
1F
100
AcDbEntity
  8
0
  6
Continuous
 62
     7
370
     0
100
AcDbHatch
 10
0.0
 20
0.0
 30
0.0
210
0.0
220
0.0
230
1.0
  2
ANSI37
 70
     0
 71
     0
 91
        1
 92
        0
 93
        4
 72
     1
 10
419.4278776200756
 20
349.8182171584851
 11
419.4744378577904
 21
381.8182171584851
 72
     1
 10
419.4744378577904
 20
381.8182171584851
 11
416.2744412450596
 21
381.8228731773281
 72
     1
 10
416.2744412450596
 20
381.8228731773281
 11
416.2278810073448
 21
349.8228731773281
 72
     1
 10
416.2278810073448
 20
349.8228731773281
 11
419.4278776200756
 21
349.8182171584851
 97
        0
 75
     0
 76
     1
 52
0.0
 41
1.0
 77
     0
 78
     2
 53
45.0
 43
0.0
 44
0.0
 45
-2.245064030267288
 46
2.245064030267288
 79
     0
 53
135.0
 43
0.0
 44
0.0
 45
-2.245064030267288
 46
-2.245064030267288
 79
     0
 98
        1
 10
0.0
 20
0.0
  0
DIMENSION
  5
399
330
1F
100
AcDbEntity
  8
0
  6
Continuous
 62
     7
370
     0
100
AcDbDimension
  2
*D5
 10
567.2520316242
 20
386.8222184462
 30
0.0
 11
567.1885759981
 21
343.2103269779
 31
0.0
 70
   160
 71
     2
 42
-1.0
  3
SLDDIMSTYLE1
100
AcDbAlignedDimension
 13
542.9224565574
 23
311.638451181
 33
0.0
 14
543.4819002961
 24
386.8568041638
 34
0.0
 50
89.916634274
100
AcDbRotatedDimension
  0
MTEXT
  5
3A3
330
1F
100
AcDbEntity
  8
0
  6
Continuous
 62
     7
370
     0
100
AcDbMText
 10
489.6080807809
 20
399.0166530437
 30
0.0
 40
5.0
 41
0.0
 71
     2
 72
     1
  1
A-A
  7
SLDTEXTSTYLE0
 73
     1
 44
1.0
  0
LINE
  5
3A4
330
1F
100
AcDbEntity
  8
0
  6
CENTERX2
 62
     7
370
     0
100
AcDbLine
 10
414.251191931
 20
365.8454997868
 30
0.0
 11
421.4511843097
 21
365.8350237444
 31
0.0
  0
LINE
  5
3A5
330
1F
100
AcDbEntity
  8
0
  6
CENTERX2
 62
     7
370
     0
100
AcDbLine
 10
426.9511846272
 20
365.8312407246
 30
0.0
 11
421.4511904491
 21
365.839243257
 31
0.0
  0
LINE
  5
3A6
330
1F
100
AcDbEntity
  8
0
  6
CENTERX2
 62
     7
370
     0
100
AcDbLine
 10
425.4511802873
 20
365.8293492213
 30
0.0
 11
417.4511887555
 21
365.8409892684
 31
0.0
  0
LINE
  5
3A7
330
1F
100
AcDbEntity
  8
0
  6
CENTERX2
 62
     7
370
     0
100
AcDbLine
 10
423.9147779715
 20
340.81179448
 30
0.0
 11
423.9351480386
 21
354.8117690755
 31
0.0
  0
LINE
  5
3A8
330
1F
100
AcDbEntity
  8
0
  6
CENTERX2
 62
     7
370
     0
100
AcDbLine
 10
427.4515228978
 20
375.8313857332
 30
0.0
 11
446.9657147705
 21
375.802992439
 31
0.0
  0
ENDSEC
  0
SECTION
  2
OBJECTS
  0
DICTIONARY
  5
C
330
0
100
AcDbDictionary
281
     1
  3
ACAD_GROUP
350
D
  3
ACAD_LAYOUT
350
1A
  3
ACAD_MLINESTYLE
350
17
  3
ACAD_PLOTSETTINGS
350
19
  3
ACAD_PLOTSTYLENAME
350
E
  0
DICTIONARY
  5
D
102
{ACAD_REACTORS
330
C
102
}
330
C
100
AcDbDictionary
281
     1
  0
DICTIONARY
  5
1A
102
{ACAD_REACTORS
330
C
102
}
330
C
100
AcDbDictionary
281
     1
  3
Layout1
350
1E
  3
Layout2
350
26
  3
Model
350
22
  0
DICTIONARY
  5
17
102
{ACAD_REACTORS
330
C
102
}
330
C
100
AcDbDictionary
281
     1
  3
Standard
350
18
  0
DICTIONARY
  5
19
102
{ACAD_REACTORS
330
C
102
}
330
C
100
AcDbDictionary
281
     1
  0
ACDBDICTIONARYWDFLT
  5
E
102
{ACAD_REACTORS
330
C
102
}
330
C
100
AcDbDictionary
281
     1
  3
Normal
350
F
100
AcDbDictionaryWithDefault
340
F
  0
LAYOUT
  5
1E
102
{ACAD_REACTORS
330
1A
102
}
330
1A
100
AcDbPlotSettings
  1

  2
none_device
  4

  6

 40
0.0
 41
0.0
 42
0.0
 43
0.0
 44
0.0
 45
0.0
 46
0.0
 47
0.0
 48
0.0
 49
0.0
140
0.0
141
0.0
142
1.0
143
1.0
 70
   688
 72
     0
 73
     0
 74
     5
  7

 75
    16
147
1.0
148
0.0
149
0.0
100
AcDbLayout
  1
Layout1
 70
     1
 71
     1
 10
0.0
 20
0.0
 11
420.0
 21
297.0
 12
0.0
 22
0.0
 32
0.0
 14
1.0000000000E+20
 24
1.0000000000E+20
 34
1.0000000000E+20
 15
-1.0000000000E+20
 25
-1.0000000000E+20
 35
-1.0000000000E+20
146
0.0
 13
0.0
 23
0.0
 33
0.0
 16
1.0
 26
0.0
 36
0.0
 17
0.0
 27
1.0
 37
0.0
 76
     0
330
1B
  0
LAYOUT
  5
26
102
{ACAD_REACTORS
330
1A
102
}
330
1A
100
AcDbPlotSettings
  1

  2
none_device
  4

  6

 40
0.0
 41
0.0
 42
0.0
 43
0.0
 44
0.0
 45
0.0
 46
0.0
 47
0.0
 48
0.0
 49
0.0
140
0.0
141
0.0
142
1.0
143
1.0
 70
   688
 72
     0
 73
     0
 74
     5
  7

 75
    16
147
1.0
148
0.0
149
0.0
100
AcDbLayout
  1
Layout2
 70
     1
 71
     2
 10
0.0
 20
0.0
 11
0.0
 21
0.0
 12
0.0
 22
0.0
 32
0.0
 14
0.0
 24
0.0
 34
0.0
 15
0.0
 25
0.0
 35
0.0
146
0.0
 13
0.0
 23
0.0
 33
0.0
 16
1.0
 26
0.0
 36
0.0
 17
0.0
 27
1.0
 37
0.0
 76
     0
330
23
  0
LAYOUT
  5
22
102
{ACAD_REACTORS
330
1A
102
}
330
1A
100
AcDbPlotSettings
  1

  2
none_device
  4

  6

 40
0.0
 41
0.0
 42
0.0
 43
0.0
 44
0.0
 45
0.0
 46
0.0
 47
0.0
 48
0.0
 49
0.0
140
0.0
141
0.0
142
1.0
143
1.0
 70
  1712
 72
     0
 73
     0
 74
     0
  7

 75
     0
147
1.0
148
0.0
149
0.0
100
AcDbLayout
  1
Model
 70
     1
 71
     0
 10
0.0
 20
0.0
 11
594.0
 21
420.0
 12
0.0
 22
0.0
 32
0.0
 14
0.0
 24
0.0
 34
0.0
 15
594.0
 25
420.0
 35
0.0
146
0.0
 13
0.0
 23
0.0
 33
0.0
 16
1.0
 26
0.0
 36
0.0
 17
0.0
 27
1.0
 37
0.0
 76
     0
330
1F
331
29
  0
MLINESTYLE
  5
18
102
{ACAD_REACTORS
330
17
102
}
330
17
100
AcDbMlineStyle
  2
Standard
 70
     0
  3

 62
   256
 51
90.0
 52
90.0
 71
     2
 49
0.5
 62
   256
  6
BYLAYER
 49
-0.5
 62
   256
  6
BYLAYER
  0
ACDBPLACEHOLDER
  5
F
102
{ACAD_REACTORS
330
E
102
}
330
E
  0
ENDSEC
  0
EOF
