  0
SECTION
  2
HEADER
  9
$ACADVER
  1
AC1015
  9
$ACADMAINTVER
 70
     6
  9
$DWGCODEPAGE
  3
ANSI_1252
  9
$INSBASE
 10
0.0
 20
0.0
 30
0.0
  9
$EXTMIN
 10
0.0
 20
0.0
 30
0.0
  9
$EXTMAX
 10
594.0
 20
420.0
 30
0.0
  9
$LIMMIN
 10
0.0
 20
0.0
  9
$LIMMAX
 10
594.0
 20
420.0
  9
$ORTHOMODE
 70
     0
  9
$REGENMODE
 70
     1
  9
$FILLMODE
 70
     1
  9
$QTEXTMODE
 70
     0
  9
$MIRRTEXT
 70
     1
  9
$LTSCALE
 40
1.0
  9
$ATTMODE
 70
     1
  9
$TEXTSIZE
 40
3.5
  9
$TRACEWID
 40
1.0
  9
$TEXTSTYLE
  7
Standard
  9
$CLAYER
  8
0
  9
$CELTYPE
  6
ByLayer
  9
$CECOLOR
 62
   256
  9
$CELTSCALE
 40
1.0
  9
$DISPSILH
 70
     0
  9
$DIMSCALE
 40
1.0
  9
$DIMASZ
 40
3.5
  9
$DIMEXO
 40
1.0
  9
$DIMDLI
 40
3.75
  9
$DIMRND
 40
0.0
  9
$DIMDLE
 40
0.0
  9
$DIMEXE
 40
1.0
  9
$DIMTP
 40
0.0
  9
$DIMTM
 40
0.0
  9
$DIMTXT
 40
3.5
  9
$DIMCEN
 40
2.5
  9
$DIMTSZ
 40
0.0
  9
$DIMTOL
 70
     0
  9
$DIMLIM
 70
     0
  9
$DIMTIH
 70
     1
  9
$DIMTOH
 70
     1
  9
$DIMSE1
 70
     0
  9
$DIMSE2
 70
     0
  9
$DIMTAD
 70
     1
  9
$DIMZIN
 70
     0
  9
$DIMBLK
  1

  9
$DIMASO
 70
     1
  9
$DIMSHO
 70
     1
  9
$DIMPOST
  1

  9
$DIMAPOST
  1

  9
$DIMALT
 70
     0
  9
$DIMALTD
 70
     3
  9
$DIMALTF
 40
0.0393700787
  9
$DIMLFAC
 40
1.0
  9
$DIMTOFL
 70
     1
  9
$DIMTVP
 40
0.0
  9
$DIMTIX
 70
     0
  9
$DIMSOXD
 70
     0
  9
$DIMSAH
 70
     0
  9
$DIMBLK1
  1

  9
$DIMBLK2
  1

  9
$DIMSTYLE
  2
ISO-25
  9
$DIMCLRD
 70
     0
  9
$DIMCLRE
 70
     0
  9
$DIMCLRT
 70
     0
  9
$DIMTFAC
 40
1.0
  9
$DIMGAP
 40
4.0
  9
$DIMJUST
 70
     0
  9
$DIMSD1
 70
     0
  9
$DIMSD2
 70
     0
  9
$DIMTOLJ
 70
     0
  9
$DIMTZIN
 70
     0
  9
$DIMALTZ
 70
     0
  9
$DIMALTTZ
 70
     0
  9
$DIMUPT
 70
     0
  9
$DIMDEC
 70
     1
  9
$DIMTDEC
 70
     1
  9
$DIMALTU
 70
     2
  9
$DIMALTTD
 70
     3
  9
$DIMTXSTY
  7
Standard
  9
$DIMAUNIT
 70
     0
  9
$DIMADEC
 70
     1
  9
$DIMALTRND
 40
0.0
  9
$DIMAZIN
 70
     0
  9
$DIMDSEP
 70
    44
  9
$DIMATFIT
 70
     3
  9
$DIMFRAC
 70
     0
  9
$DIMLDRBLK
  1

  9
$DIMLUNIT
 70
     2
  9
$DIMLWD
 70
    -2
  9
$DIMLWE
 70
    -2
  9
$DIMTMOVE
 70
     0
  9
$LUNITS
 70
     2
  9
$LUPREC
 70
     1
  9
$SKETCHINC
 40
1.0
  9
$FILLETRAD
 40
10.0
  9
$AUNITS
 70
     0
  9
$AUPREC
 70
     1
  9
$MENU
  1
.
  9
$ELEVATION
 40
0.0
  9
$PELEVATION
 40
0.0
  9
$THICKNESS
 40
0.0
  9
$LIMCHECK
 70
     0
  9
$CHAMFERA
 40
10.0
  9
$CHAMFERB
 40
10.0
  9
$CHAMFERC
 40
20.0
  9
$CHAMFERD
 40
0.0
  9
$SKPOLY
 70
     0
  9
$TDCREATE
 40
2456156.465687627
  9
$TDUCREATE
 40
2456156.382354294
  9
$TDUPDATE
 40
2456156.465687639
  9
$TDUUPDATE
 40
2456156.382354306
  9
$TDINDWG
 40
0.0000000116
  9
$TDUSRTIMER
 40
0.0000000116
  9
$USRTIMER
 70
     1
  9
$ANGBASE
 50
0.0
  9
$ANGDIR
 70
     0
  9
$PDMODE
 70
     0
  9
$PDSIZE
 40
-1.0
  9
$PLINEWID
 40
0.0
  9
$SPLFRAME
 70
     0
  9
$SPLINETYPE
 70
     6
  9
$SPLINESEGS
 70
     8
  9
$HANDSEED
  5
490
  9
$SURFTAB1
 70
     6
  9
$SURFTAB2
 70
     6
  9
$SURFTYPE
 70
     6
  9
$SURFU
 70
     6
  9
$SURFV
 70
     6
  9
$UCSBASE
  2

  9
$UCSNAME
  2

  9
$UCSORG
 10
0.0
 20
0.0
 30
0.0
  9
$UCSXDIR
 10
1.0
 20
0.0
 30
0.0
  9
$UCSYDIR
 10
0.0
 20
1.0
 30
0.0
  9
$UCSORTHOREF
  2

  9
$UCSORTHOVIEW
 70
     0
  9
$UCSORGTOP
 10
0.0
 20
0.0
 30
0.0
  9
$UCSORGBOTTOM
 10
0.0
 20
0.0
 30
0.0
  9
$UCSORGLEFT
 10
0.0
 20
0.0
 30
0.0
  9
$UCSORGRIGHT
 10
0.0
 20
0.0
 30
0.0
  9
$UCSORGFRONT
 10
0.0
 20
0.0
 30
0.0
  9
$UCSORGBACK
 10
0.0
 20
0.0
 30
0.0
  9
$PUCSBASE
  2

  9
$PUCSNAME
  2

  9
$PUCSORG
 10
0.0
 20
0.0
 30
0.0
  9
$PUCSXDIR
 10
1.0
 20
0.0
 30
0.0
  9
$PUCSYDIR
 10
0.0
 20
1.0
 30
0.0
  9
$PUCSORTHOREF
  2

  9
$PUCSORTHOVIEW
 70
     0
  9
$PUCSORGTOP
 10
0.0
 20
0.0
 30
0.0
  9
$PUCSORGBOTTOM
 10
0.0
 20
0.0
 30
0.0
  9
$PUCSORGLEFT
 10
0.0
 20
0.0
 30
0.0
  9
$PUCSORGRIGHT
 10
0.0
 20
0.0
 30
0.0
  9
$PUCSORGFRONT
 10
0.0
 20
0.0
 30
0.0
  9
$PUCSORGBACK
 10
0.0
 20
0.0
 30
0.0
  9
$USERI1
 70
     0
  9
$USERI2
 70
     0
  9
$USERI3
 70
     0
  9
$USERI4
 70
     0
  9
$USERI5
 70
     0
  9
$USERR1
 40
0.0
  9
$USERR2
 40
0.0
  9
$USERR3
 40
0.0
  9
$USERR4
 40
0.0
  9
$USERR5
 40
0.0
  9
$WORLDVIEW
 70
     1
  9
$SHADEDGE
 70
     3
  9
$SHADEDIF
 70
    70
  9
$TILEMODE
 70
     1
  9
$MAXACTVP
 70
    64
  9
$PINSBASE
 10
0.0
 20
0.0
 30
0.0
  9
$PLIMCHECK
 70
     0
  9
$PEXTMIN
 10
1.0000000000E+20
 20
1.0000000000E+20
 30
1.0000000000E+20
  9
$PEXTMAX
 10
-1.0000000000E+20
 20
-1.0000000000E+20
 30
-1.0000000000E+20
  9
$PLIMMIN
 10
0.0
 20
0.0
  9
$PLIMMAX
 10
420.0
 20
297.0
  9
$UNITMODE
 70
     0
  9
$VISRETAIN
 70
     1
  9
$PLINEGEN
 70
     0
  9
$PSLTSCALE
 70
     1
  9
$TREEDEPTH
 70
  3020
  9
$CMLSTYLE
  2
Standard
  9
$CMLJUST
 70
     0
  9
$CMLSCALE
 40
20.0
  9
$PROXYGRAPHICS
 70
     1
  9
$MEASUREMENT
 70
     1
  9
$CELWEIGHT
370
    -1
  9
$ENDCAPS
280
     0
  9
$JOINSTYLE
280
     0
  9
$LWDISPLAY
290
     1
  9
$INSUNITS
 70
     4
  9
$HYPERLINKBASE
  1

  9
$STYLESHEET
  1

  9
$XEDIT
290
     1
  9
$CEPSNTYPE
380
     0
  9
$PSTYLEMODE
290
     1
  9
$FINGERPRINTGUID
  2
{FF98E0CB-6A89-4420-9AAA-B7915D79502D}
  9
$VERSIONGUID
  2
{FAEB1C32-E019-11D5-929B-00C0DF256EC4}
  9
$EXTNAMES
290
     1
  9
$PSVPSCALE
 40
0.0
  9
$OLESTARTUP
290
     0
  0
ENDSEC
  0
SECTION
  2
CLASSES
  0
CLASS
  1
ACDBDICTIONARYWDFLT
  2
AcDbDictionaryWithDefault
  3
ObjectDBX Classes
 90
        0
280
     0
281
     0
  0
CLASS
  1
VISUALSTYLE
  2
AcDbVisualStyle
  3
ObjectDBX Classes
 90
     4095
280
     0
281
     0
  0
CLASS
  1
MATERIAL
  2
AcDbMaterial
  3
ObjectDBX Classes
 90
     1153
280
     0
281
     0
  0
CLASS
  1
ACDBPLACEHOLDER
  2
AcDbPlaceHolder
  3
ObjectDBX Classes
 90
        0
280
     0
281
     0
  0
CLASS
  1
LAYOUT
  2
AcDbLayout
  3
ObjectDBX Classes
 90
        0
280
     0
281
     0
  0
ENDSEC
  0
SECTION
  2
TABLES
  0
TABLE
  2
VPORT
  5
8
330
0
100
AcDbSymbolTable
 70
     1
  0
VPORT
  5
29
330
8
100
AcDbSymbolTableRecord
100
AcDbViewportTableRecord
  2
*Active
 70
     0
 10
0.0
 20
0.0
 11
1.0
 21
1.0
 12
297.0
 22
210.0
 13
0.0
 23
0.0
 14
10.0
 24
10.0
 15
10.0
 25
10.0
 16
0.0
 26
0.0
 36
1.0
 17
0.0
 27
0.0
 37
0.0
 40
420.0
 41
1.4142857143
 42
50.0
 43
0.0
 44
0.0
 50
0.0
 51
0.0
 71
     0
 72
  2000
 73
     1
 74
     3
 75
     0
 76
     0
 77
     0
 78
     0
281
     0
 65
     1
110
0.0
120
0.0
130
0.0
111
1.0
121
0.0
131
0.0
112
0.0
122
1.0
132
0.0
 79
     0
146
0.0
  0
ENDTAB
  0
TABLE
  2
LTYPE
  5
5
330
0
100
AcDbSymbolTable
 70
     6
  0
LTYPE
  5
14
330
5
100
AcDbSymbolTableRecord
100
AcDbLinetypeTableRecord
  2
ByBlock
 70
     0
  3

 72
    65
 73
     0
 40
0.0
  0
LTYPE
  5
15
330
5
100
AcDbSymbolTableRecord
100
AcDbLinetypeTableRecord
  2
ByLayer
 70
     0
  3

 72
    65
 73
     0
 40
0.0
  0
LTYPE
  5
16
330
5
100
AcDbSymbolTableRecord
100
AcDbLinetypeTableRecord
  2
Continuous
 70
     0
  3
Solid line
 72
    65
 73
     0
 40
0.0
  0
LTYPE
  5
3F
330
5
100
AcDbSymbolTableRecord
100
AcDbLinetypeTableRecord
  2
HIDDEN
 70
     0
  3
Hidden __ __ __ __ __ __ __ __ __ __ __ __ __ __
 72
    65
 73
     2
 40
1.905
 49
1.27
 74
     0
 49
-0.635
 74
     0
  0
LTYPE
  5
40
330
5
100
AcDbSymbolTableRecord
100
AcDbLinetypeTableRecord
  2
PHANTOM
 70
     0
  3
Phantom ______  __  __  ______  __  __  ______
 72
    65
 73
     6
 40
12.7
 49
6.35
 74
     0
 49
-1.27
 74
     0
 49
1.27
 74
     0
 49
-1.27
 74
     0
 49
1.27
 74
     0
 49
-1.27
 74
     0
  0
LTYPE
  5
41
330
5
100
AcDbSymbolTableRecord
100
AcDbLinetypeTableRecord
  2
CENTER
 70
     0
  3
Center ____ _ ____ _ ____ _ ____ _ ____ _ ____
 72
    65
 73
     4
 40
10.16
 49
6.35
 74
     0
 49
-1.27
 74
     0
 49
1.27
 74
     0
 49
-1.27
 74
     0
  0
LTYPE
  5
42
330
5
100
AcDbSymbolTableRecord
100
AcDbLinetypeTableRecord
  2
CENTERX2
 70
     0
  3
Center (2x) ________  __  ________  __  _____
 72
    65
 73
     4
 40
20.32
 49
12.7
 74
     0
 49
-2.54
 74
     0
 49
2.54
 74
     0
 49
-2.54
 74
     0
  0
LTYPE
  5
43
330
5
100
AcDbSymbolTableRecord
100
AcDbLinetypeTableRecord
  2
DOT2
 70
     0
  3
Dot (.5x) ........................................
 72
    65
 73
     2
 40
0.635
 49
0.0
 74
     0
 49
-0.635
 74
     0
  0
ENDTAB
  0
TABLE
  2
LAYER
  5
2
330
0
100
AcDbSymbolTable
 70
     5
  0
LAYER
  5
10
330
2
100
AcDbSymbolTableRecord
100
AcDbLayerTableRecord
  2
0
 70
     0
 62
     7
  6
Continuous
370
    -3
390
F
  0
LAYER
  5
44
330
2
100
AcDbSymbolTableRecord
100
AcDbLayerTableRecord
  2
VORLAGE
 70
     0
 62
    -1
  6
Continuous
370
    -3
390
F
  0
LAYER
  5
45
330
2
100
AcDbSymbolTableRecord
100
AcDbLayerTableRecord
  2
RAHMEN
 70
     0
 62
   179
  6
Continuous
370
    -3
390
F
  0
LAYER
  5
46
330
2
100
AcDbSymbolTableRecord
100
AcDbLayerTableRecord
  2
KOPF
 70
     0
 62
     7
  6
Continuous
370
    -3
390
F
  0
LAYER
  5
47
330
2
100
AcDbSymbolTableRecord
100
AcDbLayerTableRecord
  2
TEMP
 70
     0
 62
    -7
  6
Continuous
370
    -3
390
F
  0
ENDTAB
  0
TABLE
  2
STYLE
  5
3
330
0
100
AcDbSymbolTable
 70
     2
  0
STYLE
  5
11
330
3
100
AcDbSymbolTableRecord
100
AcDbTextStyleTableRecord
  2
Standard
 70
     0
 40
0.0
 41
1.0
 50
0.0
 71
     0
 42
2.5
  3
txt
  4

  0
STYLE
  5
C2
330
3
100
AcDbSymbolTableRecord
100
AcDbTextStyleTableRecord
  2
SLDTEXTSTYLE0
 70
     0
 40
0.0
 41
0.605
 50
0.0
 71
     0
 42
0.2
  3
TXT
  4

  0
ENDTAB
  0
TABLE
  2
VIEW
  5
6
330
0
100
AcDbSymbolTable
 70
     0
  0
ENDTAB
  0
TABLE
  2
UCS
  5
7
330
0
100
AcDbSymbolTable
 70
     0
  0
ENDTAB
  0
TABLE
  2
APPID
  5
9
330
0
100
AcDbSymbolTable
 70
     1
  0
APPID
  5
12
330
9
100
AcDbSymbolTableRecord
100
AcDbRegAppTableRecord
  2
ACAD
 70
     0
  0
ENDTAB
  0
TABLE
  2
DIMSTYLE
  5
A
330
0
100
AcDbSymbolTable
 70
     2
100
AcDbDimStyleTable
  0
DIMSTYLE
105
27
330
A
100
AcDbSymbolTableRecord
100
AcDbDimStyleTableRecord
  2
ISO-25
 70
     0
 41
2.5
 42
0.625
 43
3.75
 44
1.25
 73
     0
 74
     0
 77
     1
 78
     8
140
2.5
141
2.5
143
0.0393700787
147
0.625
171
     3
172
     1
178
     0
271
     2
272
     2
274
     3
278
    44
283
     0
284
     8
340
11
  0
DIMSTYLE
105
C3
102
{ACAD_REACTORS
330
C1
330
250
330
25C
102
}
330
A
100
AcDbSymbolTableRecord
100
AcDbDimStyleTableRecord
  2
SLDDIMSTYLE0
 70
     0
 41
3.5
 44
0.0
 45
0.000000001
 73
     0
 74
     0
 77
     1
 78
    12
 79
     3
140
3.5
147
0.875
173
     1
178
     0
271
     1
272
     1
276
     2
284
    12
340
C2
  0
ENDTAB
  0
TABLE
  2
BLOCK_RECORD
  5
1
330
0
100
AcDbSymbolTable
 70
     5
  0
BLOCK_RECORD
  5
1F
330
1
100
AcDbSymbolTableRecord
100
AcDbBlockTableRecord
  2
*Model_Space
340
22
  0
BLOCK_RECORD
  5
1B
330
1
100
AcDbSymbolTableRecord
100
AcDbBlockTableRecord
  2
*Paper_Space
340
1E
  0
BLOCK_RECORD
  5
23
330
1
100
AcDbSymbolTableRecord
100
AcDbBlockTableRecord
  2
*Paper_Space0
340
26
  0
BLOCK_RECORD
  5
C4
330
1
100
AcDbSymbolTableRecord
100
AcDbBlockTableRecord
  2
*D1
340
0
  0
BLOCK_RECORD
  5
251
330
1
100
AcDbSymbolTableRecord
100
AcDbBlockTableRecord
  2
*D2
340
0
  0
BLOCK_RECORD
  5
25D
330
1
100
AcDbSymbolTableRecord
100
AcDbBlockTableRecord
  2
*D3
340
0
  0
BLOCK_RECORD
  5
268
330
1
100
AcDbSymbolTableRecord
100
AcDbBlockTableRecord
  2
SW_CENTERMARKSYMBOL_0
340
0
102
{BLKREFS
331
273
102
}
  0
ENDTAB
  0
ENDSEC
  0
SECTION
  2
BLOCKS
  0
BLOCK
  5
20
330
1F
100
AcDbEntity
  8
0
100
AcDbBlockBegin
  2
*Model_Space
 70
     0
 10
0.0
 20
0.0
 30
0.0
  3
*Model_Space
  1

  0
ENDBLK
  5
21
330
1F
100
AcDbEntity
  8
0
100
AcDbBlockEnd
  0
BLOCK
  5
1C
330
1B
100
AcDbEntity
 67
     1
  8
0
100
AcDbBlockBegin
  2
*Paper_Space
 70
     0
 10
0.0
 20
0.0
 30
0.0
  3
*Paper_Space
  1

  0
ENDBLK
  5
1D
330
1B
100
AcDbEntity
 67
     1
  8
0
100
AcDbBlockEnd
  0
BLOCK
  5
24
330
23
100
AcDbEntity
  8
0
100
AcDbBlockBegin
  2
*Paper_Space0
 70
     0
 10
0.0
 20
0.0
 30
0.0
  3
*Paper_Space0
  1

  0
ENDBLK
  5
25
330
23
100
AcDbEntity
  8
0
100
AcDbBlockEnd
  0
BLOCK
  5
C5
330
C4
100
AcDbEntity
  8
0
100
AcDbBlockBegin
  2
*D1
 70
     1
 10
0.0
 20
0.0
 30
0.0
  3
*D1
  1

  0
ARC
  5
C7
330
C4
100
AcDbEntity
  8
0
  6
Continuous
 62
     7
370
     0
100
AcDbCircle
 10
233.8168243298
 20
199.4887239651
 30
0.0
 40
6.001637139961186
100
AcDbArc
 50
243.4349488229
 51
296.5650511771
  0
ARC
  5
C8
330
C4
100
AcDbEntity
  8
0
  6
Continuous
 62
     7
370
     0
100
AcDbCircle
 10
233.8168243298
 20
197.2743609544
 30
0.0
 40
6.001637139961186
100
AcDbArc
 50
63.4349488229
 51
116.5650511771
  0
SOLID
  5
C9
330
C4
100
AcDbEntity
  8
0
  6
Continuous
 62
     7
370
     0
100
AcDbTrace
 10
236.5008380541
 20
239.4998569143
 30
0.0
 11
235.6008380541
 21
235.9998569143
 31
0.0
 12
237.4008380541
 22
235.9998569143
 32
0.0
 13
237.4008380541
 23
235.9998569143
 33
0.0
  0
SOLID
  5
CA
330
C4
100
AcDbEntity
  8
0
  6
Continuous
 62
     7
370
     0
100
AcDbTrace
 10
236.5008380541
 20
164.4998569143
 30
0.0
 11
237.4008380541
 21
167.9998569143
 31
0.0
 12
235.6008380541
 22
167.9998569143
 32
0.0
 13
235.6008380541
 23
167.9998569143
 33
0.0
  0
LINE
  5
CB
330
C4
100
AcDbEntity
  8
0
  6
Continuous
 62
     7
370
     0
100
AcDbLine
 10
227.1575517709
 20
239.4998569143
 30
0.0
 11
237.5008380541
 21
239.4998569143
 31
0.0
  0
LINE
  5
CC
330
C4
100
AcDbEntity
  8
0
  6
Continuous
 62
     7
370
     0
100
AcDbLine
 10
222.6575517709
 20
164.4998569143
 30
0.0
 11
237.5008380541
 21
164.4998569143
 31
0.0
  0
LINE
  5
CD
330
C4
100
AcDbEntity
  8
0
  6
Continuous
 62
     7
370
     0
100
AcDbLine
 10
236.5008380541
 20
239.4998569143
 30
0.0
 11
236.5008380541
 21
164.4998569143
 31
0.0
  0
MTEXT
  5
CE
330
C4
100
AcDbEntity
  8
0
  6
Continuous
 62
     7
370
     0
100
AcDbMText
 10
231.989100732
 20
195.7081965166
 30
0.0
 40
3.5
 41
0.0
 71
     1
 72
     1
  1
75
  7
SLDTEXTSTYLE0
 11
-7.932373437343760E-15
 21
1.0
 31
0.0
 73
     1
 44
1.0
  0
ENDBLK
  5
C6
330
C4
100
AcDbEntity
  8
0
100
AcDbBlockEnd
  0
BLOCK
  5
252
330
251
100
AcDbEntity
  8
0
100
AcDbBlockBegin
  2
*D2
 70
     1
 10
0.0
 20
0.0
 30
0.0
  3
*D2
  1

  0
ARC
  5
254
330
251
100
AcDbEntity
  8
0
  6
Continuous
 62
     7
370
     0
100
AcDbCircle
 10
234.3776648442
 20
332.4958545268
 30
0.0
 40
6.001637139961249
100
AcDbArc
 50
243.4349488229
 51
296.5650511771
  0
ARC
  5
255
330
251
100
AcDbEntity
  8
0
  6
Continuous
 62
     7
370
     0
100
AcDbCircle
 10
234.3776648442
 20
336.9637895959
 30
0.0
 40
6.001637139961237
100
AcDbArc
 50
63.4349488229
 51
116.5650511771
  0
SOLID
  5
256
330
251
100
AcDbEntity
  8
0
  6
Continuous
 62
     7
370
     0
100
AcDbTrace
 10
237.0616785685
 20
398.2733372457
 30
0.0
 11
236.1616785685
 21
394.7733372457
 31
0.0
 12
237.9616785685
 22
394.7733372457
 32
0.0
 13
237.9616785685
 23
394.7733372457
 33
0.0
  0
SOLID
  5
257
330
251
100
AcDbEntity
  8
0
  6
Continuous
 62
     7
370
     0
100
AcDbTrace
 10
237.0616785685
 20
263.7733372457
 30
0.0
 11
237.9616785685
 21
267.2733372457
 31
0.0
 12
236.1616785685
 22
267.2733372457
 32
0.0
 13
236.1616785685
 23
267.2733372457
 33
0.0
  0
LINE
  5
258
330
251
100
AcDbEntity
  8
0
  6
Continuous
 62
     7
370
     0
100
AcDbLine
 10
219.6575517709
 20
398.2733372457
 30
0.0
 11
238.0616785685
 21
398.2733372457
 31
0.0
  0
LINE
  5
259
330
251
100
AcDbEntity
  8
0
  6
Continuous
 62
     7
370
     0
100
AcDbLine
 10
174.3575517709
 20
263.7733372457
 30
0.0
 11
238.0616785685
 21
263.7733372457
 31
0.0
  0
LINE
  5
25A
330
251
100
AcDbEntity
  8
0
  6
Continuous
 62
     7
370
     0
100
AcDbLine
 10
237.0616785685
 20
398.2733372457
 30
0.0
 11
237.0616785685
 21
263.7733372457
 31
0.0
  0
MTEXT
  5
25B
330
251
100
AcDbEntity
  8
0
  6
Continuous
 62
     7
370
     0
100
AcDbMText
 10
232.5499412464
 20
328.7153270783
 30
0.0
 40
3.5
 41
0.0
 71
     1
 72
     1
  1
134.5
  7
SLDTEXTSTYLE0
 11
-7.044195017643634E-15
 21
1.0
 31
0.0
 73
     1
 44
1.0
  0
ENDBLK
  5
253
330
251
100
AcDbEntity
  8
0
100
AcDbBlockEnd
  0
BLOCK
  5
25E
330
25D
100
AcDbEntity
  8
0
100
AcDbBlockBegin
  2
*D3
 70
     1
 10
0.0
 20
0.0
 30
0.0
  3
*D3
  1

  0
ARC
  5
260
330
25D
100
AcDbEntity
  8
0
  6
Continuous
 62
     7
370
     0
100
AcDbCircle
 10
147.7655951684
 20
409.0158920007
 30
0.0
 40
6.001637139961274
100
AcDbArc
 50
153.4349488229
 51
206.5650511771
  0
ARC
  5
261
330
25D
100
AcDbEntity
  8
0
  6
Continuous
 62
     7
370
     0
100
AcDbCircle
 10
148.2224445446
 20
409.0158920007
 30
0.0
 40
6.001637139961249
100
AcDbArc
 50
333.4349488229
 51
26.5650511771
  0
SOLID
  5
262
330
25D
100
AcDbEntity
  8
0
  6
Continuous
 62
     7
370
     0
100
AcDbTrace
 10
68.6575517709
 20
406.3318782764
 30
0.0
 11
72.1575517709
 21
405.4318782764
 31
0.0
 12
72.1575517709
 22
407.2318782764
 32
0.0
 13
72.1575517709
 23
407.2318782764
 33
0.0
  0
SOLID
  5
263
330
25D
100
AcDbEntity
  8
0
  6
Continuous
 62
     7
370
     0
100
AcDbTrace
 10
226.6575517709
 20
406.3318782764
 30
0.0
 11
223.1575517709
 21
407.2318782764
 31
0.0
 12
223.1575517709
 22
405.4318782764
 32
0.0
 13
223.1575517709
 23
405.4318782764
 33
0.0
  0
LINE
  5
264
330
25D
100
AcDbEntity
  8
0
  6
Continuous
 62
     7
370
     0
100
AcDbLine
 10
68.6575517709
 20
391.2733372457
 30
0.0
 11
68.6575517709
 21
407.3318782764
 31
0.0
  0
LINE
  5
265
330
25D
100
AcDbEntity
  8
0
  6
Continuous
 62
     7
370
     0
100
AcDbLine
 10
226.6575517709
 20
391.2733372457
 30
0.0
 11
226.6575517709
 21
407.3318782764
 31
0.0
  0
LINE
  5
266
330
25D
100
AcDbEntity
  8
0
  6
Continuous
 62
     7
370
     0
100
AcDbLine
 10
68.6575517709
 20
406.3318782764
 30
0.0
 11
226.6575517709
 21
406.3318782764
 31
0.0
  0
MTEXT
  5
267
330
25D
100
AcDbEntity
  8
0
  6
Continuous
 62
     7
370
     0
100
AcDbMText
 10
143.9850677199
 20
410.8436155984
 30
0.0
 40
3.5
 41
0.0
 71
     1
 72
     1
  1
158
  7
SLDTEXTSTYLE0
 73
     1
 44
1.0
  0
ENDBLK
  5
25F
330
25D
100
AcDbEntity
  8
0
100
AcDbBlockEnd
  0
BLOCK
  5
269
330
268
100
AcDbEntity
  8
0
100
AcDbBlockBegin
  2
SW_CENTERMARKSYMBOL_0
 70
     0
 10
0.0
 20
0.0
 30
0.0
  3
SW_CENTERMARKSYMBOL_0
  1

  0
LINE
  5
26B
330
268
100
AcDbEntity
  8
0
  6
Continuous
 62
     0
370
     0
100
AcDbLine
 10
0.0
 20
0.0
 30
0.0
 11
0.0
 21
2.5
 31
0.0
  0
LINE
  5
26C
330
268
100
AcDbEntity
  8
0
  6
Continuous
 62
     0
370
     0
100
AcDbLine
 10
0.0
 20
0.0
 30
0.0
 11
-2.5
 21
0.0
 31
0.0
  0
LINE
  5
26D
330
268
100
AcDbEntity
  8
0
  6
Continuous
 62
     0
370
     0
100
AcDbLine
 10
0.0
 20
0.0
 30
0.0
 11
0.0
 21
-2.5
 31
0.0
  0
LINE
  5
26E
330
268
100
AcDbEntity
  8
0
  6
Continuous
 62
     0
370
     0
100
AcDbLine
 10
0.0
 20
0.0
 30
0.0
 11
2.5
 21
0.0
 31
0.0
  0
LINE
  5
26F
330
268
100
AcDbEntity
  8
0
  6
Continuous
 62
     0
370
     0
100
AcDbLine
 10
0.0
 20
5.0
 30
0.0
 11
0.0
 21
129.8205121976
 31
0.0
  0
LINE
  5
270
330
268
100
AcDbEntity
  8
0
  6
Continuous
 62
     0
370
     0
100
AcDbLine
 10
-5.0
 20
0.0
 30
0.0
 11
-6.0
 21
0.0
 31
0.0
  0
LINE
  5
271
330
268
100
AcDbEntity
  8
0
  6
Continuous
 62
     0
370
     0
100
AcDbLine
 10
0.0
 20
-5.0
 30
0.0
 11
0.0
 21
-9.3558376851
 31
0.0
  0
LINE
  5
272
330
268
100
AcDbEntity
  8
0
  6
Continuous
 62
     0
370
     0
100
AcDbLine
 10
5.0
 20
0.0
 30
0.0
 11
6.0
 21
0.0
 31
0.0
  0
ENDBLK
  5
26A
330
268
100
AcDbEntity
  8
0
100
AcDbBlockEnd
  0
ENDSEC
  0
SECTION
  2
ENTITIES
  0
LINE
  5
48
330
1F
100
AcDbEntity
  8
0
  6
Continuous
 62
     7
370
    30
100
AcDbLine
 10
88.6575514133
 20
164.4998558414
 30
0.0
 11
82.6575541551
 21
164.4998558414
 31
0.0
  0
LINE
  5
49
330
1F
100
AcDbEntity
  8
0
  6
Continuous
 62
     7
370
    30
100
AcDbLine
 10
82.6575541551
 20
164.4998558414
 30
0.0
 11
82.6575541551
 21
168.4998564971
 31
0.0
  0
LINE
  5
4A
330
1F
100
AcDbEntity
  8
0
  6
Continuous
 62
     7
370
    30
100
AcDbLine
 10
88.6575514133
 20
168.4998564971
 30
0.0
 11
88.6575514133
 21
164.4998558414
 31
0.0
  0
LINE
  5
4B
330
1F
100
AcDbEntity
  8
0
  6
Continuous
 62
     7
370
    30
100
AcDbLine
 10
212.6575493867
 20
164.4998558414
 30
0.0
 11
206.6575521286
 21
164.4998558414
 31
0.0
  0
LINE
  5
4C
330
1F
100
AcDbEntity
  8
0
  6
Continuous
 62
     7
370
    30
100
AcDbLine
 10
206.6575521286
 20
164.4998558414
 30
0.0
 11
206.6575521286
 21
168.4998564971
 31
0.0
  0
LINE
  5
4D
330
1F
100
AcDbEntity
  8
0
  6
Continuous
 62
     7
370
    30
100
AcDbLine
 10
212.6575493867
 20
168.4998564971
 30
0.0
 11
212.6575493867
 21
164.4998558414
 31
0.0
  0
LINE
  5
4E
330
1F
100
AcDbEntity
  8
0
  6
Continuous
 62
     7
370
    30
100
AcDbLine
 10
206.6575521286
 20
186.4998575849
 30
0.0
 11
88.6575514133
 21
186.4998575849
 31
0.0
  0
LINE
  5
4F
330
1F
100
AcDbEntity
  8
0
  6
Continuous
 62
     7
370
    30
100
AcDbLine
 10
206.6575521286
 20
168.4998564971
 30
0.0
 11
206.6575521286
 21
178.4998581362
 31
0.0
  0
ARC
  5
50
330
1F
100
AcDbEntity
  8
0
  6
Continuous
 62
     7
370
    30
100
AcDbCircle
 10
204.6575517709
 20
178.4998569143
 30
0.0
 40
2.000000000000028
100
AcDbArc
 50
0.0
 51
90.0
  0
ARC
  5
51
330
1F
100
AcDbEntity
  8
0
  6
Continuous
 62
     7
370
    30
100
AcDbCircle
 10
88.6575517709
 20
180.4998569143
 30
0.0
 40
6.0
100
AcDbArc
 50
90.0
 51
180.0
  0
LINE
  5
52
330
1F
100
AcDbEntity
  8
0
  6
Continuous
 62
     7
370
    30
100
AcDbLine
 10
212.6575493867
 20
168.4998564971
 30
0.0
 11
212.6575493867
 21
180.499858464
 31
0.0
  0
ARC
  5
53
330
1F
100
AcDbEntity
  8
0
  6
Continuous
 62
     7
370
    30
100
AcDbCircle
 10
90.6575517709
 20
178.4998569143
 30
0.0
 40
2.0
100
AcDbArc
 50
90.0
 51
180.0
  0
LINE
  5
54
330
1F
100
AcDbEntity
  8
0
  6
Continuous
 62
     7
370
    30
100
AcDbLine
 10
88.6575514133
 20
178.4998581362
 30
0.0
 11
88.6575514133
 21
168.4998564971
 31
0.0
  0
LINE
  5
55
330
1F
100
AcDbEntity
  8
0
  6
Continuous
 62
     7
370
    30
100
AcDbLine
 10
82.6575541551
 20
180.499858464
 30
0.0
 11
82.6575541551
 21
168.4998564971
 31
0.0
  0
ARC
  5
56
330
1F
100
AcDbEntity
  8
0
  6
Continuous
 62
     7
370
    30
100
AcDbCircle
 10
206.6575517709
 20
180.4998569143
 30
0.0
 40
6.000000000000028
100
AcDbArc
 50
0.0
 51
90.0
  0
LINE
  5
57
330
1F
100
AcDbEntity
  8
0
  6
Continuous
 62
     7
370
    30
100
AcDbLine
 10
204.6575518007
 20
180.499858464
 30
0.0
 11
90.6575517411
 21
180.499858464
 31
0.0
  0
LINE
  5
58
330
1F
100
AcDbEntity
  8
0
  6
Continuous
 62
     7
370
    30
100
AcDbLine
 10
88.6575514133
 20
166.4998561693
 30
0.0
 11
90.6575517411
 21
166.4998561693
 31
0.0
  0
LINE
  5
59
330
1F
100
AcDbEntity
  8
0
  6
Continuous
 62
     7
370
    30
100
AcDbLine
 10
90.6575517411
 20
164.4998558414
 30
0.0
 11
88.6575514133
 21
164.4998558414
 31
0.0
  0
LINE
  5
5A
330
1F
100
AcDbEntity
  8
0
  6
Continuous
 62
     7
370
    30
100
AcDbLine
 10
204.6575518007
 20
166.4998561693
 30
0.0
 11
206.6575521286
 21
166.4998561693
 31
0.0
  0
LINE
  5
5B
330
1F
100
AcDbEntity
  8
0
  6
Continuous
 62
     7
370
    30
100
AcDbLine
 10
206.6575521286
 20
164.4998558414
 30
0.0
 11
204.6575518007
 21
164.4998558414
 31
0.0
  0
LINE
  5
5C
330
1F
100
AcDbEntity
  8
0
  6
Continuous
 62
     7
370
    30
100
AcDbLine
 10
212.6575493867
 20
166.4998561693
 30
0.0
 11
214.6575534399
 21
166.4998561693
 31
0.0
  0
LINE
  5
5D
330
1F
100
AcDbEntity
  8
0
  6
Continuous
 62
     7
370
    30
100
AcDbLine
 10
214.6575534399
 20
164.4998558414
 30
0.0
 11
212.6575493867
 21
164.4998558414
 31
0.0
  0
LINE
  5
5E
330
1F
100
AcDbEntity
  8
0
  6
Continuous
 62
     7
370
    30
100
AcDbLine
 10
80.657550102
 20
166.4998561693
 30
0.0
 11
82.6575541551
 21
166.4998561693
 31
0.0
  0
LINE
  5
5F
330
1F
100
AcDbEntity
  8
0
  6
Continuous
 62
     7
370
    30
100
AcDbLine
 10
82.6575541551
 20
164.4998558414
 30
0.0
 11
80.657550102
 21
164.4998558414
 31
0.0
  0
ARC
  5
60
330
1F
100
AcDbEntity
  8
0
  6
Continuous
 62
     7
370
    30
100
AcDbCircle
 10
73.6575517709
 20
168.4998569143
 30
0.0
 40
4.000000000000028
100
AcDbArc
 50
180.0
 51
270.0
  0
ARC
  5
61
330
1F
100
AcDbEntity
  8
0
  6
Continuous
 62
     7
370
    30
100
AcDbCircle
 10
73.6575517709
 20
168.4998569143
 30
0.0
 40
2.0
100
AcDbArc
 50
180.0
 51
270.0
  0
LINE
  5
62
330
1F
100
AcDbEntity
  8
0
  6
Continuous
 62
     7
370
    30
100
AcDbLine
 10
80.657550102
 20
166.4998561693
 30
0.0
 11
73.6575508173
 21
166.4998561693
 31
0.0
  0
LINE
  5
63
330
1F
100
AcDbEntity
  8
0
  6
Continuous
 62
     7
370
    30
100
AcDbLine
 10
73.6575508173
 20
164.4998558414
 30
0.0
 11
80.657550102
 21
164.4998558414
 31
0.0
  0
LINE
  5
64
330
1F
100
AcDbEntity
  8
0
  6
Continuous
 62
     7
370
    30
100
AcDbLine
 10
90.6575517411
 20
166.4998561693
 30
0.0
 11
204.6575518007
 21
166.4998561693
 31
0.0
  0
LINE
  5
65
330
1F
100
AcDbEntity
  8
0
  6
Continuous
 62
     7
370
    30
100
AcDbLine
 10
90.6575517411
 20
164.4998558414
 30
0.0
 11
204.6575518007
 21
164.4998558414
 31
0.0
  0
LINE
  5
66
330
1F
100
AcDbEntity
  8
0
  6
Continuous
 62
     7
370
    30
100
AcDbLine
 10
69.6575501616
 20
213.4998568882
 30
0.0
 11
69.6575501616
 21
168.4998564971
 31
0.0
  0
LINE
  5
67
330
1F
100
AcDbEntity
  8
0
  6
Continuous
 62
     7
370
    30
100
AcDbLine
 10
71.6575542147
 20
213.4998568882
 30
0.0
 11
71.6575542147
 21
168.4998564971
 31
0.0
  0
LINE
  5
68
330
1F
100
AcDbEntity
  8
0
  6
Continuous
 62
     7
370
    30
100
AcDbLine
 10
223.6575493271
 20
215.4998568668
 30
0.0
 11
225.6575533803
 21
215.4998568668
 31
0.0
  0
LINE
  5
69
330
1F
100
AcDbEntity
  8
0
  6
Continuous
 62
     7
370
    30
100
AcDbLine
 10
223.6575493271
 20
213.4998568882
 30
0.0
 11
223.6575493271
 21
215.4998568668
 31
0.0
  0
LINE
  5
6A
330
1F
100
AcDbEntity
  8
0
  6
Continuous
 62
     7
370
    30
100
AcDbLine
 10
225.6575533803
 20
215.4998568668
 30
0.0
 11
225.6575533803
 21
213.4998568882
 31
0.0
  0
LINE
  5
6B
330
1F
100
AcDbEntity
  8
0
  6
Continuous
 62
     7
370
    30
100
AcDbLine
 10
223.6575493271
 20
213.4998568882
 30
0.0
 11
223.6575493271
 21
168.4998564971
 31
0.0
  0
LINE
  5
6C
330
1F
100
AcDbEntity
  8
0
  6
Continuous
 62
     7
370
    30
100
AcDbLine
 10
225.6575533803
 20
168.4998564971
 30
0.0
 11
225.6575533803
 21
213.4998568882
 31
0.0
  0
LINE
  5
6D
330
1F
100
AcDbEntity
  8
0
  6
Continuous
 62
     7
370
    30
100
AcDbLine
 10
69.6575501616
 20
215.4998568668
 30
0.0
 11
71.6575542147
 21
215.4998568668
 31
0.0
  0
LINE
  5
6E
330
1F
100
AcDbEntity
  8
0
  6
Continuous
 62
     7
370
    30
100
AcDbLine
 10
69.6575501616
 20
213.4998568882
 30
0.0
 11
69.6575501616
 21
215.4998568668
 31
0.0
  0
LINE
  5
6F
330
1F
100
AcDbEntity
  8
0
  6
Continuous
 62
     7
370
    30
100
AcDbLine
 10
71.6575542147
 20
215.4998568668
 30
0.0
 11
71.6575542147
 21
213.4998568882
 31
0.0
  0
LINE
  5
70
330
1F
100
AcDbEntity
  8
0
  6
Continuous
 62
     7
370
    30
100
AcDbLine
 10
221.6575527246
 20
166.4998561693
 30
0.0
 11
214.6575534399
 21
166.4998561693
 31
0.0
  0
LINE
  5
71
330
1F
100
AcDbEntity
  8
0
  6
Continuous
 62
     7
370
    30
100
AcDbLine
 10
214.6575534399
 20
164.4998558414
 30
0.0
 11
221.6575527246
 21
164.4998558414
 31
0.0
  0
ARC
  5
72
330
1F
100
AcDbEntity
  8
0
  6
Continuous
 62
     7
370
    30
100
AcDbCircle
 10
221.6575517709
 20
168.4998569143
 30
0.0
 40
4.000000000000028
100
AcDbArc
 50
270.0
 51
0.0
  0
ARC
  5
73
330
1F
100
AcDbEntity
  8
0
  6
Continuous
 62
     7
370
    30
100
AcDbCircle
 10
221.6575517709
 20
168.4998569143
 30
0.0
 40
2.0
100
AcDbArc
 50
270.0
 51
0.0
  0
LINE
  5
74
330
1F
100
AcDbEntity
  8
0
  6
Continuous
 62
     7
370
    30
100
AcDbLine
 10
223.6575493271
 20
215.4998568668
 30
0.0
 11
223.6575493271
 21
217.4998569618
 31
0.0
  0
LINE
  5
75
330
1F
100
AcDbEntity
  8
0
  6
Continuous
 62
     7
370
    30
100
AcDbLine
 10
225.6575533803
 20
217.4998569618
 30
0.0
 11
225.6575533803
 21
215.4998568668
 31
0.0
  0
LINE
  5
76
330
1F
100
AcDbEntity
  8
0
  6
Continuous
 62
     7
370
    30
100
AcDbLine
 10
69.6575501616
 20
215.4998568668
 30
0.0
 11
69.6575501616
 21
217.4998569618
 31
0.0
  0
LINE
  5
77
330
1F
100
AcDbEntity
  8
0
  6
Continuous
 62
     7
370
    30
100
AcDbLine
 10
71.6575542147
 20
217.4998569618
 30
0.0
 11
71.6575542147
 21
215.4998568668
 31
0.0
  0
LINE
  5
78
330
1F
100
AcDbEntity
  8
0
  6
Continuous
 62
     7
370
    30
100
AcDbLine
 10
76.6575494464
 20
217.4998569618
 30
0.0
 11
69.1575491483
 21
217.4998569618
 31
0.0
  0
ARC
  5
79
330
1F
100
AcDbEntity
  8
0
  6
Continuous
 62
     7
370
    30
100
AcDbCircle
 10
69.1575517709
 20
217.9998569143
 30
0.0
 40
0.5000000000000284
100
AcDbArc
 50
180.0
 51
270.0
  0
LINE
  5
7A
330
1F
100
AcDbEntity
  8
0
  6
Continuous
 62
     7
370
    30
100
AcDbLine
 10
68.657548135
 20
238.9998578084
 30
0.0
 11
68.657548135
 21
217.9998569274
 31
0.0
  0
LINE
  5
7B
330
1F
100
AcDbEntity
  8
0
  6
Continuous
 62
     7
370
    30
100
AcDbLine
 10
218.6575540955
 20
217.4998569618
 30
0.0
 11
76.6575494464
 21
217.4998569618
 31
0.0
  0
LINE
  5
7C
330
1F
100
AcDbEntity
  8
0
  6
Continuous
 62
     7
370
    30
100
AcDbLine
 10
76.6575494464
 20
239.499856959
 30
0.0
 11
218.6575540955
 21
239.499856959
 31
0.0
  0
LINE
  5
7D
330
1F
100
AcDbEntity
  8
0
  6
Continuous
 62
     7
370
    30
100
AcDbLine
 10
226.6575554068
 20
238.9998578084
 30
0.0
 11
226.6575554068
 21
217.9998569274
 31
0.0
  0
ARC
  5
7E
330
1F
100
AcDbEntity
  8
0
  6
Continuous
 62
     7
370
    30
100
AcDbCircle
 10
69.1575517709
 20
238.9998569143
 30
0.0
 40
0.5000000000000142
100
AcDbArc
 50
90.0
 51
180.0
  0
LINE
  5
7F
330
1F
100
AcDbEntity
  8
0
  6
Continuous
 62
     7
370
    30
100
AcDbLine
 10
69.1575491483
 20
239.499856959
 30
0.0
 11
76.6575494464
 21
239.499856959
 31
0.0
  0
LINE
  5
80
330
1F
100
AcDbEntity
  8
0
  6
Continuous
 62
     7
370
    30
100
AcDbLine
 10
226.1575543935
 20
217.4998569618
 30
0.0
 11
218.6575540955
 21
217.4998569618
 31
0.0
  0
ARC
  5
81
330
1F
100
AcDbEntity
  8
0
  6
Continuous
 62
     7
370
    30
100
AcDbCircle
 10
226.1575517709
 20
217.9998569143
 30
0.0
 40
0.5
100
AcDbArc
 50
270.0
 51
0.0
  0
LINE
  5
82
330
1F
100
AcDbEntity
  8
0
  6
Continuous
 62
     7
370
    30
100
AcDbLine
 10
218.6575540955
 20
239.499856959
 30
0.0
 11
226.1575543935
 21
239.499856959
 31
0.0
  0
ARC
  5
83
330
1F
100
AcDbEntity
  8
0
  6
Continuous
 62
     7
370
    30
100
AcDbCircle
 10
226.1575517709
 20
238.9998569143
 30
0.0
 40
0.5
100
AcDbArc
 50
0.0
 51
90.0
  0
ELLIPSE
  5
84
330
1F
100
AcDbEntity
  8
0
  6
Continuous
 62
     7
370
    30
100
AcDbEllipse
 10
121.9575517709
 20
216.7493015644
 30
0.0
 11
0.3000000000000114
 21
0.0
 31
0.0
210
0.0
220
0.0
230
1.0
 40
0.5773502692
 41
1.570796326794897
 42
3.141592653589793
  0
LINE
  5
85
330
1F
100
AcDbEntity
  8
0
  6
Continuous
 62
     7
370
    30
100
AcDbLine
 10
121.6575512345
 20
216.7493015669
 30
0.0
 11
121.6575512345
 21
217.1998568894
 31
0.0
  0
ARC
  5
86
330
1F
100
AcDbEntity
  8
0
  6
Continuous
 62
     7
370
    30
100
AcDbCircle
 10
121.9575517709
 20
217.1998569143
 30
0.0
 40
0.2999999999999972
100
AcDbArc
 50
90.0
 51
180.0
  0
ARC
  5
87
330
1F
100
AcDbEntity
  8
0
  6
Continuous
 62
     7
370
    30
100
AcDbCircle
 10
121.9575517709
 20
214.2998569143
 30
0.0
 40
0.2999999999999972
100
AcDbArc
 50
180.0
 51
270.0
  0
LINE
  5
88
330
1F
100
AcDbEntity
  8
0
  6
Continuous
 62
     7
370
    30
100
AcDbLine
 10
121.6575512345
 20
214.2998569262
 30
0.0
 11
121.6575512345
 21
216.7493015669
 31
0.0
  0
LINE
  5
89
330
1F
100
AcDbEntity
  8
0
  6
Continuous
 62
     7
370
    30
100
AcDbLine
 10
173.6575523074
 20
216.7493015669
 30
0.0
 11
173.6575523074
 21
214.2998569262
 31
0.0
  0
ARC
  5
8A
330
1F
100
AcDbEntity
  8
0
  6
Continuous
 62
     7
370
    30
100
AcDbCircle
 10
173.3575517709
 20
214.2998569143
 30
0.0
 40
0.2999999999999829
100
AcDbArc
 50
270.0
 51
0.0
  0
ELLIPSE
  5
8B
330
1F
100
AcDbEntity
  8
0
  6
Continuous
 62
     7
370
    30
100
AcDbEllipse
 10
173.3575517709
 20
216.7493015644
 30
0.0
 11
0.2999999999999829
 21
0.0
 31
0.0
210
0.0
220
0.0
230
1.0
 40
0.5773502692
 41
0.0
 42
1.570796326794897
  0
ARC
  5
8C
330
1F
100
AcDbEntity
  8
0
  6
Continuous
 62
     7
370
    30
100
AcDbCircle
 10
173.3575517709
 20
217.1998569143
 30
0.0
 40
0.2999999999999829
100
AcDbArc
 50
0.0
 51
90.0
  0
LINE
  5
8D
330
1F
100
AcDbEntity
  8
0
  6
Continuous
 62
     7
370
    30
100
AcDbLine
 10
173.6575523074
 20
217.1998568894
 30
0.0
 11
173.6575523074
 21
216.7493015669
 31
0.0
  0
LINE
  5
8E
330
1F
100
AcDbEntity
  8
0
  6
Continuous
 62
     7
370
    30
100
AcDbLine
 10
121.9575525875
 20
213.9998569702
 30
0.0
 11
173.3575509543
 21
213.9998569702
 31
0.0
  0
LINE
  5
8F
330
1F
100
AcDbEntity
  8
0
  6
Continuous
 62
     7
370
    30
100
AcDbLine
 10
173.3575509543
 20
216.9225066401
 30
0.0
 11
121.9575525875
 21
216.9225066401
 31
0.0
  0
LINE
  5
90
330
1F
100
AcDbEntity
  8
0
  6
Continuous
 62
     7
370
    30
100
AcDbLine
 10
121.6575512345
 20
210.9998569441
 30
0.0
 11
121.6575512345
 21
214.2998569262
 31
0.0
  0
LINE
  5
91
330
1F
100
AcDbEntity
  8
0
  6
Continuous
 62
     7
370
    30
100
AcDbLine
 10
173.6575523074
 20
214.2998569262
 30
0.0
 11
173.6575523074
 21
210.9998569441
 31
0.0
  0
LINE
  5
92
330
1F
100
AcDbEntity
  8
0
  6
Continuous
 62
     7
370
    30
100
AcDbLine
 10
121.6575512345
 20
217.1998568894
 30
0.0
 11
121.6575512345
 21
217.4998569618
 31
0.0
  0
ARC
  5
93
330
1F
100
AcDbEntity
  8
0
  6
Continuous
 62
     7
370
    30
100
AcDbCircle
 10
173.3575517709
 20
195.7998569143
 30
0.0
 40
0.3000000000000114
100
AcDbArc
 50
270.0
 51
0.0
  0
LINE
  5
94
330
1F
100
AcDbEntity
  8
0
  6
Continuous
 62
     7
370
    30
100
AcDbLine
 10
121.6575512345
 20
195.7998566878
 30
0.0
 11
121.6575512345
 21
210.9998569441
 31
0.0
  0
LINE
  5
95
330
1F
100
AcDbEntity
  8
0
  6
Continuous
 62
     7
370
    30
100
AcDbLine
 10
173.6575523074
 20
210.9998569441
 30
0.0
 11
173.6575523074
 21
195.7998566878
 31
0.0
  0
LINE
  5
96
330
1F
100
AcDbEntity
  8
0
  6
Continuous
 62
     7
370
    30
100
AcDbLine
 10
173.6575523074
 20
217.4998569618
 30
0.0
 11
173.6575523074
 21
217.1998568894
 31
0.0
  0
ARC
  5
97
330
1F
100
AcDbEntity
  8
0
  6
Continuous
 62
     7
370
    30
100
AcDbCircle
 10
121.9575517709
 20
195.7998569143
 30
0.0
 40
0.3000000000000114
100
AcDbArc
 50
180.0
 51
270.0
  0
LINE
  5
98
330
1F
100
AcDbEntity
  8
0
  6
Continuous
 62
     7
370
    30
100
AcDbLine
 10
173.3575509543
 20
195.4998571974
 30
0.0
 11
121.9575525875
 21
195.4998571974
 31
0.0
  0
LINE
  5
99
330
1F
100
AcDbEntity
  8
0
  6
Continuous
 62
     8
370
     0
100
AcDbLine
 10
88.6575514133
 20
168.4998564971
 30
0.0
 11
82.6575541551
 21
168.4998564971
 31
0.0
  0
LINE
  5
9A
330
1F
100
AcDbEntity
  8
0
  6
Continuous
 62
     8
370
     0
100
AcDbLine
 10
212.6575493867
 20
168.4998564971
 30
0.0
 11
206.6575521286
 21
168.4998564971
 31
0.0
  0
LINE
  5
9B
330
1F
100
AcDbEntity
  8
0
  6
Continuous
 62
     8
370
     0
100
AcDbLine
 10
90.6575517411
 20
166.4998561693
 30
0.0
 11
90.6575517411
 21
164.4998558414
 31
0.0
  0
LINE
  5
9C
330
1F
100
AcDbEntity
  8
0
  6
Continuous
 62
     8
370
     0
100
AcDbLine
 10
204.6575518007
 20
164.4998558414
 30
0.0
 11
204.6575518007
 21
166.4998561693
 31
0.0
  0
LINE
  5
9D
330
1F
100
AcDbEntity
  8
0
  6
Continuous
 62
     8
370
     0
100
AcDbLine
 10
214.6575534399
 20
166.4998561693
 30
0.0
 11
214.6575534399
 21
164.4998558414
 31
0.0
  0
LINE
  5
9E
330
1F
100
AcDbEntity
  8
0
  6
Continuous
 62
     8
370
     0
100
AcDbLine
 10
80.657550102
 20
164.4998558414
 30
0.0
 11
80.657550102
 21
166.4998561693
 31
0.0
  0
LINE
  5
9F
330
1F
100
AcDbEntity
  8
0
  6
Continuous
 62
     8
370
     0
100
AcDbLine
 10
73.6575508173
 20
166.4998561693
 30
0.0
 11
73.6575508173
 21
164.4998558414
 31
0.0
  0
LINE
  5
A0
330
1F
100
AcDbEntity
  8
0
  6
Continuous
 62
     8
370
     0
100
AcDbLine
 10
71.6575542147
 20
168.4998564971
 30
0.0
 11
69.6575501616
 21
168.4998564971
 31
0.0
  0
LINE
  5
A1
330
1F
100
AcDbEntity
  8
0
  6
Continuous
 62
     8
370
     0
100
AcDbLine
 10
71.6575542147
 20
213.4998568882
 30
0.0
 11
69.6575501616
 21
213.4998568882
 31
0.0
  0
LINE
  5
A2
330
1F
100
AcDbEntity
  8
0
  6
Continuous
 62
     8
370
     0
100
AcDbLine
 10
225.6575533803
 20
213.4998568882
 30
0.0
 11
223.6575493271
 21
213.4998568882
 31
0.0
  0
LINE
  5
A3
330
1F
100
AcDbEntity
  8
0
  6
Continuous
 62
     8
370
     0
100
AcDbLine
 10
223.6575493271
 20
168.4998564971
 30
0.0
 11
225.6575533803
 21
168.4998564971
 31
0.0
  0
LINE
  5
A4
330
1F
100
AcDbEntity
  8
0
  6
Continuous
 62
     8
370
     0
100
AcDbLine
 10
221.6575527246
 20
166.4998561693
 30
0.0
 11
221.6575527246
 21
164.4998558414
 31
0.0
  0
LINE
  5
A5
330
1F
100
AcDbEntity
  8
0
  6
Continuous
 62
     8
370
     0
100
AcDbLine
 10
68.657548135
 20
217.9998569274
 30
0.0
 11
76.6575494464
 21
217.9998569274
 31
0.0
  0
LINE
  5
A6
330
1F
100
AcDbEntity
  8
0
  6
Continuous
 62
     8
370
     0
100
AcDbLine
 10
76.6575494464
 20
217.4998569618
 30
0.0
 11
76.6575494464
 21
217.9998569274
 31
0.0
  0
LINE
  5
A7
330
1F
100
AcDbEntity
  8
0
  6
Continuous
 62
     8
370
     0
100
AcDbLine
 10
76.6575494464
 20
217.9998569274
 30
0.0
 11
218.6575540955
 21
217.9998569274
 31
0.0
  0
LINE
  5
A8
330
1F
100
AcDbEntity
  8
0
  6
Continuous
 62
     8
370
     0
100
AcDbLine
 10
76.6575494464
 20
217.9998569274
 30
0.0
 11
76.6575494464
 21
238.9998578084
 31
0.0
  0
LINE
  5
A9
330
1F
100
AcDbEntity
  8
0
  6
Continuous
 62
     8
370
     0
100
AcDbLine
 10
218.6575540955
 20
238.9998578084
 30
0.0
 11
76.6575494464
 21
238.9998578084
 31
0.0
  0
LINE
  5
AA
330
1F
100
AcDbEntity
  8
0
  6
Continuous
 62
     8
370
     0
100
AcDbLine
 10
218.6575540955
 20
217.9998569274
 30
0.0
 11
218.6575540955
 21
238.9998578084
 31
0.0
  0
LINE
  5
AB
330
1F
100
AcDbEntity
  8
0
  6
Continuous
 62
     8
370
     0
100
AcDbLine
 10
76.6575494464
 20
238.9998578084
 30
0.0
 11
68.657548135
 21
238.9998578084
 31
0.0
  0
LINE
  5
AC
330
1F
100
AcDbEntity
  8
0
  6
Continuous
 62
     8
370
     0
100
AcDbLine
 10
218.6575540955
 20
217.4998569618
 30
0.0
 11
218.6575540955
 21
217.9998569274
 31
0.0
  0
LINE
  5
AD
330
1F
100
AcDbEntity
  8
0
  6
Continuous
 62
     8
370
     0
100
AcDbLine
 10
76.6575494464
 20
238.9998578084
 30
0.0
 11
76.6575494464
 21
239.499856959
 31
0.0
  0
LINE
  5
AE
330
1F
100
AcDbEntity
  8
0
  6
Continuous
 62
     8
370
     0
100
AcDbLine
 10
218.6575540955
 20
238.9998578084
 30
0.0
 11
218.6575540955
 21
239.499856959
 31
0.0
  0
LINE
  5
AF
330
1F
100
AcDbEntity
  8
0
  6
Continuous
 62
     8
370
     0
100
AcDbLine
 10
218.6575540955
 20
217.9998569274
 30
0.0
 11
226.6575554068
 21
217.9998569274
 31
0.0
  0
LINE
  5
B0
330
1F
100
AcDbEntity
  8
0
  6
Continuous
 62
     8
370
     0
100
AcDbLine
 10
226.6575554068
 20
238.9998578084
 30
0.0
 11
218.6575540955
 21
238.9998578084
 31
0.0
  0
LINE
  5
B1
330
1F
100
AcDbEntity
  8
0
  6
Continuous
 62
     8
370
     0
100
AcDbLine
 10
121.9575525875
 20
217.4998569618
 30
0.0
 11
121.9575525875
 21
216.9225066401
 31
0.0
  0
LINE
  5
B2
330
1F
100
AcDbEntity
  8
0
  6
Continuous
 62
     8
370
     0
100
AcDbLine
 10
121.9575525875
 20
216.9225066401
 30
0.0
 11
121.9575525875
 21
213.9998569702
 31
0.0
  0
LINE
  5
B3
330
1F
100
AcDbEntity
  8
0
  6
Continuous
 62
     8
370
     0
100
AcDbLine
 10
173.3575509543
 20
213.9998569702
 30
0.0
 11
173.3575509543
 21
216.9225066401
 31
0.0
  0
LINE
  5
B4
330
1F
100
AcDbEntity
  8
0
  6
Continuous
 62
     8
370
     0
100
AcDbLine
 10
173.3575509543
 20
216.9225066401
 30
0.0
 11
173.3575509543
 21
217.4998569618
 31
0.0
  0
LINE
  5
B5
330
1F
100
AcDbEntity
  8
0
  6
Continuous
 62
     8
370
     0
100
AcDbLine
 10
173.3575509543
 20
210.9998569441
 30
0.0
 11
173.3575509543
 21
213.9998569702
 31
0.0
  0
LINE
  5
B6
330
1F
100
AcDbEntity
  8
0
  6
Continuous
 62
     8
370
     0
100
AcDbLine
 10
173.3575509543
 20
210.9998569441
 30
0.0
 11
121.9575525875
 21
210.9998569441
 31
0.0
  0
LINE
  5
B7
330
1F
100
AcDbEntity
  8
0
  6
Continuous
 62
     8
370
     0
100
AcDbLine
 10
121.9575525875
 20
213.9998569702
 30
0.0
 11
121.9575525875
 21
210.9998569441
 31
0.0
  0
LINE
  5
B8
330
1F
100
AcDbEntity
  8
0
  6
Continuous
 62
     8
370
     0
100
AcDbLine
 10
121.6575512345
 20
210.9998569441
 30
0.0
 11
121.9575525875
 21
210.9998569441
 31
0.0
  0
LINE
  5
B9
330
1F
100
AcDbEntity
  8
0
  6
Continuous
 62
     8
370
     0
100
AcDbLine
 10
173.6575523074
 20
210.9998569441
 30
0.0
 11
173.3575509543
 21
210.9998569441
 31
0.0
  0
LINE
  5
BA
330
1F
100
AcDbEntity
  8
0
  6
Continuous
 62
     8
370
     0
100
AcDbLine
 10
173.3575509543
 20
195.4998571974
 30
0.0
 11
173.3575509543
 21
195.7998566878
 31
0.0
  0
LINE
  5
BB
330
1F
100
AcDbEntity
  8
0
  6
Continuous
 62
     8
370
     0
100
AcDbLine
 10
173.6575523074
 20
195.7998566878
 30
0.0
 11
173.3575509543
 21
195.7998566878
 31
0.0
  0
LINE
  5
BC
330
1F
100
AcDbEntity
  8
0
  6
Continuous
 62
     8
370
     0
100
AcDbLine
 10
121.9575525875
 20
210.9998569441
 30
0.0
 11
121.9575525875
 21
195.7998566878
 31
0.0
  0
LINE
  5
BD
330
1F
100
AcDbEntity
  8
0
  6
Continuous
 62
     8
370
     0
100
AcDbLine
 10
121.6575512345
 20
195.7998566878
 30
0.0
 11
121.9575525875
 21
195.7998566878
 31
0.0
  0
LINE
  5
BE
330
1F
100
AcDbEntity
  8
0
  6
Continuous
 62
     8
370
     0
100
AcDbLine
 10
173.3575509543
 20
195.7998566878
 30
0.0
 11
173.3575509543
 21
210.9998569441
 31
0.0
  0
LINE
  5
BF
330
1F
100
AcDbEntity
  8
0
  6
Continuous
 62
     8
370
     0
100
AcDbLine
 10
121.9575525875
 20
195.4998571974
 30
0.0
 11
121.9575525875
 21
195.7998566878
 31
0.0
  0
LINE
  5
C0
330
1F
100
AcDbEntity
  8
0
  6
Continuous
 62
     8
370
     0
100
AcDbLine
 10
121.9575525875
 20
195.7998566878
 30
0.0
 11
173.3575509543
 21
195.7998566878
 31
0.0
  0
DIMENSION
  5
C1
330
1F
100
AcDbEntity
  8
0
  6
Continuous
 62
     7
370
     0
100
AcDbDimension
  2
*D1
 10
236.5008380541
 20
164.4998569143
 30
0.0
 11
236.5008380541
 21
198.3815424598
 31
0.0
 70
   160
  1
(<>)
 71
     2
 42
-1.0
  3
SLDDIMSTYLE0
100
AcDbAlignedDimension
 13
226.1575517709
 23
239.4998569143
 33
0.0
 14
221.6575517709
 24
164.4998569143
 34
0.0
 50
90.0
100
AcDbRotatedDimension
  0
LINE
  5
CF
330
1F
100
AcDbEntity
  8
0
  6
CENTER
 62
     7
370
     0
100
AcDbLine
 10
147.6575517709
 20
256.7150887024
 30
0.0
 11
147.6575517709
 21
152.1482012852
 31
0.0
  0
LINE
  5
D0
330
1F
100
AcDbEntity
  8
0
  6
Continuous
 62
     7
370
     0
100
AcDbLine
 10
135.6575517709
 20
254.7150887024
 30
0.0
 11
147.6575517709
 21
254.7150887024
 31
0.0
  0
SOLID
  5
D1
330
1F
100
AcDbEntity
  8
0
  6
Continuous
 62
     7
370
     0
100
AcDbTrace
 10
147.6575517709
 20
254.7150887024
 30
0.0
 11
141.6575517709
 21
256.2150887024
 31
0.0
 12
141.6575517709
 22
253.2150887024
 32
0.0
 13
141.6575517709
 23
253.2150887024
 33
0.0
  0
LINE
  5
D2
330
1F
100
AcDbEntity
  8
0
  6
Continuous
 62
     7
370
     0
100
AcDbLine
 10
135.6575517709
 20
154.1482012852
 30
0.0
 11
147.6575517709
 21
154.1482012852
 31
0.0
  0
SOLID
  5
D3
330
1F
100
AcDbEntity
  8
0
  6
Continuous
 62
     7
370
     0
100
AcDbTrace
 10
147.6575517709
 20
154.1482012852
 30
0.0
 11
141.6575517709
 21
155.6482012852
 31
0.0
 12
141.6575517709
 22
152.6482012852
 32
0.0
 13
141.6575517709
 23
152.6482012852
 33
0.0
  0
MTEXT
  5
D4
330
1F
100
AcDbEntity
  8
0
  6
Continuous
 62
     7
100
AcDbMText
 10
129.8749191752
 20
257.0487775392
 30
0.0
 40
5.0
 41
0.0
 71
     1
 72
     1
  1
A
  7
SLDTEXTSTYLE0
 73
     1
 44
1.0
  0
MTEXT
  5
D5
330
1F
100
AcDbEntity
  8
0
  6
Continuous
 62
     7
100
AcDbMText
 10
130.0984200515
 20
156.4842257206
 30
0.0
 40
5.0
 41
0.0
 71
     1
 72
     1
  1
A
  7
SLDTEXTSTYLE0
 73
     1
 44
1.0
  0
LINE
  5
D6
330
1F
100
AcDbEntity
  8
0
  6
Continuous
 62
     7
370
    30
100
AcDbLine
 10
131.8691027964
 20
293.2733374245
 30
0.0
 11
131.8691027964
 21
293.2858376361
 31
0.0
  0
LINE
  5
D7
330
1F
100
AcDbEntity
  8
0
  6
Continuous
 62
     7
370
    30
100
AcDbLine
 10
139.8434163685
 20
293.2733374245
 30
0.0
 11
139.8434163685
 21
293.2858376361
 31
0.0
  0
LINE
  5
D8
330
1F
100
AcDbEntity
  8
0
  6
Continuous
 62
     7
370
    30
100
AcDbLine
 10
132.1575520243
 20
263.0733372707
 30
0.0
 11
163.1575515176
 21
263.0733372707
 31
0.0
  0
LINE
  5
D9
330
1F
100
AcDbEntity
  8
0
  6
Continuous
 62
     7
370
    30
100
AcDbLine
 10
170.157552665
 20
263.7733372457
 30
0.0
 11
170.157552665
 21
263.0733372707
 31
0.0
  0
LINE
  5
DA
330
1F
100
AcDbEntity
  8
0
  6
Continuous
 62
     7
370
    30
100
AcDbLine
 10
170.157552665
 20
263.0733372707
 30
0.0
 11
163.1575515176
 21
263.0733372707
 31
0.0
  0
LINE
  5
DB
330
1F
100
AcDbEntity
  8
0
  6
Continuous
 62
     7
370
    30
100
AcDbLine
 10
125.1575508769
 20
263.0733372707
 30
0.0
 11
125.1575508769
 21
263.7733372457
 31
0.0
  0
LINE
  5
DC
330
1F
100
AcDbEntity
  8
0
  6
Continuous
 62
     7
370
    30
100
AcDbLine
 10
132.1575520243
 20
263.0733372707
 30
0.0
 11
125.1575508769
 21
263.0733372707
 31
0.0
  0
CIRCLE
  5
DD
330
1F
100
AcDbEntity
  8
0
  6
Continuous
 62
     7
370
    30
100
AcDbCircle
 10
147.6575517709
 20
270.7733372457
 30
0.0
 40
2.44550000000001
  0
CIRCLE
  5
DE
330
1F
100
AcDbEntity
  8
0
  6
Continuous
 62
     7
370
    30
100
AcDbCircle
 10
147.6575517709
 20
270.7733372457
 30
0.0
 40
3.000000000000028
  0
LINE
  5
DF
330
1F
100
AcDbEntity
  8
0
  6
Continuous
 62
     7
370
    30
100
AcDbLine
 10
148.5235771662
 20
269.2733372159
 30
0.0
 11
149.3896025614
 21
270.7733374618
 31
0.0
  0
LINE
  5
E0
330
1F
100
AcDbEntity
  8
0
  6
Continuous
 62
     7
370
    30
100
AcDbLine
 10
148.5235771662
 20
272.2733377076
 30
0.0
 11
149.3896025614
 21
270.7733374618
 31
0.0
  0
LINE
  5
E1
330
1F
100
AcDbEntity
  8
0
  6
Continuous
 62
     7
370
    30
100
AcDbLine
 10
146.7915263757
 20
272.2733377076
 30
0.0
 11
148.5235771662
 21
272.2733377076
 31
0.0
  0
LINE
  5
E2
330
1F
100
AcDbEntity
  8
0
  6
Continuous
 62
     7
370
    30
100
AcDbLine
 10
146.7915263757
 20
272.2733377076
 30
0.0
 11
145.9255009805
 21
270.7733374618
 31
0.0
  0
LINE
  5
E3
330
1F
100
AcDbEntity
  8
0
  6
Continuous
 62
     7
370
    30
100
AcDbLine
 10
146.7915263757
 20
269.2733372159
 30
0.0
 11
145.9255009805
 21
270.7733374618
 31
0.0
  0
LINE
  5
E4
330
1F
100
AcDbEntity
  8
0
  6
Continuous
 62
     7
370
    30
100
AcDbLine
 10
146.7915263757
 20
269.2733372159
 30
0.0
 11
148.5235771662
 21
269.2733372159
 31
0.0
  0
ARC
  5
E5
330
1F
100
AcDbEntity
  8
0
  6
Continuous
 62
     7
370
    30
100
AcDbCircle
 10
121.9575517709
 20
289.5733372457
 30
0.0
 40
0.3000000000000682
100
AcDbArc
 50
180.0
 51
270.0
  0
ARC
  5
E6
330
1F
100
AcDbEntity
  8
0
  6
Continuous
 62
     7
370
    30
100
AcDbCircle
 10
173.3575517709
 20
289.5733372457
 30
0.0
 40
0.3000000000000682
100
AcDbArc
 50
270.0
 51
0.0
  0
LINE
  5
E7
330
1F
100
AcDbEntity
  8
0
  6
Continuous
 62
     7
370
    30
100
AcDbLine
 10
173.6575523074
 20
291.2733370967
 30
0.0
 11
173.6575523074
 21
289.5733381219
 31
0.0
  0
LINE
  5
E8
330
1F
100
AcDbEntity
  8
0
  6
Continuous
 62
     7
370
    30
100
AcDbLine
 10
121.6575512345
 20
289.5733381219
 30
0.0
 11
121.6575512345
 21
291.2733370967
 31
0.0
  0
ARC
  5
E9
330
1F
100
AcDbEntity
  8
0
  6
Continuous
 62
     7
370
    30
100
AcDbCircle
 10
123.6575517709
 20
291.2733372457
 30
0.0
 40
2.0
100
AcDbArc
 50
90.0
 51
180.0
  0
ARC
  5
EA
330
1F
100
AcDbEntity
  8
0
  6
Continuous
 62
     7
370
    30
100
AcDbCircle
 10
171.6575517709
 20
291.2733372457
 30
0.0
 40
2.0
100
AcDbArc
 50
0.0
 51
90.0
  0
LINE
  5
EB
330
1F
100
AcDbEntity
  8
0
  6
Continuous
 62
     7
370
    30
100
AcDbLine
 10
123.6575515623
 20
293.2733374245
 30
0.0
 11
171.6575519795
 21
293.2733374245
 31
0.0
  0
LINE
  5
EC
330
1F
100
AcDbEntity
  8
0
  6
Continuous
 62
     7
370
    30
100
AcDbLine
 10
82.6575541551
 20
287.273336441
 30
0.0
 11
88.6575514133
 21
287.273336441
 31
0.0
  0
LINE
  5
ED
330
1F
100
AcDbEntity
  8
0
  6
Continuous
 62
     7
370
    30
100
AcDbLine
 10
82.6575541551
 20
287.273336441
 30
0.0
 11
82.6575541551
 21
291.2733370967
 31
0.0
  0
LINE
  5
EE
330
1F
100
AcDbEntity
  8
0
  6
Continuous
 62
     7
370
    30
100
AcDbLine
 10
88.6575514133
 20
291.2733370967
 30
0.0
 11
88.6575514133
 21
287.273336441
 31
0.0
  0
LINE
  5
EF
330
1F
100
AcDbEntity
  8
0
  6
Continuous
 62
     7
370
    30
100
AcDbLine
 10
212.6575493867
 20
291.2733370967
 30
0.0
 11
212.6575493867
 21
287.273336441
 31
0.0
  0
LINE
  5
F0
330
1F
100
AcDbEntity
  8
0
  6
Continuous
 62
     7
370
    30
100
AcDbLine
 10
206.6575521286
 20
287.273336441
 30
0.0
 11
212.6575493867
 21
287.273336441
 31
0.0
  0
LINE
  5
F1
330
1F
100
AcDbEntity
  8
0
  6
Continuous
 62
     7
370
    30
100
AcDbLine
 10
206.6575521286
 20
287.273336441
 30
0.0
 11
206.6575521286
 21
291.2733370967
 31
0.0
  0
ARC
  5
F2
330
1F
100
AcDbEntity
  8
0
  6
Continuous
 62
     7
370
    30
100
AcDbCircle
 10
90.6575517709
 20
291.7733372457
 30
0.0
 40
2.0
100
AcDbArc
 50
90.0
 51
180.0
  0
LINE
  5
F3
330
1F
100
AcDbEntity
  8
0
  6
Continuous
 62
     7
370
    30
100
AcDbLine
 10
82.6575541551
 20
291.2733370967
 30
0.0
 11
82.6575541551
 21
291.77333811
 31
0.0
  0
ARC
  5
F4
330
1F
100
AcDbEntity
  8
0
  6
Continuous
 62
     7
370
    30
100
AcDbCircle
 10
80.6575517709
 20
291.7733372457
 30
0.0
 40
2.0
100
AcDbArc
 50
0.0
 51
90.0
  0
LINE
  5
F5
330
1F
100
AcDbEntity
  8
0
  6
Continuous
 62
     7
370
    30
100
AcDbLine
 10
73.6575508173
 20
293.7733365752
 30
0.0
 11
80.657550102
 21
293.7733365752
 31
0.0
  0
LINE
  5
F6
330
1F
100
AcDbEntity
  8
0
  6
Continuous
 62
     7
370
    30
100
AcDbLine
 10
73.6575508173
 20
299.773335696
 30
0.0
 11
221.6575527246
 21
299.773335696
 31
0.0
  0
LINE
  5
F7
330
1F
100
AcDbEntity
  8
0
  6
Continuous
 62
     7
370
    30
100
AcDbLine
 10
214.6575534399
 20
293.7733365752
 30
0.0
 11
221.6575527246
 21
293.7733365752
 31
0.0
  0
ARC
  5
F8
330
1F
100
AcDbEntity
  8
0
  6
Continuous
 62
     7
370
    30
100
AcDbCircle
 10
214.6575517709
 20
291.7733372457
 30
0.0
 40
2.0
100
AcDbArc
 50
90.0
 51
180.0
  0
LINE
  5
F9
330
1F
100
AcDbEntity
  8
0
  6
Continuous
 62
     7
370
    30
100
AcDbLine
 10
212.6575493867
 20
291.2733370967
 30
0.0
 11
212.6575493867
 21
291.77333811
 31
0.0
  0
ARC
  5
FA
330
1F
100
AcDbEntity
  8
0
  6
Continuous
 62
     7
370
    30
100
AcDbCircle
 10
204.6575517709
 20
291.7733372457
 30
0.0
 40
2.0
100
AcDbArc
 50
0.0
 51
90.0
  0
LINE
  5
FB
330
1F
100
AcDbEntity
  8
0
  6
Continuous
 62
     7
370
    30
100
AcDbLine
 10
204.6575518007
 20
293.7733365752
 30
0.0
 11
90.6575517411
 21
293.7733365752
 31
0.0
  0
LINE
  5
FC
330
1F
100
AcDbEntity
  8
0
  6
Continuous
 62
     7
370
    30
100
AcDbLine
 10
206.6575521286
 20
291.77333811
 30
0.0
 11
206.6575521286
 21
291.2733370967
 31
0.0
  0
LINE
  5
FD
330
1F
100
AcDbEntity
  8
0
  6
Continuous
 62
     7
370
    30
100
AcDbLine
 10
88.6575514133
 20
291.77333811
 30
0.0
 11
88.6575514133
 21
291.2733370967
 31
0.0
  0
LINE
  5
FE
330
1F
100
AcDbEntity
  8
0
  6
Continuous
 62
     7
370
    30
100
AcDbLine
 10
221.6575527246
 20
293.7733365752
 30
0.0
 11
225.6575533803
 21
293.7733365752
 31
0.0
  0
LINE
  5
FF
330
1F
100
AcDbEntity
  8
0
  6
Continuous
 62
     7
370
    30
100
AcDbLine
 10
221.6575527246
 20
299.773335696
 30
0.0
 11
225.6575533803
 21
299.773335696
 31
0.0
  0
LINE
  5
100
330
1F
100
AcDbEntity
  8
0
  6
Continuous
 62
     7
370
    30
100
AcDbLine
 10
225.6575533803
 20
299.773335696
 30
0.0
 11
225.6575533803
 21
293.7733365752
 31
0.0
  0
LINE
  5
101
330
1F
100
AcDbEntity
  8
0
  6
Continuous
 62
     7
370
    30
100
AcDbLine
 10
69.6575501616
 20
293.7733365752
 30
0.0
 11
73.6575508173
 21
293.7733365752
 31
0.0
  0
LINE
  5
102
330
1F
100
AcDbEntity
  8
0
  6
Continuous
 62
     7
370
    30
100
AcDbLine
 10
69.6575501616
 20
293.7733365752
 30
0.0
 11
69.6575501616
 21
299.773335696
 31
0.0
  0
LINE
  5
103
330
1F
100
AcDbEntity
  8
0
  6
Continuous
 62
     7
370
    30
100
AcDbLine
 10
69.6575501616
 20
299.773335696
 30
0.0
 11
73.6575508173
 21
299.773335696
 31
0.0
  0
LINE
  5
104
330
1F
100
AcDbEntity
  8
0
  6
Continuous
 62
     7
370
    30
100
AcDbLine
 10
69.6575501616
 20
308.7733390338
 30
0.0
 11
69.6575501616
 21
314.773336292
 31
0.0
  0
LINE
  5
105
330
1F
100
AcDbEntity
  8
0
  6
Continuous
 62
     7
370
    30
100
AcDbLine
 10
69.6575501616
 20
314.773336292
 30
0.0
 11
73.6575508173
 21
314.773336292
 31
0.0
  0
LINE
  5
106
330
1F
100
AcDbEntity
  8
0
  6
Continuous
 62
     7
370
    30
100
AcDbLine
 10
73.6575508173
 20
308.7733390338
 30
0.0
 11
69.6575501616
 21
308.7733390338
 31
0.0
  0
LINE
  5
107
330
1F
100
AcDbEntity
  8
0
  6
Continuous
 62
     7
370
    30
100
AcDbLine
 10
225.6575533803
 20
308.7733390338
 30
0.0
 11
221.6575527246
 21
308.7733390338
 31
0.0
  0
LINE
  5
108
330
1F
100
AcDbEntity
  8
0
  6
Continuous
 62
     7
370
    30
100
AcDbLine
 10
221.6575527246
 20
314.773336292
 30
0.0
 11
225.6575533803
 21
314.773336292
 31
0.0
  0
LINE
  5
109
330
1F
100
AcDbEntity
  8
0
  6
Continuous
 62
     7
370
    30
100
AcDbLine
 10
225.6575533803
 20
314.773336292
 30
0.0
 11
225.6575533803
 21
308.7733390338
 31
0.0
  0
LINE
  5
10A
330
1F
100
AcDbEntity
  8
0
  6
Continuous
 62
     7
370
    30
100
AcDbLine
 10
73.6575508173
 20
308.7733390338
 30
0.0
 11
221.6575527246
 21
308.7733390338
 31
0.0
  0
LINE
  5
10B
330
1F
100
AcDbEntity
  8
0
  6
Continuous
 62
     7
370
    30
100
AcDbLine
 10
73.6575508173
 20
314.773336292
 30
0.0
 11
221.6575527246
 21
314.773336292
 31
0.0
  0
LINE
  5
10C
330
1F
100
AcDbEntity
  8
0
  6
Continuous
 62
     7
370
    30
100
AcDbLine
 10
69.6575501616
 20
329.7733368881
 30
0.0
 11
73.6575508173
 21
329.7733368881
 31
0.0
  0
LINE
  5
10D
330
1F
100
AcDbEntity
  8
0
  6
Continuous
 62
     7
370
    30
100
AcDbLine
 10
69.6575501616
 20
323.7733359046
 30
0.0
 11
69.6575501616
 21
329.7733368881
 31
0.0
  0
LINE
  5
10E
330
1F
100
AcDbEntity
  8
0
  6
Continuous
 62
     7
370
    30
100
AcDbLine
 10
73.6575508173
 20
323.7733359046
 30
0.0
 11
69.6575501616
 21
323.7733359046
 31
0.0
  0
LINE
  5
10F
330
1F
100
AcDbEntity
  8
0
  6
Continuous
 62
     7
370
    30
100
AcDbLine
 10
221.6575527246
 20
329.7733368881
 30
0.0
 11
225.6575533803
 21
329.7733368881
 31
0.0
  0
LINE
  5
110
330
1F
100
AcDbEntity
  8
0
  6
Continuous
 62
     7
370
    30
100
AcDbLine
 10
225.6575533803
 20
329.7733368881
 30
0.0
 11
225.6575533803
 21
323.7733359046
 31
0.0
  0
LINE
  5
111
330
1F
100
AcDbEntity
  8
0
  6
Continuous
 62
     7
370
    30
100
AcDbLine
 10
225.6575533803
 20
323.7733359046
 30
0.0
 11
221.6575527246
 21
323.7733359046
 31
0.0
  0
LINE
  5
112
330
1F
100
AcDbEntity
  8
0
  6
Continuous
 62
     7
370
    30
100
AcDbLine
 10
73.6575508173
 20
329.7733368881
 30
0.0
 11
221.6575527246
 21
329.7733368881
 31
0.0
  0
LINE
  5
113
330
1F
100
AcDbEntity
  8
0
  6
Continuous
 62
     7
370
    30
100
AcDbLine
 10
221.6575527246
 20
323.7733359046
 30
0.0
 11
73.6575508173
 21
323.7733359046
 31
0.0
  0
LINE
  5
114
330
1F
100
AcDbEntity
  8
0
  6
Continuous
 62
     7
370
    30
100
AcDbLine
 10
69.6575501616
 20
344.7733374841
 30
0.0
 11
73.6575508173
 21
344.7733374841
 31
0.0
  0
LINE
  5
115
330
1F
100
AcDbEntity
  8
0
  6
Continuous
 62
     7
370
    30
100
AcDbLine
 10
69.6575501616
 20
338.7733402259
 30
0.0
 11
69.6575501616
 21
344.7733374841
 31
0.0
  0
LINE
  5
116
330
1F
100
AcDbEntity
  8
0
  6
Continuous
 62
     7
370
    30
100
AcDbLine
 10
73.6575508173
 20
338.7733402259
 30
0.0
 11
69.6575501616
 21
338.7733402259
 31
0.0
  0
LINE
  5
117
330
1F
100
AcDbEntity
  8
0
  6
Continuous
 62
     7
370
    30
100
AcDbLine
 10
73.6575508173
 20
344.7733374841
 30
0.0
 11
221.6575527246
 21
344.7733374841
 31
0.0
  0
LINE
  5
118
330
1F
100
AcDbEntity
  8
0
  6
Continuous
 62
     7
370
    30
100
AcDbLine
 10
221.6575527246
 20
338.7733402259
 30
0.0
 11
73.6575508173
 21
338.7733402259
 31
0.0
  0
LINE
  5
119
330
1F
100
AcDbEntity
  8
0
  6
Continuous
 62
     7
370
    30
100
AcDbLine
 10
221.6575527246
 20
344.7733374841
 30
0.0
 11
225.6575533803
 21
344.7733374841
 31
0.0
  0
LINE
  5
11A
330
1F
100
AcDbEntity
  8
0
  6
Continuous
 62
     7
370
    30
100
AcDbLine
 10
225.6575533803
 20
344.7733374841
 30
0.0
 11
225.6575533803
 21
338.7733402259
 31
0.0
  0
LINE
  5
11B
330
1F
100
AcDbEntity
  8
0
  6
Continuous
 62
     7
370
    30
100
AcDbLine
 10
225.6575533803
 20
338.7733402259
 30
0.0
 11
221.6575527246
 21
338.7733402259
 31
0.0
  0
LINE
  5
11C
330
1F
100
AcDbEntity
  8
0
  6
Continuous
 62
     7
370
    30
100
AcDbLine
 10
69.6575501616
 20
359.7733380802
 30
0.0
 11
73.6575508173
 21
359.7733380802
 31
0.0
  0
LINE
  5
11D
330
1F
100
AcDbEntity
  8
0
  6
Continuous
 62
     7
370
    30
100
AcDbLine
 10
69.6575501616
 20
353.773340822
 30
0.0
 11
69.6575501616
 21
359.7733380802
 31
0.0
  0
LINE
  5
11E
330
1F
100
AcDbEntity
  8
0
  6
Continuous
 62
     7
370
    30
100
AcDbLine
 10
73.6575508173
 20
353.773340822
 30
0.0
 11
69.6575501616
 21
353.773340822
 31
0.0
  0
LINE
  5
11F
330
1F
100
AcDbEntity
  8
0
  6
Continuous
 62
     7
370
    30
100
AcDbLine
 10
73.6575508173
 20
359.7733380802
 30
0.0
 11
221.6575527246
 21
359.7733380802
 31
0.0
  0
LINE
  5
120
330
1F
100
AcDbEntity
  8
0
  6
Continuous
 62
     7
370
    30
100
AcDbLine
 10
221.6575527246
 20
353.773340822
 30
0.0
 11
73.6575508173
 21
353.773340822
 31
0.0
  0
LINE
  5
121
330
1F
100
AcDbEntity
  8
0
  6
Continuous
 62
     7
370
    30
100
AcDbLine
 10
221.6575527246
 20
359.7733380802
 30
0.0
 11
225.6575533803
 21
359.7733380802
 31
0.0
  0
LINE
  5
122
330
1F
100
AcDbEntity
  8
0
  6
Continuous
 62
     7
370
    30
100
AcDbLine
 10
225.6575533803
 20
359.7733380802
 30
0.0
 11
225.6575533803
 21
353.773340822
 31
0.0
  0
LINE
  5
123
330
1F
100
AcDbEntity
  8
0
  6
Continuous
 62
     7
370
    30
100
AcDbLine
 10
225.6575533803
 20
353.773340822
 30
0.0
 11
221.6575527246
 21
353.773340822
 31
0.0
  0
LINE
  5
124
330
1F
100
AcDbEntity
  8
0
  6
Continuous
 62
     7
370
    30
100
AcDbLine
 10
69.6575501616
 20
374.7733386762
 30
0.0
 11
73.6575508173
 21
374.7733386762
 31
0.0
  0
LINE
  5
125
330
1F
100
AcDbEntity
  8
0
  6
Continuous
 62
     7
370
    30
100
AcDbLine
 10
69.6575501616
 20
368.7733339674
 30
0.0
 11
69.6575501616
 21
374.7733386762
 31
0.0
  0
LINE
  5
126
330
1F
100
AcDbEntity
  8
0
  6
Continuous
 62
     7
370
    30
100
AcDbLine
 10
73.6575508173
 20
368.7733339674
 30
0.0
 11
69.6575501616
 21
368.7733339674
 31
0.0
  0
LINE
  5
127
330
1F
100
AcDbEntity
  8
0
  6
Continuous
 62
     7
370
    30
100
AcDbLine
 10
73.6575508173
 20
374.7733386762
 30
0.0
 11
221.6575527246
 21
374.7733386762
 31
0.0
  0
LINE
  5
128
330
1F
100
AcDbEntity
  8
0
  6
Continuous
 62
     7
370
    30
100
AcDbLine
 10
221.6575527246
 20
368.7733339674
 30
0.0
 11
73.6575508173
 21
368.7733339674
 31
0.0
  0
LINE
  5
129
330
1F
100
AcDbEntity
  8
0
  6
Continuous
 62
     7
370
    30
100
AcDbLine
 10
221.6575527246
 20
374.7733386762
 30
0.0
 11
225.6575533803
 21
374.7733386762
 31
0.0
  0
LINE
  5
12A
330
1F
100
AcDbEntity
  8
0
  6
Continuous
 62
     7
370
    30
100
AcDbLine
 10
225.6575533803
 20
374.7733386762
 30
0.0
 11
225.6575533803
 21
368.7733339674
 31
0.0
  0
LINE
  5
12B
330
1F
100
AcDbEntity
  8
0
  6
Continuous
 62
     7
370
    30
100
AcDbLine
 10
225.6575533803
 20
368.7733339674
 30
0.0
 11
221.6575527246
 21
368.7733339674
 31
0.0
  0
ARC
  5
12C
330
1F
100
AcDbEntity
  8
0
  6
Continuous
 62
     7
370
    30
100
AcDbCircle
 10
204.6575517709
 20
391.7733372457
 30
0.0
 40
2.0
100
AcDbArc
 50
270.0
 51
0.0
  0
LINE
  5
12D
330
1F
100
AcDbEntity
  8
0
  6
Continuous
 62
     7
370
    30
100
AcDbLine
 10
206.6575521286
 20
391.7733433254
 30
0.0
 11
206.6575521286
 21
392.2733368881
 31
0.0
  0
LINE
  5
12E
330
1F
100
AcDbEntity
  8
0
  6
Continuous
 62
     7
370
    30
100
AcDbLine
 10
212.6575493867
 20
392.2733368881
 30
0.0
 11
212.6575493867
 21
391.7733433254
 31
0.0
  0
ARC
  5
12F
330
1F
100
AcDbEntity
  8
0
  6
Continuous
 62
     7
370
    30
100
AcDbCircle
 10
214.6575517709
 20
391.7733372457
 30
0.0
 40
2.000000000000028
100
AcDbArc
 50
180.0
 51
270.0
  0
LINE
  5
130
330
1F
100
AcDbEntity
  8
0
  6
Continuous
 62
     7
370
    30
100
AcDbLine
 10
214.6575534399
 20
389.7733392723
 30
0.0
 11
221.6575527246
 21
389.7733392723
 31
0.0
  0
LINE
  5
131
330
1F
100
AcDbEntity
  8
0
  6
Continuous
 62
     7
370
    30
100
AcDbLine
 10
221.6575527246
 20
383.7733345635
 30
0.0
 11
73.6575508173
 21
383.7733345635
 31
0.0
  0
LINE
  5
132
330
1F
100
AcDbEntity
  8
0
  6
Continuous
 62
     7
370
    30
100
AcDbLine
 10
73.6575508173
 20
389.7733392723
 30
0.0
 11
80.657550102
 21
389.7733392723
 31
0.0
  0
ARC
  5
133
330
1F
100
AcDbEntity
  8
0
  6
Continuous
 62
     7
370
    30
100
AcDbCircle
 10
80.6575517709
 20
391.7733372457
 30
0.0
 40
2.0
100
AcDbArc
 50
270.0
 51
0.0
  0
LINE
  5
134
330
1F
100
AcDbEntity
  8
0
  6
Continuous
 62
     7
370
    30
100
AcDbLine
 10
82.6575541551
 20
392.2733368881
 30
0.0
 11
82.6575541551
 21
391.7733433254
 31
0.0
  0
LINE
  5
135
330
1F
100
AcDbEntity
  8
0
  6
Continuous
 62
     7
370
    30
100
AcDbLine
 10
88.6575514133
 20
391.7733433254
 30
0.0
 11
88.6575514133
 21
392.2733368881
 31
0.0
  0
ARC
  5
136
330
1F
100
AcDbEntity
  8
0
  6
Continuous
 62
     7
370
    30
100
AcDbCircle
 10
90.6575517709
 20
391.7733372457
 30
0.0
 40
2.0
100
AcDbArc
 50
180.0
 51
270.0
  0
LINE
  5
137
330
1F
100
AcDbEntity
  8
0
  6
Continuous
 62
     7
370
    30
100
AcDbLine
 10
90.6575517411
 20
389.7733392723
 30
0.0
 11
204.6575518007
 21
389.7733392723
 31
0.0
  0
LINE
  5
138
330
1F
100
AcDbEntity
  8
0
  6
Continuous
 62
     7
370
    30
100
AcDbLine
 10
73.6575508173
 20
389.7733392723
 30
0.0
 11
69.6575501616
 21
389.7733392723
 31
0.0
  0
LINE
  5
139
330
1F
100
AcDbEntity
  8
0
  6
Continuous
 62
     7
370
    30
100
AcDbLine
 10
73.6575508173
 20
383.7733345635
 30
0.0
 11
69.6575501616
 21
383.7733345635
 31
0.0
  0
LINE
  5
13A
330
1F
100
AcDbEntity
  8
0
  6
Continuous
 62
     7
370
    30
100
AcDbLine
 10
69.6575501616
 20
383.7733345635
 30
0.0
 11
69.6575501616
 21
389.7733392723
 31
0.0
  0
LINE
  5
13B
330
1F
100
AcDbEntity
  8
0
  6
Continuous
 62
     7
370
    30
100
AcDbLine
 10
212.6575493867
 20
396.2733300931
 30
0.0
 11
206.6575521286
 21
396.2733300931
 31
0.0
  0
LINE
  5
13C
330
1F
100
AcDbEntity
  8
0
  6
Continuous
 62
     7
370
    30
100
AcDbLine
 10
212.6575493867
 20
396.2733300931
 30
0.0
 11
212.6575493867
 21
392.2733368881
 31
0.0
  0
LINE
  5
13D
330
1F
100
AcDbEntity
  8
0
  6
Continuous
 62
     7
370
    30
100
AcDbLine
 10
206.6575521286
 20
392.2733368881
 30
0.0
 11
206.6575521286
 21
396.2733300931
 31
0.0
  0
LINE
  5
13E
330
1F
100
AcDbEntity
  8
0
  6
Continuous
 62
     7
370
    30
100
AcDbLine
 10
82.6575541551
 20
392.2733368881
 30
0.0
 11
82.6575541551
 21
396.2733300931
 31
0.0
  0
LINE
  5
13F
330
1F
100
AcDbEntity
  8
0
  6
Continuous
 62
     7
370
    30
100
AcDbLine
 10
88.6575514133
 20
396.2733300931
 30
0.0
 11
82.6575541551
 21
396.2733300931
 31
0.0
  0
LINE
  5
140
330
1F
100
AcDbEntity
  8
0
  6
Continuous
 62
     7
370
    30
100
AcDbLine
 10
88.6575514133
 20
396.2733300931
 30
0.0
 11
88.6575514133
 21
392.2733368881
 31
0.0
  0
LINE
  5
141
330
1F
100
AcDbEntity
  8
0
  6
Continuous
 62
     7
370
    30
100
AcDbLine
 10
225.6575533803
 20
389.7733392723
 30
0.0
 11
221.6575527246
 21
389.7733392723
 31
0.0
  0
LINE
  5
142
330
1F
100
AcDbEntity
  8
0
  6
Continuous
 62
     7
370
    30
100
AcDbLine
 10
225.6575533803
 20
389.7733392723
 30
0.0
 11
225.6575533803
 21
383.7733345635
 31
0.0
  0
LINE
  5
143
330
1F
100
AcDbEntity
  8
0
  6
Continuous
 62
     7
370
    30
100
AcDbLine
 10
225.6575533803
 20
383.7733345635
 30
0.0
 11
221.6575527246
 21
383.7733345635
 31
0.0
  0
LINE
  5
144
330
1F
100
AcDbEntity
  8
0
  6
Continuous
 62
     7
370
    30
100
AcDbLine
 10
204.6575518007
 20
289.2733367689
 30
0.0
 11
206.6575521286
 21
289.2733367689
 31
0.0
  0
LINE
  5
145
330
1F
100
AcDbEntity
  8
0
  6
Continuous
 62
     7
370
    30
100
AcDbLine
 10
206.6575521286
 20
287.273336441
 30
0.0
 11
204.6575518007
 21
287.273336441
 31
0.0
  0
LINE
  5
146
330
1F
100
AcDbEntity
  8
0
  6
Continuous
 62
     7
370
    30
100
AcDbLine
 10
88.6575514133
 20
289.2733367689
 30
0.0
 11
90.6575517411
 21
289.2733367689
 31
0.0
  0
LINE
  5
147
330
1F
100
AcDbEntity
  8
0
  6
Continuous
 62
     7
370
    30
100
AcDbLine
 10
90.6575517411
 20
287.273336441
 30
0.0
 11
88.6575514133
 21
287.273336441
 31
0.0
  0
LINE
  5
148
330
1F
100
AcDbEntity
  8
0
  6
Continuous
 62
     7
370
    30
100
AcDbLine
 10
204.6575518007
 20
396.2733300931
 30
0.0
 11
206.6575521286
 21
396.2733300931
 31
0.0
  0
LINE
  5
149
330
1F
100
AcDbEntity
  8
0
  6
Continuous
 62
     7
370
    30
100
AcDbLine
 10
206.6575521286
 20
394.2733409412
 30
0.0
 11
204.6575518007
 21
394.2733409412
 31
0.0
  0
LINE
  5
14A
330
1F
100
AcDbEntity
  8
0
  6
Continuous
 62
     7
370
    30
100
AcDbLine
 10
88.6575514133
 20
396.2733300931
 30
0.0
 11
90.6575517411
 21
396.2733300931
 31
0.0
  0
LINE
  5
14B
330
1F
100
AcDbEntity
  8
0
  6
Continuous
 62
     7
370
    30
100
AcDbLine
 10
90.6575517411
 20
394.2733409412
 30
0.0
 11
88.6575514133
 21
394.2733409412
 31
0.0
  0
LINE
  5
14C
330
1F
100
AcDbEntity
  8
0
  6
Continuous
 62
     7
370
    30
100
AcDbLine
 10
204.6575518007
 20
289.2733367689
 30
0.0
 11
90.6575517411
 21
289.2733367689
 31
0.0
  0
LINE
  5
14D
330
1F
100
AcDbEntity
  8
0
  6
Continuous
 62
     7
370
    30
100
AcDbLine
 10
90.6575517411
 20
287.273336441
 30
0.0
 11
204.6575518007
 21
287.273336441
 31
0.0
  0
LINE
  5
14E
330
1F
100
AcDbEntity
  8
0
  6
Continuous
 62
     7
370
    30
100
AcDbLine
 10
204.6575518007
 20
396.2733300931
 30
0.0
 11
90.6575517411
 21
396.2733300931
 31
0.0
  0
LINE
  5
14F
330
1F
100
AcDbEntity
  8
0
  6
Continuous
 62
     7
370
    30
100
AcDbLine
 10
90.6575517411
 20
394.2733409412
 30
0.0
 11
204.6575518007
 21
394.2733409412
 31
0.0
  0
LINE
  5
150
330
1F
100
AcDbEntity
  8
0
  6
Continuous
 62
     7
370
    30
100
AcDbLine
 10
225.6575533803
 20
301.7733360238
 30
0.0
 11
225.6575533803
 21
299.773335696
 31
0.0
  0
LINE
  5
151
330
1F
100
AcDbEntity
  8
0
  6
Continuous
 62
     7
370
    30
100
AcDbLine
 10
223.6575493271
 20
299.773335696
 30
0.0
 11
223.6575493271
 21
301.7733360238
 31
0.0
  0
LINE
  5
152
330
1F
100
AcDbEntity
  8
0
  6
Continuous
 62
     7
370
    30
100
AcDbLine
 10
69.6575501616
 20
299.773335696
 30
0.0
 11
69.6575501616
 21
301.7733360238
 31
0.0
  0
LINE
  5
153
330
1F
100
AcDbEntity
  8
0
  6
Continuous
 62
     7
370
    30
100
AcDbLine
 10
71.6575542147
 20
301.7733360238
 30
0.0
 11
71.6575542147
 21
299.773335696
 31
0.0
  0
LINE
  5
154
330
1F
100
AcDbEntity
  8
0
  6
Continuous
 62
     7
370
    30
100
AcDbLine
 10
225.6575533803
 20
308.7733390338
 30
0.0
 11
225.6575533803
 21
306.773338706
 31
0.0
  0
LINE
  5
155
330
1F
100
AcDbEntity
  8
0
  6
Continuous
 62
     7
370
    30
100
AcDbLine
 10
223.6575493271
 20
306.773338706
 30
0.0
 11
223.6575493271
 21
308.7733390338
 31
0.0
  0
LINE
  5
156
330
1F
100
AcDbEntity
  8
0
  6
Continuous
 62
     7
370
    30
100
AcDbLine
 10
69.6575501616
 20
306.773338706
 30
0.0
 11
69.6575501616
 21
308.7733390338
 31
0.0
  0
LINE
  5
157
330
1F
100
AcDbEntity
  8
0
  6
Continuous
 62
     7
370
    30
100
AcDbLine
 10
71.6575542147
 20
308.7733390338
 30
0.0
 11
71.6575542147
 21
306.773338706
 31
0.0
  0
LINE
  5
158
330
1F
100
AcDbEntity
  8
0
  6
Continuous
 62
     7
370
    30
100
AcDbLine
 10
69.6575501616
 20
314.773336292
 30
0.0
 11
69.6575501616
 21
316.7733366199
 31
0.0
  0
LINE
  5
159
330
1F
100
AcDbEntity
  8
0
  6
Continuous
 62
     7
370
    30
100
AcDbLine
 10
71.6575542147
 20
316.7733366199
 30
0.0
 11
71.6575542147
 21
314.773336292
 31
0.0
  0
LINE
  5
15A
330
1F
100
AcDbEntity
  8
0
  6
Continuous
 62
     7
370
    30
100
AcDbLine
 10
225.6575533803
 20
316.7733366199
 30
0.0
 11
225.6575533803
 21
314.773336292
 31
0.0
  0
LINE
  5
15B
330
1F
100
AcDbEntity
  8
0
  6
Continuous
 62
     7
370
    30
100
AcDbLine
 10
223.6575493271
 20
314.773336292
 30
0.0
 11
223.6575493271
 21
316.7733366199
 31
0.0
  0
LINE
  5
15C
330
1F
100
AcDbEntity
  8
0
  6
Continuous
 62
     7
370
    30
100
AcDbLine
 10
225.6575533803
 20
323.7733359046
 30
0.0
 11
225.6575533803
 21
321.7733355768
 31
0.0
  0
LINE
  5
15D
330
1F
100
AcDbEntity
  8
0
  6
Continuous
 62
     7
370
    30
100
AcDbLine
 10
223.6575493271
 20
321.7733355768
 30
0.0
 11
223.6575493271
 21
323.7733359046
 31
0.0
  0
LINE
  5
15E
330
1F
100
AcDbEntity
  8
0
  6
Continuous
 62
     7
370
    30
100
AcDbLine
 10
69.6575501616
 20
321.7733355768
 30
0.0
 11
69.6575501616
 21
323.7733359046
 31
0.0
  0
LINE
  5
15F
330
1F
100
AcDbEntity
  8
0
  6
Continuous
 62
     7
370
    30
100
AcDbLine
 10
71.6575542147
 20
323.7733359046
 30
0.0
 11
71.6575542147
 21
321.7733355768
 31
0.0
  0
LINE
  5
160
330
1F
100
AcDbEntity
  8
0
  6
Continuous
 62
     7
370
    30
100
AcDbLine
 10
225.6575533803
 20
331.7733409412
 30
0.0
 11
225.6575533803
 21
329.7733368881
 31
0.0
  0
LINE
  5
161
330
1F
100
AcDbEntity
  8
0
  6
Continuous
 62
     7
370
    30
100
AcDbLine
 10
223.6575493271
 20
329.7733368881
 30
0.0
 11
223.6575493271
 21
331.7733409412
 31
0.0
  0
LINE
  5
162
330
1F
100
AcDbEntity
  8
0
  6
Continuous
 62
     7
370
    30
100
AcDbLine
 10
69.6575501616
 20
329.7733368881
 30
0.0
 11
69.6575501616
 21
331.7733409412
 31
0.0
  0
LINE
  5
163
330
1F
100
AcDbEntity
  8
0
  6
Continuous
 62
     7
370
    30
100
AcDbLine
 10
71.6575542147
 20
331.7733409412
 30
0.0
 11
71.6575542147
 21
329.7733368881
 31
0.0
  0
LINE
  5
164
330
1F
100
AcDbEntity
  8
0
  6
Continuous
 62
     7
370
    30
100
AcDbLine
 10
225.6575533803
 20
338.7733402259
 30
0.0
 11
225.6575533803
 21
336.7733361728
 31
0.0
  0
LINE
  5
165
330
1F
100
AcDbEntity
  8
0
  6
Continuous
 62
     7
370
    30
100
AcDbLine
 10
223.6575493271
 20
336.7733361728
 30
0.0
 11
223.6575493271
 21
338.7733402259
 31
0.0
  0
LINE
  5
166
330
1F
100
AcDbEntity
  8
0
  6
Continuous
 62
     7
370
    30
100
AcDbLine
 10
69.6575501616
 20
336.7733361728
 30
0.0
 11
69.6575501616
 21
338.7733402259
 31
0.0
  0
LINE
  5
167
330
1F
100
AcDbEntity
  8
0
  6
Continuous
 62
     7
370
    30
100
AcDbLine
 10
71.6575542147
 20
338.7733402259
 30
0.0
 11
71.6575542147
 21
336.7733361728
 31
0.0
  0
LINE
  5
168
330
1F
100
AcDbEntity
  8
0
  6
Continuous
 62
     7
370
    30
100
AcDbLine
 10
225.6575533803
 20
346.7733340867
 30
0.0
 11
225.6575533803
 21
344.7733374841
 31
0.0
  0
LINE
  5
169
330
1F
100
AcDbEntity
  8
0
  6
Continuous
 62
     7
370
    30
100
AcDbLine
 10
223.6575493271
 20
344.7733374841
 30
0.0
 11
223.6575493271
 21
346.7733340867
 31
0.0
  0
LINE
  5
16A
330
1F
100
AcDbEntity
  8
0
  6
Continuous
 62
     7
370
    30
100
AcDbLine
 10
69.6575501616
 20
344.7733374841
 30
0.0
 11
69.6575501616
 21
346.7733340867
 31
0.0
  0
LINE
  5
16B
330
1F
100
AcDbEntity
  8
0
  6
Continuous
 62
     7
370
    30
100
AcDbLine
 10
71.6575542147
 20
346.7733340867
 30
0.0
 11
71.6575542147
 21
344.7733374841
 31
0.0
  0
LINE
  5
16C
330
1F
100
AcDbEntity
  8
0
  6
Continuous
 62
     7
370
    30
100
AcDbLine
 10
69.6575501616
 20
351.7733367689
 30
0.0
 11
69.6575501616
 21
353.773340822
 31
0.0
  0
LINE
  5
16D
330
1F
100
AcDbEntity
  8
0
  6
Continuous
 62
     7
370
    30
100
AcDbLine
 10
71.6575542147
 20
353.773340822
 30
0.0
 11
71.6575542147
 21
351.7733367689
 31
0.0
  0
LINE
  5
16E
330
1F
100
AcDbEntity
  8
0
  6
Continuous
 62
     7
370
    30
100
AcDbLine
 10
225.6575533803
 20
353.773340822
 30
0.0
 11
225.6575533803
 21
351.7733367689
 31
0.0
  0
LINE
  5
16F
330
1F
100
AcDbEntity
  8
0
  6
Continuous
 62
     7
370
    30
100
AcDbLine
 10
223.6575493271
 20
351.7733367689
 30
0.0
 11
223.6575493271
 21
353.773340822
 31
0.0
  0
LINE
  5
170
330
1F
100
AcDbEntity
  8
0
  6
Continuous
 62
     7
370
    30
100
AcDbLine
 10
225.6575533803
 20
361.7733346827
 30
0.0
 11
225.6575533803
 21
359.7733380802
 31
0.0
  0
LINE
  5
171
330
1F
100
AcDbEntity
  8
0
  6
Continuous
 62
     7
370
    30
100
AcDbLine
 10
223.6575493271
 20
359.7733380802
 30
0.0
 11
223.6575493271
 21
361.7733346827
 31
0.0
  0
LINE
  5
172
330
1F
100
AcDbEntity
  8
0
  6
Continuous
 62
     7
370
    30
100
AcDbLine
 10
69.6575501616
 20
359.7733380802
 30
0.0
 11
69.6575501616
 21
361.7733346827
 31
0.0
  0
LINE
  5
173
330
1F
100
AcDbEntity
  8
0
  6
Continuous
 62
     7
370
    30
100
AcDbLine
 10
71.6575542147
 20
361.7733346827
 30
0.0
 11
71.6575542147
 21
359.7733380802
 31
0.0
  0
LINE
  5
174
330
1F
100
AcDbEntity
  8
0
  6
Continuous
 62
     7
370
    30
100
AcDbLine
 10
69.6575501616
 20
366.7733373649
 30
0.0
 11
69.6575501616
 21
368.7733339674
 31
0.0
  0
LINE
  5
175
330
1F
100
AcDbEntity
  8
0
  6
Continuous
 62
     7
370
    30
100
AcDbLine
 10
71.6575542147
 20
368.7733339674
 30
0.0
 11
71.6575542147
 21
366.7733373649
 31
0.0
  0
LINE
  5
176
330
1F
100
AcDbEntity
  8
0
  6
Continuous
 62
     7
370
    30
100
AcDbLine
 10
225.6575533803
 20
368.7733339674
 30
0.0
 11
225.6575533803
 21
366.7733373649
 31
0.0
  0
LINE
  5
177
330
1F
100
AcDbEntity
  8
0
  6
Continuous
 62
     7
370
    30
100
AcDbLine
 10
223.6575493271
 20
366.7733373649
 30
0.0
 11
223.6575493271
 21
368.7733339674
 31
0.0
  0
LINE
  5
178
330
1F
100
AcDbEntity
  8
0
  6
Continuous
 62
     7
370
    30
100
AcDbLine
 10
69.6575501616
 20
374.7733386762
 30
0.0
 11
69.6575501616
 21
376.7733352788
 31
0.0
  0
LINE
  5
179
330
1F
100
AcDbEntity
  8
0
  6
Continuous
 62
     7
370
    30
100
AcDbLine
 10
71.6575542147
 20
376.7733352788
 30
0.0
 11
71.6575542147
 21
374.7733386762
 31
0.0
  0
LINE
  5
17A
330
1F
100
AcDbEntity
  8
0
  6
Continuous
 62
     7
370
    30
100
AcDbLine
 10
225.6575533803
 20
376.7733352788
 30
0.0
 11
225.6575533803
 21
374.7733386762
 31
0.0
  0
LINE
  5
17B
330
1F
100
AcDbEntity
  8
0
  6
Continuous
 62
     7
370
    30
100
AcDbLine
 10
223.6575493271
 20
374.7733386762
 30
0.0
 11
223.6575493271
 21
376.7733352788
 31
0.0
  0
LINE
  5
17C
330
1F
100
AcDbEntity
  8
0
  6
Continuous
 62
     7
370
    30
100
AcDbLine
 10
69.6575501616
 20
381.773337961
 30
0.0
 11
69.6575501616
 21
383.7733345635
 31
0.0
  0
LINE
  5
17D
330
1F
100
AcDbEntity
  8
0
  6
Continuous
 62
     7
370
    30
100
AcDbLine
 10
71.6575542147
 20
383.7733345635
 30
0.0
 11
71.6575542147
 21
381.773337961
 31
0.0
  0
LINE
  5
17E
330
1F
100
AcDbEntity
  8
0
  6
Continuous
 62
     7
370
    30
100
AcDbLine
 10
225.6575533803
 20
383.7733345635
 30
0.0
 11
225.6575533803
 21
381.773337961
 31
0.0
  0
LINE
  5
17F
330
1F
100
AcDbEntity
  8
0
  6
Continuous
 62
     7
370
    30
100
AcDbLine
 10
223.6575493271
 20
381.773337961
 30
0.0
 11
223.6575493271
 21
383.7733345635
 31
0.0
  0
LINE
  5
180
330
1F
100
AcDbEntity
  8
0
  6
Continuous
 62
     7
370
    30
100
AcDbLine
 10
69.6575501616
 20
306.773338706
 30
0.0
 11
69.6575501616
 21
301.7733360238
 31
0.0
  0
LINE
  5
181
330
1F
100
AcDbEntity
  8
0
  6
Continuous
 62
     7
370
    30
100
AcDbLine
 10
71.6575542147
 20
306.773338706
 30
0.0
 11
71.6575542147
 21
301.7733360238
 31
0.0
  0
LINE
  5
182
330
1F
100
AcDbEntity
  8
0
  6
Continuous
 62
     7
370
    30
100
AcDbLine
 10
225.6575533803
 20
301.7733360238
 30
0.0
 11
225.6575533803
 21
306.773338706
 31
0.0
  0
LINE
  5
183
330
1F
100
AcDbEntity
  8
0
  6
Continuous
 62
     7
370
    30
100
AcDbLine
 10
223.6575493271
 20
301.7733360238
 30
0.0
 11
223.6575493271
 21
306.773338706
 31
0.0
  0
LINE
  5
184
330
1F
100
AcDbEntity
  8
0
  6
Continuous
 62
     7
370
    30
100
AcDbLine
 10
69.6575501616
 20
316.7733366199
 30
0.0
 11
69.6575501616
 21
321.7733355768
 31
0.0
  0
LINE
  5
185
330
1F
100
AcDbEntity
  8
0
  6
Continuous
 62
     7
370
    30
100
AcDbLine
 10
71.6575542147
 20
316.7733366199
 30
0.0
 11
71.6575542147
 21
321.7733355768
 31
0.0
  0
LINE
  5
186
330
1F
100
AcDbEntity
  8
0
  6
Continuous
 62
     7
370
    30
100
AcDbLine
 10
225.6575533803
 20
316.7733366199
 30
0.0
 11
225.6575533803
 21
321.7733355768
 31
0.0
  0
LINE
  5
187
330
1F
100
AcDbEntity
  8
0
  6
Continuous
 62
     7
370
    30
100
AcDbLine
 10
223.6575493271
 20
316.7733366199
 30
0.0
 11
223.6575493271
 21
321.7733355768
 31
0.0
  0
LINE
  5
188
330
1F
100
AcDbEntity
  8
0
  6
Continuous
 62
     7
370
    30
100
AcDbLine
 10
225.6575533803
 20
331.7733409412
 30
0.0
 11
225.6575533803
 21
336.7733361728
 31
0.0
  0
LINE
  5
189
330
1F
100
AcDbEntity
  8
0
  6
Continuous
 62
     7
370
    30
100
AcDbLine
 10
223.6575493271
 20
331.7733409412
 30
0.0
 11
223.6575493271
 21
336.7733361728
 31
0.0
  0
LINE
  5
18A
330
1F
100
AcDbEntity
  8
0
  6
Continuous
 62
     7
370
    30
100
AcDbLine
 10
69.6575501616
 20
331.7733409412
 30
0.0
 11
69.6575501616
 21
336.7733361728
 31
0.0
  0
LINE
  5
18B
330
1F
100
AcDbEntity
  8
0
  6
Continuous
 62
     7
370
    30
100
AcDbLine
 10
71.6575542147
 20
331.7733409412
 30
0.0
 11
71.6575542147
 21
336.7733361728
 31
0.0
  0
LINE
  5
18C
330
1F
100
AcDbEntity
  8
0
  6
Continuous
 62
     7
370
    30
100
AcDbLine
 10
69.6575501616
 20
346.7733340867
 30
0.0
 11
69.6575501616
 21
351.7733367689
 31
0.0
  0
LINE
  5
18D
330
1F
100
AcDbEntity
  8
0
  6
Continuous
 62
     7
370
    30
100
AcDbLine
 10
71.6575542147
 20
346.7733340867
 30
0.0
 11
71.6575542147
 21
351.7733367689
 31
0.0
  0
LINE
  5
18E
330
1F
100
AcDbEntity
  8
0
  6
Continuous
 62
     7
370
    30
100
AcDbLine
 10
225.6575533803
 20
346.7733340867
 30
0.0
 11
225.6575533803
 21
351.7733367689
 31
0.0
  0
LINE
  5
18F
330
1F
100
AcDbEntity
  8
0
  6
Continuous
 62
     7
370
    30
100
AcDbLine
 10
223.6575493271
 20
346.7733340867
 30
0.0
 11
223.6575493271
 21
351.7733367689
 31
0.0
  0
LINE
  5
190
330
1F
100
AcDbEntity
  8
0
  6
Continuous
 62
     7
370
    30
100
AcDbLine
 10
69.6575501616
 20
361.7733346827
 30
0.0
 11
69.6575501616
 21
366.7733373649
 31
0.0
  0
LINE
  5
191
330
1F
100
AcDbEntity
  8
0
  6
Continuous
 62
     7
370
    30
100
AcDbLine
 10
71.6575542147
 20
361.7733346827
 30
0.0
 11
71.6575542147
 21
366.7733373649
 31
0.0
  0
LINE
  5
192
330
1F
100
AcDbEntity
  8
0
  6
Continuous
 62
     7
370
    30
100
AcDbLine
 10
225.6575533803
 20
361.7733346827
 30
0.0
 11
225.6575533803
 21
366.7733373649
 31
0.0
  0
LINE
  5
193
330
1F
100
AcDbEntity
  8
0
  6
Continuous
 62
     7
370
    30
100
AcDbLine
 10
223.6575493271
 20
361.7733346827
 30
0.0
 11
223.6575493271
 21
366.7733373649
 31
0.0
  0
LINE
  5
194
330
1F
100
AcDbEntity
  8
0
  6
Continuous
 62
     7
370
    30
100
AcDbLine
 10
225.6575533803
 20
376.7733352788
 30
0.0
 11
225.6575533803
 21
381.773337961
 31
0.0
  0
LINE
  5
195
330
1F
100
AcDbEntity
  8
0
  6
Continuous
 62
     7
370
    30
100
AcDbLine
 10
223.6575493271
 20
376.7733352788
 30
0.0
 11
223.6575493271
 21
381.773337961
 31
0.0
  0
LINE
  5
196
330
1F
100
AcDbEntity
  8
0
  6
Continuous
 62
     7
370
    30
100
AcDbLine
 10
69.6575501616
 20
376.7733352788
 30
0.0
 11
69.6575501616
 21
381.773337961
 31
0.0
  0
LINE
  5
197
330
1F
100
AcDbEntity
  8
0
  6
Continuous
 62
     7
370
    30
100
AcDbLine
 10
71.6575542147
 20
376.7733352788
 30
0.0
 11
71.6575542147
 21
381.773337961
 31
0.0
  0
LINE
  5
198
330
1F
100
AcDbEntity
  8
0
  6
Continuous
 62
     7
370
    30
100
AcDbLine
 10
218.6575540955
 20
285.2733379759
 30
0.0
 11
173.6575523074
 21
285.2733379759
 31
0.0
  0
LINE
  5
199
330
1F
100
AcDbEntity
  8
0
  6
Continuous
 62
     7
370
    30
100
AcDbLine
 10
212.6575493867
 20
289.2733367689
 30
0.0
 11
218.6575540955
 21
289.2733367689
 31
0.0
  0
ARC
  5
19A
330
1F
100
AcDbEntity
  8
0
  6
Continuous
 62
     7
370
    30
100
AcDbCircle
 10
218.6575517709
 20
293.2733372457
 30
0.0
 40
8.000000000000057
100
AcDbArc
 50
270.0
 51
0.0
  0
ARC
  5
19B
330
1F
100
AcDbEntity
  8
0
  6
Continuous
 62
     7
370
    30
100
AcDbCircle
 10
218.6575517709
 20
293.2733372457
 30
0.0
 40
4.000000000000057
100
AcDbArc
 50
270.0
 51
360.0
  0
LINE
  5
19C
330
1F
100
AcDbEntity
  8
0
  6
Continuous
 62
     7
370
    30
100
AcDbLine
 10
222.6575547512
 20
293.2733374245
 30
0.0
 11
222.6575547512
 21
293.7733365752
 31
0.0
  0
LINE
  5
19D
330
1F
100
AcDbEntity
  8
0
  6
Continuous
 62
     7
370
    30
100
AcDbLine
 10
222.6575547512
 20
299.773335696
 30
0.0
 11
222.6575547512
 21
308.7733390338
 31
0.0
  0
LINE
  5
19E
330
1F
100
AcDbEntity
  8
0
  6
Continuous
 62
     7
370
    30
100
AcDbLine
 10
222.6575547512
 20
314.773336292
 30
0.0
 11
222.6575547512
 21
323.7733359046
 31
0.0
  0
LINE
  5
19F
330
1F
100
AcDbEntity
  8
0
  6
Continuous
 62
     7
370
    30
100
AcDbLine
 10
222.6575547512
 20
329.7733368881
 30
0.0
 11
222.6575547512
 21
338.7733402259
 31
0.0
  0
LINE
  5
1A0
330
1F
100
AcDbEntity
  8
0
  6
Continuous
 62
     7
370
    30
100
AcDbLine
 10
222.6575547512
 20
344.7733374841
 30
0.0
 11
222.6575547512
 21
353.773340822
 31
0.0
  0
LINE
  5
1A1
330
1F
100
AcDbEntity
  8
0
  6
Continuous
 62
     7
370
    30
100
AcDbLine
 10
222.6575547512
 20
359.7733380802
 30
0.0
 11
222.6575547512
 21
368.7733339674
 31
0.0
  0
LINE
  5
1A2
330
1F
100
AcDbEntity
  8
0
  6
Continuous
 62
     7
370
    30
100
AcDbLine
 10
222.6575547512
 20
374.7733386762
 30
0.0
 11
222.6575547512
 21
383.7733345635
 31
0.0
  0
LINE
  5
1A3
330
1F
100
AcDbEntity
  8
0
  6
Continuous
 62
     7
370
    30
100
AcDbLine
 10
222.6575547512
 20
389.7733392723
 30
0.0
 11
222.6575547512
 21
390.273332835
 31
0.0
  0
LINE
  5
1A4
330
1F
100
AcDbEntity
  8
0
  6
Continuous
 62
     7
370
    30
100
AcDbLine
 10
226.6575554068
 20
390.273332835
 30
0.0
 11
226.6575554068
 21
293.2733374245
 31
0.0
  0
ARC
  5
1A5
330
1F
100
AcDbEntity
  8
0
  6
Continuous
 62
     7
370
    30
100
AcDbCircle
 10
76.6575517709
 20
293.2733372457
 30
0.0
 40
4.0
100
AcDbArc
 50
180.0
 51
270.0
  0
LINE
  5
1A6
330
1F
100
AcDbEntity
  8
0
  6
Continuous
 62
     7
370
    30
100
AcDbLine
 10
76.6575494464
 20
289.2733367689
 30
0.0
 11
82.6575541551
 21
289.2733367689
 31
0.0
  0
LINE
  5
1A7
330
1F
100
AcDbEntity
  8
0
  6
Continuous
 62
     7
370
    30
100
AcDbLine
 10
121.6575512345
 20
285.2733379759
 30
0.0
 11
76.6575494464
 21
285.2733379759
 31
0.0
  0
ARC
  5
1A8
330
1F
100
AcDbEntity
  8
0
  6
Continuous
 62
     7
370
    30
100
AcDbCircle
 10
76.6575517709
 20
293.2733372457
 30
0.0
 40
8.0
100
AcDbArc
 50
180.0
 51
270.0
  0
LINE
  5
1A9
330
1F
100
AcDbEntity
  8
0
  6
Continuous
 62
     7
370
    30
100
AcDbLine
 10
68.657548135
 20
293.2733374245
 30
0.0
 11
68.657548135
 21
390.273332835
 31
0.0
  0
LINE
  5
1AA
330
1F
100
AcDbEntity
  8
0
  6
Continuous
 62
     7
370
    30
100
AcDbLine
 10
72.6575487907
 20
390.273332835
 30
0.0
 11
72.6575487907
 21
389.7733392723
 31
0.0
  0
LINE
  5
1AB
330
1F
100
AcDbEntity
  8
0
  6
Continuous
 62
     7
370
    30
100
AcDbLine
 10
72.6575487907
 20
383.7733345635
 30
0.0
 11
72.6575487907
 21
374.7733386762
 31
0.0
  0
LINE
  5
1AC
330
1F
100
AcDbEntity
  8
0
  6
Continuous
 62
     7
370
    30
100
AcDbLine
 10
72.6575487907
 20
368.7733339674
 30
0.0
 11
72.6575487907
 21
359.7733380802
 31
0.0
  0
LINE
  5
1AD
330
1F
100
AcDbEntity
  8
0
  6
Continuous
 62
     7
370
    30
100
AcDbLine
 10
72.6575487907
 20
353.773340822
 30
0.0
 11
72.6575487907
 21
344.7733374841
 31
0.0
  0
LINE
  5
1AE
330
1F
100
AcDbEntity
  8
0
  6
Continuous
 62
     7
370
    30
100
AcDbLine
 10
72.6575487907
 20
338.7733402259
 30
0.0
 11
72.6575487907
 21
329.7733368881
 31
0.0
  0
LINE
  5
1AF
330
1F
100
AcDbEntity
  8
0
  6
Continuous
 62
     7
370
    30
100
AcDbLine
 10
72.6575487907
 20
323.7733359046
 30
0.0
 11
72.6575487907
 21
314.773336292
 31
0.0
  0
LINE
  5
1B0
330
1F
100
AcDbEntity
  8
0
  6
Continuous
 62
     7
370
    30
100
AcDbLine
 10
72.6575487907
 20
308.7733390338
 30
0.0
 11
72.6575487907
 21
299.773335696
 31
0.0
  0
LINE
  5
1B1
330
1F
100
AcDbEntity
  8
0
  6
Continuous
 62
     7
370
    30
100
AcDbLine
 10
72.6575487907
 20
293.7733365752
 30
0.0
 11
72.6575487907
 21
293.2733374245
 31
0.0
  0
ARC
  5
1B2
330
1F
100
AcDbEntity
  8
0
  6
Continuous
 62
     7
370
    30
100
AcDbCircle
 10
76.6575517709
 20
390.2733372457
 30
0.0
 40
8.0
100
AcDbArc
 50
90.0
 51
180.0
  0
ARC
  5
1B3
330
1F
100
AcDbEntity
  8
0
  6
Continuous
 62
     7
370
    30
100
AcDbCircle
 10
76.6575517709
 20
390.2733372457
 30
0.0
 40
4.0
100
AcDbArc
 50
90.0
 51
180.0
  0
LINE
  5
1B4
330
1F
100
AcDbEntity
  8
0
  6
Continuous
 62
     7
370
    30
100
AcDbLine
 10
218.6575540955
 20
394.2733409412
 30
0.0
 11
212.6575493867
 21
394.2733409412
 31
0.0
  0
LINE
  5
1B5
330
1F
100
AcDbEntity
  8
0
  6
Continuous
 62
     7
370
    30
100
AcDbLine
 10
82.6575541551
 20
394.2733409412
 30
0.0
 11
76.6575494464
 21
394.2733409412
 31
0.0
  0
LINE
  5
1B6
330
1F
100
AcDbEntity
  8
0
  6
Continuous
 62
     7
370
    30
100
AcDbLine
 10
76.6575494464
 20
398.2733341463
 30
0.0
 11
218.6575540955
 21
398.2733341463
 31
0.0
  0
ARC
  5
1B7
330
1F
100
AcDbEntity
  8
0
  6
Continuous
 62
     7
370
    30
100
AcDbCircle
 10
218.6575517709
 20
390.2733372457
 30
0.0
 40
4.000000000000057
100
AcDbArc
 50
0.0
 51
90.0
  0
ARC
  5
1B8
330
1F
100
AcDbEntity
  8
0
  6
Continuous
 62
     7
370
    30
100
AcDbCircle
 10
218.6575517709
 20
390.2733372457
 30
0.0
 40
8.000000000000057
100
AcDbArc
 50
0.0
 51
90.0
  0
CIRCLE
  5
1B9
330
1F
100
AcDbEntity
  8
0
  6
Continuous
 62
     7
370
    30
100
AcDbCircle
 10
147.6575517709
 20
270.7733372457
 30
0.0
 40
3.5
  0
ARC
  5
1BA
330
1F
100
AcDbEntity
  8
0
  6
Continuous
 62
     7
370
    30
100
AcDbCircle
 10
173.3575517709
 20
264.0733372457
 30
0.0
 40
0.3000000000000114
100
AcDbArc
 50
270.0
 51
0.0
  0
LINE
  5
1BB
330
1F
100
AcDbEntity
  8
0
  6
Continuous
 62
     7
370
    30
100
AcDbLine
 10
121.6575512345
 20
264.07333726
 30
0.0
 11
121.6575512345
 21
283.4733373083
 31
0.0
  0
LINE
  5
1BC
330
1F
100
AcDbEntity
  8
0
  6
Continuous
 62
     7
370
    30
100
AcDbLine
 10
173.6575523074
 20
283.4733373083
 30
0.0
 11
173.6575523074
 21
264.07333726
 31
0.0
  0
ARC
  5
1BD
330
1F
100
AcDbEntity
  8
0
  6
Continuous
 62
     7
370
    30
100
AcDbCircle
 10
121.9575517709
 20
264.0733372457
 30
0.0
 40
0.3000000000000114
100
AcDbArc
 50
180.0
 51
270.0
  0
LINE
  5
1BE
330
1F
100
AcDbEntity
  8
0
  6
Continuous
 62
     7
370
    30
100
AcDbLine
 10
173.3575509543
 20
263.7733372457
 30
0.0
 11
121.9575525875
 21
263.7733372457
 31
0.0
  0
LINE
  5
1BF
330
1F
100
AcDbEntity
  8
0
  6
Continuous
 62
     7
370
    30
100
AcDbLine
 10
121.9575525875
 20
283.7733367987
 30
0.0
 11
173.3575509543
 21
283.7733367987
 31
0.0
  0
ARC
  5
1C0
330
1F
100
AcDbEntity
  8
0
  6
Continuous
 62
     7
370
    30
100
AcDbCircle
 10
173.3575517709
 20
283.4733372457
 30
0.0
 40
0.3000000000000114
100
AcDbArc
 50
0.0
 51
90.0
  0
ARC
  5
1C1
330
1F
100
AcDbEntity
  8
0
  6
Continuous
 62
     7
370
    30
100
AcDbCircle
 10
121.9575517709
 20
283.4733372457
 30
0.0
 40
0.3000000000000114
100
AcDbArc
 50
90.0
 51
180.0
  0
LINE
  5
1C2
330
1F
100
AcDbEntity
  8
0
  6
Continuous
 62
     7
370
    30
100
AcDbLine
 10
173.6575523074
 20
286.7733372904
 30
0.0
 11
173.6575523074
 21
283.4733373083
 31
0.0
  0
LINE
  5
1C3
330
1F
100
AcDbEntity
  8
0
  6
Continuous
 62
     7
370
    30
100
AcDbLine
 10
121.6575512345
 20
283.4733373083
 30
0.0
 11
121.6575512345
 21
286.7733372904
 31
0.0
  0
LINE
  5
1C4
330
1F
100
AcDbEntity
  8
0
  6
Continuous
 62
     7
370
    30
100
AcDbLine
 10
173.6575523074
 20
287.273336441
 30
0.0
 11
173.6575523074
 21
286.7733372904
 31
0.0
  0
LINE
  5
1C5
330
1F
100
AcDbEntity
  8
0
  6
Continuous
 62
     7
370
    30
100
AcDbLine
 10
121.6575512345
 20
286.7733372904
 30
0.0
 11
121.6575512345
 21
287.273336441
 31
0.0
  0
LINE
  5
1C6
330
1F
100
AcDbEntity
  8
0
  6
Continuous
 62
     8
370
     0
100
AcDbLine
 10
163.1575515176
 20
263.0733372707
 30
0.0
 11
163.1575515176
 21
263.7733372457
 31
0.0
  0
LINE
  5
1C7
330
1F
100
AcDbEntity
  8
0
  6
Continuous
 62
     8
370
     0
100
AcDbLine
 10
132.1575520243
 20
263.7733372457
 30
0.0
 11
132.1575520243
 21
263.0733372707
 31
0.0
  0
LINE
  5
1C8
330
1F
100
AcDbEntity
  8
0
  6
Continuous
 62
     8
370
     0
100
AcDbLine
 10
121.6575512345
 20
289.5733381219
 30
0.0
 11
121.9575525875
 21
289.5733381219
 31
0.0
  0
LINE
  5
1C9
330
1F
100
AcDbEntity
  8
0
  6
Continuous
 62
     8
370
     0
100
AcDbLine
 10
121.9575525875
 20
289.2733367689
 30
0.0
 11
121.9575525875
 21
289.5733381219
 31
0.0
  0
LINE
  5
1CA
330
1F
100
AcDbEntity
  8
0
  6
Continuous
 62
     8
370
     0
100
AcDbLine
 10
173.3575509543
 20
289.2733367689
 30
0.0
 11
173.3575509543
 21
289.5733381219
 31
0.0
  0
LINE
  5
1CB
330
1F
100
AcDbEntity
  8
0
  6
Continuous
 62
     8
370
     0
100
AcDbLine
 10
173.6575523074
 20
289.5733381219
 30
0.0
 11
173.3575509543
 21
289.5733381219
 31
0.0
  0
LINE
  5
1CC
330
1F
100
AcDbEntity
  8
0
  6
Continuous
 62
     8
370
     0
100
AcDbLine
 10
121.9575525875
 20
289.5733381219
 30
0.0
 11
173.3575509543
 21
289.5733381219
 31
0.0
  0
LINE
  5
1CD
330
1F
100
AcDbEntity
  8
0
  6
Continuous
 62
     8
370
     0
100
AcDbLine
 10
173.3575509543
 20
289.5733381219
 30
0.0
 11
173.3575509543
 21
291.2733370967
 31
0.0
  0
LINE
  5
1CE
330
1F
100
AcDbEntity
  8
0
  6
Continuous
 62
     8
370
     0
100
AcDbLine
 10
173.3575509543
 20
291.2733370967
 30
0.0
 11
173.6575523074
 21
291.2733370967
 31
0.0
  0
LINE
  5
1CF
330
1F
100
AcDbEntity
  8
0
  6
Continuous
 62
     8
370
     0
100
AcDbLine
 10
121.9575525875
 20
291.2733370967
 30
0.0
 11
121.9575525875
 21
289.5733381219
 31
0.0
  0
LINE
  5
1D0
330
1F
100
AcDbEntity
  8
0
  6
Continuous
 62
     8
370
     0
100
AcDbLine
 10
121.9575525875
 20
291.2733370967
 30
0.0
 11
121.6575512345
 21
291.2733370967
 31
0.0
  0
ARC
  5
1D1
330
1F
100
AcDbEntity
  8
0
  6
Continuous
 62
     8
370
     0
100
AcDbCircle
 10
123.6575517709
 20
291.2733372457
 30
0.0
 40
1.699999999999989
100
AcDbArc
 50
90.0
 51
180.0
  0
LINE
  5
1D2
330
1F
100
AcDbEntity
  8
0
  6
Continuous
 62
     8
370
     0
100
AcDbLine
 10
171.6575519795
 20
292.9733379341
 30
0.0
 11
123.6575515623
 21
292.9733379341
 31
0.0
  0
ARC
  5
1D3
330
1F
100
AcDbEntity
  8
0
  6
Continuous
 62
     8
370
     0
100
AcDbCircle
 10
171.6575517709
 20
291.2733372457
 30
0.0
 40
1.700000000000017
100
AcDbArc
 50
0.0
 51
90.0
  0
LINE
  5
1D4
330
1F
100
AcDbEntity
  8
0
  6
Continuous
 62
     8
370
     0
100
AcDbLine
 10
123.6575515623
 20
292.9733379341
 30
0.0
 11
123.6575515623
 21
293.2733374245
 31
0.0
  0
LINE
  5
1D5
330
1F
100
AcDbEntity
  8
0
  6
Continuous
 62
     8
370
     0
100
AcDbLine
 10
171.6575519795
 20
292.9733379341
 30
0.0
 11
171.6575519795
 21
293.2733374245
 31
0.0
  0
LINE
  5
1D6
330
1F
100
AcDbEntity
  8
0
  6
Continuous
 62
     8
370
     0
100
AcDbLine
 10
82.6575541551
 20
291.2733370967
 30
0.0
 11
88.6575514133
 21
291.2733370967
 31
0.0
  0
LINE
  5
1D7
330
1F
100
AcDbEntity
  8
0
  6
Continuous
 62
     8
370
     0
100
AcDbLine
 10
206.6575521286
 20
291.2733370967
 30
0.0
 11
212.6575493867
 21
291.2733370967
 31
0.0
  0
LINE
  5
1D8
330
1F
100
AcDbEntity
  8
0
  6
Continuous
 62
     8
370
     0
100
AcDbLine
 10
73.6575508173
 20
293.7733365752
 30
0.0
 11
73.6575508173
 21
299.773335696
 31
0.0
  0
LINE
  5
1D9
330
1F
100
AcDbEntity
  8
0
  6
Continuous
 62
     8
370
     0
100
AcDbLine
 10
221.6575527246
 20
299.773335696
 30
0.0
 11
221.6575527246
 21
293.7733365752
 31
0.0
  0
LINE
  5
1DA
330
1F
100
AcDbEntity
  8
0
  6
Continuous
 62
     8
370
     0
100
AcDbLine
 10
73.6575508173
 20
308.7733390338
 30
0.0
 11
73.6575508173
 21
314.773336292
 31
0.0
  0
LINE
  5
1DB
330
1F
100
AcDbEntity
  8
0
  6
Continuous
 62
     8
370
     0
100
AcDbLine
 10
221.6575527246
 20
314.773336292
 30
0.0
 11
221.6575527246
 21
308.7733390338
 31
0.0
  0
LINE
  5
1DC
330
1F
100
AcDbEntity
  8
0
  6
Continuous
 62
     8
370
     0
100
AcDbLine
 10
73.6575508173
 20
323.7733359046
 30
0.0
 11
73.6575508173
 21
329.7733368881
 31
0.0
  0
LINE
  5
1DD
330
1F
100
AcDbEntity
  8
0
  6
Continuous
 62
     8
370
     0
100
AcDbLine
 10
221.6575527246
 20
329.7733368881
 30
0.0
 11
221.6575527246
 21
323.7733359046
 31
0.0
  0
LINE
  5
1DE
330
1F
100
AcDbEntity
  8
0
  6
Continuous
 62
     8
370
     0
100
AcDbLine
 10
73.6575508173
 20
338.7733402259
 30
0.0
 11
73.6575508173
 21
344.7733374841
 31
0.0
  0
LINE
  5
1DF
330
1F
100
AcDbEntity
  8
0
  6
Continuous
 62
     8
370
     0
100
AcDbLine
 10
221.6575527246
 20
344.7733374841
 30
0.0
 11
221.6575527246
 21
338.7733402259
 31
0.0
  0
LINE
  5
1E0
330
1F
100
AcDbEntity
  8
0
  6
Continuous
 62
     8
370
     0
100
AcDbLine
 10
73.6575508173
 20
353.773340822
 30
0.0
 11
73.6575508173
 21
359.7733380802
 31
0.0
  0
LINE
  5
1E1
330
1F
100
AcDbEntity
  8
0
  6
Continuous
 62
     8
370
     0
100
AcDbLine
 10
221.6575527246
 20
359.7733380802
 30
0.0
 11
221.6575527246
 21
353.773340822
 31
0.0
  0
LINE
  5
1E2
330
1F
100
AcDbEntity
  8
0
  6
Continuous
 62
     8
370
     0
100
AcDbLine
 10
73.6575508173
 20
368.7733339674
 30
0.0
 11
73.6575508173
 21
374.7733386762
 31
0.0
  0
LINE
  5
1E3
330
1F
100
AcDbEntity
  8
0
  6
Continuous
 62
     8
370
     0
100
AcDbLine
 10
221.6575527246
 20
374.7733386762
 30
0.0
 11
221.6575527246
 21
368.7733339674
 31
0.0
  0
LINE
  5
1E4
330
1F
100
AcDbEntity
  8
0
  6
Continuous
 62
     8
370
     0
100
AcDbLine
 10
212.6575493867
 20
392.2733368881
 30
0.0
 11
206.6575521286
 21
392.2733368881
 31
0.0
  0
LINE
  5
1E5
330
1F
100
AcDbEntity
  8
0
  6
Continuous
 62
     8
370
     0
100
AcDbLine
 10
221.6575527246
 20
389.7733392723
 30
0.0
 11
221.6575527246
 21
383.7733345635
 31
0.0
  0
LINE
  5
1E6
330
1F
100
AcDbEntity
  8
0
  6
Continuous
 62
     8
370
     0
100
AcDbLine
 10
73.6575508173
 20
383.7733345635
 30
0.0
 11
73.6575508173
 21
389.7733392723
 31
0.0
  0
LINE
  5
1E7
330
1F
100
AcDbEntity
  8
0
  6
Continuous
 62
     8
370
     0
100
AcDbLine
 10
88.6575514133
 20
392.2733368881
 30
0.0
 11
82.6575541551
 21
392.2733368881
 31
0.0
  0
LINE
  5
1E8
330
1F
100
AcDbEntity
  8
0
  6
Continuous
 62
     8
370
     0
100
AcDbLine
 10
204.6575518007
 20
287.273336441
 30
0.0
 11
204.6575518007
 21
289.2733367689
 31
0.0
  0
LINE
  5
1E9
330
1F
100
AcDbEntity
  8
0
  6
Continuous
 62
     8
370
     0
100
AcDbLine
 10
90.6575517411
 20
289.2733367689
 30
0.0
 11
90.6575517411
 21
287.273336441
 31
0.0
  0
LINE
  5
1EA
330
1F
100
AcDbEntity
  8
0
  6
Continuous
 62
     8
370
     0
100
AcDbLine
 10
204.6575518007
 20
394.2733409412
 30
0.0
 11
204.6575518007
 21
396.2733300931
 31
0.0
  0
LINE
  5
1EB
330
1F
100
AcDbEntity
  8
0
  6
Continuous
 62
     8
370
     0
100
AcDbLine
 10
90.6575517411
 20
396.2733300931
 30
0.0
 11
90.6575517411
 21
394.2733409412
 31
0.0
  0
LINE
  5
1EC
330
1F
100
AcDbEntity
  8
0
  6
Continuous
 62
     8
370
     0
100
AcDbLine
 10
223.6575493271
 20
301.7733360238
 30
0.0
 11
225.6575533803
 21
301.7733360238
 31
0.0
  0
LINE
  5
1ED
330
1F
100
AcDbEntity
  8
0
  6
Continuous
 62
     8
370
     0
100
AcDbLine
 10
69.6575501616
 20
301.7733360238
 30
0.0
 11
71.6575542147
 21
301.7733360238
 31
0.0
  0
LINE
  5
1EE
330
1F
100
AcDbEntity
  8
0
  6
Continuous
 62
     8
370
     0
100
AcDbLine
 10
225.6575533803
 20
306.773338706
 30
0.0
 11
223.6575493271
 21
306.773338706
 31
0.0
  0
LINE
  5
1EF
330
1F
100
AcDbEntity
  8
0
  6
Continuous
 62
     8
370
     0
100
AcDbLine
 10
71.6575542147
 20
306.773338706
 30
0.0
 11
69.6575501616
 21
306.773338706
 31
0.0
  0
LINE
  5
1F0
330
1F
100
AcDbEntity
  8
0
  6
Continuous
 62
     8
370
     0
100
AcDbLine
 10
69.6575501616
 20
316.7733366199
 30
0.0
 11
71.6575542147
 21
316.7733366199
 31
0.0
  0
LINE
  5
1F1
330
1F
100
AcDbEntity
  8
0
  6
Continuous
 62
     8
370
     0
100
AcDbLine
 10
223.6575493271
 20
316.7733366199
 30
0.0
 11
225.6575533803
 21
316.7733366199
 31
0.0
  0
LINE
  5
1F2
330
1F
100
AcDbEntity
  8
0
  6
Continuous
 62
     8
370
     0
100
AcDbLine
 10
225.6575533803
 20
321.7733355768
 30
0.0
 11
223.6575493271
 21
321.7733355768
 31
0.0
  0
LINE
  5
1F3
330
1F
100
AcDbEntity
  8
0
  6
Continuous
 62
     8
370
     0
100
AcDbLine
 10
71.6575542147
 20
321.7733355768
 30
0.0
 11
69.6575501616
 21
321.7733355768
 31
0.0
  0
LINE
  5
1F4
330
1F
100
AcDbEntity
  8
0
  6
Continuous
 62
     8
370
     0
100
AcDbLine
 10
223.6575493271
 20
331.7733409412
 30
0.0
 11
225.6575533803
 21
331.7733409412
 31
0.0
  0
LINE
  5
1F5
330
1F
100
AcDbEntity
  8
0
  6
Continuous
 62
     8
370
     0
100
AcDbLine
 10
69.6575501616
 20
331.7733409412
 30
0.0
 11
71.6575542147
 21
331.7733409412
 31
0.0
  0
LINE
  5
1F6
330
1F
100
AcDbEntity
  8
0
  6
Continuous
 62
     8
370
     0
100
AcDbLine
 10
225.6575533803
 20
336.7733361728
 30
0.0
 11
223.6575493271
 21
336.7733361728
 31
0.0
  0
LINE
  5
1F7
330
1F
100
AcDbEntity
  8
0
  6
Continuous
 62
     8
370
     0
100
AcDbLine
 10
71.6575542147
 20
336.7733361728
 30
0.0
 11
69.6575501616
 21
336.7733361728
 31
0.0
  0
LINE
  5
1F8
330
1F
100
AcDbEntity
  8
0
  6
Continuous
 62
     8
370
     0
100
AcDbLine
 10
223.6575493271
 20
346.7733340867
 30
0.0
 11
225.6575533803
 21
346.7733340867
 31
0.0
  0
LINE
  5
1F9
330
1F
100
AcDbEntity
  8
0
  6
Continuous
 62
     8
370
     0
100
AcDbLine
 10
69.6575501616
 20
346.7733340867
 30
0.0
 11
71.6575542147
 21
346.7733340867
 31
0.0
  0
LINE
  5
1FA
330
1F
100
AcDbEntity
  8
0
  6
Continuous
 62
     8
370
     0
100
AcDbLine
 10
71.6575542147
 20
351.7733367689
 30
0.0
 11
69.6575501616
 21
351.7733367689
 31
0.0
  0
LINE
  5
1FB
330
1F
100
AcDbEntity
  8
0
  6
Continuous
 62
     8
370
     0
100
AcDbLine
 10
225.6575533803
 20
351.7733367689
 30
0.0
 11
223.6575493271
 21
351.7733367689
 31
0.0
  0
LINE
  5
1FC
330
1F
100
AcDbEntity
  8
0
  6
Continuous
 62
     8
370
     0
100
AcDbLine
 10
223.6575493271
 20
361.7733346827
 30
0.0
 11
225.6575533803
 21
361.7733346827
 31
0.0
  0
LINE
  5
1FD
330
1F
100
AcDbEntity
  8
0
  6
Continuous
 62
     8
370
     0
100
AcDbLine
 10
69.6575501616
 20
361.7733346827
 30
0.0
 11
71.6575542147
 21
361.7733346827
 31
0.0
  0
LINE
  5
1FE
330
1F
100
AcDbEntity
  8
0
  6
Continuous
 62
     8
370
     0
100
AcDbLine
 10
71.6575542147
 20
366.7733373649
 30
0.0
 11
69.6575501616
 21
366.7733373649
 31
0.0
  0
LINE
  5
1FF
330
1F
100
AcDbEntity
  8
0
  6
Continuous
 62
     8
370
     0
100
AcDbLine
 10
225.6575533803
 20
366.7733373649
 30
0.0
 11
223.6575493271
 21
366.7733373649
 31
0.0
  0
LINE
  5
200
330
1F
100
AcDbEntity
  8
0
  6
Continuous
 62
     8
370
     0
100
AcDbLine
 10
69.6575501616
 20
376.7733352788
 30
0.0
 11
71.6575542147
 21
376.7733352788
 31
0.0
  0
LINE
  5
201
330
1F
100
AcDbEntity
  8
0
  6
Continuous
 62
     8
370
     0
100
AcDbLine
 10
223.6575493271
 20
376.7733352788
 30
0.0
 11
225.6575533803
 21
376.7733352788
 31
0.0
  0
LINE
  5
202
330
1F
100
AcDbEntity
  8
0
  6
Continuous
 62
     8
370
     0
100
AcDbLine
 10
71.6575542147
 20
381.773337961
 30
0.0
 11
69.6575501616
 21
381.773337961
 31
0.0
  0
LINE
  5
203
330
1F
100
AcDbEntity
  8
0
  6
Continuous
 62
     8
370
     0
100
AcDbLine
 10
225.6575533803
 20
381.773337961
 30
0.0
 11
223.6575493271
 21
381.773337961
 31
0.0
  0
LINE
  5
204
330
1F
100
AcDbEntity
  8
0
  6
Continuous
 62
     8
370
     0
100
AcDbLine
 10
173.6575523074
 20
285.7733371265
 30
0.0
 11
218.6575540955
 21
285.7733371265
 31
0.0
  0
LINE
  5
205
330
1F
100
AcDbEntity
  8
0
  6
Continuous
 62
     8
370
     0
100
AcDbLine
 10
218.6575540955
 20
285.2733379759
 30
0.0
 11
218.6575540955
 21
285.7733371265
 31
0.0
  0
LINE
  5
206
330
1F
100
AcDbEntity
  8
0
  6
Continuous
 62
     8
370
     0
100
AcDbLine
 10
218.6575540955
 20
288.7733376182
 30
0.0
 11
212.6575493867
 21
288.7733376182
 31
0.0
  0
LINE
  5
207
330
1F
100
AcDbEntity
  8
0
  6
Continuous
 62
     8
370
     0
100
AcDbLine
 10
218.6575540955
 20
288.7733376182
 30
0.0
 11
218.6575540955
 21
285.7733371265
 31
0.0
  0
LINE
  5
208
330
1F
100
AcDbEntity
  8
0
  6
Continuous
 62
     8
370
     0
100
AcDbLine
 10
218.6575540955
 20
288.7733376182
 30
0.0
 11
218.6575540955
 21
289.2733367689
 31
0.0
  0
ARC
  5
209
330
1F
100
AcDbEntity
  8
0
  6
Continuous
 62
     8
370
     0
100
AcDbCircle
 10
218.6575517709
 20
293.2733372457
 30
0.0
 40
7.5
100
AcDbArc
 50
270.0
 51
0.0
  0
LINE
  5
20A
330
1F
100
AcDbEntity
  8
0
  6
Continuous
 62
     8
370
     0
100
AcDbLine
 10
226.1575543935
 20
293.2733374245
 30
0.0
 11
226.6575554068
 21
293.2733374245
 31
0.0
  0
ARC
  5
20B
330
1F
100
AcDbEntity
  8
0
  6
Continuous
 62
     8
370
     0
100
AcDbCircle
 10
218.6575517709
 20
293.2733372457
 30
0.0
 40
4.5
100
AcDbArc
 50
270.0
 51
0.0
  0
LINE
  5
20C
330
1F
100
AcDbEntity
  8
0
  6
Continuous
 62
     8
370
     0
100
AcDbLine
 10
223.1575483139
 20
293.2733374245
 30
0.0
 11
226.1575543935
 21
293.2733374245
 31
0.0
  0
LINE
  5
20D
330
1F
100
AcDbEntity
  8
0
  6
Continuous
 62
     8
370
     0
100
AcDbLine
 10
222.6575547512
 20
293.2733374245
 30
0.0
 11
223.1575483139
 21
293.2733374245
 31
0.0
  0
LINE
  5
20E
330
1F
100
AcDbEntity
  8
0
  6
Continuous
 62
     8
370
     0
100
AcDbLine
 10
223.1575483139
 20
390.273332835
 30
0.0
 11
223.1575483139
 21
389.7733392723
 31
0.0
  0
LINE
  5
20F
330
1F
100
AcDbEntity
  8
0
  6
Continuous
 62
     8
370
     0
100
AcDbLine
 10
223.1575483139
 20
383.7733345635
 30
0.0
 11
223.1575483139
 21
374.7733386762
 31
0.0
  0
LINE
  5
210
330
1F
100
AcDbEntity
  8
0
  6
Continuous
 62
     8
370
     0
100
AcDbLine
 10
223.1575483139
 20
368.7733339674
 30
0.0
 11
223.1575483139
 21
359.7733380802
 31
0.0
  0
LINE
  5
211
330
1F
100
AcDbEntity
  8
0
  6
Continuous
 62
     8
370
     0
100
AcDbLine
 10
223.1575483139
 20
353.773340822
 30
0.0
 11
223.1575483139
 21
344.7733374841
 31
0.0
  0
LINE
  5
212
330
1F
100
AcDbEntity
  8
0
  6
Continuous
 62
     8
370
     0
100
AcDbLine
 10
223.1575483139
 20
338.7733402259
 30
0.0
 11
223.1575483139
 21
329.7733368881
 31
0.0
  0
LINE
  5
213
330
1F
100
AcDbEntity
  8
0
  6
Continuous
 62
     8
370
     0
100
AcDbLine
 10
223.1575483139
 20
323.7733359046
 30
0.0
 11
223.1575483139
 21
314.773336292
 31
0.0
  0
LINE
  5
214
330
1F
100
AcDbEntity
  8
0
  6
Continuous
 62
     8
370
     0
100
AcDbLine
 10
223.1575483139
 20
308.7733390338
 30
0.0
 11
223.1575483139
 21
299.773335696
 31
0.0
  0
LINE
  5
215
330
1F
100
AcDbEntity
  8
0
  6
Continuous
 62
     8
370
     0
100
AcDbLine
 10
223.1575483139
 20
293.7733365752
 30
0.0
 11
223.1575483139
 21
293.2733374245
 31
0.0
  0
LINE
  5
216
330
1F
100
AcDbEntity
  8
0
  6
Continuous
 62
     8
370
     0
100
AcDbLine
 10
223.1575483139
 20
390.273332835
 30
0.0
 11
226.1575543935
 21
390.273332835
 31
0.0
  0
LINE
  5
217
330
1F
100
AcDbEntity
  8
0
  6
Continuous
 62
     8
370
     0
100
AcDbLine
 10
226.1575543935
 20
293.2733374245
 30
0.0
 11
226.1575543935
 21
390.273332835
 31
0.0
  0
LINE
  5
218
330
1F
100
AcDbEntity
  8
0
  6
Continuous
 62
     8
370
     0
100
AcDbLine
 10
222.6575547512
 20
390.273332835
 30
0.0
 11
223.1575483139
 21
390.273332835
 31
0.0
  0
LINE
  5
219
330
1F
100
AcDbEntity
  8
0
  6
Continuous
 62
     8
370
     0
100
AcDbLine
 10
226.1575543935
 20
390.273332835
 30
0.0
 11
226.6575554068
 21
390.273332835
 31
0.0
  0
LINE
  5
21A
330
1F
100
AcDbEntity
  8
0
  6
Continuous
 62
     8
370
     0
100
AcDbLine
 10
76.6575494464
 20
289.2733367689
 30
0.0
 11
76.6575494464
 21
288.7733376182
 31
0.0
  0
ARC
  5
21B
330
1F
100
AcDbEntity
  8
0
  6
Continuous
 62
     8
370
     0
100
AcDbCircle
 10
76.6575517709
 20
293.2733372457
 30
0.0
 40
4.5
100
AcDbArc
 50
180.0
 51
270.0
  0
LINE
  5
21C
330
1F
100
AcDbEntity
  8
0
  6
Continuous
 62
     8
370
     0
100
AcDbLine
 10
72.6575487907
 20
293.2733374245
 30
0.0
 11
72.157555228
 21
293.2733374245
 31
0.0
  0
LINE
  5
21D
330
1F
100
AcDbEntity
  8
0
  6
Continuous
 62
     8
370
     0
100
AcDbLine
 10
82.6575541551
 20
288.7733376182
 30
0.0
 11
76.6575494464
 21
288.7733376182
 31
0.0
  0
LINE
  5
21E
330
1F
100
AcDbEntity
  8
0
  6
Continuous
 62
     8
370
     0
100
AcDbLine
 10
76.6575494464
 20
285.7733371265
 30
0.0
 11
121.6575512345
 21
285.7733371265
 31
0.0
  0
LINE
  5
21F
330
1F
100
AcDbEntity
  8
0
  6
Continuous
 62
     8
370
     0
100
AcDbLine
 10
76.6575494464
 20
285.7733371265
 30
0.0
 11
76.6575494464
 21
285.2733379759
 31
0.0
  0
ARC
  5
220
330
1F
100
AcDbEntity
  8
0
  6
Continuous
 62
     8
370
     0
100
AcDbCircle
 10
76.6575517709
 20
293.2733372457
 30
0.0
 40
7.5
100
AcDbArc
 50
180.0
 51
270.0
  0
LINE
  5
221
330
1F
100
AcDbEntity
  8
0
  6
Continuous
 62
     8
370
     0
100
AcDbLine
 10
69.1575491483
 20
293.2733374245
 30
0.0
 11
68.657548135
 21
293.2733374245
 31
0.0
  0
LINE
  5
222
330
1F
100
AcDbEntity
  8
0
  6
Continuous
 62
     8
370
     0
100
AcDbLine
 10
76.6575494464
 20
288.7733376182
 30
0.0
 11
76.6575494464
 21
285.7733371265
 31
0.0
  0
LINE
  5
223
330
1F
100
AcDbEntity
  8
0
  6
Continuous
 62
     8
370
     0
100
AcDbLine
 10
72.157555228
 20
293.2733374245
 30
0.0
 11
69.1575491483
 21
293.2733374245
 31
0.0
  0
LINE
  5
224
330
1F
100
AcDbEntity
  8
0
  6
Continuous
 62
     8
370
     0
100
AcDbLine
 10
69.1575491483
 20
390.273332835
 30
0.0
 11
69.1575491483
 21
293.2733374245
 31
0.0
  0
LINE
  5
225
330
1F
100
AcDbEntity
  8
0
  6
Continuous
 62
     8
370
     0
100
AcDbLine
 10
69.1575491483
 20
390.273332835
 30
0.0
 11
68.657548135
 21
390.273332835
 31
0.0
  0
LINE
  5
226
330
1F
100
AcDbEntity
  8
0
  6
Continuous
 62
     8
370
     0
100
AcDbLine
 10
72.157555228
 20
293.2733374245
 30
0.0
 11
72.157555228
 21
293.7733365752
 31
0.0
  0
LINE
  5
227
330
1F
100
AcDbEntity
  8
0
  6
Continuous
 62
     8
370
     0
100
AcDbLine
 10
72.157555228
 20
299.773335696
 30
0.0
 11
72.157555228
 21
308.7733390338
 31
0.0
  0
LINE
  5
228
330
1F
100
AcDbEntity
  8
0
  6
Continuous
 62
     8
370
     0
100
AcDbLine
 10
72.157555228
 20
314.773336292
 30
0.0
 11
72.157555228
 21
323.7733359046
 31
0.0
  0
LINE
  5
229
330
1F
100
AcDbEntity
  8
0
  6
Continuous
 62
     8
370
     0
100
AcDbLine
 10
72.157555228
 20
329.7733368881
 30
0.0
 11
72.157555228
 21
338.7733402259
 31
0.0
  0
LINE
  5
22A
330
1F
100
AcDbEntity
  8
0
  6
Continuous
 62
     8
370
     0
100
AcDbLine
 10
72.157555228
 20
344.7733374841
 30
0.0
 11
72.157555228
 21
353.773340822
 31
0.0
  0
LINE
  5
22B
330
1F
100
AcDbEntity
  8
0
  6
Continuous
 62
     8
370
     0
100
AcDbLine
 10
72.157555228
 20
359.7733380802
 30
0.0
 11
72.157555228
 21
368.7733339674
 31
0.0
  0
LINE
  5
22C
330
1F
100
AcDbEntity
  8
0
  6
Continuous
 62
     8
370
     0
100
AcDbLine
 10
72.157555228
 20
374.7733386762
 30
0.0
 11
72.157555228
 21
383.7733345635
 31
0.0
  0
LINE
  5
22D
330
1F
100
AcDbEntity
  8
0
  6
Continuous
 62
     8
370
     0
100
AcDbLine
 10
72.157555228
 20
389.7733392723
 30
0.0
 11
72.157555228
 21
390.273332835
 31
0.0
  0
LINE
  5
22E
330
1F
100
AcDbEntity
  8
0
  6
Continuous
 62
     8
370
     0
100
AcDbLine
 10
72.6575487907
 20
390.273332835
 30
0.0
 11
72.157555228
 21
390.273332835
 31
0.0
  0
LINE
  5
22F
330
1F
100
AcDbEntity
  8
0
  6
Continuous
 62
     8
370
     0
100
AcDbLine
 10
72.157555228
 20
390.273332835
 30
0.0
 11
69.1575491483
 21
390.273332835
 31
0.0
  0
ARC
  5
230
330
1F
100
AcDbEntity
  8
0
  6
Continuous
 62
     8
370
     0
100
AcDbCircle
 10
76.6575517709
 20
390.2733372457
 30
0.0
 40
7.499999999999943
100
AcDbArc
 50
90.0
 51
180.0
  0
LINE
  5
231
330
1F
100
AcDbEntity
  8
0
  6
Continuous
 62
     8
370
     0
100
AcDbLine
 10
76.6575494464
 20
397.7733405836
 30
0.0
 11
76.6575494464
 21
398.2733341463
 31
0.0
  0
ARC
  5
232
330
1F
100
AcDbEntity
  8
0
  6
Continuous
 62
     8
370
     0
100
AcDbCircle
 10
76.6575517709
 20
390.2733372457
 30
0.0
 40
4.499999999999943
100
AcDbArc
 50
90.0
 51
180.0
  0
LINE
  5
233
330
1F
100
AcDbEntity
  8
0
  6
Continuous
 62
     8
370
     0
100
AcDbLine
 10
76.6575494464
 20
394.2733409412
 30
0.0
 11
76.6575494464
 21
394.7733345039
 31
0.0
  0
LINE
  5
234
330
1F
100
AcDbEntity
  8
0
  6
Continuous
 62
     8
370
     0
100
AcDbLine
 10
76.6575494464
 20
394.7733345039
 30
0.0
 11
76.6575494464
 21
397.7733405836
 31
0.0
  0
LINE
  5
235
330
1F
100
AcDbEntity
  8
0
  6
Continuous
 62
     8
370
     0
100
AcDbLine
 10
76.6575494464
 20
394.7733345039
 30
0.0
 11
82.6575541551
 21
394.7733345039
 31
0.0
  0
LINE
  5
236
330
1F
100
AcDbEntity
  8
0
  6
Continuous
 62
     8
370
     0
100
AcDbLine
 10
212.6575493867
 20
394.7733345039
 30
0.0
 11
218.6575540955
 21
394.7733345039
 31
0.0
  0
LINE
  5
237
330
1F
100
AcDbEntity
  8
0
  6
Continuous
 62
     8
370
     0
100
AcDbLine
 10
218.6575540955
 20
394.2733409412
 30
0.0
 11
218.6575540955
 21
394.7733345039
 31
0.0
  0
LINE
  5
238
330
1F
100
AcDbEntity
  8
0
  6
Continuous
 62
     8
370
     0
100
AcDbLine
 10
218.6575540955
 20
397.7733405836
 30
0.0
 11
76.6575494464
 21
397.7733405836
 31
0.0
  0
LINE
  5
239
330
1F
100
AcDbEntity
  8
0
  6
Continuous
 62
     8
370
     0
100
AcDbLine
 10
218.6575540955
 20
394.7733345039
 30
0.0
 11
218.6575540955
 21
397.7733405836
 31
0.0
  0
LINE
  5
23A
330
1F
100
AcDbEntity
  8
0
  6
Continuous
 62
     8
370
     0
100
AcDbLine
 10
218.6575540955
 20
397.7733405836
 30
0.0
 11
218.6575540955
 21
398.2733341463
 31
0.0
  0
ARC
  5
23B
330
1F
100
AcDbEntity
  8
0
  6
Continuous
 62
     8
370
     0
100
AcDbCircle
 10
218.6575517709
 20
390.2733372457
 30
0.0
 40
4.500000000000057
100
AcDbArc
 50
0.0
 51
90.0
  0
ARC
  5
23C
330
1F
100
AcDbEntity
  8
0
  6
Continuous
 62
     8
370
     0
100
AcDbCircle
 10
218.6575517709
 20
390.2733372457
 30
0.0
 40
7.500000000000057
100
AcDbArc
 50
0.0
 51
90.0
  0
LINE
  5
23D
330
1F
100
AcDbEntity
  8
0
  6
Continuous
 62
     8
370
     0
100
AcDbLine
 10
173.3575509543
 20
264.07333726
 30
0.0
 11
173.3575509543
 21
283.4733373083
 31
0.0
  0
LINE
  5
23E
330
1F
100
AcDbEntity
  8
0
  6
Continuous
 62
     8
370
     0
100
AcDbLine
 10
121.9575525875
 20
264.07333726
 30
0.0
 11
173.3575509543
 21
264.07333726
 31
0.0
  0
LINE
  5
23F
330
1F
100
AcDbEntity
  8
0
  6
Continuous
 62
     8
370
     0
100
AcDbLine
 10
121.9575525875
 20
283.4733373083
 30
0.0
 11
121.9575525875
 21
264.07333726
 31
0.0
  0
LINE
  5
240
330
1F
100
AcDbEntity
  8
0
  6
Continuous
 62
     8
370
     0
100
AcDbLine
 10
173.3575509543
 20
283.4733373083
 30
0.0
 11
121.9575525875
 21
283.4733373083
 31
0.0
  0
LINE
  5
241
330
1F
100
AcDbEntity
  8
0
  6
Continuous
 62
     8
370
     0
100
AcDbLine
 10
173.3575509543
 20
264.07333726
 30
0.0
 11
173.6575523074
 21
264.07333726
 31
0.0
  0
LINE
  5
242
330
1F
100
AcDbEntity
  8
0
  6
Continuous
 62
     8
370
     0
100
AcDbLine
 10
173.3575509543
 20
263.7733372457
 30
0.0
 11
173.3575509543
 21
264.07333726
 31
0.0
  0
LINE
  5
243
330
1F
100
AcDbEntity
  8
0
  6
Continuous
 62
     8
370
     0
100
AcDbLine
 10
121.6575512345
 20
283.4733373083
 30
0.0
 11
121.9575525875
 21
283.4733373083
 31
0.0
  0
LINE
  5
244
330
1F
100
AcDbEntity
  8
0
  6
Continuous
 62
     8
370
     0
100
AcDbLine
 10
121.6575512345
 20
264.07333726
 30
0.0
 11
121.9575525875
 21
264.07333726
 31
0.0
  0
LINE
  5
245
330
1F
100
AcDbEntity
  8
0
  6
Continuous
 62
     8
370
     0
100
AcDbLine
 10
173.3575509543
 20
283.4733373083
 30
0.0
 11
173.6575523074
 21
283.4733373083
 31
0.0
  0
LINE
  5
246
330
1F
100
AcDbEntity
  8
0
  6
Continuous
 62
     8
370
     0
100
AcDbLine
 10
121.9575525875
 20
263.7733372457
 30
0.0
 11
121.9575525875
 21
264.07333726
 31
0.0
  0
LINE
  5
247
330
1F
100
AcDbEntity
  8
0
  6
Continuous
 62
     8
370
     0
100
AcDbLine
 10
121.9575525875
 20
283.4733373083
 30
0.0
 11
121.9575525875
 21
283.7733367987
 31
0.0
  0
LINE
  5
248
330
1F
100
AcDbEntity
  8
0
  6
Continuous
 62
     8
370
     0
100
AcDbLine
 10
173.3575509543
 20
283.4733373083
 30
0.0
 11
173.3575509543
 21
283.7733367987
 31
0.0
  0
LINE
  5
249
330
1F
100
AcDbEntity
  8
0
  6
Continuous
 62
     8
370
     0
100
AcDbLine
 10
173.3575509543
 20
283.7733367987
 30
0.0
 11
173.3575509543
 21
286.7733372904
 31
0.0
  0
LINE
  5
24A
330
1F
100
AcDbEntity
  8
0
  6
Continuous
 62
     8
370
     0
100
AcDbLine
 10
173.6575523074
 20
286.7733372904
 30
0.0
 11
173.3575509543
 21
286.7733372904
 31
0.0
  0
LINE
  5
24B
330
1F
100
AcDbEntity
  8
0
  6
Continuous
 62
     8
370
     0
100
AcDbLine
 10
121.6575512345
 20
286.7733372904
 30
0.0
 11
121.9575525875
 21
286.7733372904
 31
0.0
  0
LINE
  5
24C
330
1F
100
AcDbEntity
  8
0
  6
Continuous
 62
     8
370
     0
100
AcDbLine
 10
121.9575525875
 20
286.7733372904
 30
0.0
 11
121.9575525875
 21
283.7733367987
 31
0.0
  0
LINE
  5
24D
330
1F
100
AcDbEntity
  8
0
  6
Continuous
 62
     8
370
     0
100
AcDbLine
 10
121.9575525875
 20
286.7733372904
 30
0.0
 11
173.3575509543
 21
286.7733372904
 31
0.0
  0
LINE
  5
24E
330
1F
100
AcDbEntity
  8
0
  6
Continuous
 62
     8
370
     0
100
AcDbLine
 10
173.3575509543
 20
286.7733372904
 30
0.0
 11
173.3575509543
 21
287.273336441
 31
0.0
  0
LINE
  5
24F
330
1F
100
AcDbEntity
  8
0
  6
Continuous
 62
     8
370
     0
100
AcDbLine
 10
121.9575525875
 20
287.273336441
 30
0.0
 11
121.9575525875
 21
286.7733372904
 31
0.0
  0
DIMENSION
  5
250
330
1F
100
AcDbEntity
  8
0
  6
Continuous
 62
     7
370
     0
100
AcDbDimension
  2
*D2
 10
237.0616785685
 20
263.7733372457
 30
0.0
 11
237.0616785685
 21
334.7298220613
 31
0.0
 70
   160
  1
(<>)
 71
     2
 42
-1.0
  3
SLDDIMSTYLE0
100
AcDbAlignedDimension
 13
218.6575517709
 23
398.2733372457
 33
0.0
 14
173.3575517709
 24
263.7733372457
 34
0.0
 50
90.0
100
AcDbRotatedDimension
  0
DIMENSION
  5
25C
330
1F
100
AcDbEntity
  8
0
  6
Continuous
 62
     7
370
     0
100
AcDbDimension
  2
*D3
 10
226.6575517709
 20
406.3318782764
 30
0.0
 11
147.9940198565
 21
406.3318782764
 31
0.0
 70
   160
  1
(<>)
 71
     2
 42
-1.0
  3
SLDDIMSTYLE0
100
AcDbAlignedDimension
 13
68.6575517709
 23
390.2733372457
 33
0.0
 14
226.6575517709
 24
390.2733372457
 34
0.0
100
AcDbRotatedDimension
  0
INSERT
  5
273
330
1F
100
AcDbEntity
  8
0
  6
Continuous
 62
     7
370
     0
100
AcDbBlockReference
  2
SW_CENTERMARKSYMBOL_0
 10
147.6575517709
 20
270.7733372457
 30
0.0
  0
LINE
  5
274
330
1F
100
AcDbEntity
  8
0
  6
Continuous
 62
     7
370
    30
100
AcDbLine
 10
131.8691027964
 20
115.2344755933
 30
0.0
 11
131.8691027964
 21
115.2469758048
 31
0.0
  0
LINE
  5
275
330
1F
100
AcDbEntity
  8
0
  6
Continuous
 62
     7
370
    30
100
AcDbLine
 10
139.8434163685
 20
115.2344755933
 30
0.0
 11
139.8434163685
 21
115.2469758048
 31
0.0
  0
LINE
  5
276
330
1F
100
AcDbEntity
  8
0
  6
Continuous
 62
     7
370
    30
100
AcDbLine
 10
125.1575508769
 20
144.7469759837
 30
0.0
 11
125.1575508769
 21
145.4469759587
 31
0.0
  0
LINE
  5
277
330
1F
100
AcDbEntity
  8
0
  6
Continuous
 62
     7
370
    30
100
AcDbLine
 10
125.1575508769
 20
145.4469759587
 30
0.0
 11
132.1575520243
 21
145.4469759587
 31
0.0
  0
LINE
  5
278
330
1F
100
AcDbEntity
  8
0
  6
Continuous
 62
     7
370
    30
100
AcDbLine
 10
163.1575515176
 20
145.4469759587
 30
0.0
 11
132.1575520243
 21
145.4469759587
 31
0.0
  0
LINE
  5
279
330
1F
100
AcDbEntity
  8
0
  6
Continuous
 62
     7
370
    30
100
AcDbLine
 10
170.157552665
 20
145.4469759587
 30
0.0
 11
170.157552665
 21
144.7469759837
 31
0.0
  0
LINE
  5
27A
330
1F
100
AcDbEntity
  8
0
  6
Continuous
 62
     7
370
    30
100
AcDbLine
 10
163.1575515176
 20
145.4469759587
 30
0.0
 11
170.157552665
 21
145.4469759587
 31
0.0
  0
LINE
  5
27B
330
1F
100
AcDbEntity
  8
0
  6
Continuous
 62
     7
370
    30
100
AcDbLine
 10
173.6575523074
 20
118.9469751075
 30
0.0
 11
173.6575523074
 21
117.2469761327
 31
0.0
  0
LINE
  5
27C
330
1F
100
AcDbEntity
  8
0
  6
Continuous
 62
     7
370
    30
100
AcDbLine
 10
146.1441586408
 20
119.2469764605
 30
0.0
 11
149.1709449011
 21
119.2469764605
 31
0.0
  0
ARC
  5
27D
330
1F
100
AcDbEntity
  8
0
  6
Continuous
 62
     7
370
    30
100
AcDbCircle
 10
121.9575517709
 20
118.9469759837
 30
0.0
 40
0.3000000000000114
100
AcDbArc
 50
90.0
 51
180.0
  0
ARC
  5
27E
330
1F
100
AcDbEntity
  8
0
  6
Continuous
 62
     7
370
    30
100
AcDbCircle
 10
173.3575517709
 20
118.9469759837
 30
0.0
 40
0.2999999999999972
100
AcDbArc
 50
0.0
 51
90.0
  0
LINE
  5
27F
330
1F
100
AcDbEntity
  8
0
  6
Continuous
 62
     7
370
    30
100
AcDbLine
 10
121.6575512345
 20
117.2469761327
 30
0.0
 11
121.6575512345
 21
118.9469751075
 31
0.0
  0
ARC
  5
280
330
1F
100
AcDbEntity
  8
0
  6
Continuous
 62
     7
370
    30
100
AcDbCircle
 10
123.6575517709
 20
117.2469759837
 30
0.0
 40
2.0
100
AcDbArc
 50
180.0
 51
270.0
  0
ARC
  5
281
330
1F
100
AcDbEntity
  8
0
  6
Continuous
 62
     7
370
    30
100
AcDbCircle
 10
171.6575517709
 20
117.2469759837
 30
0.0
 40
2.0
100
AcDbArc
 50
270.0
 51
0.0
  0
LINE
  5
282
330
1F
100
AcDbEntity
  8
0
  6
Continuous
 62
     7
370
    30
100
AcDbLine
 10
171.6575519795
 20
115.2469758048
 30
0.0
 11
123.6575515623
 21
115.2469758048
 31
0.0
  0
LINE
  5
283
330
1F
100
AcDbEntity
  8
0
  6
Continuous
 62
     7
370
    30
100
AcDbLine
 10
221.6575527246
 20
108.7469775334
 30
0.0
 11
222.6575547512
 21
108.7469775334
 31
0.0
  0
LINE
  5
284
330
1F
100
AcDbEntity
  8
0
  6
Continuous
 62
     7
370
    30
100
AcDbLine
 10
221.6575527246
 20
114.7469766542
 30
0.0
 11
222.6575547512
 21
114.7469766542
 31
0.0
  0
LINE
  5
285
330
1F
100
AcDbEntity
  8
0
  6
Continuous
 62
     7
370
    30
100
AcDbLine
 10
212.6575493867
 20
117.2469761327
 30
0.0
 11
212.6575493867
 21
119.2469764605
 31
0.0
  0
LINE
  5
286
330
1F
100
AcDbEntity
  8
0
  6
Continuous
 62
     7
370
    30
100
AcDbLine
 10
206.6575521286
 20
119.2469764605
 30
0.0
 11
206.6575521286
 21
117.2469761327
 31
0.0
  0
LINE
  5
287
330
1F
100
AcDbEntity
  8
0
  6
Continuous
 62
     7
370
    30
100
AcDbLine
 10
82.6575541551
 20
119.2469764605
 30
0.0
 11
82.6575541551
 21
117.2469761327
 31
0.0
  0
LINE
  5
288
330
1F
100
AcDbEntity
  8
0
  6
Continuous
 62
     7
370
    30
100
AcDbLine
 10
88.6575514133
 20
117.2469761327
 30
0.0
 11
88.6575514133
 21
119.2469764605
 31
0.0
  0
LINE
  5
289
330
1F
100
AcDbEntity
  8
0
  6
Continuous
 62
     7
370
    30
100
AcDbLine
 10
72.6575487907
 20
108.7469775334
 30
0.0
 11
73.6575508173
 21
108.7469775334
 31
0.0
  0
LINE
  5
28A
330
1F
100
AcDbEntity
  8
0
  6
Continuous
 62
     7
370
    30
100
AcDbLine
 10
72.6575487907
 20
114.7469766542
 30
0.0
 11
73.6575508173
 21
114.7469766542
 31
0.0
  0
LINE
  5
28B
330
1F
100
AcDbEntity
  8
0
  6
Continuous
 62
     7
370
    30
100
AcDbLine
 10
221.6575527246
 20
93.7469769373
 30
0.0
 11
222.6575547512
 21
93.7469769373
 31
0.0
  0
LINE
  5
28C
330
1F
100
AcDbEntity
  8
0
  6
Continuous
 62
     7
370
    30
100
AcDbLine
 10
222.6575547512
 20
99.7469741955
 30
0.0
 11
221.6575527246
 21
99.7469741955
 31
0.0
  0
LINE
  5
28D
330
1F
100
AcDbEntity
  8
0
  6
Continuous
 62
     7
370
    30
100
AcDbLine
 10
72.6575487907
 20
93.7469769373
 30
0.0
 11
73.6575508173
 21
93.7469769373
 31
0.0
  0
LINE
  5
28E
330
1F
100
AcDbEntity
  8
0
  6
Continuous
 62
     7
370
    30
100
AcDbLine
 10
73.6575508173
 20
99.7469741955
 30
0.0
 11
72.6575487907
 21
99.7469741955
 31
0.0
  0
LINE
  5
28F
330
1F
100
AcDbEntity
  8
0
  6
Continuous
 62
     7
370
    30
100
AcDbLine
 10
221.6575527246
 20
78.7469763413
 30
0.0
 11
222.6575547512
 21
78.7469763413
 31
0.0
  0
LINE
  5
290
330
1F
100
AcDbEntity
  8
0
  6
Continuous
 62
     7
370
    30
100
AcDbLine
 10
222.6575547512
 20
84.7469773248
 30
0.0
 11
221.6575527246
 21
84.7469773248
 31
0.0
  0
LINE
  5
291
330
1F
100
AcDbEntity
  8
0
  6
Continuous
 62
     7
370
    30
100
AcDbLine
 10
72.6575487907
 20
78.7469763413
 30
0.0
 11
73.6575508173
 21
78.7469763413
 31
0.0
  0
LINE
  5
292
330
1F
100
AcDbEntity
  8
0
  6
Continuous
 62
     7
370
    30
100
AcDbLine
 10
73.6575508173
 20
84.7469773248
 30
0.0
 11
72.6575487907
 21
84.7469773248
 31
0.0
  0
LINE
  5
293
330
1F
100
AcDbEntity
  8
0
  6
Continuous
 62
     7
370
    30
100
AcDbLine
 10
221.6575527246
 20
63.7469757452
 30
0.0
 11
222.6575547512
 21
63.7469757452
 31
0.0
  0
LINE
  5
294
330
1F
100
AcDbEntity
  8
0
  6
Continuous
 62
     7
370
    30
100
AcDbLine
 10
222.6575547512
 20
69.7469730034
 30
0.0
 11
221.6575527246
 21
69.7469730034
 31
0.0
  0
LINE
  5
295
330
1F
100
AcDbEntity
  8
0
  6
Continuous
 62
     7
370
    30
100
AcDbLine
 10
72.6575487907
 20
63.7469757452
 30
0.0
 11
73.6575508173
 21
63.7469757452
 31
0.0
  0
LINE
  5
296
330
1F
100
AcDbEntity
  8
0
  6
Continuous
 62
     7
370
    30
100
AcDbLine
 10
73.6575508173
 20
69.7469730034
 30
0.0
 11
72.6575487907
 21
69.7469730034
 31
0.0
  0
LINE
  5
297
330
1F
100
AcDbEntity
  8
0
  6
Continuous
 62
     7
370
    30
100
AcDbLine
 10
221.6575527246
 20
48.7469751492
 30
0.0
 11
222.6575547512
 21
48.7469751492
 31
0.0
  0
LINE
  5
298
330
1F
100
AcDbEntity
  8
0
  6
Continuous
 62
     7
370
    30
100
AcDbLine
 10
222.6575547512
 20
54.7469724074
 30
0.0
 11
221.6575527246
 21
54.7469724074
 31
0.0
  0
LINE
  5
299
330
1F
100
AcDbEntity
  8
0
  6
Continuous
 62
     7
370
    30
100
AcDbLine
 10
72.6575487907
 20
48.7469751492
 30
0.0
 11
73.6575508173
 21
48.7469751492
 31
0.0
  0
LINE
  5
29A
330
1F
100
AcDbEntity
  8
0
  6
Continuous
 62
     7
370
    30
100
AcDbLine
 10
73.6575508173
 20
54.7469724074
 30
0.0
 11
72.6575487907
 21
54.7469724074
 31
0.0
  0
LINE
  5
29B
330
1F
100
AcDbEntity
  8
0
  6
Continuous
 62
     7
370
    30
100
AcDbLine
 10
221.6575527246
 20
33.7469745532
 30
0.0
 11
222.6575547512
 21
33.7469745532
 31
0.0
  0
LINE
  5
29C
330
1F
100
AcDbEntity
  8
0
  6
Continuous
 62
     7
370
    30
100
AcDbLine
 10
222.6575547512
 20
39.7469792619
 30
0.0
 11
221.6575527246
 21
39.7469792619
 31
0.0
  0
LINE
  5
29D
330
1F
100
AcDbEntity
  8
0
  6
Continuous
 62
     7
370
    30
100
AcDbLine
 10
72.6575487907
 20
33.7469745532
 30
0.0
 11
73.6575508173
 21
33.7469745532
 31
0.0
  0
LINE
  5
29E
330
1F
100
AcDbEntity
  8
0
  6
Continuous
 62
     7
370
    30
100
AcDbLine
 10
73.6575508173
 20
39.7469792619
 30
0.0
 11
72.6575487907
 21
39.7469792619
 31
0.0
  0
LINE
  5
29F
330
1F
100
AcDbEntity
  8
0
  6
Continuous
 62
     7
370
    30
100
AcDbLine
 10
222.6575547512
 20
18.7469739571
 30
0.0
 11
221.6575527246
 21
18.7469739571
 31
0.0
  0
LINE
  5
2A0
330
1F
100
AcDbEntity
  8
0
  6
Continuous
 62
     7
370
    30
100
AcDbLine
 10
222.6575547512
 20
24.7469786659
 30
0.0
 11
221.6575527246
 21
24.7469786659
 31
0.0
  0
LINE
  5
2A1
330
1F
100
AcDbEntity
  8
0
  6
Continuous
 62
     7
370
    30
100
AcDbLine
 10
73.6575508173
 20
18.7469739571
 30
0.0
 11
72.6575487907
 21
18.7469739571
 31
0.0
  0
LINE
  5
2A2
330
1F
100
AcDbEntity
  8
0
  6
Continuous
 62
     7
370
    30
100
AcDbLine
 10
73.6575508173
 20
24.7469786659
 30
0.0
 11
72.6575487907
 21
24.7469786659
 31
0.0
  0
LINE
  5
2A3
330
1F
100
AcDbEntity
  8
0
  6
Continuous
 62
     7
370
    30
100
AcDbLine
 10
82.6575541551
 20
16.2469763413
 30
0.0
 11
82.6575541551
 21
14.2469722882
 31
0.0
  0
LINE
  5
2A4
330
1F
100
AcDbEntity
  8
0
  6
Continuous
 62
     7
370
    30
100
AcDbLine
 10
88.6575514133
 20
14.2469722882
 30
0.0
 11
88.6575514133
 21
16.2469763413
 31
0.0
  0
LINE
  5
2A5
330
1F
100
AcDbEntity
  8
0
  6
Continuous
 62
     7
370
    30
100
AcDbLine
 10
212.6575493867
 20
14.2469722882
 30
0.0
 11
212.6575493867
 21
16.2469763413
 31
0.0
  0
LINE
  5
2A6
330
1F
100
AcDbEntity
  8
0
  6
Continuous
 62
     7
370
    30
100
AcDbLine
 10
206.6575521286
 20
16.2469763413
 30
0.0
 11
206.6575521286
 21
14.2469722882
 31
0.0
  0
LINE
  5
2A7
330
1F
100
AcDbEntity
  8
0
  6
Continuous
 62
     7
370
    30
100
AcDbLine
 10
212.6575493867
 20
117.2469761327
 30
0.0
 11
212.6575493867
 21
116.7469751194
 31
0.0
  0
ARC
  5
2A8
330
1F
100
AcDbEntity
  8
0
  6
Continuous
 62
     7
370
    30
100
AcDbCircle
 10
214.6575517709
 20
116.7469759837
 30
0.0
 40
2.0
100
AcDbArc
 50
180.0
 51
270.0
  0
LINE
  5
2A9
330
1F
100
AcDbEntity
  8
0
  6
Continuous
 62
     7
370
    30
100
AcDbLine
 10
221.6575527246
 20
114.7469766542
 30
0.0
 11
214.6575534399
 21
114.7469766542
 31
0.0
  0
LINE
  5
2AA
330
1F
100
AcDbEntity
  8
0
  6
Continuous
 62
     7
370
    30
100
AcDbLine
 10
73.6575508173
 20
108.7469775334
 30
0.0
 11
221.6575527246
 21
108.7469775334
 31
0.0
  0
LINE
  5
2AB
330
1F
100
AcDbEntity
  8
0
  6
Continuous
 62
     7
370
    30
100
AcDbLine
 10
80.657550102
 20
114.7469766542
 30
0.0
 11
73.6575508173
 21
114.7469766542
 31
0.0
  0
ARC
  5
2AC
330
1F
100
AcDbEntity
  8
0
  6
Continuous
 62
     7
370
    30
100
AcDbCircle
 10
80.6575517709
 20
116.7469759837
 30
0.0
 40
2.0
100
AcDbArc
 50
270.0
 51
0.0
  0
LINE
  5
2AD
330
1F
100
AcDbEntity
  8
0
  6
Continuous
 62
     7
370
    30
100
AcDbLine
 10
82.6575541551
 20
117.2469761327
 30
0.0
 11
82.6575541551
 21
116.7469751194
 31
0.0
  0
ARC
  5
2AE
330
1F
100
AcDbEntity
  8
0
  6
Continuous
 62
     7
370
    30
100
AcDbCircle
 10
90.6575517709
 20
116.7469759837
 30
0.0
 40
2.0
100
AcDbArc
 50
180.0
 51
270.0
  0
LINE
  5
2AF
330
1F
100
AcDbEntity
  8
0
  6
Continuous
 62
     7
370
    30
100
AcDbLine
 10
204.6575518007
 20
114.7469766542
 30
0.0
 11
90.6575517411
 21
114.7469766542
 31
0.0
  0
ARC
  5
2B0
330
1F
100
AcDbEntity
  8
0
  6
Continuous
 62
     7
370
    30
100
AcDbCircle
 10
204.6575517709
 20
116.7469759837
 30
0.0
 40
2.000000000000028
100
AcDbArc
 50
270.0
 51
0.0
  0
LINE
  5
2B1
330
1F
100
AcDbEntity
  8
0
  6
Continuous
 62
     7
370
    30
100
AcDbLine
 10
206.6575521286
 20
117.2469761327
 30
0.0
 11
206.6575521286
 21
116.7469751194
 31
0.0
  0
LINE
  5
2B2
330
1F
100
AcDbEntity
  8
0
  6
Continuous
 62
     7
370
    30
100
AcDbLine
 10
88.6575514133
 20
116.7469751194
 30
0.0
 11
88.6575514133
 21
117.2469761327
 31
0.0
  0
LINE
  5
2B3
330
1F
100
AcDbEntity
  8
0
  6
Continuous
 62
     7
370
    30
100
AcDbLine
 10
73.6575508173
 20
93.7469769373
 30
0.0
 11
221.6575527246
 21
93.7469769373
 31
0.0
  0
LINE
  5
2B4
330
1F
100
AcDbEntity
  8
0
  6
Continuous
 62
     7
370
    30
100
AcDbLine
 10
73.6575508173
 20
99.7469741955
 30
0.0
 11
221.6575527246
 21
99.7469741955
 31
0.0
  0
LINE
  5
2B5
330
1F
100
AcDbEntity
  8
0
  6
Continuous
 62
     7
370
    30
100
AcDbLine
 10
73.6575508173
 20
78.7469763413
 30
0.0
 11
221.6575527246
 21
78.7469763413
 31
0.0
  0
LINE
  5
2B6
330
1F
100
AcDbEntity
  8
0
  6
Continuous
 62
     7
370
    30
100
AcDbLine
 10
221.6575527246
 20
84.7469773248
 30
0.0
 11
73.6575508173
 21
84.7469773248
 31
0.0
  0
LINE
  5
2B7
330
1F
100
AcDbEntity
  8
0
  6
Continuous
 62
     7
370
    30
100
AcDbLine
 10
73.6575508173
 20
63.7469757452
 30
0.0
 11
221.6575527246
 21
63.7469757452
 31
0.0
  0
LINE
  5
2B8
330
1F
100
AcDbEntity
  8
0
  6
Continuous
 62
     7
370
    30
100
AcDbLine
 10
221.6575527246
 20
69.7469730034
 30
0.0
 11
73.6575508173
 21
69.7469730034
 31
0.0
  0
LINE
  5
2B9
330
1F
100
AcDbEntity
  8
0
  6
Continuous
 62
     7
370
    30
100
AcDbLine
 10
73.6575508173
 20
48.7469751492
 30
0.0
 11
221.6575527246
 21
48.7469751492
 31
0.0
  0
LINE
  5
2BA
330
1F
100
AcDbEntity
  8
0
  6
Continuous
 62
     7
370
    30
100
AcDbLine
 10
221.6575527246
 20
54.7469724074
 30
0.0
 11
73.6575508173
 21
54.7469724074
 31
0.0
  0
LINE
  5
2BB
330
1F
100
AcDbEntity
  8
0
  6
Continuous
 62
     7
370
    30
100
AcDbLine
 10
73.6575508173
 20
33.7469745532
 30
0.0
 11
221.6575527246
 21
33.7469745532
 31
0.0
  0
LINE
  5
2BC
330
1F
100
AcDbEntity
  8
0
  6
Continuous
 62
     7
370
    30
100
AcDbLine
 10
221.6575527246
 20
39.7469792619
 30
0.0
 11
73.6575508173
 21
39.7469792619
 31
0.0
  0
LINE
  5
2BD
330
1F
100
AcDbEntity
  8
0
  6
Continuous
 62
     7
370
    30
100
AcDbLine
 10
82.6575541551
 20
16.2469763413
 30
0.0
 11
82.6575541551
 21
16.746969904
 31
0.0
  0
ARC
  5
2BE
330
1F
100
AcDbEntity
  8
0
  6
Continuous
 62
     7
370
    30
100
AcDbCircle
 10
80.6575517709
 20
16.7469759837
 30
0.0
 40
2.000000000000004
100
AcDbArc
 50
0.0
 51
90.0
  0
LINE
  5
2BF
330
1F
100
AcDbEntity
  8
0
  6
Continuous
 62
     7
370
    30
100
AcDbLine
 10
80.657550102
 20
18.7469739571
 30
0.0
 11
73.6575508173
 21
18.7469739571
 31
0.0
  0
LINE
  5
2C0
330
1F
100
AcDbEntity
  8
0
  6
Continuous
 62
     7
370
    30
100
AcDbLine
 10
221.6575527246
 20
18.7469739571
 30
0.0
 11
214.6575534399
 21
18.7469739571
 31
0.0
  0
ARC
  5
2C1
330
1F
100
AcDbEntity
  8
0
  6
Continuous
 62
     7
370
    30
100
AcDbCircle
 10
214.6575517709
 20
16.7469759837
 30
0.0
 40
2.000000000000028
100
AcDbArc
 50
90.0
 51
180.0
  0
LINE
  5
2C2
330
1F
100
AcDbEntity
  8
0
  6
Continuous
 62
     7
370
    30
100
AcDbLine
 10
212.6575493867
 20
16.2469763413
 30
0.0
 11
212.6575493867
 21
16.746969904
 31
0.0
  0
ARC
  5
2C3
330
1F
100
AcDbEntity
  8
0
  6
Continuous
 62
     7
370
    30
100
AcDbCircle
 10
204.6575517709
 20
16.7469759837
 30
0.0
 40
2.000000000000028
100
AcDbArc
 50
0.0
 51
90.0
  0
LINE
  5
2C4
330
1F
100
AcDbEntity
  8
0
  6
Continuous
 62
     7
370
    30
100
AcDbLine
 10
90.6575517411
 20
18.7469739571
 30
0.0
 11
204.6575518007
 21
18.7469739571
 31
0.0
  0
ARC
  5
2C5
330
1F
100
AcDbEntity
  8
0
  6
Continuous
 62
     7
370
    30
100
AcDbCircle
 10
90.6575517709
 20
16.7469759837
 30
0.0
 40
2.000000000000004
100
AcDbArc
 50
90.0
 51
180.0
  0
LINE
  5
2C6
330
1F
100
AcDbEntity
  8
0
  6
Continuous
 62
     7
370
    30
100
AcDbLine
 10
221.6575527246
 20
24.7469786659
 30
0.0
 11
73.6575508173
 21
24.7469786659
 31
0.0
  0
LINE
  5
2C7
330
1F
100
AcDbEntity
  8
0
  6
Continuous
 62
     7
370
    30
100
AcDbLine
 10
206.6575521286
 20
16.746969904
 30
0.0
 11
206.6575521286
 21
16.2469763413
 31
0.0
  0
LINE
  5
2C8
330
1F
100
AcDbEntity
  8
0
  6
Continuous
 62
     7
370
    30
100
AcDbLine
 10
88.6575514133
 20
16.2469763413
 30
0.0
 11
88.6575514133
 21
16.746969904
 31
0.0
  0
LINE
  5
2C9
330
1F
100
AcDbEntity
  8
0
  6
Continuous
 62
     7
370
    30
100
AcDbLine
 10
226.6575554068
 20
115.2469758048
 30
0.0
 11
226.6575554068
 21
18.2469803944
 31
0.0
  0
LINE
  5
2CA
330
1F
100
AcDbEntity
  8
0
  6
Continuous
 62
     7
370
    30
100
AcDbLine
 10
222.6575547512
 20
18.2469803944
 30
0.0
 11
222.6575547512
 21
115.2469758048
 31
0.0
  0
LINE
  5
2CB
330
1F
100
AcDbEntity
  8
0
  6
Continuous
 62
     7
370
    30
100
AcDbLine
 10
76.6575494464
 20
123.2469752535
 30
0.0
 11
144.6575517449
 21
123.2469752535
 31
0.0
  0
ARC
  5
2CC
330
1F
100
AcDbEntity
  8
0
  6
Continuous
 62
     7
370
    30
100
AcDbCircle
 10
76.6575517709
 20
115.2469759837
 30
0.0
 40
8.0
100
AcDbArc
 50
90.0
 51
180.0
  0
LINE
  5
2CD
330
1F
100
AcDbEntity
  8
0
  6
Continuous
 62
     7
370
    30
100
AcDbLine
 10
144.6575517449
 20
123.2469752535
 30
0.0
 11
146.1575517579
 21
123.2469752535
 31
0.0
  0
ARC
  5
2CE
330
1F
100
AcDbEntity
  8
0
  6
Continuous
 62
     7
370
    30
100
AcDbCircle
 10
146.1575517709
 20
122.7469759837
 30
0.0
 40
0.5
100
AcDbArc
 50
0.0
 51
90.0
  0
LINE
  5
2CF
330
1F
100
AcDbEntity
  8
0
  6
Continuous
 62
     7
370
    30
100
AcDbLine
 10
146.6575517234
 20
119.7469756111
 30
0.0
 11
146.6575517234
 21
122.7469761029
 31
0.0
  0
ARC
  5
2D0
330
1F
100
AcDbEntity
  8
0
  6
Continuous
 62
     7
370
    30
100
AcDbCircle
 10
76.6575517709
 20
115.2469759837
 30
0.0
 40
4.0
100
AcDbArc
 50
90.0
 51
180.0
  0
LINE
  5
2D1
330
1F
100
AcDbEntity
  8
0
  6
Continuous
 62
     7
370
    30
100
AcDbLine
 10
144.6575517449
 20
119.2469764605
 30
0.0
 11
76.6575494464
 21
119.2469764605
 31
0.0
  0
LINE
  5
2D2
330
1F
100
AcDbEntity
  8
0
  6
Continuous
 62
     7
370
    30
100
AcDbLine
 10
146.1441586408
 20
119.2469764605
 30
0.0
 11
144.6575517449
 21
119.2469764605
 31
0.0
  0
ARC
  5
2D3
330
1F
100
AcDbEntity
  8
0
  6
Continuous
 62
     7
370
    30
100
AcDbCircle
 10
146.1575517709
 20
119.7469759837
 30
0.0
 40
0.5
100
AcDbArc
 50
270.0
 51
0.0
  0
LINE
  5
2D4
330
1F
100
AcDbEntity
  8
0
  6
Continuous
 62
     7
370
    30
100
AcDbLine
 10
72.6575487907
 20
115.2469758048
 30
0.0
 11
72.6575487907
 21
18.2469803944
 31
0.0
  0
LINE
  5
2D5
330
1F
100
AcDbEntity
  8
0
  6
Continuous
 62
     7
370
    30
100
AcDbLine
 10
68.657548135
 20
18.2469803944
 30
0.0
 11
68.657548135
 21
115.2469758048
 31
0.0
  0
ARC
  5
2D6
330
1F
100
AcDbEntity
  8
0
  6
Continuous
 62
     7
370
    30
100
AcDbCircle
 10
218.6575517709
 20
115.2469759837
 30
0.0
 40
8.000000000000028
100
AcDbArc
 50
0.0
 51
90.0
  0
ARC
  5
2D7
330
1F
100
AcDbEntity
  8
0
  6
Continuous
 62
     7
370
    30
100
AcDbCircle
 10
218.6575517709
 20
115.2469759837
 30
0.0
 40
4.000000000000028
100
AcDbArc
 50
0.0
 51
90.0
  0
LINE
  5
2D8
330
1F
100
AcDbEntity
  8
0
  6
Continuous
 62
     7
370
    30
100
AcDbLine
 10
150.657551797
 20
123.2469752535
 30
0.0
 11
218.6575540955
 21
123.2469752535
 31
0.0
  0
LINE
  5
2D9
330
1F
100
AcDbEntity
  8
0
  6
Continuous
 62
     7
370
    30
100
AcDbLine
 10
218.6575540955
 20
119.2469764605
 30
0.0
 11
150.657551797
 21
119.2469764605
 31
0.0
  0
LINE
  5
2DA
330
1F
100
AcDbEntity
  8
0
  6
Continuous
 62
     7
370
    30
100
AcDbLine
 10
148.6575518184
 20
119.7469756111
 30
0.0
 11
148.6575518184
 21
122.7469761029
 31
0.0
  0
LINE
  5
2DB
330
1F
100
AcDbEntity
  8
0
  6
Continuous
 62
     7
370
    30
100
AcDbLine
 10
149.157551784
 20
123.2469752535
 30
0.0
 11
150.657551797
 21
123.2469752535
 31
0.0
  0
ARC
  5
2DC
330
1F
100
AcDbEntity
  8
0
  6
Continuous
 62
     7
370
    30
100
AcDbCircle
 10
149.1575517709
 20
122.7469759837
 30
0.0
 40
0.5000000000000284
100
AcDbArc
 50
90.0
 51
180.0
  0
LINE
  5
2DD
330
1F
100
AcDbEntity
  8
0
  6
Continuous
 62
     7
370
    30
100
AcDbLine
 10
150.657551797
 20
119.2469764605
 30
0.0
 11
149.1709449011
 21
119.2469764605
 31
0.0
  0
ARC
  5
2DE
330
1F
100
AcDbEntity
  8
0
  6
Continuous
 62
     7
370
    30
100
AcDbCircle
 10
149.1575517709
 20
119.7469759837
 30
0.0
 40
0.5000000000000284
100
AcDbArc
 50
180.0
 51
270.0
  0
ARC
  5
2DF
330
1F
100
AcDbEntity
  8
0
  6
Continuous
 62
     7
370
    30
100
AcDbCircle
 10
218.6575517709
 20
18.2469759837
 30
0.0
 40
4.000000000000002
100
AcDbArc
 50
270.0
 51
0.0
  0
ARC
  5
2E0
330
1F
100
AcDbEntity
  8
0
  6
Continuous
 62
     7
370
    30
100
AcDbCircle
 10
218.6575517709
 20
18.2469759837
 30
0.0
 40
8.000000000000005
100
AcDbArc
 50
270.0
 51
0.0
  0
LINE
  5
2E1
330
1F
100
AcDbEntity
  8
0
  6
Continuous
 62
     7
370
    30
100
AcDbLine
 10
76.6575494464
 20
14.2469722882
 30
0.0
 11
218.6575540955
 21
14.2469722882
 31
0.0
  0
LINE
  5
2E2
330
1F
100
AcDbEntity
  8
0
  6
Continuous
 62
     7
370
    30
100
AcDbLine
 10
218.6575540955
 20
10.2469790831
 30
0.0
 11
76.6575494464
 21
10.2469790831
 31
0.0
  0
ARC
  5
2E3
330
1F
100
AcDbEntity
  8
0
  6
Continuous
 62
     7
370
    30
100
AcDbCircle
 10
76.6575517709
 20
18.2469759837
 30
0.0
 40
3.999999999999986
100
AcDbArc
 50
180.0
 51
270.0
  0
ARC
  5
2E4
330
1F
100
AcDbEntity
  8
0
  6
Continuous
 62
     7
370
    30
100
AcDbCircle
 10
76.6575517709
 20
18.2469759837
 30
0.0
 40
7.999999999999986
100
AcDbArc
 50
180.0
 51
270.0
  0
LINE
  5
2E5
330
1F
100
AcDbEntity
  8
0
  6
Continuous
 62
     7
370
    30
100
AcDbLine
 10
173.3575509543
 20
124.7469764307
 30
0.0
 11
173.6575523074
 21
124.7469764307
 31
0.0
  0
LINE
  5
2E6
330
1F
100
AcDbEntity
  8
0
  6
Continuous
 62
     7
370
    30
100
AcDbLine
 10
173.6575523074
 20
124.7469764307
 30
0.0
 11
173.6575523074
 21
123.2469752535
 31
0.0
  0
LINE
  5
2E7
330
1F
100
AcDbEntity
  8
0
  6
Continuous
 62
     7
370
    30
100
AcDbLine
 10
121.6575512345
 20
123.2469752535
 30
0.0
 11
121.6575512345
 21
124.7469764307
 31
0.0
  0
LINE
  5
2E8
330
1F
100
AcDbEntity
  8
0
  6
Continuous
 62
     7
370
    30
100
AcDbLine
 10
121.6575512345
 20
124.7469764307
 30
0.0
 11
121.9575525875
 21
124.7469764307
 31
0.0
  0
LINE
  5
2E9
330
1F
100
AcDbEntity
  8
0
  6
Continuous
 62
     7
370
    30
100
AcDbLine
 10
173.3575509543
 20
124.7469764307
 30
0.0
 11
121.9575525875
 21
124.7469764307
 31
0.0
  0
LINE
  5
2EA
330
1F
100
AcDbEntity
  8
0
  6
Continuous
 62
     7
370
    30
100
AcDbLine
 10
149.157551784
 20
123.2469752535
 30
0.0
 11
146.1575517579
 21
123.2469752535
 31
0.0
  0
ARC
  5
2EB
330
1F
100
AcDbEntity
  8
0
  6
Continuous
 62
     7
370
    30
100
AcDbCircle
 10
121.9575517709
 20
144.4469759837
 30
0.0
 40
0.2999999999999972
100
AcDbArc
 50
90.0
 51
180.0
  0
LINE
  5
2EC
330
1F
100
AcDbEntity
  8
0
  6
Continuous
 62
     7
370
    30
100
AcDbLine
 10
121.9575525875
 20
144.7469759837
 30
0.0
 11
173.3575509543
 21
144.7469759837
 31
0.0
  0
LINE
  5
2ED
330
1F
100
AcDbEntity
  8
0
  6
Continuous
 62
     7
370
    30
100
AcDbLine
 10
121.6575512345
 20
125.0469759211
 30
0.0
 11
121.6575512345
 21
144.4469759694
 31
0.0
  0
ARC
  5
2EE
330
1F
100
AcDbEntity
  8
0
  6
Continuous
 62
     7
370
    30
100
AcDbCircle
 10
173.3575517709
 20
144.4469759837
 30
0.0
 40
0.2999999999999829
100
AcDbArc
 50
0.0
 51
90.0
  0
LINE
  5
2EF
330
1F
100
AcDbEntity
  8
0
  6
Continuous
 62
     7
370
    30
100
AcDbLine
 10
173.6575523074
 20
144.4469759694
 30
0.0
 11
173.6575523074
 21
125.0469759211
 31
0.0
  0
ARC
  5
2F0
330
1F
100
AcDbEntity
  8
0
  6
Continuous
 62
     7
370
    30
100
AcDbCircle
 10
173.3575517709
 20
125.0469759837
 30
0.0
 40
0.2999999999999972
100
AcDbArc
 50
270.0
 51
0.0
  0
ARC
  5
2F1
330
1F
100
AcDbEntity
  8
0
  6
Continuous
 62
     7
370
    30
100
AcDbCircle
 10
121.9575517709
 20
125.0469759837
 30
0.0
 40
0.2999999999999972
100
AcDbArc
 50
180.0
 51
270.0
  0
LINE
  5
2F2
330
1F
100
AcDbEntity
  8
0
  6
Continuous
 62
     7
370
    30
100
AcDbLine
 10
173.6575523074
 20
125.0469759211
 30
0.0
 11
173.6575523074
 21
124.7469764307
 31
0.0
  0
LINE
  5
2F3
330
1F
100
AcDbEntity
  8
0
  6
Continuous
 62
     7
370
    30
100
AcDbLine
 10
121.6575512345
 20
124.7469764307
 30
0.0
 11
121.6575512345
 21
125.0469759211
 31
0.0
  0
LINE
  5
2F4
330
1F
100
AcDbEntity
  8
0
  6
Continuous
 62
     7
370
    30
100
AcDbLine
 10
146.6575517234
 20
121.746975939
 30
0.0
 11
148.6575518184
 21
121.746975939
 31
0.0
  0
LINE
  5
2F5
330
1F
100
AcDbEntity
  8
0
  6
Continuous
 62
     7
370
    30
100
AcDbLine
 10
148.6575518184
 20
120.746975775
 30
0.0
 11
146.6575517234
 21
120.746975775
 31
0.0
  0
LINE
  5
2F6
330
1F
100
AcDbEntity
  8
0
  6
Continuous
 62
     8
370
     0
100
AcDbLine
 10
132.1575520243
 20
145.4469759587
 30
0.0
 11
132.1575520243
 21
144.7469759837
 31
0.0
  0
LINE
  5
2F7
330
1F
100
AcDbEntity
  8
0
  6
Continuous
 62
     8
370
     0
100
AcDbLine
 10
163.1575515176
 20
144.7469759837
 30
0.0
 11
163.1575515176
 21
145.4469759587
 31
0.0
  0
ARC
  5
2F8
330
1F
100
AcDbEntity
  8
0
  6
Continuous
 62
     8
370
     0
100
AcDbCircle
 10
171.6575517709
 20
117.2469759837
 30
0.0
 40
1.700000000000017
100
AcDbArc
 50
270.0
 51
0.0
  0
LINE
  5
2F9
330
1F
100
AcDbEntity
  8
0
  6
Continuous
 62
     8
370
     0
100
AcDbLine
 10
123.6575515623
 20
115.5469752952
 30
0.0
 11
171.6575519795
 21
115.5469752952
 31
0.0
  0
ARC
  5
2FA
330
1F
100
AcDbEntity
  8
0
  6
Continuous
 62
     8
370
     0
100
AcDbCircle
 10
123.6575517709
 20
117.2469759837
 30
0.0
 40
1.700000000000003
100
AcDbArc
 50
180.0
 51
270.0
  0
LINE
  5
2FB
330
1F
100
AcDbEntity
  8
0
  6
Continuous
 62
     8
370
     0
100
AcDbLine
 10
121.9575525875
 20
118.9469751075
 30
0.0
 11
121.9575525875
 21
117.2469761327
 31
0.0
  0
LINE
  5
2FC
330
1F
100
AcDbEntity
  8
0
  6
Continuous
 62
     8
370
     0
100
AcDbLine
 10
173.3575509543
 20
118.9469751075
 30
0.0
 11
121.9575525875
 21
118.9469751075
 31
0.0
  0
LINE
  5
2FD
330
1F
100
AcDbEntity
  8
0
  6
Continuous
 62
     8
370
     0
100
AcDbLine
 10
173.3575509543
 20
117.2469761327
 30
0.0
 11
173.3575509543
 21
118.9469751075
 31
0.0
  0
LINE
  5
2FE
330
1F
100
AcDbEntity
  8
0
  6
Continuous
 62
     8
370
     0
100
AcDbLine
 10
173.3575509543
 20
118.9469751075
 30
0.0
 11
173.6575523074
 21
118.9469751075
 31
0.0
  0
LINE
  5
2FF
330
1F
100
AcDbEntity
  8
0
  6
Continuous
 62
     8
370
     0
100
AcDbLine
 10
173.3575509543
 20
117.2469761327
 30
0.0
 11
173.6575523074
 21
117.2469761327
 31
0.0
  0
LINE
  5
300
330
1F
100
AcDbEntity
  8
0
  6
Continuous
 62
     8
370
     0
100
AcDbLine
 10
121.9575525875
 20
118.9469751075
 30
0.0
 11
121.9575525875
 21
119.2469764605
 31
0.0
  0
LINE
  5
301
330
1F
100
AcDbEntity
  8
0
  6
Continuous
 62
     8
370
     0
100
AcDbLine
 10
173.3575509543
 20
118.9469751075
 30
0.0
 11
173.3575509543
 21
119.2469764605
 31
0.0
  0
LINE
  5
302
330
1F
100
AcDbEntity
  8
0
  6
Continuous
 62
     8
370
     0
100
AcDbLine
 10
121.6575512345
 20
118.9469751075
 30
0.0
 11
121.9575525875
 21
118.9469751075
 31
0.0
  0
LINE
  5
303
330
1F
100
AcDbEntity
  8
0
  6
Continuous
 62
     8
370
     0
100
AcDbLine
 10
121.6575512345
 20
117.2469761327
 30
0.0
 11
121.9575525875
 21
117.2469761327
 31
0.0
  0
LINE
  5
304
330
1F
100
AcDbEntity
  8
0
  6
Continuous
 62
     8
370
     0
100
AcDbLine
 10
123.6575515623
 20
115.2469758048
 30
0.0
 11
123.6575515623
 21
115.5469752952
 31
0.0
  0
LINE
  5
305
330
1F
100
AcDbEntity
  8
0
  6
Continuous
 62
     8
370
     0
100
AcDbLine
 10
171.6575519795
 20
115.2469758048
 30
0.0
 11
171.6575519795
 21
115.5469752952
 31
0.0
  0
LINE
  5
306
330
1F
100
AcDbEntity
  8
0
  6
Continuous
 62
     8
370
     0
100
AcDbLine
 10
221.6575527246
 20
114.7469766542
 30
0.0
 11
221.6575527246
 21
108.7469775334
 31
0.0
  0
LINE
  5
307
330
1F
100
AcDbEntity
  8
0
  6
Continuous
 62
     8
370
     0
100
AcDbLine
 10
206.6575521286
 20
117.2469761327
 30
0.0
 11
212.6575493867
 21
117.2469761327
 31
0.0
  0
LINE
  5
308
330
1F
100
AcDbEntity
  8
0
  6
Continuous
 62
     8
370
     0
100
AcDbLine
 10
82.6575541551
 20
117.2469761327
 30
0.0
 11
88.6575514133
 21
117.2469761327
 31
0.0
  0
LINE
  5
309
330
1F
100
AcDbEntity
  8
0
  6
Continuous
 62
     8
370
     0
100
AcDbLine
 10
73.6575508173
 20
108.7469775334
 30
0.0
 11
73.6575508173
 21
114.7469766542
 31
0.0
  0
LINE
  5
30A
330
1F
100
AcDbEntity
  8
0
  6
Continuous
 62
     8
370
     0
100
AcDbLine
 10
221.6575527246
 20
99.7469741955
 30
0.0
 11
221.6575527246
 21
93.7469769373
 31
0.0
  0
LINE
  5
30B
330
1F
100
AcDbEntity
  8
0
  6
Continuous
 62
     8
370
     0
100
AcDbLine
 10
73.6575508173
 20
93.7469769373
 30
0.0
 11
73.6575508173
 21
99.7469741955
 31
0.0
  0
LINE
  5
30C
330
1F
100
AcDbEntity
  8
0
  6
Continuous
 62
     8
370
     0
100
AcDbLine
 10
221.6575527246
 20
84.7469773248
 30
0.0
 11
221.6575527246
 21
78.7469763413
 31
0.0
  0
LINE
  5
30D
330
1F
100
AcDbEntity
  8
0
  6
Continuous
 62
     8
370
     0
100
AcDbLine
 10
73.6575508173
 20
78.7469763413
 30
0.0
 11
73.6575508173
 21
84.7469773248
 31
0.0
  0
LINE
  5
30E
330
1F
100
AcDbEntity
  8
0
  6
Continuous
 62
     8
370
     0
100
AcDbLine
 10
221.6575527246
 20
69.7469730034
 30
0.0
 11
221.6575527246
 21
63.7469757452
 31
0.0
  0
LINE
  5
30F
330
1F
100
AcDbEntity
  8
0
  6
Continuous
 62
     8
370
     0
100
AcDbLine
 10
73.6575508173
 20
63.7469757452
 30
0.0
 11
73.6575508173
 21
69.7469730034
 31
0.0
  0
LINE
  5
310
330
1F
100
AcDbEntity
  8
0
  6
Continuous
 62
     8
370
     0
100
AcDbLine
 10
221.6575527246
 20
54.7469724074
 30
0.0
 11
221.6575527246
 21
48.7469751492
 31
0.0
  0
LINE
  5
311
330
1F
100
AcDbEntity
  8
0
  6
Continuous
 62
     8
370
     0
100
AcDbLine
 10
73.6575508173
 20
48.7469751492
 30
0.0
 11
73.6575508173
 21
54.7469724074
 31
0.0
  0
LINE
  5
312
330
1F
100
AcDbEntity
  8
0
  6
Continuous
 62
     8
370
     0
100
AcDbLine
 10
221.6575527246
 20
39.7469792619
 30
0.0
 11
221.6575527246
 21
33.7469745532
 31
0.0
  0
LINE
  5
313
330
1F
100
AcDbEntity
  8
0
  6
Continuous
 62
     8
370
     0
100
AcDbLine
 10
73.6575508173
 20
33.7469745532
 30
0.0
 11
73.6575508173
 21
39.7469792619
 31
0.0
  0
LINE
  5
314
330
1F
100
AcDbEntity
  8
0
  6
Continuous
 62
     8
370
     0
100
AcDbLine
 10
221.6575527246
 20
24.7469786659
 30
0.0
 11
221.6575527246
 21
18.7469739571
 31
0.0
  0
LINE
  5
315
330
1F
100
AcDbEntity
  8
0
  6
Continuous
 62
     8
370
     0
100
AcDbLine
 10
73.6575508173
 20
18.7469739571
 30
0.0
 11
73.6575508173
 21
24.7469786659
 31
0.0
  0
LINE
  5
316
330
1F
100
AcDbEntity
  8
0
  6
Continuous
 62
     8
370
     0
100
AcDbLine
 10
88.6575514133
 20
16.2469763413
 30
0.0
 11
82.6575541551
 21
16.2469763413
 31
0.0
  0
LINE
  5
317
330
1F
100
AcDbEntity
  8
0
  6
Continuous
 62
     8
370
     0
100
AcDbLine
 10
212.6575493867
 20
16.2469763413
 30
0.0
 11
206.6575521286
 21
16.2469763413
 31
0.0
  0
LINE
  5
318
330
1F
100
AcDbEntity
  8
0
  6
Continuous
 62
     8
370
     0
100
AcDbLine
 10
226.6575554068
 20
18.2469803944
 30
0.0
 11
226.1575543935
 21
18.2469803944
 31
0.0
  0
LINE
  5
319
330
1F
100
AcDbEntity
  8
0
  6
Continuous
 62
     8
370
     0
100
AcDbLine
 10
226.1575543935
 20
18.2469803944
 30
0.0
 11
226.1575543935
 21
115.2469758048
 31
0.0
  0
LINE
  5
31A
330
1F
100
AcDbEntity
  8
0
  6
Continuous
 62
     8
370
     0
100
AcDbLine
 10
226.6575554068
 20
115.2469758048
 30
0.0
 11
226.1575543935
 21
115.2469758048
 31
0.0
  0
LINE
  5
31B
330
1F
100
AcDbEntity
  8
0
  6
Continuous
 62
     8
370
     0
100
AcDbLine
 10
223.1575483139
 20
115.2469758048
 30
0.0
 11
223.1575483139
 21
18.2469803944
 31
0.0
  0
LINE
  5
31C
330
1F
100
AcDbEntity
  8
0
  6
Continuous
 62
     8
370
     0
100
AcDbLine
 10
223.1575483139
 20
115.2469758048
 30
0.0
 11
226.1575543935
 21
115.2469758048
 31
0.0
  0
LINE
  5
31D
330
1F
100
AcDbEntity
  8
0
  6
Continuous
 62
     8
370
     0
100
AcDbLine
 10
223.1575483139
 20
18.2469803944
 30
0.0
 11
226.1575543935
 21
18.2469803944
 31
0.0
  0
LINE
  5
31E
330
1F
100
AcDbEntity
  8
0
  6
Continuous
 62
     8
370
     0
100
AcDbLine
 10
223.1575483139
 20
18.2469803944
 30
0.0
 11
222.6575547512
 21
18.2469803944
 31
0.0
  0
LINE
  5
31F
330
1F
100
AcDbEntity
  8
0
  6
Continuous
 62
     8
370
     0
100
AcDbLine
 10
223.1575483139
 20
115.2469758048
 30
0.0
 11
222.6575547512
 21
115.2469758048
 31
0.0
  0
LINE
  5
320
330
1F
100
AcDbEntity
  8
0
  6
Continuous
 62
     8
370
     0
100
AcDbLine
 10
144.6575517449
 20
122.7469761029
 30
0.0
 11
76.6575494464
 21
122.7469761029
 31
0.0
  0
LINE
  5
321
330
1F
100
AcDbEntity
  8
0
  6
Continuous
 62
     8
370
     0
100
AcDbLine
 10
76.6575494464
 20
122.7469761029
 30
0.0
 11
76.6575494464
 21
123.2469752535
 31
0.0
  0
LINE
  5
322
330
1F
100
AcDbEntity
  8
0
  6
Continuous
 62
     8
370
     0
100
AcDbLine
 10
144.6575517449
 20
122.7469761029
 30
0.0
 11
144.6575517449
 21
123.2469752535
 31
0.0
  0
LINE
  5
323
330
1F
100
AcDbEntity
  8
0
  6
Continuous
 62
     8
370
     0
100
AcDbLine
 10
76.6575494464
 20
119.7469756111
 30
0.0
 11
144.6575517449
 21
119.7469756111
 31
0.0
  0
LINE
  5
324
330
1F
100
AcDbEntity
  8
0
  6
Continuous
 62
     8
370
     0
100
AcDbLine
 10
76.6575494464
 20
119.7469756111
 30
0.0
 11
76.6575494464
 21
122.7469761029
 31
0.0
  0
LINE
  5
325
330
1F
100
AcDbEntity
  8
0
  6
Continuous
 62
     8
370
     0
100
AcDbLine
 10
144.6575517449
 20
119.7469756111
 30
0.0
 11
144.6575517449
 21
122.7469761029
 31
0.0
  0
ARC
  5
326
330
1F
100
AcDbEntity
  8
0
  6
Continuous
 62
     8
370
     0
100
AcDbCircle
 10
76.6575517709
 20
115.2469759837
 30
0.0
 40
4.5
100
AcDbArc
 50
90.0
 51
180.0
  0
LINE
  5
327
330
1F
100
AcDbEntity
  8
0
  6
Continuous
 62
     8
370
     0
100
AcDbLine
 10
72.157555228
 20
115.2469758048
 30
0.0
 11
69.1575491483
 21
115.2469758048
 31
0.0
  0
ARC
  5
328
330
1F
100
AcDbEntity
  8
0
  6
Continuous
 62
     8
370
     0
100
AcDbCircle
 10
76.6575517709
 20
115.2469759837
 30
0.0
 40
7.5
100
AcDbArc
 50
90.0
 51
180.0
  0
LINE
  5
329
330
1F
100
AcDbEntity
  8
0
  6
Continuous
 62
     8
370
     0
100
AcDbLine
 10
68.657548135
 20
115.2469758048
 30
0.0
 11
69.1575491483
 21
115.2469758048
 31
0.0
  0
LINE
  5
32A
330
1F
100
AcDbEntity
  8
0
  6
Continuous
 62
     8
370
     0
100
AcDbLine
 10
146.6575517234
 20
122.7469761029
 30
0.0
 11
144.6575517449
 21
122.7469761029
 31
0.0
  0
LINE
  5
32B
330
1F
100
AcDbEntity
  8
0
  6
Continuous
 62
     8
370
     0
100
AcDbLine
 10
144.6575517449
 20
119.7469756111
 30
0.0
 11
146.6575517234
 21
119.7469756111
 31
0.0
  0
LINE
  5
32C
330
1F
100
AcDbEntity
  8
0
  6
Continuous
 62
     8
370
     0
100
AcDbLine
 10
76.6575494464
 20
119.2469764605
 30
0.0
 11
76.6575494464
 21
119.7469756111
 31
0.0
  0
LINE
  5
32D
330
1F
100
AcDbEntity
  8
0
  6
Continuous
 62
     8
370
     0
100
AcDbLine
 10
72.157555228
 20
115.2469758048
 30
0.0
 11
72.6575487907
 21
115.2469758048
 31
0.0
  0
LINE
  5
32E
330
1F
100
AcDbEntity
  8
0
  6
Continuous
 62
     8
370
     0
100
AcDbLine
 10
144.6575517449
 20
119.2469764605
 30
0.0
 11
144.6575517449
 21
119.7469756111
 31
0.0
  0
LINE
  5
32F
330
1F
100
AcDbEntity
  8
0
  6
Continuous
 62
     8
370
     0
100
AcDbLine
 10
72.157555228
 20
18.2469803944
 30
0.0
 11
72.157555228
 21
115.2469758048
 31
0.0
  0
LINE
  5
330
330
1F
100
AcDbEntity
  8
0
  6
Continuous
 62
     8
370
     0
100
AcDbLine
 10
72.157555228
 20
18.2469803944
 30
0.0
 11
72.6575487907
 21
18.2469803944
 31
0.0
  0
LINE
  5
331
330
1F
100
AcDbEntity
  8
0
  6
Continuous
 62
     8
370
     0
100
AcDbLine
 10
69.1575491483
 20
115.2469758048
 30
0.0
 11
69.1575491483
 21
18.2469803944
 31
0.0
  0
LINE
  5
332
330
1F
100
AcDbEntity
  8
0
  6
Continuous
 62
     8
370
     0
100
AcDbLine
 10
68.657548135
 20
18.2469803944
 30
0.0
 11
69.1575491483
 21
18.2469803944
 31
0.0
  0
LINE
  5
333
330
1F
100
AcDbEntity
  8
0
  6
Continuous
 62
     8
370
     0
100
AcDbLine
 10
72.157555228
 20
18.2469803944
 30
0.0
 11
69.1575491483
 21
18.2469803944
 31
0.0
  0
ARC
  5
334
330
1F
100
AcDbEntity
  8
0
  6
Continuous
 62
     8
370
     0
100
AcDbCircle
 10
218.6575517709
 20
115.2469759837
 30
0.0
 40
7.500000000000014
100
AcDbArc
 50
0.0
 51
90.0
  0
LINE
  5
335
330
1F
100
AcDbEntity
  8
0
  6
Continuous
 62
     8
370
     0
100
AcDbLine
 10
218.6575540955
 20
123.2469752535
 30
0.0
 11
218.6575540955
 21
122.7469761029
 31
0.0
  0
ARC
  5
336
330
1F
100
AcDbEntity
  8
0
  6
Continuous
 62
     8
370
     0
100
AcDbCircle
 10
218.6575517709
 20
115.2469759837
 30
0.0
 40
4.500000000000014
100
AcDbArc
 50
0.0
 51
90.0
  0
LINE
  5
337
330
1F
100
AcDbEntity
  8
0
  6
Continuous
 62
     8
370
     0
100
AcDbLine
 10
218.6575540955
 20
119.7469756111
 30
0.0
 11
218.6575540955
 21
119.2469764605
 31
0.0
  0
LINE
  5
338
330
1F
100
AcDbEntity
  8
0
  6
Continuous
 62
     8
370
     0
100
AcDbLine
 10
218.6575540955
 20
119.7469756111
 30
0.0
 11
218.6575540955
 21
122.7469761029
 31
0.0
  0
LINE
  5
339
330
1F
100
AcDbEntity
  8
0
  6
Continuous
 62
     8
370
     0
100
AcDbLine
 10
218.6575540955
 20
122.7469761029
 30
0.0
 11
150.657551797
 21
122.7469761029
 31
0.0
  0
LINE
  5
33A
330
1F
100
AcDbEntity
  8
0
  6
Continuous
 62
     8
370
     0
100
AcDbLine
 10
150.657551797
 20
123.2469752535
 30
0.0
 11
150.657551797
 21
122.7469761029
 31
0.0
  0
LINE
  5
33B
330
1F
100
AcDbEntity
  8
0
  6
Continuous
 62
     8
370
     0
100
AcDbLine
 10
150.657551797
 20
119.7469756111
 30
0.0
 11
218.6575540955
 21
119.7469756111
 31
0.0
  0
LINE
  5
33C
330
1F
100
AcDbEntity
  8
0
  6
Continuous
 62
     8
370
     0
100
AcDbLine
 10
150.657551797
 20
119.7469756111
 30
0.0
 11
150.657551797
 21
122.7469761029
 31
0.0
  0
LINE
  5
33D
330
1F
100
AcDbEntity
  8
0
  6
Continuous
 62
     8
370
     0
100
AcDbLine
 10
150.657551797
 20
119.7469756111
 30
0.0
 11
150.657551797
 21
119.2469764605
 31
0.0
  0
LINE
  5
33E
330
1F
100
AcDbEntity
  8
0
  6
Continuous
 62
     8
370
     0
100
AcDbLine
 10
148.6575518184
 20
119.7469756111
 30
0.0
 11
150.657551797
 21
119.7469756111
 31
0.0
  0
LINE
  5
33F
330
1F
100
AcDbEntity
  8
0
  6
Continuous
 62
     8
370
     0
100
AcDbLine
 10
150.657551797
 20
122.7469761029
 30
0.0
 11
148.6575518184
 21
122.7469761029
 31
0.0
  0
ARC
  5
340
330
1F
100
AcDbEntity
  8
0
  6
Continuous
 62
     8
370
     0
100
AcDbCircle
 10
218.6575517709
 20
18.2469759837
 30
0.0
 40
4.500000000000028
100
AcDbArc
 50
270.0
 51
0.0
  0
LINE
  5
341
330
1F
100
AcDbEntity
  8
0
  6
Continuous
 62
     8
370
     0
100
AcDbLine
 10
218.6575540955
 20
13.7469787255
 30
0.0
 11
218.6575540955
 21
14.2469722882
 31
0.0
  0
LINE
  5
342
330
1F
100
AcDbEntity
  8
0
  6
Continuous
 62
     8
370
     0
100
AcDbLine
 10
218.6575540955
 20
10.2469790831
 30
0.0
 11
218.6575540955
 21
10.7469726458
 31
0.0
  0
ARC
  5
343
330
1F
100
AcDbEntity
  8
0
  6
Continuous
 62
     8
370
     0
100
AcDbCircle
 10
218.6575517709
 20
18.2469759837
 30
0.0
 40
7.500000000000028
100
AcDbArc
 50
270.0
 51
0.0
  0
LINE
  5
344
330
1F
100
AcDbEntity
  8
0
  6
Continuous
 62
     8
370
     0
100
AcDbLine
 10
218.6575540955
 20
13.7469787255
 30
0.0
 11
76.6575494464
 21
13.7469787255
 31
0.0
  0
LINE
  5
345
330
1F
100
AcDbEntity
  8
0
  6
Continuous
 62
     8
370
     0
100
AcDbLine
 10
76.6575494464
 20
13.7469787255
 30
0.0
 11
76.6575494464
 21
14.2469722882
 31
0.0
  0
LINE
  5
346
330
1F
100
AcDbEntity
  8
0
  6
Continuous
 62
     8
370
     0
100
AcDbLine
 10
218.6575540955
 20
13.7469787255
 30
0.0
 11
218.6575540955
 21
10.7469726458
 31
0.0
  0
LINE
  5
347
330
1F
100
AcDbEntity
  8
0
  6
Continuous
 62
     8
370
     0
100
AcDbLine
 10
76.6575494464
 20
10.2469790831
 30
0.0
 11
76.6575494464
 21
10.7469726458
 31
0.0
  0
LINE
  5
348
330
1F
100
AcDbEntity
  8
0
  6
Continuous
 62
     8
370
     0
100
AcDbLine
 10
76.6575494464
 20
10.7469726458
 30
0.0
 11
218.6575540955
 21
10.7469726458
 31
0.0
  0
LINE
  5
349
330
1F
100
AcDbEntity
  8
0
  6
Continuous
 62
     8
370
     0
100
AcDbLine
 10
76.6575494464
 20
13.7469787255
 30
0.0
 11
76.6575494464
 21
10.7469726458
 31
0.0
  0
ARC
  5
34A
330
1F
100
AcDbEntity
  8
0
  6
Continuous
 62
     8
370
     0
100
AcDbCircle
 10
76.6575517709
 20
18.2469759837
 30
0.0
 40
4.499999999999977
100
AcDbArc
 50
180.0
 51
270.0
  0
ARC
  5
34B
330
1F
100
AcDbEntity
  8
0
  6
Continuous
 62
     8
370
     0
100
AcDbCircle
 10
76.6575517709
 20
18.2469759837
 30
0.0
 40
7.49999999999998
100
AcDbArc
 50
180.0
 51
270.0
  0
LINE
  5
34C
330
1F
100
AcDbEntity
  8
0
  6
Continuous
 62
     8
370
     0
100
AcDbLine
 10
173.3575509543
 20
123.2469752535
 30
0.0
 11
173.3575509543
 21
124.7469764307
 31
0.0
  0
LINE
  5
34D
330
1F
100
AcDbEntity
  8
0
  6
Continuous
 62
     8
370
     0
100
AcDbLine
 10
121.9575525875
 20
124.7469764307
 30
0.0
 11
121.9575525875
 21
123.2469752535
 31
0.0
  0
LINE
  5
34E
330
1F
100
AcDbEntity
  8
0
  6
Continuous
 62
     8
370
     0
100
AcDbLine
 10
121.9575525875
 20
144.4469759694
 30
0.0
 11
121.9575525875
 21
144.7469759837
 31
0.0
  0
LINE
  5
34F
330
1F
100
AcDbEntity
  8
0
  6
Continuous
 62
     8
370
     0
100
AcDbLine
 10
121.9575525875
 20
144.4469759694
 30
0.0
 11
121.6575512345
 21
144.4469759694
 31
0.0
  0
LINE
  5
350
330
1F
100
AcDbEntity
  8
0
  6
Continuous
 62
     8
370
     0
100
AcDbLine
 10
173.3575509543
 20
144.4469759694
 30
0.0
 11
121.9575525875
 21
144.4469759694
 31
0.0
  0
LINE
  5
351
330
1F
100
AcDbEntity
  8
0
  6
Continuous
 62
     8
370
     0
100
AcDbLine
 10
173.3575509543
 20
144.4469759694
 30
0.0
 11
173.3575509543
 21
144.7469759837
 31
0.0
  0
LINE
  5
352
330
1F
100
AcDbEntity
  8
0
  6
Continuous
 62
     8
370
     0
100
AcDbLine
 10
121.9575525875
 20
144.4469759694
 30
0.0
 11
121.9575525875
 21
125.0469759211
 31
0.0
  0
LINE
  5
353
330
1F
100
AcDbEntity
  8
0
  6
Continuous
 62
     8
370
     0
100
AcDbLine
 10
121.9575525875
 20
125.0469759211
 30
0.0
 11
121.6575512345
 21
125.0469759211
 31
0.0
  0
LINE
  5
354
330
1F
100
AcDbEntity
  8
0
  6
Continuous
 62
     8
370
     0
100
AcDbLine
 10
173.6575523074
 20
144.4469759694
 30
0.0
 11
173.3575509543
 21
144.4469759694
 31
0.0
  0
LINE
  5
355
330
1F
100
AcDbEntity
  8
0
  6
Continuous
 62
     8
370
     0
100
AcDbLine
 10
173.6575523074
 20
125.0469759211
 30
0.0
 11
173.3575509543
 21
125.0469759211
 31
0.0
  0
LINE
  5
356
330
1F
100
AcDbEntity
  8
0
  6
Continuous
 62
     8
370
     0
100
AcDbLine
 10
173.3575509543
 20
125.0469759211
 30
0.0
 11
173.3575509543
 21
144.4469759694
 31
0.0
  0
LINE
  5
357
330
1F
100
AcDbEntity
  8
0
  6
Continuous
 62
     8
370
     0
100
AcDbLine
 10
121.9575525875
 20
125.0469759211
 30
0.0
 11
173.3575509543
 21
125.0469759211
 31
0.0
  0
LINE
  5
358
330
1F
100
AcDbEntity
  8
0
  6
Continuous
 62
     8
370
     0
100
AcDbLine
 10
173.3575509543
 20
124.7469764307
 30
0.0
 11
173.3575509543
 21
125.0469759211
 31
0.0
  0
LINE
  5
359
330
1F
100
AcDbEntity
  8
0
  6
Continuous
 62
     8
370
     0
100
AcDbLine
 10
121.9575525875
 20
124.7469764307
 30
0.0
 11
121.9575525875
 21
125.0469759211
 31
0.0
  0
LINE
  5
35A
330
1F
100
AcDbEntity
  8
0
  6
CENTERX2
 62
     7
370
     0
100
AcDbLine
 10
147.6575517709
 20
147.7629548296
 30
0.0
 11
147.6575517709
 21
7.247055301
 31
0.0
  0
LINE
  5
35B
330
1F
100
AcDbEntity
  8
0
  6
Continuous
 62
     7
370
    30
100
AcDbLine
 10
278.0686297326
 20
195.8199974698
 30
0.0
 11
278.0686297326
 21
202.4998564822
 31
0.0
  0
LINE
  5
35C
330
1F
100
AcDbEntity
  8
0
  6
Continuous
 62
     7
370
    30
100
AcDbLine
 10
272.0686301461
 20
202.4998564822
 30
0.0
 11
272.0686301461
 21
195.8199974698
 31
0.0
  0
LINE
  5
35D
330
1F
100
AcDbEntity
  8
0
  6
Continuous
 62
     7
370
    30
100
AcDbLine
 10
272.0686301461
 20
195.8199974698
 30
0.0
 11
272.6231298281
 21
195.4998571974
 31
0.0
  0
LINE
  5
35E
330
1F
100
AcDbEntity
  8
0
  6
Continuous
 62
     7
370
    30
100
AcDbLine
 10
277.5141295849
 20
195.4998571974
 30
0.0
 11
278.0686297326
 21
195.8199974698
 31
0.0
  0
LINE
  5
35F
330
1F
100
AcDbEntity
  8
0
  6
Continuous
 62
     7
370
    30
100
AcDbLine
 10
278.0686297326
 20
202.4998564822
 30
0.0
 11
275.0686301722
 21
205.4998569739
 31
0.0
  0
LINE
  5
360
330
1F
100
AcDbEntity
  8
0
  6
Continuous
 62
     7
370
    30
100
AcDbLine
 10
275.0686301722
 20
205.4998569739
 30
0.0
 11
272.0686301461
 21
202.4998564822
 31
0.0
  0
LINE
  5
361
330
1F
100
AcDbEntity
  8
0
  6
Continuous
 62
     7
370
    30
100
AcDbLine
 10
284.0686307161
 20
233.4998578382
 30
0.0
 11
281.6195913462
 21
233.2424533171
 31
0.0
  0
LINE
  5
362
330
1F
100
AcDbEntity
  8
0
  6
Continuous
 62
     7
370
    30
100
AcDbLine
 10
281.6195913462
 20
223.7572611858
 30
0.0
 11
284.0686307161
 21
223.4998571304
 31
0.0
  0
ARC
  5
363
330
1F
100
AcDbEntity
  8
0
  6
Continuous
 62
     7
370
    30
100
AcDbCircle
 10
289.2686299561
 20
228.4998569143
 30
0.0
 40
9.000000000000048
100
AcDbArc
 50
194.4775121859
 51
211.7999516825
  0
ARC
  5
364
330
1F
100
AcDbEntity
  8
0
  6
Continuous
 62
     7
370
    30
100
AcDbCircle
 10
289.2686299561
 20
228.4998569143
 30
0.0
 40
9.000000000000078
100
AcDbArc
 50
148.2000483175
 51
165.5224878141
  0
LINE
  5
365
330
1F
100
AcDbEntity
  8
0
  6
Continuous
 62
     7
370
    30
100
AcDbLine
 10
270.5686299002
 20
202.4998564822
 30
0.0
 11
267.3686299811
 21
202.4998564822
 31
0.0
  0
LINE
  5
366
330
1F
100
AcDbEntity
  8
0
  6
Continuous
 62
     7
370
    30
100
AcDbLine
 10
267.3686299811
 20
234.4998561395
 30
0.0
 11
267.3686299811
 21
202.4998564822
 31
0.0
  0
LINE
  5
367
330
1F
100
AcDbEntity
  8
0
  6
Continuous
 62
     7
370
    30
100
AcDbLine
 10
267.3686299811
 20
234.4998561395
 30
0.0
 11
270.5686299002
 21
234.4998561395
 31
0.0
  0
LINE
  5
368
330
1F
100
AcDbEntity
  8
0
  6
Continuous
 62
     7
370
    30
100
AcDbLine
 10
270.5686299002
 20
234.4998561395
 30
0.0
 11
270.5686299002
 21
202.4998564822
 31
0.0
  0
LINE
  5
369
330
1F
100
AcDbEntity
  8
0
  6
Continuous
 62
     7
370
    30
100
AcDbLine
 10
275.0686301722
 20
231.499856579
 30
0.0
 11
277.0686295687
 21
233.4998578382
 31
0.0
  0
LINE
  5
36A
330
1F
100
AcDbEntity
  8
0
  6
Continuous
 62
     7
370
    30
100
AcDbLine
 10
279.0686298965
 20
233.4998578382
 30
0.0
 11
277.0686295687
 21
233.4998578382
 31
0.0
  0
LINE
  5
36B
330
1F
100
AcDbEntity
  8
0
  6
Continuous
 62
     7
370
    30
100
AcDbLine
 10
279.0686298965
 20
233.4998578382
 30
0.0
 11
279.0686298965
 21
232.2927501601
 31
0.0
  0
ARC
  5
36C
330
1F
100
AcDbEntity
  8
0
  6
Continuous
 62
     7
370
    30
100
AcDbCircle
 10
276.5686299561
 20
232.2927501331
 30
0.0
 40
2.50000000000002
100
AcDbArc
 50
315.0
 51
0.0
  0
LINE
  5
36D
330
1F
100
AcDbEntity
  8
0
  6
Continuous
 62
     7
370
    30
100
AcDbLine
 10
278.33639708
 20
230.5249834982
 30
0.0
 11
276.654416403
 21
228.8430028212
 31
0.0
  0
ARC
  5
36E
330
1F
100
AcDbEntity
  8
0
  6
Continuous
 62
     7
370
    30
100
AcDbCircle
 10
278.0686299561
 20
227.4287891024
 30
0.0
 40
2.000000000000016
100
AcDbArc
 50
135.0
 51
180.0
  0
LINE
  5
36F
330
1F
100
AcDbEntity
  8
0
  6
Continuous
 62
     7
370
    30
100
AcDbLine
 10
276.0686303361
 20
227.4287894917
 30
0.0
 11
276.0686303361
 21
213.4019164452
 31
0.0
  0
LINE
  5
370
330
1F
100
AcDbEntity
  8
0
  6
Continuous
 62
     7
370
    30
100
AcDbLine
 10
275.9686295746
 20
213.4019164452
 30
0.0
 11
276.0686303361
 21
213.4019164452
 31
0.0
  0
LINE
  5
371
330
1F
100
AcDbEntity
  8
0
  6
Continuous
 62
     7
370
    30
100
AcDbLine
 10
276.0686303361
 20
213.1885716309
 30
0.0
 11
276.0686303361
 21
212.4829397154
 31
0.0
  0
LINE
  5
372
330
1F
100
AcDbEntity
  8
0
  6
Continuous
 62
     7
370
    30
100
AcDbLine
 10
275.9686295746
 20
212.4829397154
 30
0.0
 11
276.0686303361
 21
212.4829397154
 31
0.0
  0
LINE
  5
373
330
1F
100
AcDbEntity
  8
0
  6
Continuous
 62
     7
370
    30
100
AcDbLine
 10
275.9686295746
 20
212.3250265223
 30
0.0
 11
275.9686295746
 21
212.4829397154
 31
0.0
  0
LINE
  5
374
330
1F
100
AcDbEntity
  8
0
  6
Continuous
 62
     7
370
    30
100
AcDbLine
 10
276.0686303361
 20
212.3250265223
 30
0.0
 11
275.9686295746
 21
212.3250265223
 31
0.0
  0
LINE
  5
375
330
1F
100
AcDbEntity
  8
0
  6
Continuous
 62
     7
370
    30
100
AcDbLine
 10
276.0686303361
 20
212.3250265223
 30
0.0
 11
276.0686303361
 21
211.747177652
 31
0.0
  0
LINE
  5
376
330
1F
100
AcDbEntity
  8
0
  6
Continuous
 62
     7
370
    30
100
AcDbLine
 10
275.9686295746
 20
211.7471781177
 30
0.0
 11
276.0686303361
 21
211.747177652
 31
0.0
  0
LINE
  5
377
330
1F
100
AcDbEntity
  8
0
  6
Continuous
 62
     7
370
    30
100
AcDbLine
 10
275.9686295746
 20
211.5904295434
 30
0.0
 11
275.9686295746
 21
211.7471781177
 31
0.0
  0
LINE
  5
378
330
1F
100
AcDbEntity
  8
0
  6
Continuous
 62
     7
370
    30
100
AcDbLine
 10
276.0686303361
 20
211.5904295434
 30
0.0
 11
275.9686295746
 21
211.5904295434
 31
0.0
  0
LINE
  5
379
330
1F
100
AcDbEntity
  8
0
  6
Continuous
 62
     7
370
    30
100
AcDbLine
 10
276.0686303361
 20
211.5904295434
 30
0.0
 11
276.0686303361
 21
209.5709245269
 31
0.0
  0
ARC
  5
37A
330
1F
100
AcDbEntity
  8
0
  6
Continuous
 62
     7
370
    30
100
AcDbCircle
 10
278.0686299561
 20
209.5709247262
 30
0.0
 40
2.000000000000016
100
AcDbArc
 50
180.0
 51
225.0
  0
LINE
  5
37B
330
1F
100
AcDbEntity
  8
0
  6
Continuous
 62
     7
370
    30
100
AcDbLine
 10
276.654416403
 20
208.1567107317
 30
0.0
 11
278.33639708
 21
206.4747309861
 31
0.0
  0
ARC
  5
37C
330
1F
100
AcDbEntity
  8
0
  6
Continuous
 62
     7
370
    30
100
AcDbCircle
 10
276.5686299561
 20
204.7069636955
 30
0.0
 40
2.50000000000002
100
AcDbArc
 50
0.0
 51
45.0
  0
LINE
  5
37D
330
1F
100
AcDbEntity
  8
0
  6
Continuous
 62
     7
370
    30
100
AcDbLine
 10
279.0686298965
 20
204.7069633928
 30
0.0
 11
279.0686298965
 21
203.4998566461
 31
0.0
  0
LINE
  5
37E
330
1F
100
AcDbEntity
  8
0
  6
Continuous
 62
     7
370
    30
100
AcDbLine
 10
279.0686298965
 20
203.4998566461
 30
0.0
 11
277.0686295687
 21
203.4998566461
 31
0.0
  0
LINE
  5
37F
330
1F
100
AcDbEntity
  8
0
  6
Continuous
 62
     7
370
    30
100
AcDbLine
 10
277.0686295687
 20
203.4998566461
 30
0.0
 11
275.0686301722
 21
205.4998569739
 31
0.0
  0
LINE
  5
380
330
1F
100
AcDbEntity
  8
0
  6
Continuous
 62
     7
370
    30
100
AcDbLine
 10
275.0686301722
 20
205.4998569739
 30
0.0
 11
273.0686298443
 21
203.4998566461
 31
0.0
  0
LINE
  5
381
330
1F
100
AcDbEntity
  8
0
  6
Continuous
 62
     7
370
    30
100
AcDbLine
 10
273.0686298443
 20
203.4998566461
 30
0.0
 11
270.5686299002
 21
203.4998566461
 31
0.0
  0
LINE
  5
382
330
1F
100
AcDbEntity
  8
0
  6
Continuous
 62
     7
370
    30
100
AcDbLine
 10
270.5686299002
 20
203.4998566461
 30
0.0
 11
270.5686299002
 21
233.4998578382
 31
0.0
  0
LINE
  5
383
330
1F
100
AcDbEntity
  8
0
  6
Continuous
 62
     7
370
    30
100
AcDbLine
 10
273.0686298443
 20
233.4998578382
 30
0.0
 11
270.5686299002
 21
233.4998578382
 31
0.0
  0
LINE
  5
384
330
1F
100
AcDbEntity
  8
0
  6
Continuous
 62
     7
370
    30
100
AcDbLine
 10
273.0686298443
 20
233.4998578382
 30
0.0
 11
275.0686301722
 21
231.499856579
 31
0.0
  0
LINE
  5
385
330
1F
100
AcDbEntity
  8
0
  6
Continuous
 62
     7
370
    30
100
AcDbLine
 10
276.0686303361
 20
213.1885716309
 30
0.0
 11
275.9686295746
 21
213.1885716309
 31
0.0
  0
LINE
  5
386
330
1F
100
AcDbEntity
  8
0
  6
Continuous
 62
     7
370
    30
100
AcDbLine
 10
275.9686295746
 20
213.1885716309
 30
0.0
 11
275.9686295746
 21
213.4019164452
 31
0.0
  0
SPLINE
  5
387
330
1F
100
AcDbEntity
  8
0
  6
Continuous
 62
     7
370
    30
100
AcDbSpline
210
0.0
220
0.0
230
1.0
 70
    24
 71
     3
 72
     9
 73
     5
 74
     0
 42
0.00000001
 43
0.00000001
 40
0.0
 40
0.0
 40
0.0
 40
0.0
 40
0.5597370966285736
 40
1.0
 40
1.0
 40
1.0
 40
1.0
 10
276.0686303360733
 20
213.4019164451526
 30
0.0
 10
276.0686303360733
 20
213.3934329613333
 30
0.0
 10
276.0686303360733
 20
213.3782767677016
 30
0.0
 10
276.0686303360733
 20
213.3619039436884
 30
0.0
 10
276.0686303360733
 20
213.3546955966519
 30
0.0
  0
LINE
  5
388
330
1F
100
AcDbEntity
  8
0
  6
Continuous
 62
     7
370
    30
100
AcDbLine
 10
275.9686295746
 20
213.3546955967
 30
0.0
 11
276.0686303361
 21
213.3546955967
 31
0.0
  0
LINE
  5
389
330
1F
100
AcDbEntity
  8
0
  6
Continuous
 62
     7
370
    30
100
AcDbLine
 10
276.0686303361
 20
211.7152467919
 30
0.0
 11
276.0686303361
 21
211.5904295434
 31
0.0
  0
SPLINE
  5
38A
330
1F
100
AcDbEntity
  8
0
  6
Continuous
 62
     7
370
    30
100
AcDbSpline
210
0.0
220
0.0
230
1.0
 70
    24
 71
     3
 72
     9
 73
     5
 74
     0
 42
0.00000001
 43
0.00000001
 40
0.0
 40
0.0
 40
0.0
 40
0.0
 40
0.8748291038272507
 40
1.0
 40
1.0
 40
1.0
 40
1.0
 10
276.0686303360733
 20
212.4829397154169
 30
0.0
 10
276.0686303360733
 20
212.4601130800084
 30
0.0
 10
276.0686303360733
 20
212.4340204005255
 30
0.0
 10
276.0686303360733
 20
212.3868142475933
 30
0.0
 10
276.0686303360733
 20
212.3809054111259
 30
0.0
  0
LINE
  5
38B
330
1F
100
AcDbEntity
  8
0
  6
Continuous
 62
     7
370
    30
100
AcDbLine
 10
272.0686301461
 20
234.4998561395
 30
0.0
 11
270.5686299002
 21
234.4998561395
 31
0.0
  0
LINE
  5
38C
330
1F
100
AcDbEntity
  8
0
  6
Continuous
 62
     7
370
    30
100
AcDbLine
 10
270.5686299002
 20
202.4998564822
 30
0.0
 11
272.0686301461
 21
202.4998564822
 31
0.0
  0
LINE
  5
38D
330
1F
100
AcDbEntity
  8
0
  6
Continuous
 62
     7
370
    30
100
AcDbLine
 10
279.0686298965
 20
234.4998561395
 30
0.0
 11
278.0686297326
 21
234.4998561395
 31
0.0
  0
LINE
  5
38E
330
1F
100
AcDbEntity
  8
0
  6
Continuous
 62
     7
370
    30
100
AcDbLine
 10
279.0686298965
 20
233.4998578382
 30
0.0
 11
279.0686298965
 21
234.4998561395
 31
0.0
  0
LINE
  5
38F
330
1F
100
AcDbEntity
  8
0
  6
Continuous
 62
     7
370
    30
100
AcDbLine
 10
279.0686298965
 20
202.4998564822
 30
0.0
 11
278.0686297326
 21
202.4998564822
 31
0.0
  0
LINE
  5
390
330
1F
100
AcDbEntity
  8
0
  6
Continuous
 62
     7
370
    30
100
AcDbLine
 10
279.0686298965
 20
202.4998564822
 30
0.0
 11
279.0686298965
 21
203.4998566461
 31
0.0
  0
LINE
  5
391
330
1F
100
AcDbEntity
  8
0
  6
Continuous
 62
     7
370
    30
100
AcDbLine
 10
276.0686303361
 20
213.3488287301
 30
0.0
 11
276.0686303361
 21
213.1885716309
 31
0.0
  0
ARC
  5
392
330
1F
100
AcDbEntity
  8
0
  6
Continuous
 62
     7
370
    30
100
AcDbCircle
 10
297.2686299561
 20
219.2998569143
 30
0.0
 40
0.3000000000000114
100
AcDbArc
 50
270.0
 51
0.0
  0
LINE
  5
393
330
1F
100
AcDbEntity
  8
0
  6
Continuous
 62
     7
370
    30
100
AcDbLine
 10
297.2686306445
 20
218.9998568584
 30
0.0
 11
293.8686308323
 21
218.9998568584
 31
0.0
  0
ARC
  5
394
330
1F
100
AcDbEntity
  8
0
  6
Continuous
 62
     7
370
    30
100
AcDbCircle
 10
293.8686299561
 20
219.2998569143
 30
0.0
 40
0.3000000000000114
100
AcDbArc
 50
180.0
 51
270.0
  0
ARC
  5
395
330
1F
100
AcDbEntity
  8
0
  6
Continuous
 62
     7
370
    30
100
AcDbCircle
 10
293.8686299561
 20
237.6998569143
 30
0.0
 40
0.3000000000000398
100
AcDbArc
 50
90.0
 51
180.0
  0
LINE
  5
396
330
1F
100
AcDbEntity
  8
0
  6
Continuous
 62
     7
370
    30
100
AcDbLine
 10
293.8686308323
 20
237.9998576445
 30
0.0
 11
297.2686306445
 21
237.9998576445
 31
0.0
  0
ARC
  5
397
330
1F
100
AcDbEntity
  8
0
  6
Continuous
 62
     7
370
    30
100
AcDbCircle
 10
297.2686299561
 20
237.6998569143
 30
0.0
 40
0.3000000000000398
100
AcDbArc
 50
0.0
 51
90.0
  0
LINE
  5
398
330
1F
100
AcDbEntity
  8
0
  6
Continuous
 62
     7
370
    30
100
AcDbLine
 10
297.5686301349
 20
237.6998562914
 30
0.0
 11
297.5686301349
 21
219.2998568145
 31
0.0
  0
LINE
  5
399
330
1F
100
AcDbEntity
  8
0
  6
Continuous
 62
     7
370
    30
100
AcDbLine
 10
293.5686294793
 20
237.6998562914
 30
0.0
 11
293.5686294793
 21
219.2998568145
 31
0.0
  0
LINE
  5
39A
330
1F
100
AcDbEntity
  8
0
  6
Continuous
 62
     7
370
    30
100
AcDbLine
 10
293.5686294793
 20
180.499858464
 30
0.0
 11
293.5686294793
 21
186.4998575849
 31
0.0
  0
LINE
  5
39B
330
1F
100
AcDbEntity
  8
0
  6
Continuous
 62
     7
370
    30
100
AcDbLine
 10
293.5686294793
 20
180.499858464
 30
0.0
 11
291.5686291514
 21
180.499858464
 31
0.0
  0
LINE
  5
39C
330
1F
100
AcDbEntity
  8
0
  6
Continuous
 62
     7
370
    30
100
AcDbLine
 10
291.5686291514
 20
180.499858464
 30
0.0
 11
291.5686291514
 21
186.4998575849
 31
0.0
  0
LINE
  5
39D
330
1F
100
AcDbEntity
  8
0
  6
Continuous
 62
     7
370
    30
100
AcDbLine
 10
291.5686291514
 20
186.4998575849
 30
0.0
 11
293.5686294793
 21
186.4998575849
 31
0.0
  0
LINE
  5
39E
330
1F
100
AcDbEntity
  8
0
  6
Continuous
 62
     7
370
    30
100
AcDbLine
 10
298.0686292855
 20
164.4998558414
 30
0.0
 11
298.0686292855
 21
166.4998561693
 31
0.0
  0
LINE
  5
39F
330
1F
100
AcDbEntity
  8
0
  6
Continuous
 62
     7
370
    30
100
AcDbLine
 10
304.0686284064
 20
164.4998558414
 30
0.0
 11
304.0686284064
 21
166.4998561693
 31
0.0
  0
LINE
  5
3A0
330
1F
100
AcDbEntity
  8
0
  6
Continuous
 62
     7
370
    30
100
AcDbLine
 10
298.0686292855
 20
166.4998561693
 30
0.0
 11
304.0686284064
 21
166.4998561693
 31
0.0
  0
LINE
  5
3A1
330
1F
100
AcDbEntity
  8
0
  6
Continuous
 62
     7
370
    30
100
AcDbLine
 10
304.0686284064
 20
164.4998558414
 30
0.0
 11
298.0686292855
 21
164.4998558414
 31
0.0
  0
LINE
  5
3A2
330
1F
100
AcDbEntity
  8
0
  6
Continuous
 62
     7
370
    30
100
AcDbLine
 10
319.0686290024
 20
164.4998558414
 30
0.0
 11
319.0686290024
 21
166.4998561693
 31
0.0
  0
LINE
  5
3A3
330
1F
100
AcDbEntity
  8
0
  6
Continuous
 62
     7
370
    30
100
AcDbLine
 10
313.0686317442
 20
166.4998561693
 30
0.0
 11
313.0686317442
 21
164.4998558414
 31
0.0
  0
LINE
  5
3A4
330
1F
100
AcDbEntity
  8
0
  6
Continuous
 62
     7
370
    30
100
AcDbLine
 10
313.0686317442
 20
166.4998561693
 30
0.0
 11
319.0686290024
 21
166.4998561693
 31
0.0
  0
LINE
  5
3A5
330
1F
100
AcDbEntity
  8
0
  6
Continuous
 62
     7
370
    30
100
AcDbLine
 10
319.0686290024
 20
164.4998558414
 30
0.0
 11
313.0686317442
 21
164.4998558414
 31
0.0
  0
LINE
  5
3A6
330
1F
100
AcDbEntity
  8
0
  6
Continuous
 62
     7
370
    30
100
AcDbLine
 10
328.068628615
 20
166.4998561693
 30
0.0
 11
334.0686295985
 21
166.4998561693
 31
0.0
  0
LINE
  5
3A7
330
1F
100
AcDbEntity
  8
0
  6
Continuous
 62
     7
370
    30
100
AcDbLine
 10
334.0686295985
 20
164.4998558414
 30
0.0
 11
334.0686295985
 21
166.4998561693
 31
0.0
  0
LINE
  5
3A8
330
1F
100
AcDbEntity
  8
0
  6
Continuous
 62
     7
370
    30
100
AcDbLine
 10
334.0686295985
 20
164.4998558414
 30
0.0
 11
328.068628615
 21
164.4998558414
 31
0.0
  0
LINE
  5
3A9
330
1F
100
AcDbEntity
  8
0
  6
Continuous
 62
     7
370
    30
100
AcDbLine
 10
328.068628615
 20
166.4998561693
 30
0.0
 11
328.068628615
 21
164.4998558414
 31
0.0
  0
LINE
  5
3AA
330
1F
100
AcDbEntity
  8
0
  6
Continuous
 62
     7
370
    30
100
AcDbLine
 10
343.0686329363
 20
166.4998561693
 30
0.0
 11
343.0686329363
 21
164.4998558414
 31
0.0
  0
LINE
  5
3AB
330
1F
100
AcDbEntity
  8
0
  6
Continuous
 62
     7
370
    30
100
AcDbLine
 10
343.0686329363
 20
166.4998561693
 30
0.0
 11
349.0686301945
 21
166.4998561693
 31
0.0
  0
LINE
  5
3AC
330
1F
100
AcDbEntity
  8
0
  6
Continuous
 62
     7
370
    30
100
AcDbLine
 10
349.0686301945
 20
164.4998558414
 30
0.0
 11
349.0686301945
 21
166.4998561693
 31
0.0
  0
LINE
  5
3AD
330
1F
100
AcDbEntity
  8
0
  6
Continuous
 62
     7
370
    30
100
AcDbLine
 10
349.0686301945
 20
164.4998558414
 30
0.0
 11
343.0686329363
 21
164.4998558414
 31
0.0
  0
LINE
  5
3AE
330
1F
100
AcDbEntity
  8
0
  6
Continuous
 62
     7
370
    30
100
AcDbLine
 10
364.0686307906
 20
164.4998558414
 30
0.0
 11
364.0686307906
 21
166.4998561693
 31
0.0
  0
LINE
  5
3AF
330
1F
100
AcDbEntity
  8
0
  6
Continuous
 62
     7
370
    30
100
AcDbLine
 10
358.0686335324
 20
166.4998561693
 30
0.0
 11
358.0686335324
 21
164.4998558414
 31
0.0
  0
LINE
  5
3B0
330
1F
100
AcDbEntity
  8
0
  6
Continuous
 62
     7
370
    30
100
AcDbLine
 10
358.0686335324
 20
166.4998561693
 30
0.0
 11
364.0686307906
 21
166.4998561693
 31
0.0
  0
LINE
  5
3B1
330
1F
100
AcDbEntity
  8
0
  6
Continuous
 62
     7
370
    30
100
AcDbLine
 10
364.0686307906
 20
164.4998558414
 30
0.0
 11
358.0686335324
 21
164.4998558414
 31
0.0
  0
LINE
  5
3B2
330
1F
100
AcDbEntity
  8
0
  6
Continuous
 62
     7
370
    30
100
AcDbLine
 10
373.0686266778
 20
166.4998561693
 30
0.0
 11
373.0686266778
 21
164.4998558414
 31
0.0
  0
LINE
  5
3B3
330
1F
100
AcDbEntity
  8
0
  6
Continuous
 62
     7
370
    30
100
AcDbLine
 10
373.0686266778
 20
166.4998561693
 30
0.0
 11
379.0686313866
 21
166.4998561693
 31
0.0
  0
LINE
  5
3B4
330
1F
100
AcDbEntity
  8
0
  6
Continuous
 62
     7
370
    30
100
AcDbLine
 10
379.0686313866
 20
164.4998558414
 30
0.0
 11
379.0686313866
 21
166.4998561693
 31
0.0
  0
LINE
  5
3B5
330
1F
100
AcDbEntity
  8
0
  6
Continuous
 62
     7
370
    30
100
AcDbLine
 10
379.0686313866
 20
164.4998558414
 30
0.0
 11
373.0686266778
 21
164.4998558414
 31
0.0
  0
LINE
  5
3B6
330
1F
100
AcDbEntity
  8
0
  6
Continuous
 62
     7
370
    30
100
AcDbLine
 10
394.0686319827
 20
166.4998561693
 30
0.0
 11
394.0686319827
 21
164.4998558414
 31
0.0
  0
LINE
  5
3B7
330
1F
100
AcDbEntity
  8
0
  6
Continuous
 62
     7
370
    30
100
AcDbLine
 10
388.0686272739
 20
166.4998561693
 30
0.0
 11
388.0686272739
 21
164.4998558414
 31
0.0
  0
LINE
  5
3B8
330
1F
100
AcDbEntity
  8
0
  6
Continuous
 62
     7
370
    30
100
AcDbLine
 10
388.0686272739
 20
166.4998561693
 30
0.0
 11
394.0686319827
 21
166.4998561693
 31
0.0
  0
LINE
  5
3B9
330
1F
100
AcDbEntity
  8
0
  6
Continuous
 62
     7
370
    30
100
AcDbLine
 10
394.0686319827
 20
164.4998558414
 30
0.0
 11
388.0686272739
 21
164.4998558414
 31
0.0
  0
LINE
  5
3BA
330
1F
100
AcDbEntity
  8
0
  6
Continuous
 62
     7
370
    30
100
AcDbLine
 10
400.5686228035
 20
186.4998575849
 30
0.0
 11
400.5686228035
 21
180.499858464
 31
0.0
  0
LINE
  5
3BB
330
1F
100
AcDbEntity
  8
0
  6
Continuous
 62
     7
370
    30
100
AcDbLine
 10
398.5686336516
 20
186.4998575849
 30
0.0
 11
400.5686228035
 21
186.4998575849
 31
0.0
  0
LINE
  5
3BC
330
1F
100
AcDbEntity
  8
0
  6
Continuous
 62
     7
370
    30
100
AcDbLine
 10
398.5686336516
 20
186.4998575849
 30
0.0
 11
398.5686336516
 21
180.499858464
 31
0.0
  0
LINE
  5
3BD
330
1F
100
AcDbEntity
  8
0
  6
Continuous
 62
     7
370
    30
100
AcDbLine
 10
400.5686228035
 20
180.499858464
 30
0.0
 11
398.5686336516
 21
180.499858464
 31
0.0
  0
LINE
  5
3BE
330
1F
100
AcDbEntity
  8
0
  6
Continuous
 62
     7
370
    30
100
AcDbLine
 10
293.5686294793
 20
180.499858464
 30
0.0
 11
293.5686294793
 21
178.4998581362
 31
0.0
  0
LINE
  5
3BF
330
1F
100
AcDbEntity
  8
0
  6
Continuous
 62
     7
370
    30
100
AcDbLine
 10
291.5686291514
 20
178.4998581362
 30
0.0
 11
291.5686291514
 21
180.499858464
 31
0.0
  0
LINE
  5
3C0
330
1F
100
AcDbEntity
  8
0
  6
Continuous
 62
     7
370
    30
100
AcDbLine
 10
296.0686308204
 20
166.4998561693
 30
0.0
 11
298.0686292855
 21
166.4998561693
 31
0.0
  0
LINE
  5
3C1
330
1F
100
AcDbEntity
  8
0
  6
Continuous
 62
     7
370
    30
100
AcDbLine
 10
298.0686292855
 20
164.4998558414
 30
0.0
 11
296.0686308204
 21
164.4998558414
 31
0.0
  0
LINE
  5
3C2
330
1F
100
AcDbEntity
  8
0
  6
Continuous
 62
     7
370
    30
100
AcDbLine
 10
394.0686319827
 20
166.4998561693
 30
0.0
 11
396.0686360358
 21
166.4998561693
 31
0.0
  0
LINE
  5
3C3
330
1F
100
AcDbEntity
  8
0
  6
Continuous
 62
     7
370
    30
100
AcDbLine
 10
396.0686360358
 20
164.4998558414
 30
0.0
 11
394.0686319827
 21
164.4998558414
 31
0.0
  0
LINE
  5
3C4
330
1F
100
AcDbEntity
  8
0
  6
Continuous
 62
     7
370
    30
100
AcDbLine
 10
400.5686228035
 20
180.499858464
 30
0.0
 11
400.5686228035
 21
178.4998581362
 31
0.0
  0
LINE
  5
3C5
330
1F
100
AcDbEntity
  8
0
  6
Continuous
 62
     7
370
    30
100
AcDbLine
 10
398.5686336516
 20
178.4998581362
 30
0.0
 11
398.5686336516
 21
180.499858464
 31
0.0
  0
ARC
  5
3C6
330
1F
100
AcDbEntity
  8
0
  6
Continuous
 62
     7
370
    30
100
AcDbCircle
 10
295.5686299561
 20
168.4998569143
 30
0.0
 40
2.0
100
AcDbArc
 50
180.0
 51
270.0
  0
ARC
  5
3C7
330
1F
100
AcDbEntity
  8
0
  6
Continuous
 62
     7
370
    30
100
AcDbCircle
 10
295.5686299561
 20
168.4998569143
 30
0.0
 40
4.000000000000369
100
AcDbArc
 50
180.0
 51
270.0
  0
LINE
  5
3C8
330
1F
100
AcDbEntity
  8
0
  6
Continuous
 62
     7
370
    30
100
AcDbLine
 10
295.5686298071
 20
166.4998561693
 30
0.0
 11
296.0686308204
 21
166.4998561693
 31
0.0
  0
LINE
  5
3C9
330
1F
100
AcDbEntity
  8
0
  6
Continuous
 62
     7
370
    30
100
AcDbLine
 10
296.0686308204
 20
164.4998558414
 30
0.0
 11
295.5686298071
 21
164.4998558414
 31
0.0
  0
LINE
  5
3CA
330
1F
100
AcDbEntity
  8
0
  6
Continuous
 62
     7
370
    30
100
AcDbLine
 10
293.5686294793
 20
168.4998564971
 30
0.0
 11
293.5686294793
 21
178.4998581362
 31
0.0
  0
LINE
  5
3CB
330
1F
100
AcDbEntity
  8
0
  6
Continuous
 62
     7
370
    30
100
AcDbLine
 10
291.5686291514
 20
178.4998581362
 30
0.0
 11
291.5686291514
 21
168.4998564971
 31
0.0
  0
ARC
  5
3CC
330
1F
100
AcDbEntity
  8
0
  6
Continuous
 62
     7
370
    30
100
AcDbCircle
 10
396.5686299561
 20
168.4998569143
 30
0.0
 40
4.000000000000028
100
AcDbArc
 50
270.0
 51
0.0
  0
ARC
  5
3CD
330
1F
100
AcDbEntity
  8
0
  6
Continuous
 62
     7
370
    30
100
AcDbCircle
 10
396.5686299561
 20
168.4998569143
 30
0.0
 40
2.0
100
AcDbArc
 50
270.0
 51
0.0
  0
LINE
  5
3CE
330
1F
100
AcDbEntity
  8
0
  6
Continuous
 62
     7
370
    30
100
AcDbLine
 10
400.5686228035
 20
168.4998564971
 30
0.0
 11
400.5686228035
 21
178.4998581362
 31
0.0
  0
LINE
  5
3CF
330
1F
100
AcDbEntity
  8
0
  6
Continuous
 62
     7
370
    30
100
AcDbLine
 10
398.5686336516
 20
178.4998581362
 30
0.0
 11
398.5686336516
 21
168.4998564971
 31
0.0
  0
LINE
  5
3D0
330
1F
100
AcDbEntity
  8
0
  6
Continuous
 62
     7
370
    30
100
AcDbLine
 10
396.0686360358
 20
166.4998561693
 30
0.0
 11
396.5686295985
 21
166.4998561693
 31
0.0
  0
LINE
  5
3D1
330
1F
100
AcDbEntity
  8
0
  6
Continuous
 62
     7
370
    30
100
AcDbLine
 10
396.0686360358
 20
164.4998558414
 30
0.0
 11
396.5686295985
 21
164.4998558414
 31
0.0
  0
LINE
  5
3D2
330
1F
100
AcDbEntity
  8
0
  6
Continuous
 62
     7
370
    30
100
AcDbLine
 10
298.0686292855
 20
166.4998561693
 30
0.0
 11
298.0686292855
 21
168.4998564971
 31
0.0
  0
LINE
  5
3D3
330
1F
100
AcDbEntity
  8
0
  6
Continuous
 62
     7
370
    30
100
AcDbLine
 10
304.0686284064
 20
166.4998561693
 30
0.0
 11
304.0686284064
 21
168.4998564971
 31
0.0
  0
LINE
  5
3D4
330
1F
100
AcDbEntity
  8
0
  6
Continuous
 62
     7
370
    30
100
AcDbLine
 10
319.0686290024
 20
166.4998561693
 30
0.0
 11
319.0686290024
 21
168.4998564971
 31
0.0
  0
LINE
  5
3D5
330
1F
100
AcDbEntity
  8
0
  6
Continuous
 62
     7
370
    30
100
AcDbLine
 10
313.0686317442
 20
168.4998564971
 30
0.0
 11
313.0686317442
 21
166.4998561693
 31
0.0
  0
LINE
  5
3D6
330
1F
100
AcDbEntity
  8
0
  6
Continuous
 62
     7
370
    30
100
AcDbLine
 10
334.0686295985
 20
166.4998561693
 30
0.0
 11
334.0686295985
 21
168.4998564971
 31
0.0
  0
LINE
  5
3D7
330
1F
100
AcDbEntity
  8
0
  6
Continuous
 62
     7
370
    30
100
AcDbLine
 10
328.068628615
 20
168.4998564971
 30
0.0
 11
328.068628615
 21
166.4998561693
 31
0.0
  0
LINE
  5
3D8
330
1F
100
AcDbEntity
  8
0
  6
Continuous
 62
     7
370
    30
100
AcDbLine
 10
349.0686301945
 20
166.4998561693
 30
0.0
 11
349.0686301945
 21
168.4998564971
 31
0.0
  0
LINE
  5
3D9
330
1F
100
AcDbEntity
  8
0
  6
Continuous
 62
     7
370
    30
100
AcDbLine
 10
343.0686329363
 20
168.4998564971
 30
0.0
 11
343.0686329363
 21
166.4998561693
 31
0.0
  0
LINE
  5
3DA
330
1F
100
AcDbEntity
  8
0
  6
Continuous
 62
     7
370
    30
100
AcDbLine
 10
364.0686307906
 20
166.4998561693
 30
0.0
 11
364.0686307906
 21
168.4998564971
 31
0.0
  0
LINE
  5
3DB
330
1F
100
AcDbEntity
  8
0
  6
Continuous
 62
     7
370
    30
100
AcDbLine
 10
358.0686335324
 20
168.4998564971
 30
0.0
 11
358.0686335324
 21
166.4998561693
 31
0.0
  0
LINE
  5
3DC
330
1F
100
AcDbEntity
  8
0
  6
Continuous
 62
     7
370
    30
100
AcDbLine
 10
379.0686313866
 20
166.4998561693
 30
0.0
 11
379.0686313866
 21
168.4998564971
 31
0.0
  0
LINE
  5
3DD
330
1F
100
AcDbEntity
  8
0
  6
Continuous
 62
     7
370
    30
100
AcDbLine
 10
373.0686266778
 20
168.4998564971
 30
0.0
 11
373.0686266778
 21
166.4998561693
 31
0.0
  0
LINE
  5
3DE
330
1F
100
AcDbEntity
  8
0
  6
Continuous
 62
     7
370
    30
100
AcDbLine
 10
394.0686319827
 20
168.4998564971
 30
0.0
 11
394.0686319827
 21
166.4998561693
 31
0.0
  0
LINE
  5
3DF
330
1F
100
AcDbEntity
  8
0
  6
Continuous
 62
     7
370
    30
100
AcDbLine
 10
388.0686272739
 20
168.4998564971
 30
0.0
 11
388.0686272739
 21
166.4998561693
 31
0.0
  0
ARC
  5
3E0
330
1F
100
AcDbEntity
  8
0
  6
Continuous
 62
     7
370
    30
100
AcDbCircle
 10
317.0686299561
 20
217.4998569143
 30
0.0
 40
2.0
100
AcDbArc
 50
270.0
 51
0.0
  0
ARC
  5
3E1
330
1F
100
AcDbEntity
  8
0
  6
Continuous
 62
     7
370
    30
100
AcDbCircle
 10
330.0686299561
 20
217.4998569143
 30
0.0
 40
2.0
100
AcDbArc
 50
180.0
 51
270.0
  0
LINE
  5
3E2
330
1F
100
AcDbEntity
  8
0
  6
Continuous
 62
     7
370
    30
100
AcDbLine
 10
362.0686267374
 20
215.4998568668
 30
0.0
 11
330.0686289428
 21
215.4998568668
 31
0.0
  0
ARC
  5
3E3
330
1F
100
AcDbEntity
  8
0
  6
Continuous
 62
     7
370
    30
100
AcDbCircle
 10
362.0686299561
 20
217.4998569143
 30
0.0
 40
2.0
100
AcDbArc
 50
270.0
 51
0.0
  0
ARC
  5
3E4
330
1F
100
AcDbEntity
  8
0
  6
Continuous
 62
     7
370
    30
100
AcDbCircle
 10
375.0686299561
 20
217.4998569143
 30
0.0
 40
2.0
100
AcDbArc
 50
180.0
 51
270.0
  0
LINE
  5
3E5
330
1F
100
AcDbEntity
  8
0
  6
Continuous
 62
     7
370
    30
100
AcDbLine
 10
392.0686279295
 20
215.4998568668
 30
0.0
 11
375.068630731
 21
215.4998568668
 31
0.0
  0
ARC
  5
3E6
330
1F
100
AcDbEntity
  8
0
  6
Continuous
 62
     7
370
    30
100
AcDbCircle
 10
392.0686299561
 20
213.4998569143
 30
0.0
 40
2.0
100
AcDbArc
 50
0.0
 51
90.0
  0
LINE
  5
3E7
330
1F
100
AcDbEntity
  8
0
  6
Continuous
 62
     7
370
    30
100
AcDbLine
 10
394.0686319827
 20
213.4998568882
 30
0.0
 11
394.0686319827
 21
168.4998564971
 31
0.0
  0
LINE
  5
3E8
330
1F
100
AcDbEntity
  8
0
  6
Continuous
 62
     7
370
    30
100
AcDbLine
 10
388.0686272739
 20
207.4998573017
 30
0.0
 11
388.0686272739
 21
168.4998564971
 31
0.0
  0
ARC
  5
3E9
330
1F
100
AcDbEntity
  8
0
  6
Continuous
 62
     7
370
    30
100
AcDbCircle
 10
386.0686299561
 20
207.4998569143
 30
0.0
 40
2.0
100
AcDbArc
 50
0.0
 51
90.0
  0
LINE
  5
3EA
330
1F
100
AcDbEntity
  8
0
  6
Continuous
 62
     7
370
    30
100
AcDbLine
 10
381.0686279891
 20
209.4998566982
 30
0.0
 11
386.0686306713
 21
209.4998566982
 31
0.0
  0
ARC
  5
3EB
330
1F
100
AcDbEntity
  8
0
  6
Continuous
 62
     7
370
    30
100
AcDbCircle
 10
381.0686299561
 20
207.4998569143
 30
0.0
 40
2.0
100
AcDbArc
 50
90.0
 51
180.0
  0
LINE
  5
3EC
330
1F
100
AcDbEntity
  8
0
  6
Continuous
 62
     7
370
    30
100
AcDbLine
 10
379.0686313866
 20
168.4998564971
 30
0.0
 11
379.0686313866
 21
207.4998573017
 31
0.0
  0
LINE
  5
3ED
330
1F
100
AcDbEntity
  8
0
  6
Continuous
 62
     7
370
    30
100
AcDbLine
 10
373.0686266778
 20
207.4998573017
 30
0.0
 11
373.0686266778
 21
168.4998564971
 31
0.0
  0
ARC
  5
3EE
330
1F
100
AcDbEntity
  8
0
  6
Continuous
 62
     7
370
    30
100
AcDbCircle
 10
371.0686299561
 20
207.4998569143
 30
0.0
 40
2.0
100
AcDbArc
 50
0.0
 51
90.0
  0
LINE
  5
3EF
330
1F
100
AcDbEntity
  8
0
  6
Continuous
 62
     7
370
    30
100
AcDbLine
 10
366.0686273931
 20
209.4998566982
 30
0.0
 11
371.0686300753
 21
209.4998566982
 31
0.0
  0
ARC
  5
3F0
330
1F
100
AcDbEntity
  8
0
  6
Continuous
 62
     7
370
    30
100
AcDbCircle
 10
366.0686299561
 20
207.4998569143
 30
0.0
 40
2.0
100
AcDbArc
 50
90.0
 51
180.0
  0
LINE
  5
3F1
330
1F
100
AcDbEntity
  8
0
  6
Continuous
 62
     7
370
    30
100
AcDbLine
 10
364.0686307906
 20
168.4998564971
 30
0.0
 11
364.0686307906
 21
207.4998573017
 31
0.0
  0
LINE
  5
3F2
330
1F
100
AcDbEntity
  8
0
  6
Continuous
 62
     7
370
    30
100
AcDbLine
 10
358.0686335324
 20
207.4998573017
 30
0.0
 11
358.0686335324
 21
168.4998564971
 31
0.0
  0
ARC
  5
3F3
330
1F
100
AcDbEntity
  8
0
  6
Continuous
 62
     7
370
    30
100
AcDbCircle
 10
356.0686299561
 20
207.4998569143
 30
0.0
 40
2.0
100
AcDbArc
 50
0.0
 51
90.0
  0
LINE
  5
3F4
330
1F
100
AcDbEntity
  8
0
  6
Continuous
 62
     7
370
    30
100
AcDbLine
 10
351.068626797
 20
209.4998566982
 30
0.0
 11
356.0686294793
 21
209.4998566982
 31
0.0
  0
ARC
  5
3F5
330
1F
100
AcDbEntity
  8
0
  6
Continuous
 62
     7
370
    30
100
AcDbCircle
 10
351.0686299561
 20
207.4998569143
 30
0.0
 40
2.0
100
AcDbArc
 50
90.0
 51
180.0
  0
LINE
  5
3F6
330
1F
100
AcDbEntity
  8
0
  6
Continuous
 62
     7
370
    30
100
AcDbLine
 10
349.0686301945
 20
168.4998564971
 30
0.0
 11
349.0686301945
 21
207.4998573017
 31
0.0
  0
LINE
  5
3F7
330
1F
100
AcDbEntity
  8
0
  6
Continuous
 62
     7
370
    30
100
AcDbLine
 10
343.0686329363
 20
207.4998573017
 30
0.0
 11
343.0686329363
 21
168.4998564971
 31
0.0
  0
ARC
  5
3F8
330
1F
100
AcDbEntity
  8
0
  6
Continuous
 62
     7
370
    30
100
AcDbCircle
 10
341.0686299561
 20
207.4998569143
 30
0.0
 40
2.0
100
AcDbArc
 50
0.0
 51
90.0
  0
LINE
  5
3F9
330
1F
100
AcDbEntity
  8
0
  6
Continuous
 62
     7
370
    30
100
AcDbLine
 10
336.0686336516
 20
209.4998566982
 30
0.0
 11
341.0686288832
 21
209.4998566982
 31
0.0
  0
ARC
  5
3FA
330
1F
100
AcDbEntity
  8
0
  6
Continuous
 62
     7
370
    30
100
AcDbCircle
 10
336.0686299561
 20
207.4998569143
 30
0.0
 40
2.0
100
AcDbArc
 50
90.0
 51
180.0
  0
LINE
  5
3FB
330
1F
100
AcDbEntity
  8
0
  6
Continuous
 62
     7
370
    30
100
AcDbLine
 10
334.0686295985
 20
168.4998564971
 30
0.0
 11
334.0686295985
 21
207.4998573017
 31
0.0
  0
LINE
  5
3FC
330
1F
100
AcDbEntity
  8
0
  6
Continuous
 62
     7
370
    30
100
AcDbLine
 10
328.068628615
 20
207.4998573017
 30
0.0
 11
328.068628615
 21
168.4998564971
 31
0.0
  0
ARC
  5
3FD
330
1F
100
AcDbEntity
  8
0
  6
Continuous
 62
     7
370
    30
100
AcDbCircle
 10
326.0686299561
 20
207.4998569143
 30
0.0
 40
2.0
100
AcDbArc
 50
0.0
 51
90.0
  0
LINE
  5
3FE
330
1F
100
AcDbEntity
  8
0
  6
Continuous
 62
     7
370
    30
100
AcDbLine
 10
321.0686293302
 20
209.4998566982
 30
0.0
 11
326.0686282872
 21
209.4998566982
 31
0.0
  0
ARC
  5
3FF
330
1F
100
AcDbEntity
  8
0
  6
Continuous
 62
     7
370
    30
100
AcDbCircle
 10
321.0686299561
 20
207.4998569143
 30
0.0
 40
2.0
100
AcDbArc
 50
90.0
 51
180.0
  0
LINE
  5
400
330
1F
100
AcDbEntity
  8
0
  6
Continuous
 62
     7
370
    30
100
AcDbLine
 10
319.0686290024
 20
168.4998564971
 30
0.0
 11
319.0686290024
 21
207.4998573017
 31
0.0
  0
LINE
  5
401
330
1F
100
AcDbEntity
  8
0
  6
Continuous
 62
     7
370
    30
100
AcDbLine
 10
313.0686317442
 20
207.4998573017
 30
0.0
 11
313.0686317442
 21
168.4998564971
 31
0.0
  0
ARC
  5
402
330
1F
100
AcDbEntity
  8
0
  6
Continuous
 62
     7
370
    30
100
AcDbCircle
 10
311.0686299561
 20
207.4998569143
 30
0.0
 40
2.0
100
AcDbArc
 50
0.0
 51
90.0
  0
LINE
  5
403
330
1F
100
AcDbEntity
  8
0
  6
Continuous
 62
     7
370
    30
100
AcDbLine
 10
306.0686287342
 20
209.4998566982
 30
0.0
 11
311.0686314164
 21
209.4998566982
 31
0.0
  0
ARC
  5
404
330
1F
100
AcDbEntity
  8
0
  6
Continuous
 62
     7
370
    30
100
AcDbCircle
 10
306.0686299561
 20
207.4998569143
 30
0.0
 40
2.0
100
AcDbArc
 50
90.0
 51
180.0
  0
LINE
  5
405
330
1F
100
AcDbEntity
  8
0
  6
Continuous
 62
     7
370
    30
100
AcDbLine
 10
304.0686284064
 20
168.4998564971
 30
0.0
 11
304.0686284064
 21
207.4998573017
 31
0.0
  0
LINE
  5
406
330
1F
100
AcDbEntity
  8
0
  6
Continuous
 62
     7
370
    30
100
AcDbLine
 10
298.0686292855
 20
213.4998568882
 30
0.0
 11
298.0686292855
 21
168.4998564971
 31
0.0
  0
ARC
  5
407
330
1F
100
AcDbEntity
  8
0
  6
Continuous
 62
     7
370
    30
100
AcDbCircle
 10
300.0686299561
 20
213.4998569143
 30
0.0
 40
2.0
100
AcDbArc
 50
90.0
 51
180.0
  0
LINE
  5
408
330
1F
100
AcDbEntity
  8
0
  6
Continuous
 62
     7
370
    30
100
AcDbLine
 10
317.0686286746
 20
215.4998568668
 30
0.0
 11
300.068631476
 21
215.4998568668
 31
0.0
  0
ARC
  5
409
330
1F
100
AcDbEntity
  8
0
  6
Continuous
 62
     7
370
    30
100
AcDbCircle
 10
399.0686299561
 20
238.9998569143
 30
0.0
 40
0.5
100
AcDbArc
 50
90.0
 51
180.0
  0
LINE
  5
40A
330
1F
100
AcDbEntity
  8
0
  6
Continuous
 62
     7
370
    30
100
AcDbLine
 10
399.0686272143
 20
239.499856959
 30
0.0
 11
402.068633294
 21
239.499856959
 31
0.0
  0
ARC
  5
40B
330
1F
100
AcDbEntity
  8
0
  6
Continuous
 62
     7
370
    30
100
AcDbCircle
 10
402.0686299561
 20
238.9998569143
 30
0.0
 40
0.5000000000000568
100
AcDbArc
 50
0.0
 51
90.0
  0
LINE
  5
40C
330
1F
100
AcDbEntity
  8
0
  6
Continuous
 62
     7
370
    30
100
AcDbLine
 10
402.5686268567
 20
217.9998569274
 30
0.0
 11
402.5686268567
 21
238.9998578084
 31
0.0
  0
ARC
  5
40D
330
1F
100
AcDbEntity
  8
0
  6
Continuous
 62
     7
370
    30
100
AcDbCircle
 10
402.0686299561
 20
217.9998569143
 30
0.0
 40
0.5
100
AcDbArc
 50
270.0
 51
0.0
  0
LINE
  5
40E
330
1F
100
AcDbEntity
  8
0
  6
Continuous
 62
     7
370
    30
100
AcDbLine
 10
399.0686272143
 20
217.4998569618
 30
0.0
 11
402.068633294
 21
217.4998569618
 31
0.0
  0
ARC
  5
40F
330
1F
100
AcDbEntity
  8
0
  6
Continuous
 62
     7
370
    30
100
AcDbCircle
 10
399.0686299561
 20
217.9998569143
 30
0.0
 40
0.5
100
AcDbArc
 50
180.0
 51
270.0
  0
LINE
  5
410
330
1F
100
AcDbEntity
  8
0
  6
Continuous
 62
     7
370
    30
100
AcDbLine
 10
398.5686336516
 20
238.9998578084
 30
0.0
 11
398.5686336516
 21
217.9998569274
 31
0.0
  0
LINE
  5
411
330
1F
100
AcDbEntity
  8
0
  6
Continuous
 62
     7
370
    30
100
AcDbLine
 10
293.0686303286
 20
239.499856959
 30
0.0
 11
290.0686298369
 21
239.499856959
 31
0.0
  0
LINE
  5
412
330
1F
100
AcDbEntity
  8
0
  6
Continuous
 62
     7
370
    30
100
AcDbLine
 10
289.5686306863
 20
237.4998566312
 30
0.0
 11
289.5686306863
 21
238.9998578084
 31
0.0
  0
ARC
  5
413
330
1F
100
AcDbEntity
  8
0
  6
Continuous
 62
     7
370
    30
100
AcDbCircle
 10
290.0686299561
 20
238.9998569143
 30
0.0
 40
0.5
100
AcDbArc
 50
90.0
 51
180.0
  0
ARC
  5
414
330
1F
100
AcDbEntity
  8
0
  6
Continuous
 62
     7
370
    30
100
AcDbCircle
 10
293.0686299561
 20
238.9998569143
 30
0.0
 40
0.5
100
AcDbArc
 50
0.0
 51
90.0
  0
LINE
  5
415
330
1F
100
AcDbEntity
  8
0
  6
Continuous
 62
     7
370
    30
100
AcDbLine
 10
293.5686294793
 20
238.9998578084
 30
0.0
 11
293.5686294793
 21
237.6998562914
 31
0.0
  0
LINE
  5
416
330
1F
100
AcDbEntity
  8
0
  6
Continuous
 62
     7
370
    30
100
AcDbLine
 10
293.0686303286
 20
217.4998569618
 30
0.0
 11
291.0686300008
 21
217.4998569618
 31
0.0
  0
ARC
  5
417
330
1F
100
AcDbEntity
  8
0
  6
Continuous
 62
     7
370
    30
100
AcDbCircle
 10
290.0686299561
 20
217.9998569143
 30
0.0
 40
0.5000000000000284
100
AcDbArc
 50
180.0
 51
270.0
  0
LINE
  5
418
330
1F
100
AcDbEntity
  8
0
  6
Continuous
 62
     7
370
    30
100
AcDbLine
 10
293.5686294793
 20
219.2998568145
 30
0.0
 11
293.5686294793
 21
217.9998569274
 31
0.0
  0
ARC
  5
419
330
1F
100
AcDbEntity
  8
0
  6
Continuous
 62
     7
370
    30
100
AcDbCircle
 10
293.0686299561
 20
217.9998569143
 30
0.0
 40
0.5
100
AcDbArc
 50
270.0
 51
0.0
  0
LINE
  5
41A
330
1F
100
AcDbEntity
  8
0
  6
Continuous
 62
     7
370
    30
100
AcDbLine
 10
293.0686303286
 20
239.499856959
 30
0.0
 11
297.5686301349
 21
239.499856959
 31
0.0
  0
LINE
  5
41B
330
1F
100
AcDbEntity
  8
0
  6
Continuous
 62
     7
370
    30
100
AcDbLine
 10
297.5686301349
 20
217.4998569618
 30
0.0
 11
293.0686303286
 21
217.4998569618
 31
0.0
  0
LINE
  5
41C
330
1F
100
AcDbEntity
  8
0
  6
Continuous
 62
     7
370
    30
100
AcDbLine
 10
394.5686255454
 20
239.499856959
 30
0.0
 11
399.0686272143
 21
239.499856959
 31
0.0
  0
LINE
  5
41D
330
1F
100
AcDbEntity
  8
0
  6
Continuous
 62
     7
370
    30
100
AcDbLine
 10
399.0686272143
 20
217.4998569618
 30
0.0
 11
394.5686255454
 21
217.4998569618
 31
0.0
  0
LINE
  5
41E
330
1F
100
AcDbEntity
  8
0
  6
Continuous
 62
     7
370
    30
100
AcDbLine
 10
297.5686301349
 20
239.499856959
 30
0.0
 11
394.5686255454
 21
239.499856959
 31
0.0
  0
LINE
  5
41F
330
1F
100
AcDbEntity
  8
0
  6
Continuous
 62
     7
370
    30
100
AcDbLine
 10
394.5686255454
 20
217.4998569618
 30
0.0
 11
297.5686301349
 21
217.4998569618
 31
0.0
  0
LINE
  5
420
330
1F
100
AcDbEntity
  8
0
  6
Continuous
 62
     7
370
    30
100
AcDbLine
 10
288.0686295091
 20
237.4998566312
 30
0.0
 11
288.0686295091
 21
217.4998569618
 31
0.0
  0
LINE
  5
421
330
1F
100
AcDbEntity
  8
0
  6
Continuous
 62
     7
370
    30
100
AcDbLine
 10
289.5686306863
 20
237.4998566312
 30
0.0
 11
289.5686306863
 21
217.4998569618
 31
0.0
  0
LINE
  5
422
330
1F
100
AcDbEntity
  8
0
  6
Continuous
 62
     7
370
    30
100
AcDbLine
 10
289.5686306863
 20
217.4998569618
 30
0.0
 11
288.0686295091
 21
217.4998569618
 31
0.0
  0
LINE
  5
423
330
1F
100
AcDbEntity
  8
0
  6
Continuous
 62
     7
370
    30
100
AcDbLine
 10
288.0686295091
 20
237.4998566312
 30
0.0
 11
289.5686306863
 21
237.4998566312
 31
0.0
  0
LINE
  5
424
330
1F
100
AcDbEntity
  8
0
  6
Continuous
 62
     7
370
    30
100
AcDbLine
 10
272.0686301461
 20
195.9998563481
 30
0.0
 11
271.5686300641
 21
195.4998571974
 31
0.0
  0
LINE
  5
425
330
1F
100
AcDbEntity
  8
0
  6
Continuous
 62
     7
370
    30
100
AcDbLine
 10
271.5686300641
 20
195.4998571974
 30
0.0
 11
268.3686299703
 21
195.4998571974
 31
0.0
  0
ARC
  5
426
330
1F
100
AcDbEntity
  8
0
  6
Continuous
 62
     7
370
    30
100
AcDbCircle
 10
268.3686299561
 20
195.7998569143
 30
0.0
 40
0.3000000000000114
100
AcDbArc
 50
180.0
 51
270.0
  0
LINE
  5
427
330
1F
100
AcDbEntity
  8
0
  6
Continuous
 62
     7
370
    30
100
AcDbLine
 10
268.0686299561
 20
195.7998566878
 30
0.0
 11
268.0686299561
 21
199.9998570037
 31
0.0
  0
LINE
  5
428
330
1F
100
AcDbEntity
  8
0
  6
Continuous
 62
     7
370
    30
100
AcDbLine
 10
268.0686299561
 20
199.9998570037
 30
0.0
 11
272.0686301461
 21
199.9998570037
 31
0.0
  0
LINE
  5
429
330
1F
100
AcDbEntity
  8
0
  6
Continuous
 62
     7
370
    30
100
AcDbLine
 10
288.0686295091
 20
217.4998569618
 30
0.0
 11
291.0686300008
 21
217.4998569618
 31
0.0
  0
LINE
  5
42A
330
1F
100
AcDbEntity
  8
0
  6
Continuous
 62
     7
370
    30
100
AcDbLine
 10
292.0686301647
 20
216.9225066401
 30
0.0
 11
291.0686300008
 21
217.4998569618
 31
0.0
  0
LINE
  5
42B
330
1F
100
AcDbEntity
  8
0
  6
Continuous
 62
     7
370
    30
100
AcDbLine
 10
292.0686301647
 20
216.9225066401
 30
0.0
 11
292.0686301647
 21
213.9998569702
 31
0.0
  0
LINE
  5
42C
330
1F
100
AcDbEntity
  8
0
  6
Continuous
 62
     7
370
    30
100
AcDbLine
 10
292.0686301647
 20
213.9998569702
 30
0.0
 11
291.0686300008
 21
213.9998569702
 31
0.0
  0
ARC
  5
42D
330
1F
100
AcDbEntity
  8
0
  6
Continuous
 62
     7
370
    30
100
AcDbCircle
 10
291.0686299561
 20
210.9998569143
 30
0.0
 40
3.0
100
AcDbArc
 50
90.0
 51
180.0
  0
LINE
  5
42E
330
1F
100
AcDbEntity
  8
0
  6
Continuous
 62
     7
370
    30
100
AcDbLine
 10
288.0686295091
 20
210.9998569441
 30
0.0
 11
288.0686295091
 21
195.7998566878
 31
0.0
  0
ARC
  5
42F
330
1F
100
AcDbEntity
  8
0
  6
Continuous
 62
     7
370
    30
100
AcDbCircle
 10
287.7686299561
 20
195.7998569143
 30
0.0
 40
0.3000000000000114
100
AcDbArc
 50
270.0
 51
0.0
  0
LINE
  5
430
330
1F
100
AcDbEntity
  8
0
  6
Continuous
 62
     7
370
    30
100
AcDbLine
 10
287.7686300187
 20
195.4998571974
 30
0.0
 11
278.5686298145
 21
195.4998571974
 31
0.0
  0
LINE
  5
431
330
1F
100
AcDbEntity
  8
0
  6
Continuous
 62
     7
370
    30
100
AcDbLine
 10
278.5686298145
 20
195.4998571974
 30
0.0
 11
278.0686297326
 21
195.9998563481
 31
0.0
  0
ARC
  5
432
330
1F
100
AcDbEntity
  8
0
  6
Continuous
 62
     7
370
    30
100
AcDbCircle
 10
283.0686299561
 20
200.9998569143
 30
0.0
 40
1.0
100
AcDbArc
 50
270.0
 51
0.0
  0
LINE
  5
433
330
1F
100
AcDbEntity
  8
0
  6
Continuous
 62
     7
370
    30
100
AcDbLine
 10
284.0686307161
 20
200.9998571676
 30
0.0
 11
284.0686307161
 21
234.4998561395
 31
0.0
  0
ARC
  5
434
330
1F
100
AcDbEntity
  8
0
  6
Continuous
 62
     7
370
    30
100
AcDbCircle
 10
283.0686299561
 20
234.4998569143
 30
0.0
 40
1.000000000000028
100
AcDbArc
 50
0.0
 51
90.0
  0
LINE
  5
435
330
1F
100
AcDbEntity
  8
0
  6
Continuous
 62
     7
370
    30
100
AcDbLine
 10
283.0686296208
 20
235.4998563034
 30
0.0
 11
279.0686298965
 21
235.4998563034
 31
0.0
  0
LINE
  5
436
330
1F
100
AcDbEntity
  8
0
  6
Continuous
 62
     7
370
    30
100
AcDbLine
 10
279.0686298965
 20
235.4998563034
 30
0.0
 11
276.0686303361
 21
232.4998576743
 31
0.0
  0
LINE
  5
437
330
1F
100
AcDbEntity
  8
0
  6
Continuous
 62
     7
370
    30
100
AcDbLine
 10
276.0686303361
 20
232.4998576743
 30
0.0
 11
274.0686300082
 21
232.4998576743
 31
0.0
  0
LINE
  5
438
330
1F
100
AcDbEntity
  8
0
  6
Continuous
 62
     7
370
    30
100
AcDbLine
 10
274.0686300082
 20
232.4998576743
 30
0.0
 11
271.0686299822
 21
235.4998563034
 31
0.0
  0
LINE
  5
439
330
1F
100
AcDbEntity
  8
0
  6
Continuous
 62
     7
370
    30
100
AcDbLine
 10
268.0686299561
 20
235.4998563034
 30
0.0
 11
268.0686299561
 21
237.1998571408
 31
0.0
  0
LINE
  5
43A
330
1F
100
AcDbEntity
  8
0
  6
Continuous
 62
     7
370
    30
100
AcDbLine
 10
268.3686299703
 20
237.4998566312
 30
0.0
 11
287.7686300187
 21
237.4998566312
 31
0.0
  0
ARC
  5
43B
330
1F
100
AcDbEntity
  8
0
  6
Continuous
 62
     7
370
    30
100
AcDbCircle
 10
287.7686299561
 20
237.1998569143
 30
0.0
 40
0.3000000000000114
100
AcDbArc
 50
0.0
 51
90.0
  0
LINE
  5
43C
330
1F
100
AcDbEntity
  8
0
  6
Continuous
 62
     7
370
    30
100
AcDbLine
 10
288.0686295091
 20
237.1998571408
 30
0.0
 11
288.0686295091
 21
217.4998569618
 31
0.0
  0
LINE
  5
43D
330
1F
100
AcDbEntity
  8
0
  6
Continuous
 62
     7
370
    30
100
AcDbLine
 10
271.0686299822
 20
235.4998563034
 30
0.0
 11
268.0686299561
 21
235.4998563034
 31
0.0
  0
ARC
  5
43E
330
1F
100
AcDbEntity
  8
0
  6
Continuous
 62
     7
370
    30
100
AcDbCircle
 10
268.3686299561
 20
237.1998569143
 30
0.0
 40
0.3000000000000114
100
AcDbArc
 50
90.0
 51
180.0
  0
LINE
  5
43F
330
1F
100
AcDbEntity
  8
0
  6
Continuous
 62
     7
370
    30
100
AcDbLine
 10
278.0686297326
 20
199.9998570037
 30
0.0
 11
283.0686296208
 21
199.9998570037
 31
0.0
  0
LINE
  5
440
330
1F
100
AcDbEntity
  8
0
  6
Continuous
 62
     7
370
    30
100
AcDbLine
 10
271.5686300641
 20
195.4998571974
 30
0.0
 11
272.6231298281
 21
195.4998571974
 31
0.0
  0
LINE
  5
441
330
1F
100
AcDbEntity
  8
0
  6
Continuous
 62
     7
370
    30
100
AcDbLine
 10
277.5141295849
 20
195.4998571974
 30
0.0
 11
278.5686298145
 21
195.4998571974
 31
0.0
  0
LINE
  5
442
330
1F
100
AcDbEntity
  8
0
  6
Continuous
 62
     7
370
    30
100
AcDbLine
 10
271.0686299822
 20
235.4998563034
 30
0.0
 11
271.0686299822
 21
234.4998561395
 31
0.0
  0
LINE
  5
443
330
1F
100
AcDbEntity
  8
0
  6
Continuous
 62
     7
370
    30
100
AcDbLine
 10
268.0686299561
 20
199.9998570037
 30
0.0
 11
268.0686299561
 21
202.4998564822
 31
0.0
  0
LINE
  5
444
330
1F
100
AcDbEntity
  8
0
  6
Continuous
 62
     7
370
    30
100
AcDbLine
 10
268.0686299561
 20
234.4998561395
 30
0.0
 11
268.0686299561
 21
235.4998563034
 31
0.0
  0
LINE
  5
445
330
1F
100
AcDbEntity
  8
0
  6
Continuous
 62
     7
370
    30
100
AcDbLine
 10
275.0686301722
 20
195.8199974698
 30
0.0
 11
272.0686301461
 21
195.8199974698
 31
0.0
  0
LINE
  5
446
330
1F
100
AcDbEntity
  8
0
  6
Continuous
 62
     7
370
    30
100
AcDbLine
 10
278.0686297326
 20
195.8199974698
 30
0.0
 11
275.0686301722
 21
195.8199974698
 31
0.0
  0
LINE
  5
447
330
1F
100
AcDbEntity
  8
0
  6
Continuous
 62
     7
370
    30
100
AcDbLine
 10
275.0686301722
 20
202.4998564822
 30
0.0
 11
272.0686301461
 21
202.4998564822
 31
0.0
  0
LINE
  5
448
330
1F
100
AcDbEntity
  8
0
  6
Continuous
 62
     7
370
    30
100
AcDbLine
 10
278.0686297326
 20
202.4998564822
 30
0.0
 11
275.0686301722
 21
202.4998564822
 31
0.0
  0
LINE
  5
449
330
1F
100
AcDbEntity
  8
0
  6
Continuous
 62
     7
370
    30
100
AcDbLine
 10
275.0686301722
 20
195.4998571974
 30
0.0
 11
272.6231298281
 21
195.4998571974
 31
0.0
  0
LINE
  5
44A
330
1F
100
AcDbEntity
  8
0
  6
Continuous
 62
     7
370
    30
100
AcDbLine
 10
277.5141295849
 20
195.4998571974
 30
0.0
 11
275.0686301722
 21
195.4998571974
 31
0.0
  0
LINE
  5
44B
330
1F
100
AcDbEntity
  8
0
  6
Continuous
 62
     7
370
    30
100
AcDbLine
 10
281.6195913462
 20
228.4998570186
 30
0.0
 11
281.6195913462
 21
233.2424533171
 31
0.0
  0
LINE
  5
44C
330
1F
100
AcDbEntity
  8
0
  6
Continuous
 62
     7
370
    30
100
AcDbLine
 10
281.6195913462
 20
223.7572611858
 30
0.0
 11
281.6195913462
 21
228.4998570186
 31
0.0
  0
LINE
  5
44D
330
1F
100
AcDbEntity
  8
0
  6
Continuous
 62
     7
370
    30
100
AcDbLine
 10
280.5544172285
 20
226.2498571155
 30
0.0
 11
280.5544172285
 21
227.3748566014
 31
0.0
  0
LINE
  5
44E
330
1F
100
AcDbEntity
  8
0
  6
Continuous
 62
     7
370
    30
100
AcDbLine
 10
280.5544172285
 20
227.3748566014
 30
0.0
 11
280.5544172285
 21
229.6248565045
 31
0.0
  0
LINE
  5
44F
330
1F
100
AcDbEntity
  8
0
  6
Continuous
 62
     7
370
    30
100
AcDbLine
 10
280.5544172285
 20
229.6248565045
 30
0.0
 11
280.5544172285
 21
230.7498569218
 31
0.0
  0
LINE
  5
450
330
1F
100
AcDbEntity
  8
0
  6
Continuous
 62
     8
370
     0
100
AcDbLine
 10
293.5686294793
 20
178.4998581362
 30
0.0
 11
291.5686291514
 21
178.4998581362
 31
0.0
  0
LINE
  5
451
330
1F
100
AcDbEntity
  8
0
  6
Continuous
 62
     8
370
     0
100
AcDbLine
 10
296.0686308204
 20
164.4998558414
 30
0.0
 11
296.0686308204
 21
166.4998561693
 31
0.0
  0
LINE
  5
452
330
1F
100
AcDbEntity
  8
0
  6
Continuous
 62
     8
370
     0
100
AcDbLine
 10
396.0686360358
 20
166.4998561693
 30
0.0
 11
396.0686360358
 21
164.4998558414
 31
0.0
  0
LINE
  5
453
330
1F
100
AcDbEntity
  8
0
  6
Continuous
 62
     8
370
     0
100
AcDbLine
 10
400.5686228035
 20
178.4998581362
 30
0.0
 11
398.5686336516
 21
178.4998581362
 31
0.0
  0
LINE
  5
454
330
1F
100
AcDbEntity
  8
0
  6
Continuous
 62
     8
370
     0
100
AcDbLine
 10
298.0686292855
 20
168.4998564971
 30
0.0
 11
304.0686284064
 21
168.4998564971
 31
0.0
  0
LINE
  5
455
330
1F
100
AcDbEntity
  8
0
  6
Continuous
 62
     8
370
     0
100
AcDbLine
 10
313.0686317442
 20
168.4998564971
 30
0.0
 11
319.0686290024
 21
168.4998564971
 31
0.0
  0
LINE
  5
456
330
1F
100
AcDbEntity
  8
0
  6
Continuous
 62
     8
370
     0
100
AcDbLine
 10
328.068628615
 20
168.4998564971
 30
0.0
 11
334.0686295985
 21
168.4998564971
 31
0.0
  0
LINE
  5
457
330
1F
100
AcDbEntity
  8
0
  6
Continuous
 62
     8
370
     0
100
AcDbLine
 10
343.0686329363
 20
168.4998564971
 30
0.0
 11
349.0686301945
 21
168.4998564971
 31
0.0
  0
LINE
  5
458
330
1F
100
AcDbEntity
  8
0
  6
Continuous
 62
     8
370
     0
100
AcDbLine
 10
358.0686335324
 20
168.4998564971
 30
0.0
 11
364.0686307906
 21
168.4998564971
 31
0.0
  0
LINE
  5
459
330
1F
100
AcDbEntity
  8
0
  6
Continuous
 62
     8
370
     0
100
AcDbLine
 10
373.0686266778
 20
168.4998564971
 30
0.0
 11
379.0686313866
 21
168.4998564971
 31
0.0
  0
LINE
  5
45A
330
1F
100
AcDbEntity
  8
0
  6
Continuous
 62
     8
370
     0
100
AcDbLine
 10
388.0686272739
 20
168.4998564971
 30
0.0
 11
394.0686319827
 21
168.4998564971
 31
0.0
  0
LINE
  5
45B
330
1F
100
AcDbEntity
  8
0
  6
Continuous
 62
     8
370
     0
100
AcDbLine
 10
289.5686306863
 20
237.4998566312
 30
0.0
 11
290.0686298369
 21
237.4998566312
 31
0.0
  0
LINE
  5
45C
330
1F
100
AcDbEntity
  8
0
  6
Continuous
 62
     8
370
     0
100
AcDbLine
 10
290.0686298369
 20
237.4998566312
 30
0.0
 11
290.0686298369
 21
219.4998569404
 31
0.0
  0
LINE
  5
45D
330
1F
100
AcDbEntity
  8
0
  6
Continuous
 62
     8
370
     0
100
AcDbLine
 10
289.5686306863
 20
219.4998569404
 30
0.0
 11
290.0686298369
 21
219.4998569404
 31
0.0
  0
LINE
  5
45E
330
1F
100
AcDbEntity
  8
0
  6
Continuous
 62
     8
370
     0
100
AcDbLine
 10
293.0686303286
 20
237.4998566312
 30
0.0
 11
293.0686303286
 21
239.499856959
 31
0.0
  0
LINE
  5
45F
330
1F
100
AcDbEntity
  8
0
  6
Continuous
 62
     8
370
     0
100
AcDbLine
 10
293.0686303286
 20
237.4998566312
 30
0.0
 11
290.0686298369
 21
237.4998566312
 31
0.0
  0
LINE
  5
460
330
1F
100
AcDbEntity
  8
0
  6
Continuous
 62
     8
370
     0
100
AcDbLine
 10
290.0686298369
 20
239.499856959
 30
0.0
 11
290.0686298369
 21
237.4998566312
 31
0.0
  0
LINE
  5
461
330
1F
100
AcDbEntity
  8
0
  6
Continuous
 62
     8
370
     0
100
AcDbLine
 10
293.0686303286
 20
219.4998569404
 30
0.0
 11
293.0686303286
 21
237.4998566312
 31
0.0
  0
LINE
  5
462
330
1F
100
AcDbEntity
  8
0
  6
Continuous
 62
     8
370
     0
100
AcDbLine
 10
293.0686303286
 20
219.4998569404
 30
0.0
 11
290.0686298369
 21
219.4998569404
 31
0.0
  0
LINE
  5
463
330
1F
100
AcDbEntity
  8
0
  6
Continuous
 62
     8
370
     0
100
AcDbLine
 10
293.0686303286
 20
237.4998566312
 30
0.0
 11
293.5686294793
 21
237.4998566312
 31
0.0
  0
LINE
  5
464
330
1F
100
AcDbEntity
  8
0
  6
Continuous
 62
     8
370
     0
100
AcDbLine
 10
293.0686303286
 20
219.4998569404
 30
0.0
 11
293.5686294793
 21
219.4998569404
 31
0.0
  0
LINE
  5
465
330
1F
100
AcDbEntity
  8
0
  6
Continuous
 62
     8
370
     0
100
AcDbLine
 10
293.0686303286
 20
217.4998569618
 30
0.0
 11
293.0686303286
 21
219.4998569404
 31
0.0
  0
LINE
  5
466
330
1F
100
AcDbEntity
  8
0
  6
Continuous
 62
     8
370
     0
100
AcDbLine
 10
290.0686298369
 20
219.4998569404
 30
0.0
 11
290.0686298369
 21
217.4998569618
 31
0.0
  0
LINE
  5
467
330
1F
100
AcDbEntity
  8
0
  6
Continuous
 62
     8
370
     0
100
AcDbLine
 10
293.5686294793
 20
217.9998569274
 30
0.0
 11
297.5686301349
 21
217.9998569274
 31
0.0
  0
LINE
  5
468
330
1F
100
AcDbEntity
  8
0
  6
Continuous
 62
     8
370
     0
100
AcDbLine
 10
297.5686301349
 20
238.9998578084
 30
0.0
 11
293.5686294793
 21
238.9998578084
 31
0.0
  0
LINE
  5
469
330
1F
100
AcDbEntity
  8
0
  6
Continuous
 62
     8
370
     0
100
AcDbLine
 10
297.5686301349
 20
217.9998569274
 30
0.0
 11
297.5686301349
 21
219.2998568145
 31
0.0
  0
LINE
  5
46A
330
1F
100
AcDbEntity
  8
0
  6
Continuous
 62
     8
370
     0
100
AcDbLine
 10
297.5686301349
 20
237.6998562914
 30
0.0
 11
297.5686301349
 21
238.9998578084
 31
0.0
  0
LINE
  5
46B
330
1F
100
AcDbEntity
  8
0
  6
Continuous
 62
     8
370
     0
100
AcDbLine
 10
297.5686301349
 20
239.499856959
 30
0.0
 11
297.5686301349
 21
238.9998578084
 31
0.0
  0
LINE
  5
46C
330
1F
100
AcDbEntity
  8
0
  6
Continuous
 62
     8
370
     0
100
AcDbLine
 10
297.5686301349
 20
217.9998569274
 30
0.0
 11
297.5686301349
 21
217.4998569618
 31
0.0
  0
LINE
  5
46D
330
1F
100
AcDbEntity
  8
0
  6
Continuous
 62
     8
370
     0
100
AcDbLine
 10
398.5686336516
 20
238.9998578084
 30
0.0
 11
394.5686255454
 21
238.9998578084
 31
0.0
  0
LINE
  5
46E
330
1F
100
AcDbEntity
  8
0
  6
Continuous
 62
     8
370
     0
100
AcDbLine
 10
394.5686255454
 20
239.499856959
 30
0.0
 11
394.5686255454
 21
238.9998578084
 31
0.0
  0
LINE
  5
46F
330
1F
100
AcDbEntity
  8
0
  6
Continuous
 62
     8
370
     0
100
AcDbLine
 10
394.5686255454
 20
217.9998569274
 30
0.0
 11
398.5686336516
 21
217.9998569274
 31
0.0
  0
LINE
  5
470
330
1F
100
AcDbEntity
  8
0
  6
Continuous
 62
     8
370
     0
100
AcDbLine
 10
394.5686255454
 20
217.9998569274
 30
0.0
 11
394.5686255454
 21
238.9998578084
 31
0.0
  0
LINE
  5
471
330
1F
100
AcDbEntity
  8
0
  6
Continuous
 62
     8
370
     0
100
AcDbLine
 10
394.5686255454
 20
217.9998569274
 30
0.0
 11
394.5686255454
 21
217.4998569618
 31
0.0
  0
LINE
  5
472
330
1F
100
AcDbEntity
  8
0
  6
Continuous
 62
     8
370
     0
100
AcDbLine
 10
394.5686255454
 20
238.9998578084
 30
0.0
 11
297.5686301349
 21
238.9998578084
 31
0.0
  0
LINE
  5
473
330
1F
100
AcDbEntity
  8
0
  6
Continuous
 62
     8
370
     0
100
AcDbLine
 10
297.5686301349
 20
217.9998569274
 30
0.0
 11
394.5686255454
 21
217.9998569274
 31
0.0
  0
LINE
  5
474
330
1F
100
AcDbEntity
  8
0
  6
Continuous
 62
     8
370
     0
100
AcDbLine
 10
283.0686296208
 20
233.3947524977
 30
0.0
 11
283.0686296208
 21
235.4998563034
 31
0.0
  0
LINE
  5
475
330
1F
100
AcDbEntity
  8
0
  6
Continuous
 62
     8
370
     0
100
AcDbLine
 10
280.5544172285
 20
228.4998570186
 30
0.0
 11
276.379602669
 21
228.4998570186
 31
0.0
  0
LINE
  5
476
330
1F
100
AcDbEntity
  8
0
  6
Continuous
 62
     8
370
     0
100
AcDbLine
 10
279.0686298965
 20
202.4998564822
 30
0.0
 11
283.0686296208
 21
202.4998564822
 31
0.0
  0
LINE
  5
477
330
1F
100
AcDbEntity
  8
0
  6
Continuous
 62
     8
370
     0
100
AcDbLine
 10
283.0686296208
 20
199.9998570037
 30
0.0
 11
283.0686296208
 21
202.4998564822
 31
0.0
  0
LINE
  5
478
330
1F
100
AcDbEntity
  8
0
  6
Continuous
 62
     8
370
     0
100
AcDbLine
 10
283.0686296208
 20
202.4998564822
 30
0.0
 11
284.0686307161
 21
202.4998564822
 31
0.0
  0
LINE
  5
479
330
1F
100
AcDbEntity
  8
0
  6
Continuous
 62
     8
370
     0
100
AcDbLine
 10
283.0686296208
 20
202.4998564822
 30
0.0
 11
283.0686296208
 21
223.6049610739
 31
0.0
  0
HATCH
  5
47A
330
1F
100
AcDbEntity
  8
0
  6
Continuous
 62
     7
370
     0
100
AcDbHatch
 10
0.0
 20
0.0
 30
0.0
210
0.0
220
0.0
230
1.0
  2
ANSI31
 70
     0
 71
     0
 91
        1
 92
        0
 93
       24
 72
     1
 10
288.0686299560937
 20
217.4998569143133
 11
288.0686299560937
 21
237.1998569143133
 72
     2
 10
287.7686299560937
 20
237.1998569143133
 40
0.3
 50
0.0
 51
90.0
 73
     1
 72
     1
 10
287.7686299560937
 20
237.4998569143133
 11
268.3686299560937
 21
237.4998569143133
 72
     2
 10
268.3686299560937
 20
237.1998569143133
 40
0.3
 50
90.0
 51
180.0
 73
     1
 72
     1
 10
268.0686299560937
 20
237.1998569143133
 11
268.0686299560937
 21
235.4998569143133
 72
     1
 10
268.0686299560937
 20
235.4998569143133
 11
271.0686299560937
 21
235.4998569143133
 72
     1
 10
271.0686299560937
 20
235.4998569143133
 11
274.0686299560937
 21
232.4998569143133
 72
     1
 10
274.0686299560937
 20
232.4998569143133
 11
276.0686299560937
 21
232.4998569143133
 72
     1
 10
276.0686299560937
 20
232.4998569143133
 11
279.0686299560937
 21
235.4998569143133
 72
     1
 10
279.0686299560937
 20
235.4998569143133
 11
283.0686299560937
 21
235.4998569143133
 72
     2
 10
283.0686299560937
 20
234.4998569143133
 40
1.0
 50
270.0000000000008
 51
360.0000000000008
 73
     0
 72
     1
 10
284.0686299560937
 20
234.4998569143133
 11
284.0686299560937
 21
200.9998569143133
 72
     2
 10
283.0686299560937
 20
200.9998569143133
 40
1.0
 50
0.0
 51
90.0
 73
     0
 72
     1
 10
283.0686299560937
 20
199.9998569143133
 11
277.5686299560937
 21
199.9998569143133
 72
     1
 10
277.5686299560937
 20
199.9998569143133
 11
277.5686299560937
 21
196.4998569143133
 72
     1
 10
277.5686299560937
 20
196.4998569143133
 11
278.5686299560937
 21
195.4998569143133
 72
     1
 10
278.5686299560937
 20
195.4998569143133
 11
287.7686299560937
 21
195.4998569143133
 72
     2
 10
287.7686299560937
 20
195.7998569143133
 40
0.3
 50
270.0000000000008
 51
360.0000000000008
 73
     1
 72
     1
 10
288.0686299560937
 20
195.7998569143133
 11
288.0686299560937
 21
210.9998569143133
 72
     2
 10
291.0686299560937
 20
210.9998569143133
 40
3.0
 50
180.0
 51
270.0000000000008
 73
     0
 72
     1
 10
291.0686299560937
 20
213.9998569143133
 11
292.0686299560937
 21
213.9998569143133
 72
     1
 10
292.0686299560937
 20
213.9998569143133
 11
292.0686299560937
 21
216.9225066451237
 72
     1
 10
292.0686299560937
 20
216.9225066451237
 11
291.0686299560937
 21
217.4998569143133
 72
     1
 10
291.0686299560937
 20
217.4998569143133
 11
288.0686299560937
 21
217.4998569143133
 97
        0
 75
     0
 76
     1
 52
0.0
 41
1.0
 77
     0
 78
     1
 53
45.0
 43
0.0
 44
0.0
 45
-2.245064030267288
 46
2.245064030267288
 79
     0
 98
        1
 10
0.0
 20
0.0
  0
HATCH
  5
47B
330
1F
100
AcDbEntity
  8
0
  6
Continuous
 62
     7
370
     0
100
AcDbHatch
 10
0.0
 20
0.0
 30
0.0
210
0.0
220
0.0
230
1.0
  2
ANSI31
 70
     0
 71
     0
 91
        1
 92
        0
 93
        6
 72
     1
 10
268.0686299560937
 20
199.9998569143133
 11
268.0686299560937
 21
195.7998569143133
 72
     2
 10
268.3686299560937
 20
195.7998569143133
 40
0.3
 50
180.0
 51
270.0000000000008
 73
     1
 72
     1
 10
268.3686299560937
 20
195.4998569143133
 11
271.5686299560937
 21
195.4998569143133
 72
     1
 10
271.5686299560937
 20
195.4998569143133
 11
272.5686299560937
 21
196.4998569143133
 72
     1
 10
272.5686299560937
 20
196.4998569143133
 11
272.5686299560937
 21
199.9998569143133
 72
     1
 10
272.5686299560937
 20
199.9998569143133
 11
268.0686299560937
 21
199.9998569143133
 97
        0
 75
     0
 76
     1
 52
0.0
 41
1.0
 77
     0
 78
     1
 53
45.0
 43
0.0
 44
0.0
 45
-2.245064030267288
 46
2.245064030267288
 79
     0
 98
        1
 10
0.0
 20
0.0
  0
HATCH
  5
47C
330
1F
100
AcDbEntity
  8
0
  6
Continuous
 62
     7
370
     0
100
AcDbHatch
 10
0.0
 20
0.0
 30
0.0
210
0.0
220
0.0
230
1.0
  2
NET
 70
     0
 71
     0
 91
        1
 92
        0
 93
        4
 72
     1
 10
288.0686299560937
 20
217.4998569143133
 11
289.5686299560937
 21
217.4998569143133
 72
     1
 10
289.5686299560937
 20
217.4998569143133
 11
289.5686299560937
 21
237.4998569143133
 72
     1
 10
289.5686299560937
 20
237.4998569143133
 11
288.0686299560937
 21
237.4998569143133
 72
     1
 10
288.0686299560937
 20
237.4998569143133
 11
288.0686299560937
 21
217.4998569143133
 97
        0
 75
     0
 76
     1
 52
134.999991007
 41
1.0
 77
     0
 78
     2
 53
134.9999910069555
 43
0.0
 44
0.0
 45
-2.24506438264855
 46
-2.245063677885971
 79
     0
 53
224.9999910069555
 43
0.0
 44
0.0
 45
2.245063677885971
 46
-2.24506438264855
 79
     0
 98
        1
 10
0.0
 20
0.0
  0
HATCH
  5
47D
330
1F
100
AcDbEntity
  8
0
  6
Continuous
 62
     7
370
     0
100
AcDbHatch
 10
0.0
 20
0.0
 30
0.0
210
0.0
220
0.0
230
1.0
  2
ANSI33
 70
     0
 71
     0
 91
        1
 92
        0
 93
        8
 72
     1
 10
399.0686299560937
 20
217.4998569143131
 11
402.0686299560938
 21
217.4998569143131
 72
     2
 10
402.0686299560937
 20
217.9998569143131
 40
0.5
 50
270.0000000000073
 51
360.0000000000008
 73
     1
 72
     1
 10
402.5686299560938
 20
217.9998569143131
 11
402.5686299560938
 21
238.9998569143131
 72
     2
 10
402.0686299560937
 20
238.9998569143131
 40
0.5
 50
0.0
 51
90.0
 73
     1
 72
     1
 10
402.0686299560937
 20
239.4998569143131
 11
399.0686299560938
 21
239.4998569143131
 72
     2
 10
399.0686299560937
 20
238.9998569143131
 40
0.5
 50
89.99999999999349
 51
180.0
 73
     1
 72
     1
 10
398.5686299560938
 20
238.9998569143131
 11
398.5686299560938
 21
217.9998569143131
 72
     2
 10
399.0686299560938
 20
217.9998569143131
 40
0.5
 50
180.0
 51
269.9999999999943
 73
     1
 97
        0
 75
     0
 76
     1
 52
0.0
 41
1.0
 77
     0
 78
     2
 53
45.0
 43
0.0
 44
0.0
 45
-4.490128060534576
 46
4.490128060534577
 79
     0
 53
45.0
 43
4.49013
 44
0.0
 45
-4.490128060534576
 46
4.490128060534577
 79
     2
 49
3.175
 49
-1.5875
 98
        1
 10
0.0
 20
0.0
  0
HATCH
  5
47E
330
1F
100
AcDbEntity
  8
0
  6
Continuous
 62
     7
370
     0
100
AcDbHatch
 10
0.0
 20
0.0
 30
0.0
210
0.0
220
0.0
230
1.0
  2
ANSI33
 70
     0
 71
     0
 91
        1
 92
        0
 93
        4
 72
     1
 10
373.0686299560937
 20
164.4998569143131
 11
379.0686299560937
 21
164.4998569143131
 72
     1
 10
379.0686299560937
 20
164.4998569143131
 11
379.0686299560937
 21
166.4998569143131
 72
     1
 10
379.0686299560937
 20
166.4998569143131
 11
373.0686299560937
 21
166.4998569143131
 72
     1
 10
373.0686299560937
 20
166.4998569143131
 11
373.0686299560937
 21
164.4998569143131
 97
        0
 75
     0
 76
     1
 52
0.0
 41
1.0
 77
     0
 78
     2
 53
45.0
 43
0.0
 44
0.0
 45
-4.490128060534576
 46
4.490128060534577
 79
     0
 53
45.0
 43
4.49013
 44
0.0
 45
-4.490128060534576
 46
4.490128060534577
 79
     2
 49
3.175
 49
-1.5875
 98
        1
 10
0.0
 20
0.0
  0
HATCH
  5
47F
330
1F
100
AcDbEntity
  8
0
  6
Continuous
 62
     7
370
     0
100
AcDbHatch
 10
0.0
 20
0.0
 30
0.0
210
0.0
220
0.0
230
1.0
  2
ANSI33
 70
     0
 71
     0
 91
        1
 92
        0
 93
        4
 72
     1
 10
293.5686299560937
 20
186.4998569143131
 11
291.5686299560937
 21
186.4998569143131
 72
     1
 10
291.5686299560937
 20
186.4998569143131
 11
291.5686299560937
 21
180.4998569143131
 72
     1
 10
291.5686299560937
 20
180.4998569143131
 11
293.5686299560937
 21
180.4998569143131
 72
     1
 10
293.5686299560937
 20
180.4998569143131
 11
293.5686299560937
 21
186.4998569143131
 97
        0
 75
     0
 76
     1
 52
0.0
 41
1.0
 77
     0
 78
     2
 53
45.0
 43
0.0
 44
0.0
 45
-4.490128060534576
 46
4.490128060534577
 79
     0
 53
45.0
 43
4.49013
 44
0.0
 45
-4.490128060534576
 46
4.490128060534577
 79
     2
 49
3.175
 49
-1.5875
 98
        1
 10
0.0
 20
0.0
  0
HATCH
  5
480
330
1F
100
AcDbEntity
  8
0
  6
Continuous
 62
     7
370
     0
100
AcDbHatch
 10
0.0
 20
0.0
 30
0.0
210
0.0
220
0.0
230
1.0
  2
ANSI33
 70
     0
 71
     0
 91
        1
 92
        0
 93
        4
 72
     1
 10
298.0686299560937
 20
164.4998569143127
 11
304.0686299560937
 21
164.4998569143131
 72
     1
 10
304.0686299560937
 20
164.4998569143131
 11
304.0686299560937
 21
166.4998569143131
 72
     1
 10
304.0686299560937
 20
166.4998569143131
 11
298.0686299560937
 21
166.4998569143131
 72
     1
 10
298.0686299560937
 20
166.4998569143131
 11
298.0686299560937
 21
164.4998569143127
 97
        0
 75
     0
 76
     1
 52
0.0
 41
1.0
 77
     0
 78
     2
 53
45.0
 43
0.0
 44
0.0
 45
-4.490128060534576
 46
4.490128060534577
 79
     0
 53
45.0
 43
4.49013
 44
0.0
 45
-4.490128060534576
 46
4.490128060534577
 79
     2
 49
3.175
 49
-1.5875
 98
        1
 10
0.0
 20
0.0
  0
HATCH
  5
481
330
1F
100
AcDbEntity
  8
0
  6
Continuous
 62
     7
370
     0
100
AcDbHatch
 10
0.0
 20
0.0
 30
0.0
210
0.0
220
0.0
230
1.0
  2
ANSI33
 70
     0
 71
     0
 91
        1
 92
        0
 93
        4
 72
     1
 10
400.5686299560938
 20
186.4998569143131
 11
398.5686299560938
 21
186.4998569143131
 72
     1
 10
398.5686299560938
 20
186.4998569143131
 11
398.5686299560938
 21
180.4998569143131
 72
     1
 10
398.5686299560938
 20
180.4998569143131
 11
400.5686299560938
 21
180.4998569143131
 72
     1
 10
400.5686299560938
 20
180.4998569143131
 11
400.5686299560938
 21
186.4998569143131
 97
        0
 75
     0
 76
     1
 52
0.0
 41
1.0
 77
     0
 78
     2
 53
45.0
 43
0.0
 44
0.0
 45
-4.490128060534576
 46
4.490128060534577
 79
     0
 53
45.0
 43
4.49013
 44
0.0
 45
-4.490128060534576
 46
4.490128060534577
 79
     2
 49
3.175
 49
-1.5875
 98
        1
 10
0.0
 20
0.0
  0
HATCH
  5
482
330
1F
100
AcDbEntity
  8
0
  6
Continuous
 62
     7
370
     0
100
AcDbHatch
 10
0.0
 20
0.0
 30
0.0
210
0.0
220
0.0
230
1.0
  2
ANSI33
 70
     0
 71
     0
 91
        1
 92
        0
 93
        4
 72
     1
 10
394.0686299560938
 20
166.4998569143131
 11
388.0686299560937
 21
166.4998569143131
 72
     1
 10
388.0686299560937
 20
166.4998569143131
 11
388.0686299560937
 21
164.4998569143131
 72
     1
 10
388.0686299560937
 20
164.4998569143131
 11
394.0686299560938
 21
164.499856914313
 72
     1
 10
394.0686299560938
 20
164.499856914313
 11
394.0686299560938
 21
166.4998569143131
 97
        0
 75
     0
 76
     1
 52
0.0
 41
1.0
 77
     0
 78
     2
 53
45.0
 43
0.0
 44
0.0
 45
-4.490128060534576
 46
4.490128060534577
 79
     0
 53
45.0
 43
4.49013
 44
0.0
 45
-4.490128060534576
 46
4.490128060534577
 79
     2
 49
3.175
 49
-1.5875
 98
        1
 10
0.0
 20
0.0
  0
HATCH
  5
483
330
1F
100
AcDbEntity
  8
0
  6
Continuous
 62
     7
370
     0
100
AcDbHatch
 10
0.0
 20
0.0
 30
0.0
210
0.0
220
0.0
230
1.0
  2
ANSI33
 70
     0
 71
     0
 91
        1
 92
        0
 93
        4
 72
     1
 10
328.0686299560938
 20
164.4998569143131
 11
334.0686299560938
 21
164.4998569143131
 72
     1
 10
334.0686299560938
 20
164.4998569143131
 11
334.0686299560938
 21
166.4998569143131
 72
     1
 10
334.0686299560938
 20
166.4998569143131
 11
328.0686299560938
 21
166.4998569143131
 72
     1
 10
328.0686299560938
 20
166.4998569143131
 11
328.0686299560938
 21
164.4998569143131
 97
        0
 75
     0
 76
     1
 52
0.0
 41
1.0
 77
     0
 78
     2
 53
45.0
 43
0.0
 44
0.0
 45
-4.490128060534576
 46
4.490128060534577
 79
     0
 53
45.0
 43
4.49013
 44
0.0
 45
-4.490128060534576
 46
4.490128060534577
 79
     2
 49
3.175
 49
-1.5875
 98
        1
 10
0.0
 20
0.0
  0
HATCH
  5
484
330
1F
100
AcDbEntity
  8
0
  6
Continuous
 62
     7
370
     0
100
AcDbHatch
 10
0.0
 20
0.0
 30
0.0
210
0.0
220
0.0
230
1.0
  2
ANSI33
 70
     0
 71
     0
 91
        1
 92
        0
 93
        4
 72
     1
 10
319.0686299560937
 20
166.4998569143131
 11
313.0686299560937
 21
166.4998569143131
 72
     1
 10
313.0686299560937
 20
166.4998569143131
 11
313.0686299560937
 21
164.4998569143131
 72
     1
 10
313.0686299560937
 20
164.4998569143131
 11
319.0686299560937
 21
164.4998569143131
 72
     1
 10
319.0686299560937
 20
164.4998569143131
 11
319.0686299560937
 21
166.4998569143131
 97
        0
 75
     0
 76
     1
 52
0.0
 41
1.0
 77
     0
 78
     2
 53
45.0
 43
0.0
 44
0.0
 45
-4.490128060534576
 46
4.490128060534577
 79
     0
 53
45.0
 43
4.49013
 44
0.0
 45
-4.490128060534576
 46
4.490128060534577
 79
     2
 49
3.175
 49
-1.5875
 98
        1
 10
0.0
 20
0.0
  0
HATCH
  5
485
330
1F
100
AcDbEntity
  8
0
  6
Continuous
 62
     7
370
     0
100
AcDbHatch
 10
0.0
 20
0.0
 30
0.0
210
0.0
220
0.0
230
1.0
  2
ANSI33
 70
     0
 71
     0
 91
        1
 92
        0
 93
        4
 72
     1
 10
343.0686299560938
 20
164.4998569143131
 11
349.0686299560937
 21
164.4998569143131
 72
     1
 10
349.0686299560937
 20
164.4998569143131
 11
349.0686299560938
 21
166.4998569143131
 72
     1
 10
349.0686299560938
 20
166.4998569143131
 11
343.0686299560938
 21
166.4998569143131
 72
     1
 10
343.0686299560938
 20
166.4998569143131
 11
343.0686299560938
 21
164.4998569143131
 97
        0
 75
     0
 76
     1
 52
0.0
 41
1.0
 77
     0
 78
     2
 53
45.0
 43
0.0
 44
0.0
 45
-4.490128060534576
 46
4.490128060534577
 79
     0
 53
45.0
 43
4.49013
 44
0.0
 45
-4.490128060534576
 46
4.490128060534577
 79
     2
 49
3.175
 49
-1.5875
 98
        1
 10
0.0
 20
0.0
  0
HATCH
  5
486
330
1F
100
AcDbEntity
  8
0
  6
Continuous
 62
     7
370
     0
100
AcDbHatch
 10
0.0
 20
0.0
 30
0.0
210
0.0
220
0.0
230
1.0
  2
ANSI33
 70
     0
 71
     0
 91
        1
 92
        0
 93
        4
 72
     1
 10
358.0686299560937
 20
164.4998569143131
 11
364.0686299560937
 21
164.4998569143131
 72
     1
 10
364.0686299560937
 20
164.4998569143131
 11
364.0686299560937
 21
166.4998569143131
 72
     1
 10
364.0686299560937
 20
166.4998569143131
 11
358.0686299560937
 21
166.4998569143131
 72
     1
 10
358.0686299560937
 20
166.4998569143131
 11
358.0686299560937
 21
164.4998569143131
 97
        0
 75
     0
 76
     1
 52
0.0
 41
1.0
 77
     0
 78
     2
 53
45.0
 43
0.0
 44
0.0
 45
-4.490128060534576
 46
4.490128060534577
 79
     0
 53
45.0
 43
4.49013
 44
0.0
 45
-4.490128060534576
 46
4.490128060534577
 79
     2
 49
3.175
 49
-1.5875
 98
        1
 10
0.0
 20
0.0
  0
HATCH
  5
487
330
1F
100
AcDbEntity
  8
0
  6
Continuous
 62
     7
370
     0
100
AcDbHatch
 10
0.0
 20
0.0
 30
0.0
210
0.0
220
0.0
230
1.0
  2
ANSI31
 70
     0
 71
     0
 91
        1
 92
        0
 93
        8
 72
     1
 10
297.5686299560937
 20
219.2998569143133
 11
297.5686299560937
 21
237.6998569143133
 72
     2
 10
297.2686299560937
 20
237.6998569143133
 40
0.3
 50
0.0
 51
90.0
 73
     1
 72
     1
 10
297.2686299560937
 20
237.9998569143133
 11
293.8686299560937
 21
237.9998569143133
 72
     2
 10
293.8686299560937
 20
237.6998569143133
 40
0.3
 50
90.0
 51
180.0
 73
     1
 72
     1
 10
293.5686299560937
 20
237.6998569143133
 11
293.5686299560937
 21
219.2998569143133
 72
     2
 10
293.8686299560937
 20
219.2998569143133
 40
0.3
 50
180.0
 51
270.0000000000008
 73
     1
 72
     1
 10
293.8686299560937
 20
218.9998569143133
 11
297.2686299560937
 21
218.9998569143133
 72
     2
 10
297.2686299560937
 20
219.2998569143133
 40
0.3
 50
270.0000000000008
 51
360.0000000000008
 73
     1
 97
        0
 75
     0
 76
     1
 52
0.0
 41
1.0
 77
     0
 78
     1
 53
45.0
 43
0.0
 44
0.0
 45
-2.245064030267288
 46
2.245064030267288
 79
     0
 98
        1
 10
0.0
 20
0.0
  0
HATCH
  5
488
330
1F
100
AcDbEntity
  8
0
  6
Continuous
 62
     7
370
     0
100
AcDbHatch
 10
0.0
 20
0.0
 30
0.0
210
0.0
220
0.0
230
1.0
  2
ANSI33
 70
     0
 71
     0
 91
        1
 92
        0
 93
       30
 72
     1
 10
275.0686299560937
 20
231.4998569143133
 11
273.0686299560937
 21
233.4998569143133
 72
     1
 10
273.0686299560937
 20
233.4998569143133
 11
270.5686299560937
 21
233.4998569143133
 72
     1
 10
270.5686299560937
 20
233.4998569143133
 11
270.5686299560937
 21
203.4998569143133
 72
     1
 10
270.5686299560937
 20
203.4998569143133
 11
273.0686299560937
 21
203.4998569143133
 72
     1
 10
273.0686299560937
 20
203.4998569143133
 11
275.0686299560937
 21
205.4998569143133
 72
     1
 10
275.0686299560937
 20
205.4998569143133
 11
277.0686299560938
 21
203.4998569143133
 72
     1
 10
277.0686299560938
 20
203.4998569143133
 11
279.0686299560937
 21
203.4998569143133
 72
     1
 10
279.0686299560937
 20
203.4998569143133
 11
279.0686299560937
 21
204.7069636954999
 72
     2
 10
276.5686299560937
 20
204.7069636954999
 40
2.5
 50
0.0
 51
44.99999999999954
 73
     1
 72
     1
 10
278.3363969090601
 20
206.4747306484662
 11
276.6544163937206
 21
208.1567111638057
 72
     2
 10
278.0686299560937
 20
209.5709247261788
 40
2.0
 50
135.0
 51
180.0
 73
     0
 72
     1
 10
276.0686299560937
 20
209.5709247261788
 11
276.0686299560937
 21
211.5904295487887
 72
     1
 10
276.0686299560937
 20
211.5904295487887
 11
275.9686299560937
 21
211.5904295479596
 72
     1
 10
275.9686299560937
 20
211.5904295479596
 11
275.9686299560937
 21
211.7471778849018
 72
     1
 10
275.9686299560937
 20
211.7471778849018
 11
276.0686299560937
 21
211.7471778821661
 72
     1
 10
276.0686299560937
 20
211.7471778821661
 11
276.0686299560937
 21
212.3250264133938
 72
     1
 10
276.0686299560937
 20
212.3250264133938
 11
275.9686299560937
 21
212.3250264204884
 72
     1
 10
275.9686299560937
 20
212.3250264204884
 11
275.9686299560937
 21
212.4829398311549
 72
     1
 10
275.9686299560937
 20
212.4829398311549
 11
276.0686299560937
 21
212.4829398331571
 72
     1
 10
276.0686299560937
 20
212.4829398331571
 11
276.0686299560937
 21
213.1885716986309
 72
     1
 10
276.0686299560937
 20
213.1885716986309
 11
275.9686299560937
 21
213.1885717119264
 72
     1
 10
275.9686299560937
 20
213.1885717119264
 11
275.9686299560937
 21
213.4019164025327
 72
     1
 10
275.9686299560937
 20
213.4019164025327
 11
276.0686299560937
 21
213.4019163964927
 72
     1
 10
276.0686299560937
 20
213.4019163964927
 11
276.0686299560937
 21
227.4287891024478
 72
     2
 10
278.0686299560937
 20
227.4287891024478
 40
2.0
 50
180.0
 51
225.0000000000014
 73
     0
 72
     1
 10
276.6544163937206
 20
228.8430026648209
 11
278.3363969090601
 21
230.5249831801603
 72
     2
 10
276.5686299560937
 20
232.2927501331267
 40
2.5
 50
315.0000000000008
 51
360.0000000000008
 73
     1
 72
     1
 10
279.0686299560937
 20
232.2927501331267
 11
279.0686299560937
 21
233.4998569143133
 72
     1
 10
279.0686299560937
 20
233.4998569143133
 11
277.0686299560937
 21
233.4998569143133
 72
     1
 10
277.0686299560937
 20
233.4998569143133
 11
275.0686299560937
 21
231.4998569143133
 97
        0
 75
     0
 76
     1
 52
90.0
 41
1.0
 77
     0
 78
     2
 53
135.0000000000002
 43
0.0
 44
0.0
 45
-4.490128060534562
 46
-4.490128060534592
 79
     0
 53
135.0000000000002
 43
-0.0000000000000157
 44
4.49013
 45
-4.490128060534562
 46
-4.490128060534592
 79
     2
 49
3.175
 49
-1.5875
 98
        1
 10
0.0
 20
0.0
  0
HATCH
  5
489
330
1F
100
AcDbEntity
  8
0
  6
Continuous
 62
     7
370
     0
100
AcDbHatch
 10
0.0
 20
0.0
 30
0.0
210
0.0
220
0.0
230
1.0
  2
ANSI37
 70
     0
 71
     0
 91
        1
 92
        0
 93
        4
 72
     1
 10
270.5686299560937
 20
202.4998569143133
 11
270.5686299560937
 21
234.4998569143133
 72
     1
 10
270.5686299560937
 20
234.4998569143133
 11
267.3686299560937
 21
234.4998569143133
 72
     1
 10
267.3686299560937
 20
234.4998569143133
 11
267.3686299560937
 21
202.4998569143133
 72
     1
 10
267.3686299560937
 20
202.4998569143133
 11
270.5686299560937
 21
202.4998569143133
 97
        0
 75
     0
 76
     1
 52
0.0
 41
1.0
 77
     0
 78
     2
 53
45.0
 43
0.0
 44
0.0
 45
-2.245064030267288
 46
2.245064030267288
 79
     0
 53
135.0
 43
0.0
 44
0.0
 45
-2.245064030267288
 46
-2.245064030267288
 79
     0
 98
        1
 10
0.0
 20
0.0
  0
MTEXT
  5
48A
330
1F
100
AcDbEntity
  8
0
  6
Continuous
 62
     7
370
     0
100
AcDbMText
 10
347.1050014645
 20
255.5501074185
 30
0.0
 40
5.0
 41
0.0
 71
     2
 72
     1
  1
A-A
  7
SLDTEXTSTYLE0
 73
     1
 44
1.0
  0
LINE
  5
48B
330
1F
100
AcDbEntity
  8
0
  6
CENTERX2
 62
     7
370
     0
100
AcDbLine
 10
278.0686299561
 20
218.4998569143
 30
0.0
 11
274.5686299561
 21
218.4998569143
 31
0.0
  0
LINE
  5
48C
330
1F
100
AcDbEntity
  8
0
  6
CENTERX2
 62
     7
370
     0
100
AcDbLine
 10
274.5686299561
 20
218.4998569143
 30
0.0
 11
270.5686299561
 21
218.4998569143
 31
0.0
  0
LINE
  5
48D
330
1F
100
AcDbEntity
  8
0
  6
CENTERX2
 62
     7
370
     0
100
AcDbLine
 10
265.3686299561
 20
218.4998569143
 30
0.0
 11
270.5686299561
 21
218.4998569143
 31
0.0
  0
LINE
  5
48E
330
1F
100
AcDbEntity
  8
0
  6
CENTERX2
 62
     7
370
     0
100
AcDbLine
 10
275.0686299561
 20
193.4998569143
 30
0.0
 11
275.0686299561
 21
207.4998569143
 31
0.0
  0
LINE
  5
48F
330
1F
100
AcDbEntity
  8
0
  6
CENTERX2
 62
     7
370
     0
100
AcDbLine
 10
269.0686299561
 20
228.4998569143
 30
0.0
 11
298.7686299561
 21
228.4998569143
 31
0.0
  0
ENDSEC
  0
SECTION
  2
OBJECTS
  0
DICTIONARY
  5
C
330
0
100
AcDbDictionary
281
     1
  3
ACAD_GROUP
350
D
  3
ACAD_LAYOUT
350
1A
  3
ACAD_MLINESTYLE
350
17
  3
ACAD_PLOTSETTINGS
350
19
  3
ACAD_PLOTSTYLENAME
350
E
  0
DICTIONARY
  5
D
102
{ACAD_REACTORS
330
C
102
}
330
C
100
AcDbDictionary
281
     1
  0
DICTIONARY
  5
1A
102
{ACAD_REACTORS
330
C
102
}
330
C
100
AcDbDictionary
281
     1
  3
Layout1
350
1E
  3
Layout2
350
26
  3
Model
350
22
  0
DICTIONARY
  5
17
102
{ACAD_REACTORS
330
C
102
}
330
C
100
AcDbDictionary
281
     1
  3
Standard
350
18
  0
DICTIONARY
  5
19
102
{ACAD_REACTORS
330
C
102
}
330
C
100
AcDbDictionary
281
     1
  0
ACDBDICTIONARYWDFLT
  5
E
102
{ACAD_REACTORS
330
C
102
}
330
C
100
AcDbDictionary
281
     1
  3
Normal
350
F
100
AcDbDictionaryWithDefault
340
F
  0
LAYOUT
  5
1E
102
{ACAD_REACTORS
330
1A
102
}
330
1A
100
AcDbPlotSettings
  1

  2
none_device
  4

  6

 40
0.0
 41
0.0
 42
0.0
 43
0.0
 44
0.0
 45
0.0
 46
0.0
 47
0.0
 48
0.0
 49
0.0
140
0.0
141
0.0
142
1.0
143
1.0
 70
   688
 72
     0
 73
     0
 74
     5
  7

 75
    16
147
1.0
148
0.0
149
0.0
100
AcDbLayout
  1
Layout1
 70
     1
 71
     1
 10
0.0
 20
0.0
 11
420.0
 21
297.0
 12
0.0
 22
0.0
 32
0.0
 14
1.0000000000E+20
 24
1.0000000000E+20
 34
1.0000000000E+20
 15
-1.0000000000E+20
 25
-1.0000000000E+20
 35
-1.0000000000E+20
146
0.0
 13
0.0
 23
0.0
 33
0.0
 16
1.0
 26
0.0
 36
0.0
 17
0.0
 27
1.0
 37
0.0
 76
     0
330
1B
  0
LAYOUT
  5
26
102
{ACAD_REACTORS
330
1A
102
}
330
1A
100
AcDbPlotSettings
  1

  2
none_device
  4

  6

 40
0.0
 41
0.0
 42
0.0
 43
0.0
 44
0.0
 45
0.0
 46
0.0
 47
0.0
 48
0.0
 49
0.0
140
0.0
141
0.0
142
1.0
143
1.0
 70
   688
 72
     0
 73
     0
 74
     5
  7

 75
    16
147
1.0
148
0.0
149
0.0
100
AcDbLayout
  1
Layout2
 70
     1
 71
     2
 10
0.0
 20
0.0
 11
0.0
 21
0.0
 12
0.0
 22
0.0
 32
0.0
 14
0.0
 24
0.0
 34
0.0
 15
0.0
 25
0.0
 35
0.0
146
0.0
 13
0.0
 23
0.0
 33
0.0
 16
1.0
 26
0.0
 36
0.0
 17
0.0
 27
1.0
 37
0.0
 76
     0
330
23
  0
LAYOUT
  5
22
102
{ACAD_REACTORS
330
1A
102
}
330
1A
100
AcDbPlotSettings
  1

  2
none_device
  4

  6

 40
0.0
 41
0.0
 42
0.0
 43
0.0
 44
0.0
 45
0.0
 46
0.0
 47
0.0
 48
0.0
 49
0.0
140
0.0
141
0.0
142
1.0
143
1.0
 70
  1712
 72
     0
 73
     0
 74
     0
  7

 75
     0
147
1.0
148
0.0
149
0.0
100
AcDbLayout
  1
Model
 70
     1
 71
     0
 10
0.0
 20
0.0
 11
594.0
 21
420.0
 12
0.0
 22
0.0
 32
0.0
 14
0.0
 24
0.0
 34
0.0
 15
594.0
 25
420.0
 35
0.0
146
0.0
 13
0.0
 23
0.0
 33
0.0
 16
1.0
 26
0.0
 36
0.0
 17
0.0
 27
1.0
 37
0.0
 76
     0
330
1F
331
29
  0
MLINESTYLE
  5
18
102
{ACAD_REACTORS
330
17
102
}
330
17
100
AcDbMlineStyle
  2
Standard
 70
     0
  3

 62
   256
 51
90.0
 52
90.0
 71
     2
 49
0.5
 62
   256
  6
BYLAYER
 49
-0.5
 62
   256
  6
BYLAYER
  0
ACDBPLACEHOLDER
  5
F
102
{ACAD_REACTORS
330
E
102
}
330
E
  0
ENDSEC
  0
EOF
