  0
SECTION
  2
HEADER
  9
$ACADVER
  1
AC1009
  9
$DWGCODEPAGE
  3
ansi_1252
  9
$INSBASE
 10
0.0
 20
0.0
 30
0.0
  9
$EXTMIN
 10
0.0
 20
0.0
 30
0.0
  9
$EXTMAX
 10
594.0
 20
420.0
 30
0.0
  9
$LIMMIN
 10
0.0
 20
0.0
  9
$LIMMAX
 10
594.0
 20
420.0
  9
$ORTHOMODE
 70
     0
  9
$REGENMODE
 70
     1
  9
$FILLMODE
 70
     1
  9
$QTEXTMODE
 70
     0
  9
$MIRRTEXT
 70
     1
  9
$DRAGMODE
 70
     2
  9
$LTSCALE
 40
1.0
  9
$OSMODE
 70
    37
  9
$ATTMODE
 70
     1
  9
$TEXTSIZE
 40
3.5
  9
$TRACEWID
 40
1.0
  9
$TEXTSTYLE
  7
STANDARD
  9
$CLAYER
  8
0
  9
$CELTYPE
  6
BYLAYER
  9
$CECOLOR
 62
   256
  9
$DIMSCALE
 40
1.0
  9
$DIMASZ
 40
3.5
  9
$DIMEXO
 40
1.0
  9
$DIMDLI
 40
3.75
  9
$DIMRND
 40
0.0
  9
$DIMDLE
 40
0.0
  9
$DIMEXE
 40
1.0
  9
$DIMTP
 40
0.0
  9
$DIMTM
 40
0.0
  9
$DIMTXT
 40
3.5
  9
$DIMCEN
 40
2.5
  9
$DIMTSZ
 40
0.0
  9
$DIMTOL
 70
     0
  9
$DIMLIM
 70
     0
  9
$DIMTIH
 70
     1
  9
$DIMTOH
 70
     1
  9
$DIMSE1
 70
     0
  9
$DIMSE2
 70
     0
  9
$DIMTAD
 70
     1
  9
$DIMZIN
 70
     0
  9
$DIMBLK
  1

  9
$DIMASO
 70
     1
  9
$DIMSHO
 70
     1
  9
$DIMPOST
  1

  9
$DIMAPOST
  1

  9
$DIMALT
 70
     0
  9
$DIMALTD
 70
     3
  9
$DIMALTF
 40
0.0393700787
  9
$DIMLFAC
 40
1.0
  9
$DIMTOFL
 70
     1
  9
$DIMTVP
 40
0.0
  9
$DIMTIX
 70
     0
  9
$DIMSOXD
 70
     0
  9
$DIMSAH
 70
     0
  9
$DIMBLK1
  1

  9
$DIMBLK2
  1

  9
$DIMSTYLE
  2
ISO-25
  9
$DIMCLRD
 70
     0
  9
$DIMCLRE
 70
     0
  9
$DIMCLRT
 70
     0
  9
$DIMTFAC
 40
1.0
  9
$DIMGAP
 40
4.0
  9
$LUNITS
 70
     2
  9
$LUPREC
 70
     1
  9
$SKETCHINC
 40
1.0
  9
$FILLETRAD
 40
10.0
  9
$AUNITS
 70
     0
  9
$AUPREC
 70
     1
  9
$MENU
  1
.
  9
$ELEVATION
 40
0.0
  9
$PELEVATION
 40
0.0
  9
$THICKNESS
 40
0.0
  9
$LIMCHECK
 70
     0
  9
$CHAMFERA
 40
0.0
  9
$CHAMFERB
 40
0.0
  9
$SKPOLY
 70
     0
  9
$TDCREATE
 40
2457648.346334028
  9
$TDUPDATE
 40
2457648.346334572
  9
$TDINDWG
 40
0.0000000116
  9
$TDUSRTIMER
 40
0.0000000116
  9
$USRTIMER
 70
     1
  9
$ANGBASE
 50
0.0
  9
$ANGDIR
 70
     0
  9
$PDMODE
 70
     0
  9
$PDSIZE
 40
-1.0
  9
$PLINEWID
 40
0.0
  9
$COORDS
 70
     1
  9
$SPLFRAME
 70
     0
  9
$SPLINETYPE
 70
     6
  9
$SPLINESEGS
 70
     8
  9
$ATTDIA
 70
     0
  9
$ATTREQ
 70
     1
  9
$HANDLING
 70
     1
  9
$HANDSEED
  5
40F
  9
$SURFTAB1
 70
     6
  9
$SURFTAB2
 70
     6
  9
$SURFTYPE
 70
     6
  9
$SURFU
 70
     6
  9
$SURFV
 70
     6
  9
$UCSNAME
  2

  9
$UCSORG
 10
0.0
 20
0.0
 30
0.0
  9
$UCSXDIR
 10
1.0
 20
0.0
 30
0.0
  9
$UCSYDIR
 10
0.0
 20
1.0
 30
0.0
  9
$PUCSNAME
  2

  9
$PUCSORG
 10
0.0
 20
0.0
 30
0.0
  9
$PUCSXDIR
 10
1.0
 20
0.0
 30
0.0
  9
$PUCSYDIR
 10
0.0
 20
1.0
 30
0.0
  9
$USERI1
 70
     0
  9
$USERI2
 70
     0
  9
$USERI3
 70
     0
  9
$USERI4
 70
     0
  9
$USERI5
 70
     0
  9
$USERR1
 40
0.0
  9
$USERR2
 40
0.0
  9
$USERR3
 40
0.0
  9
$USERR4
 40
0.0
  9
$USERR5
 40
0.0
  9
$WORLDVIEW
 70
     1
  9
$SHADEDGE
 70
     3
  9
$SHADEDIF
 70
    70
  9
$TILEMODE
 70
     1
  9
$MAXACTVP
 70
    64
  9
$PLIMCHECK
 70
     0
  9
$PEXTMIN
 10
1.0000000000E+20
 20
1.0000000000E+20
 30
1.0000000000E+20
  9
$PEXTMAX
 10
-1.0000000000E+20
 20
-1.0000000000E+20
 30
-1.0000000000E+20
  9
$PLIMMIN
 10
0.0
 20
0.0
  9
$PLIMMAX
 10
420.0
 20
297.0
  9
$UNITMODE
 70
     0
  9
$VISRETAIN
 70
     1
  9
$PLINEGEN
 70
     0
  9
$PSLTSCALE
 70
     1
  0
ENDSEC
  0
SECTION
  2
TABLES
  0
TABLE
  2
VPORT
 70
     1
  0
VPORT
  2
*ACTIVE
 70
     0
 10
0.0
 20
0.0
 11
1.0
 21
1.0
 12
297.0
 22
210.0
 13
0.0
 23
0.0
 14
10.0
 24
10.0
 15
10.0
 25
10.0
 16
0.0
 26
0.0
 36
1.0
 17
0.0
 27
0.0
 37
0.0
 40
420.0
 41
1.4142857143
 42
50.0
 43
0.0
 44
0.0
 50
0.0
 51
0.0
 71
     0
 72
  2000
 73
     1
 74
     3
 75
     0
 76
     0
 77
     0
 78
     0
  0
ENDTAB
  0
TABLE
  2
LTYPE
 70
     6
  0
LTYPE
  2
CONTINUOUS
 70
     0
  3
Solid line
 72
    65
 73
     0
 40
0.0
  0
LTYPE
  2
HIDDEN
 70
     0
  3
Hidden __ __ __ __ __ __ __ __ __ __ __ __ __ __
 72
    65
 73
     2
 40
1.905
 49
1.27
 49
-0.635
  0
LTYPE
  2
PHANTOM
 70
     0
  3
Phantom ______  __  __  ______  __  __  ______
 72
    65
 73
     6
 40
12.7
 49
6.35
 49
-1.27
 49
1.27
 49
-1.27
 49
1.27
 49
-1.27
  0
LTYPE
  2
CENTER
 70
     0
  3
Center ____ _ ____ _ ____ _ ____ _ ____ _ ____
 72
    65
 73
     4
 40
10.16
 49
6.35
 49
-1.27
 49
1.27
 49
-1.27
  0
LTYPE
  2
CENTERX2
 70
     0
  3
Center (2x) ________  __  ________  __  _____
 72
    65
 73
     4
 40
20.32
 49
12.7
 49
-2.54
 49
2.54
 49
-2.54
  0
LTYPE
  2
DOT2
 70
     0
  3
Dot (.5x) ........................................
 72
    65
 73
     2
 40
0.635
 49
0.0
 49
-0.635
  0
ENDTAB
  0
TABLE
  2
LAYER
 70
     3
  0
LAYER
  2
0
 70
     0
 62
     7
  6
CONTINUOUS
  0
LAYER
  2
RAHMEN
 70
     0
 62
   179
  6
CONTINUOUS
  0
LAYER
  2
KOPF
 70
     0
 62
     7
  6
CONTINUOUS
  0
ENDTAB
  0
TABLE
  2
STYLE
 70
     1
  0
STYLE
  2
STANDARD
 70
     0
 40
0.0
 41
1.0
 50
0.0
 71
     0
 42
3.5
  3
txt
  4

  0
ENDTAB
  0
TABLE
  2
VIEW
 70
     0
  0
ENDTAB
  0
TABLE
  2
UCS
 70
     0
  0
ENDTAB
  0
TABLE
  2
APPID
 70
     1
  0
APPID
  2
ACAD
 70
     0
  0
ENDTAB
  0
TABLE
  2
DIMSTYLE
 70
     4
  0
DIMSTYLE
  2
ISO-25
 70
     0
  3

  4

  5

  6

  7

 40
1.0
 41
2.5
 42
0.625
 43
3.75
 44
1.25
 45
0.0
 46
0.0
 47
0.0
 48
0.0
140
2.5
141
2.5
142
0.0
143
0.0393700787
144
1.0
145
0.0
146
1.0
147
0.625
 71
     0
 72
     0
 73
     0
 74
     0
 75
     0
 76
     0
 77
     1
 78
     8
170
     0
171
     3
172
     1
173
     0
174
     0
175
     0
176
     0
177
     0
178
     0
  0
DIMSTYLE
  2
SLDDIMSTYLE0
 70
     0
  3

  4

  5

  6

  7

 40
1.0
 41
3.5
 42
0.0625
 43
0.38
 44
0.0
 45
0.000000001
 46
0.0
 47
0.0
 48
0.0
140
3.5
141
0.09
142
0.0
143
25.4
144
1.0
145
0.0
146
1.0
147
0.875
 71
     0
 72
     0
 73
     0
 74
     0
 75
     0
 76
     0
 77
     1
 78
    12
170
     0
171
     2
172
     0
173
     1
174
     0
175
     0
176
     0
177
     0
178
     0
  0
DIMSTYLE
  2
SLDDIMSTYLE1
 70
     0
  3

  4

  5

  6

  7

 40
1.0
 41
3.5
 42
0.0625
 43
0.38
 44
0.0
 45
0.000000001
 46
0.0
 47
0.0
 48
0.0
140
3.5
141
0.09
142
0.0
143
25.4
144
1.0
145
0.0
146
1.0
147
0.875
 71
     0
 72
     0
 73
     0
 74
     0
 75
     0
 76
     0
 77
     1
 78
    12
170
     0
171
     2
172
     1
173
     1
174
     0
175
     0
176
     0
177
     0
178
     0
  0
DIMSTYLE
  2
SLDDIMSTYLE2
 70
     0
  3

  4

  5

  6

  7

 40
1.0
 41
3.5
 42
0.0625
 43
0.38
 44
0.0
 45
0.000000001
 46
0.0
 47
0.0
 48
0.0
140
3.5
141
0.09
142
0.0
143
25.4
144
1.0
145
0.0
146
1.0
147
0.875
 71
     0
 72
     0
 73
     0
 74
     0
 75
     0
 76
     0
 77
     1
 78
    12
170
     0
171
     2
172
     0
173
     1
174
     0
175
     0
176
     0
177
     0
178
     0
  0
ENDTAB
  0
ENDSEC
  0
SECTION
  2
BLOCKS
  0
BLOCK
  8
0
  2
$MODEL_SPACE
 70
     0
 10
0.0
 20
0.0
 30
0.0
  3
$MODEL_SPACE
  1

  0
ENDBLK
  5
21
  8
0
  0
BLOCK
 67
     1
  8
0
  2
$PAPER_SPACE
 70
     0
 10
0.0
 20
0.0
 30
0.0
  3
$PAPER_SPACE
  1

  0
ENDBLK
  5
1D
 67
     1
  8
0
  0
BLOCK
  8
0
  2
_D
 70
     0
 10
0.0
 20
0.0
 30
0.0
  3
_D
  1

  0
ARC
  5
D4
  8
0
  6
CONTINUOUS
 62
     7
 10
503.362698675
 20
156.9775076852
 30
0.0
 40
6.001270599502185
 50
243.4349488229
 51
296.5650511771
  0
ARC
  5
D5
  8
0
  6
CONTINUOUS
 62
     7
 10
503.362698675
 20
154.7636420726
 30
0.0
 40
6.001270599502236
 50
63.4349488229
 51
116.5650511771
  0
SOLID
  5
D6
  8
0
  6
CONTINUOUS
 62
     7
 10
506.0465484774
 20
171.7056744623
 30
0.0
 11
505.1465484774
 21
168.2056744623
 31
0.0
 12
506.9465484774
 22
168.2056744623
 32
0.0
 13
506.9465484774
 23
168.2056744623
 33
0.0
  0
SOLID
  5
D7
  8
0
  6
CONTINUOUS
 62
     7
 10
506.0465484774
 20
119.7056744623
 30
0.0
 11
506.9465484774
 21
123.2056744623
 31
0.0
 12
505.1465484774
 22
123.2056744623
 32
0.0
 13
505.1465484774
 23
123.2056744623
 33
0.0
  0
LINE
  5
D8
  8
0
  6
CONTINUOUS
 62
     7
 10
495.4723891561
 20
171.7056744623
 30
0.0
 11
507.0465484774
 21
171.7056744623
 31
0.0
  0
LINE
  5
D9
  8
0
  6
CONTINUOUS
 62
     7
 10
495.4723891561
 20
119.7056744623
 30
0.0
 11
507.0465484774
 21
119.7056744623
 31
0.0
  0
LINE
  5
DA
  8
0
  6
CONTINUOUS
 62
     7
 10
506.0465484774
 20
171.7056744623
 30
0.0
 11
506.0465484774
 21
119.7056744623
 31
0.0
  0
TEXT
  5
DB
  8
0
  6
CONTINUOUS
 62
     7
 10
504.8101380279
 20
153.1973080805
 30
0.0
 40
3.5
  1
52
 50
90.0
 41
0.7
 11
506.0465482446
 21
153.1973080805
 31
0.0
 73
     1
  0
ENDBLK
  5
D3
  8
0
  0
BLOCK
  8
0
  2
_D_1
 70
     0
 10
0.0
 20
0.0
 30
0.0
  3
_D_1
  1

  0
ARC
  5
E1
  8
0
  6
CONTINUOUS
 62
     7
 10
481.0848131472
 20
181.3771487379
 30
0.0
 40
6.001270599502223
 50
153.4349488229
 51
206.5650511771
  0
ARC
  5
E2
  8
0
  6
CONTINUOUS
 62
     7
 10
482.8797894318
 20
181.3771487379
 30
0.0
 40
6.001270599502223
 50
333.4349488229
 51
26.5650511771
  0
SOLID
  5
E3
  8
0
  6
CONTINUOUS
 62
     7
 10
494.7723891561
 20
178.6932989355
 30
0.0
 11
498.2723891561
 21
177.7932989355
 31
0.0
 12
498.2723891561
 22
179.5932989355
 32
0.0
 13
498.2723891561
 23
179.5932989355
 33
0.0
  0
SOLID
  5
E4
  8
0
  6
CONTINUOUS
 62
     7
 10
467.2723891561
 20
178.6932989355
 30
0.0
 11
463.7723891561
 21
179.5932989355
 31
0.0
 12
463.7723891561
 22
177.7932989355
 32
0.0
 13
463.7723891561
 23
177.7932989355
 33
0.0
  0
LINE
  5
E5
  8
0
  6
CONTINUOUS
 62
     7
 10
494.7723891561
 20
172.4056744623
 30
0.0
 11
494.7723891561
 21
179.6932989355
 31
0.0
  0
LINE
  5
E6
  8
0
  6
CONTINUOUS
 62
     7
 10
467.2723891561
 20
170.7056744623
 30
0.0
 11
467.2723891561
 21
179.6932989355
 31
0.0
  0
LINE
  5
E7
  8
0
  6
CONTINUOUS
 62
     7
 10
494.7723891561
 20
178.6932989355
 30
0.0
 11
501.7723891561
 21
178.6932989355
 31
0.0
  0
LINE
  5
E8
  8
0
  6
CONTINUOUS
 62
     7
 10
494.7723891561
 20
178.6932989355
 30
0.0
 11
467.2723891561
 21
178.6932989355
 31
0.0
  0
LINE
  5
E9
  8
0
  6
CONTINUOUS
 62
     7
 10
467.2723891561
 20
178.6932989355
 30
0.0
 11
460.2723891561
 21
178.6932989355
 31
0.0
  0
TEXT
  5
EA
  8
0
  6
CONTINUOUS
 62
     7
 10
477.3046135425
 20
179.9297093851
 30
0.0
 40
3.5
  1
27.5
 50
0.0
 41
0.7
 11
477.3046135425
 21
178.6932991684
 31
0.0
 73
     1
  0
ENDBLK
  5
E0
  8
0
  0
BLOCK
  8
0
  2
_D_2
 70
     0
 10
0.0
 20
0.0
 30
0.0
  3
_D_2
  1

  0
SOLID
  5
F0
  8
0
  6
CONTINUOUS
 62
     7
 10
467.2723891561
 20
178.6988707504
 30
0.0
 11
463.7723891561
 21
179.5988707504
 31
0.0
 12
463.7723891561
 22
177.7988707504
 32
0.0
 13
463.7723891561
 23
177.7988707504
 33
0.0
  0
SOLID
  5
F1
  8
0
  6
CONTINUOUS
 62
     7
 10
24.851869677
 20
178.6988707504
 30
0.0
 11
28.351869677
 21
177.7988707504
 31
0.0
 12
28.351869677
 22
179.5988707504
 32
0.0
 13
28.351869677
 23
179.5988707504
 33
0.0
  0
LINE
  5
F2
  8
0
  6
CONTINUOUS
 62
     7
 10
467.2723891561
 20
170.7056744623
 30
0.0
 11
467.2723891561
 21
179.6988707504
 31
0.0
  0
LINE
  5
F3
  8
0
  6
CONTINUOUS
 62
     7
 10
24.851869677
 20
146.7056744623
 30
0.0
 11
24.851869677
 21
179.6988707504
 31
0.0
  0
LINE
  5
F4
  8
0
  6
CONTINUOUS
 62
     7
 10
467.2723891561
 20
178.6988707504
 30
0.0
 11
24.851869677
 21
178.6988707504
 31
0.0
  0
TEXT
  5
F5
  8
0
  6
CONTINUOUS
 62
     7
 10
256.750293768
 20
179.9352811999
 30
0.0
 40
3.5
  1
442
 50
0.0
 41
0.7
 11
256.750293768
 21
178.6988709832
 31
0.0
 73
     1
  0
ENDBLK
  5
EF
  8
0
  0
BLOCK
  8
0
  2
_D_3
 70
     0
 10
0.0
 20
0.0
 30
0.0
  3
_D_3
  1

  0
SOLID
  5
379
  8
0
  6
CONTINUOUS
 62
     7
 10
494.7723891561
 20
316.8989472682
 30
0.0
 11
491.2723891561
 21
317.7989472682
 31
0.0
 12
491.2723891561
 22
315.9989472682
 32
0.0
 13
491.2723891561
 23
315.9989472682
 33
0.0
  0
SOLID
  5
37A
  8
0
  6
CONTINUOUS
 62
     7
 10
24.8516367863
 20
316.8989472682
 30
0.0
 11
28.3516367863
 21
315.9989472682
 31
0.0
 12
28.3516367863
 22
317.7989472682
 32
0.0
 13
28.3516367863
 23
317.7989472682
 33
0.0
  0
LINE
  5
37B
  8
0
  6
CONTINUOUS
 62
     7
 10
494.7723891561
 20
305.5989472682
 30
0.0
 11
494.7723891561
 21
317.8989472682
 31
0.0
  0
LINE
  5
37C
  8
0
  6
CONTINUOUS
 62
     7
 10
24.8516367863
 20
296.9954644732
 30
0.0
 11
24.8516367863
 21
317.8989472682
 31
0.0
  0
LINE
  5
37D
  8
0
  6
CONTINUOUS
 62
     7
 10
494.7723891561
 20
316.8989472682
 30
0.0
 11
24.8516367863
 21
316.8989472682
 31
0.0
  0
TEXT
  5
37E
  8
0
  6
CONTINUOUS
 62
     7
 10
242.2037510566
 20
318.1353577177
 30
0.0
 40
3.5
  1
Min.
 50
0.0
 41
0.7
 11
242.2037510566
 21
316.898947501
 31
0.0
 73
     1
  0
TEXT
  5
37F
  8
0
  6
CONTINUOUS
 62
     7
 10
251.2891678505
 20
318.1353577177
 30
0.0
 40
3.5
  1
470
 50
0.0
 41
0.7
 11
251.2891678505
 21
316.898947501
 31
0.0
 73
     1
  0
TEXT
  5
380
  8
0
  6
CONTINUOUS
 62
     7
 10
259.3100009851
 20
318.1353577177
 30
0.0
 40
3.5
  1
 - Max 815
 50
0.0
 41
0.595
 11
259.3100009851
 21
316.898947501
 31
0.0
 73
     1
  0
ENDBLK
  5
378
  8
0
  0
BLOCK
  8
0
  2
_D_4
 70
     0
 10
0.0
 20
0.0
 30
0.0
  3
_D_4
  1

  0
ARC
  5
3E5
  8
0
  6
CONTINUOUS
 62
     7
 10
574.7476083787
 20
286.5395800019
 30
0.0
 40
6.001270599502083
 50
243.4349488229
 51
296.5650511771
  0
ARC
  5
3E6
  8
0
  6
CONTINUOUS
 62
     7
 10
574.7476083787
 20
284.3257143892
 30
0.0
 40
6.001270599502236
 50
63.4349488229
 51
116.5650511771
  0
SOLID
  5
3E7
  8
0
  6
CONTINUOUS
 62
     7
 10
577.431458181
 20
306.8989472682
 30
0.0
 11
576.531458181
 21
303.3989472682
 31
0.0
 12
578.331458181
 22
303.3989472682
 32
0.0
 13
578.331458181
 23
303.3989472682
 33
0.0
  0
SOLID
  5
3E8
  8
0
  6
CONTINUOUS
 62
     7
 10
577.431458181
 20
262.8989472682
 30
0.0
 11
578.331458181
 21
266.3989472682
 31
0.0
 12
576.531458181
 22
266.3989472682
 32
0.0
 13
576.531458181
 23
266.3989472682
 33
0.0
  0
LINE
  5
3E9
  8
0
  6
CONTINUOUS
 62
     7
 10
569.3786989368
 20
306.8989472682
 30
0.0
 11
578.431458181
 21
306.8989472682
 31
0.0
  0
LINE
  5
3EA
  8
0
  6
CONTINUOUS
 62
     7
 10
569.3786989368
 20
262.8989472682
 30
0.0
 11
578.431458181
 21
262.8989472682
 31
0.0
  0
LINE
  5
3EB
  8
0
  6
CONTINUOUS
 62
     7
 10
577.431458181
 20
306.8989472682
 30
0.0
 11
577.431458181
 21
262.8989472682
 31
0.0
  0
TEXT
  5
3EC
  8
0
  6
CONTINUOUS
 62
     7
 10
576.1950477315
 20
282.7593803971
 30
0.0
 40
3.5
  1
44
 50
90.0
 41
0.7
 11
577.4314579482
 21
282.7593803971
 31
0.0
 73
     1
  0
ENDBLK
  5
3E4
  8
0
  0
BLOCK
  8
0
  2
SW_CENTERMARKSYMBOL_0
 70
     0
 10
0.0
 20
0.0
 30
0.0
  3
SW_CENTERMARKSYMBOL_0
  1

  0
LINE
  5
3F0
  8
0
  6
CONTINUOUS
 62
     0
 10
0.0
 20
0.0
 30
0.0
 11
0.0
 21
2.5
 31
0.0
  0
LINE
  5
3F1
  8
0
  6
CONTINUOUS
 62
     0
 10
0.0
 20
0.0
 30
0.0
 11
-2.5
 21
0.0
 31
0.0
  0
LINE
  5
3F2
  8
0
  6
CONTINUOUS
 62
     0
 10
0.0
 20
0.0
 30
0.0
 11
0.0
 21
-2.5
 31
0.0
  0
LINE
  5
3F3
  8
0
  6
CONTINUOUS
 62
     0
 10
0.0
 20
0.0
 30
0.0
 11
2.5
 21
0.0
 31
0.0
  0
LINE
  5
3F4
  8
0
  6
CONTINUOUS
 62
     0
 10
0.0
 20
5.0
 30
0.0
 11
0.0
 21
10.0
 31
0.0
  0
LINE
  5
3F5
  8
0
  6
CONTINUOUS
 62
     0
 10
-5.0
 20
0.0
 30
0.0
 11
-10.0
 21
0.0
 31
0.0
  0
LINE
  5
3F6
  8
0
  6
CONTINUOUS
 62
     0
 10
0.0
 20
-5.0
 30
0.0
 11
0.0
 21
-10.0
 31
0.0
  0
LINE
  5
3F7
  8
0
  6
CONTINUOUS
 62
     0
 10
5.0
 20
0.0
 30
0.0
 11
10.0
 21
0.0
 31
0.0
  0
ENDBLK
  5
3EF
  8
0
  0
ENDSEC
  0
SECTION
  2
ENTITIES
  0
LINE
  5
75
  8
0
  6
CONTINUOUS
 62
     7
 10
467.2223884587
 20
123.7056745815
 30
0.0
 11
467.2723893051
 21
123.7056745815
 31
0.0
  0
LINE
  5
76
  8
0
  6
CONTINUOUS
 62
     7
 10
467.2723893051
 20
133.705674358
 30
0.0
 11
467.2223884587
 21
133.705674358
 31
0.0
  0
LINE
  5
77
  8
0
  6
CONTINUOUS
 62
     7
 10
467.2223884587
 20
157.7056745666
 30
0.0
 11
467.2723893051
 21
157.7056745666
 31
0.0
  0
LINE
  5
78
  8
0
  6
CONTINUOUS
 62
     7
 10
467.2723893051
 20
167.7056743431
 30
0.0
 11
467.2223884587
 21
167.7056743431
 31
0.0
  0
ARC
  5
79
  8
0
  6
CONTINUOUS
 62
     7
 10
465.2723891561
 20
155.2056744623
 30
0.0
 40
0.5
 50
0.0
 51
90.0
  0
ARC
  5
7A
  8
0
  6
CONTINUOUS
 62
     7
 10
465.2723891561
 20
136.2056744623
 30
0.0
 40
0.5
 50
270.0
 51
0.0
  0
LINE
  5
7B
  8
0
  6
CONTINUOUS
 62
     7
 10
465.2723889773
 20
155.7056742388
 30
0.0
 11
456.2723893647
 21
155.7056742388
 31
0.0
  0
LINE
  5
7C
  8
0
  6
CONTINUOUS
 62
     7
 10
456.2723893647
 20
135.7056746859
 30
0.0
 11
465.2723889773
 21
135.7056746859
 31
0.0
  0
ARC
  5
7D
  8
0
  6
CONTINUOUS
 62
     7
 10
456.2723891561
 20
136.2056744623
 30
0.0
 40
0.5
 50
180.0
 51
270.0
  0
ARC
  5
7E
  8
0
  6
CONTINUOUS
 62
     7
 10
456.2723891561
 20
155.2056744623
 30
0.0
 40
0.5
 50
90.0
 51
180.0
  0
ARC
  5
7F
  8
0
  6
CONTINUOUS
 62
     7
 10
466.5223891561
 20
151.4556744623
 30
0.0
 40
0.75
 50
0.0
 51
180.0
  0
ARC
  5
80
  8
0
  6
CONTINUOUS
 62
     7
 10
466.5223891561
 20
139.9556744623
 30
0.0
 40
0.75
 50
180.0
 51
0.0
  0
LINE
  5
81
  8
0
  6
CONTINUOUS
 62
     7
 10
26.2724008386
 20
138.20567463
 30
0.0
 11
27.272387964
 21
138.20567463
 31
0.0
  0
LINE
  5
82
  8
0
  6
CONTINUOUS
 62
     7
 10
27.272387964
 20
153.2056742947
 30
0.0
 11
26.2724008386
 21
153.2056742947
 31
0.0
  0
ARC
  5
83
  8
0
  6
CONTINUOUS
 62
     7
 10
44.8516367863
 20
145.6091572573
 30
0.0
 40
20.00000000000001
 50
180.0
 51
201.7263573307
  0
ARC
  5
84
  8
0
  6
CONTINUOUS
 62
     7
 10
44.8516367863
 20
145.8021916674
 30
0.0
 40
20.00000000000001
 50
158.2736426693
 51
180.0
  0
LINE
  5
85
  8
0
  6
CONTINUOUS
 62
     7
 10
24.8516347234
 20
145.8021916699
 30
0.0
 11
24.8516347234
 21
145.6091572548
 31
0.0
  0
LINE
  5
86
  8
0
  6
CONTINUOUS
 62
     7
 10
455.7723883515
 20
153.2056742947
 30
0.0
 11
27.272387964
 21
153.2056742947
 31
0.0
  0
LINE
  5
87
  8
0
  6
CONTINUOUS
 62
     7
 10
27.272387964
 20
138.20567463
 30
0.0
 11
455.7723883515
 21
138.20567463
 31
0.0
  0
LINE
  5
88
  8
0
  6
CONTINUOUS
 62
     7
 10
467.2223884587
 20
123.7056745815
 30
0.0
 11
467.2223884587
 21
133.705674358
 31
0.0
  0
LINE
  5
89
  8
0
  6
CONTINUOUS
 62
     7
 10
467.2223884587
 20
159.4794259075
 30
0.0
 11
467.2223884587
 21
167.7056743431
 31
0.0
  0
LINE
  5
8A
  8
0
  6
CONTINUOUS
 62
     7
 10
467.2223884587
 20
157.7056745666
 30
0.0
 11
467.2223884587
 21
159.4794259075
 31
0.0
  0
LINE
  5
8B
  8
0
  6
CONTINUOUS
 62
     7
 10
465.7723899906
 20
155.2056741569
 30
0.0
 11
465.7723899906
 21
136.2056747678
 31
0.0
  0
LINE
  5
8C
  8
0
  6
CONTINUOUS
 62
     7
 10
455.7723883515
 20
136.2056747678
 30
0.0
 11
455.7723883515
 21
155.2056741569
 31
0.0
  0
LINE
  5
8D
  8
0
  6
CONTINUOUS
 62
     7
 10
26.2724008386
 20
138.20567463
 30
0.0
 11
26.2724008386
 21
153.2056742947
 31
0.0
  0
LINE
  5
8E
  8
0
  6
CONTINUOUS
 62
     7
 10
27.272387964
 20
138.20567463
 30
0.0
 11
27.272387964
 21
153.2056742947
 31
0.0
  0
ARC
  5
8F
  8
0
  6
CONTINUOUS
 62
     7
 10
469.2723891561
 20
121.7056744623
 30
0.0
 40
2.0
 50
180.0
 51
270.0
  0
LINE
  5
90
  8
0
  6
CONTINUOUS
 62
     7
 10
473.272388426
 20
171.4056736458
 30
0.0
 11
473.272388426
 21
120.0056752789
 31
0.0
  0
LINE
  5
91
  8
0
  6
CONTINUOUS
 62
     7
 10
469.272389633
 20
171.7056749988
 30
0.0
 11
472.9723889356
 21
171.7056749988
 31
0.0
  0
ARC
  5
92
  8
0
  6
CONTINUOUS
 62
     7
 10
472.9723891561
 20
120.0056744623
 30
0.0
 40
0.3000000000000114
 50
270.0
 51
0.0
  0
ARC
  5
93
  8
0
  6
CONTINUOUS
 62
     7
 10
469.2723891561
 20
169.7056744623
 30
0.0
 40
2.000000000000028
 50
90.0
 51
180.0
  0
ARC
  5
94
  8
0
  6
CONTINUOUS
 62
     7
 10
472.9723891561
 20
171.4056744623
 30
0.0
 40
0.3000000000000398
 50
0.0
 51
90.0
  0
LINE
  5
95
  8
0
  6
CONTINUOUS
 62
     7
 10
467.2723893051
 20
121.7056742537
 30
0.0
 11
467.2723893051
 21
169.705674671
 31
0.0
  0
LINE
  5
96
  8
0
  6
CONTINUOUS
 62
     7
 10
472.9723889356
 20
119.7056739259
 30
0.0
 11
469.272389633
 21
119.7056739259
 31
0.0
  0
LINE
  5
97
  8
0
  6
CONTINUOUS
 62
     7
 10
495.4723891312
 20
130.2056747157
 30
0.0
 11
495.4723891312
 21
161.205674209
 31
0.0
  0
LINE
  5
98
  8
0
  6
CONTINUOUS
 62
     7
 10
494.7723891561
 20
168.2056753564
 30
0.0
 11
495.4723891312
 21
168.2056753564
 31
0.0
  0
LINE
  5
99
  8
0
  6
CONTINUOUS
 62
     7
 10
495.4723891312
 20
168.2056753564
 30
0.0
 11
495.4723891312
 21
161.205674209
 31
0.0
  0
LINE
  5
9A
  8
0
  6
CONTINUOUS
 62
     7
 10
495.4723891312
 20
123.2056735683
 30
0.0
 11
494.7723891561
 21
123.2056735683
 31
0.0
  0
LINE
  5
9B
  8
0
  6
CONTINUOUS
 62
     7
 10
495.4723891312
 20
130.2056747157
 30
0.0
 11
495.4723891312
 21
123.2056735683
 31
0.0
  0
LINE
  5
9C
  8
0
  6
CONTINUOUS
 62
     7
 10
474.7723896032
 20
120.0056752789
 30
0.0
 11
474.7723896032
 21
171.4056736458
 31
0.0
  0
LINE
  5
9D
  8
0
  6
CONTINUOUS
 62
     7
 10
474.7723896032
 20
120.0056752789
 30
0.0
 11
474.7723896032
 21
119.7056739259
 31
0.0
  0
LINE
  5
9E
  8
0
  6
CONTINUOUS
 62
     7
 10
474.7723896032
 20
119.7056739259
 30
0.0
 11
473.272388426
 21
119.7056739259
 31
0.0
  0
LINE
  5
9F
  8
0
  6
CONTINUOUS
 62
     7
 10
473.272388426
 20
119.7056739259
 30
0.0
 11
473.272388426
 21
120.0056752789
 31
0.0
  0
LINE
  5
A0
  8
0
  6
CONTINUOUS
 62
     7
 10
473.272388426
 20
171.7056749988
 30
0.0
 11
474.7723896032
 21
171.7056749988
 31
0.0
  0
LINE
  5
A1
  8
0
  6
CONTINUOUS
 62
     7
 10
474.7723896032
 20
171.7056749988
 30
0.0
 11
474.7723896032
 21
171.4056736458
 31
0.0
  0
LINE
  5
A2
  8
0
  6
CONTINUOUS
 62
     7
 10
473.272388426
 20
171.4056736458
 30
0.0
 11
473.272388426
 21
171.7056749988
 31
0.0
  0
ARC
  5
A3
  8
0
  6
CONTINUOUS
 62
     7
 10
494.4723891561
 20
171.4056744623
 30
0.0
 40
0.3000000000000398
 50
0.0
 51
90.0
  0
LINE
  5
A4
  8
0
  6
CONTINUOUS
 62
     7
 10
475.0723890935
 20
171.7056749988
 30
0.0
 11
494.4723891419
 21
171.7056749988
 31
0.0
  0
ARC
  5
A5
  8
0
  6
CONTINUOUS
 62
     7
 10
494.4723891561
 20
120.0056744623
 30
0.0
 40
0.3000000000000114
 50
270.0
 51
0.0
  0
LINE
  5
A6
  8
0
  6
CONTINUOUS
 62
     7
 10
494.7723891561
 20
171.4056736458
 30
0.0
 11
494.7723891561
 21
120.0056752789
 31
0.0
  0
LINE
  5
A7
  8
0
  6
CONTINUOUS
 62
     7
 10
494.4723891419
 20
119.7056739259
 30
0.0
 11
475.0723890935
 21
119.7056739259
 31
0.0
  0
ARC
  5
A8
  8
0
  6
CONTINUOUS
 62
     7
 10
475.0723891561
 20
120.0056744623
 30
0.0
 40
0.3000000000000114
 50
180.0
 51
270.0
  0
ARC
  5
A9
  8
0
  6
CONTINUOUS
 62
     7
 10
475.0723891561
 20
171.4056744623
 30
0.0
 40
0.3000000000000398
 50
90.0
 51
180.0
  0
LINE
  5
AA
  8
0
  6
CONTINUOUS
 62
     7
 10
472.9723889356
 20
171.7056749988
 30
0.0
 11
473.272388426
 21
171.7056749988
 31
0.0
  0
LINE
  5
AB
  8
0
  6
CONTINUOUS
 62
     7
 10
474.7723896032
 20
171.7056749988
 30
0.0
 11
475.0723890935
 21
171.7056749988
 31
0.0
  0
LINE
  5
AC
  8
0
  6
CONTINUOUS
 62
     7
 10
475.0723890935
 20
119.7056739259
 30
0.0
 11
474.7723896032
 21
119.7056739259
 31
0.0
  0
LINE
  5
AD
  8
0
  6
CONTINUOUS
 62
     7
 10
473.272388426
 20
119.7056739259
 30
0.0
 11
472.9723889356
 21
119.7056739259
 31
0.0
  0
LINE
  5
AE
  8
0
  6
CONTINUOUS
 62
     8
 10
465.2723889773
 20
135.7056746859
 30
0.0
 11
465.2723889773
 21
155.7056742388
 31
0.0
  0
LINE
  5
AF
  8
0
  6
CONTINUOUS
 62
     8
 10
456.2723893647
 20
135.7065957639
 30
0.0
 11
456.2723893647
 21
135.7056746859
 31
0.0
  0
LINE
  5
B0
  8
0
  6
CONTINUOUS
 62
     8
 10
456.2723893647
 20
155.7056742388
 30
0.0
 11
456.2723893647
 21
135.7065957639
 31
0.0
  0
ARC
  5
B1
  8
0
  6
CONTINUOUS
 62
     8
 10
469.2723891561
 20
121.7056744623
 30
0.0
 40
1.700000000000045
 50
180.0
 51
270.0
  0
LINE
  5
B2
  8
0
  6
CONTINUOUS
 62
     8
 10
469.272389633
 20
120.0056752789
 30
0.0
 11
469.272389633
 21
119.7056739259
 31
0.0
  0
LINE
  5
B3
  8
0
  6
CONTINUOUS
 62
     8
 10
467.2723893051
 20
121.7056742537
 30
0.0
 11
467.5723887955
 21
121.7056742537
 31
0.0
  0
LINE
  5
B4
  8
0
  6
CONTINUOUS
 62
     8
 10
472.9723889356
 20
120.0056752789
 30
0.0
 11
472.9723889356
 21
171.4056736458
 31
0.0
  0
LINE
  5
B5
  8
0
  6
CONTINUOUS
 62
     8
 10
472.9723889356
 20
171.4056736458
 30
0.0
 11
473.272388426
 21
171.4056736458
 31
0.0
  0
LINE
  5
B6
  8
0
  6
CONTINUOUS
 62
     8
 10
472.9723889356
 20
120.0056752789
 30
0.0
 11
473.272388426
 21
120.0056752789
 31
0.0
  0
LINE
  5
B7
  8
0
  6
CONTINUOUS
 62
     8
 10
472.9723889356
 20
171.7056749988
 30
0.0
 11
472.9723889356
 21
171.4056736458
 31
0.0
  0
LINE
  5
B8
  8
0
  6
CONTINUOUS
 62
     8
 10
472.9723889356
 20
171.4056736458
 30
0.0
 11
469.272389633
 21
171.4056736458
 31
0.0
  0
LINE
  5
B9
  8
0
  6
CONTINUOUS
 62
     8
 10
469.272389633
 20
171.7056749988
 30
0.0
 11
469.272389633
 21
171.4056736458
 31
0.0
  0
LINE
  5
BA
  8
0
  6
CONTINUOUS
 62
     8
 10
472.9723889356
 20
120.0056752789
 30
0.0
 11
472.9723889356
 21
119.7056739259
 31
0.0
  0
ARC
  5
BB
  8
0
  6
CONTINUOUS
 62
     8
 10
469.2723891561
 20
169.7056744623
 30
0.0
 40
1.700000000000045
 50
90.0
 51
180.0
  0
LINE
  5
BC
  8
0
  6
CONTINUOUS
 62
     8
 10
467.2723893051
 20
169.705674671
 30
0.0
 11
467.5723887955
 21
169.705674671
 31
0.0
  0
LINE
  5
BD
  8
0
  6
CONTINUOUS
 62
     8
 10
467.5723887955
 20
169.705674671
 30
0.0
 11
467.5723887955
 21
121.7056742537
 31
0.0
  0
LINE
  5
BE
  8
0
  6
CONTINUOUS
 62
     8
 10
469.272389633
 20
120.0056752789
 30
0.0
 11
472.9723889356
 21
120.0056752789
 31
0.0
  0
LINE
  5
BF
  8
0
  6
CONTINUOUS
 62
     8
 10
495.4723891312
 20
161.205674209
 30
0.0
 11
494.7723891561
 21
161.205674209
 31
0.0
  0
LINE
  5
C0
  8
0
  6
CONTINUOUS
 62
     8
 10
494.7723891561
 20
130.2056747157
 30
0.0
 11
495.4723891312
 21
130.2056747157
 31
0.0
  0
LINE
  5
C1
  8
0
  6
CONTINUOUS
 62
     8
 10
474.7723896032
 20
171.4056736458
 30
0.0
 11
473.272388426
 21
171.4056736458
 31
0.0
  0
LINE
  5
C2
  8
0
  6
CONTINUOUS
 62
     8
 10
473.272388426
 20
120.0056752789
 30
0.0
 11
474.7723896032
 21
120.0056752789
 31
0.0
  0
LINE
  5
C3
  8
0
  6
CONTINUOUS
 62
     8
 10
494.4723891419
 20
171.4056736458
 30
0.0
 11
494.7723891561
 21
171.4056736458
 31
0.0
  0
LINE
  5
C4
  8
0
  6
CONTINUOUS
 62
     8
 10
494.4723891419
 20
171.4056736458
 30
0.0
 11
494.4723891419
 21
171.7056749988
 31
0.0
  0
LINE
  5
C5
  8
0
  6
CONTINUOUS
 62
     8
 10
494.4723891419
 20
171.4056736458
 30
0.0
 11
475.0723890935
 21
171.4056736458
 31
0.0
  0
LINE
  5
C6
  8
0
  6
CONTINUOUS
 62
     8
 10
475.0723890935
 20
171.4056736458
 30
0.0
 11
475.0723890935
 21
171.7056749988
 31
0.0
  0
LINE
  5
C7
  8
0
  6
CONTINUOUS
 62
     8
 10
494.4723891419
 20
119.7056739259
 30
0.0
 11
494.4723891419
 21
120.0056752789
 31
0.0
  0
LINE
  5
C8
  8
0
  6
CONTINUOUS
 62
     8
 10
494.4723891419
 20
120.0056752789
 30
0.0
 11
494.7723891561
 21
120.0056752789
 31
0.0
  0
LINE
  5
C9
  8
0
  6
CONTINUOUS
 62
     8
 10
494.4723891419
 20
120.0056752789
 30
0.0
 11
494.4723891419
 21
171.4056736458
 31
0.0
  0
LINE
  5
CA
  8
0
  6
CONTINUOUS
 62
     8
 10
475.0723890935
 20
119.7056739259
 30
0.0
 11
475.0723890935
 21
120.0056752789
 31
0.0
  0
LINE
  5
CB
  8
0
  6
CONTINUOUS
 62
     8
 10
475.0723890935
 20
120.0056752789
 30
0.0
 11
494.4723891419
 21
120.0056752789
 31
0.0
  0
LINE
  5
CC
  8
0
  6
CONTINUOUS
 62
     8
 10
475.0723890935
 20
171.4056736458
 30
0.0
 11
475.0723890935
 21
120.0056752789
 31
0.0
  0
LINE
  5
CD
  8
0
  6
CONTINUOUS
 62
     8
 10
474.7723896032
 20
120.0056752789
 30
0.0
 11
475.0723890935
 21
120.0056752789
 31
0.0
  0
LINE
  5
CE
  8
0
  6
CONTINUOUS
 62
     8
 10
474.7723896032
 20
171.4056736458
 30
0.0
 11
475.0723890935
 21
171.4056736458
 31
0.0
  0
DIMENSION
  5
CF
  8
0
  6
CONTINUOUS
 62
     7
  2
_D
 10
506.0465484774
 20
119.7056744623
 30
0.0
 11
506.0465484774
 21
155.8705748789
 31
0.0
 70
   160
  1
(<>)
  3
SLDDIMSTYLE0
 13
494.4723891561
 23
171.7056744623
 33
0.0
 14
494.4723891561
 24
119.7056744623
 34
0.0
 50
90.0
  0
DIMENSION
  5
DC
  8
0
  6
CONTINUOUS
 62
     7
  2
_D_1
 10
467.2723891561
 20
178.6932989355
 30
0.0
 11
481.9823012895
 21
178.6932989355
 31
0.0
 70
   160
  1
(<>)
  3
SLDDIMSTYLE1
 13
494.7723891561
 23
171.4056744623
 33
0.0
 14
467.2723891561
 24
169.7056744623
 34
0.0
 50
0.0
  0
DIMENSION
  5
EB
  8
0
  6
CONTINUOUS
 62
     7
  2
_D_2
 10
24.851869677
 20
178.6988707504
 30
0.0
 11
260.7591356653
 21
178.6988707504
 31
0.0
 70
   160
  1
<>
  3
SLDDIMSTYLE2
 13
467.2723891561
 23
169.7056744623
 33
0.0
 14
24.851869677
 24
145.7056744623
 34
0.0
 50
0.0
  0
LINE
  5
F6
  8
0
  6
CENTER
 62
     7
 10
11.2612998487
 20
145.7056744623
 30
0.0
 11
517.9091509698
 21
145.7056744623
 31
0.0
  0
LINE
  5
F7
  8
0
  6
CONTINUOUS
 62
     7
 10
13.2612998487
 20
133.7056744623
 30
0.0
 11
13.2612998487
 21
145.7056744623
 31
0.0
  0
SOLID
  5
F8
  8
0
  6
CONTINUOUS
 62
     7
 10
13.2612998487
 20
145.7056744623
 30
0.0
 11
11.7612998487
 21
139.7056744623
 31
0.0
 12
14.7612998487
 22
139.7056744623
 32
0.0
 13
14.7612998487
 23
139.7056744623
 33
0.0
  0
LINE
  5
F9
  8
0
  6
CONTINUOUS
 62
     7
 10
515.9091509698
 20
133.7056744623
 30
0.0
 11
515.9091509698
 21
145.7056744623
 31
0.0
  0
SOLID
  5
FA
  8
0
  6
CONTINUOUS
 62
     7
 10
515.9091509698
 20
145.7056744623
 30
0.0
 11
514.4091509698
 21
139.7056744623
 31
0.0
 12
517.4091509698
 22
139.7056744623
 32
0.0
 13
517.4091509698
 23
139.7056744623
 33
0.0
  0
TEXT
  5
FB
  8
0
  6
CONTINUOUS
 62
     7
 10
10.8672852525
 20
126.8597159607
 30
0.0
 40
5.0
  1
A
 41
0.7
 11
10.8672852525
 21
131.8597159607
 31
0.0
 73
     3
  0
TEXT
  5
FC
  8
0
  6
CONTINUOUS
 62
     7
 10
513.6052814824
 20
127.0275579409
 30
0.0
 40
5.0
  1
A
 41
0.7
 11
513.6052814824
 21
132.0275579409
 31
0.0
 73
     3
  0
LINE
  5
FD
  8
0
  6
CENTERX2
 62
     7
 10
496.4723891561
 20
145.7056744623
 30
0.0
 11
17.7416212282
 21
145.7056744623
 31
0.0
  0
LINE
  5
FE
  8
0
  6
CONTINUOUS
 62
     7
 10
491.7329013983
 20
262.8989472682
 30
0.0
 11
494.7723891561
 21
265.9384350261
 31
0.0
  0
LINE
  5
FF
  8
0
  6
CONTINUOUS
 62
     7
 10
490.7723891561
 20
266.4285630866
 30
0.0
 11
491.7427733377
 21
267.3989472682
 31
0.0
  0
LINE
  5
100
  8
0
  6
CONTINUOUS
 62
     7
 10
482.7526452772
 20
262.8989472682
 30
0.0
 11
484.7723891561
 21
264.9186911471
 31
0.0
  0
LINE
  5
101
  8
0
  6
CONTINUOUS
 62
     7
 10
478.2625172167
 20
262.8989472682
 30
0.0
 11
482.7625172167
 21
267.3989472682
 31
0.0
  0
LINE
  5
102
  8
0
  6
CONTINUOUS
 62
     7
 10
474.7723891561
 20
263.8989472682
 30
0.0
 11
478.8609513284
 21
267.9875094404
 31
0.0
  0
LINE
  5
103
  8
0
  6
CONTINUOUS
 62
     7
 10
474.7723891561
 20
268.3890753287
 30
0.0
 11
478.7723891561
 21
272.3890753287
 31
0.0
  0
LINE
  5
104
  8
0
  6
CONTINUOUS
 62
     7
 10
474.7723891561
 20
272.8792033893
 30
0.0
 11
478.7723891561
 21
276.8792033893
 31
0.0
  0
LINE
  5
105
  8
0
  6
CONTINUOUS
 62
     7
 10
474.7723891561
 20
277.3693314498
 30
0.0
 11
478.7723891561
 21
281.3693314498
 31
0.0
  0
LINE
  5
106
  8
0
  6
CONTINUOUS
 62
     7
 10
473.6509199182
 20
280.7379902725
 30
0.0
 11
478.7723891561
 21
285.8594595103
 31
0.0
  0
LINE
  5
107
  8
0
  6
CONTINUOUS
 62
     7
 10
470.7723891561
 20
282.3495875709
 30
0.0
 11
473.3217488534
 21
284.8989472682
 31
0.0
  0
LINE
  5
108
  8
0
  6
CONTINUOUS
 62
     7
 10
474.7723891561
 20
286.3495875709
 30
0.0
 11
478.7723891561
 21
290.3495875709
 31
0.0
  0
LINE
  5
109
  8
0
  6
CONTINUOUS
 62
     7
 10
488.3217488534
 20
299.8989472682
 30
0.0
 11
493.3217488534
 21
304.8989472682
 31
0.0
  0
LINE
  5
10A
  8
0
  6
CONTINUOUS
 62
     7
 10
474.7723891561
 20
290.8397156314
 30
0.0
 11
478.7723891561
 21
294.8397156314
 31
0.0
  0
LINE
  5
10B
  8
0
  6
CONTINUOUS
 62
     7
 10
485.3020049745
 20
301.3693314498
 30
0.0
 11
488.8316207929
 21
304.8989472682
 31
0.0
  0
LINE
  5
10C
  8
0
  6
CONTINUOUS
 62
     7
 10
474.7723891561
 20
295.3298436919
 30
0.0
 11
478.7723891561
 21
299.3298436919
 31
0.0
  0
LINE
  5
10D
  8
0
  6
CONTINUOUS
 62
     7
 10
482.3414927324
 20
302.8989472682
 30
0.0
 11
484.3414927324
 21
304.8989472682
 31
0.0
  0
LINE
  5
10E
  8
0
  6
CONTINUOUS
 62
     7
 10
474.7723891561
 20
299.8199717525
 30
0.0
 11
479.8513646718
 21
304.8989472682
 31
0.0
  0
LINE
  5
10F
  8
0
  6
CONTINUOUS
 62
     7
 10
474.7723891561
 20
304.310099813
 30
0.0
 11
475.3612366113
 21
304.8989472682
 31
0.0
  0
LINE
  5
110
  8
0
  6
CONTINUOUS
 62
     7
 10
474.7723891561
 20
303.8989535465
 30
0.0
 11
473.7723957484
 21
304.8989472682
 31
0.0
  0
LINE
  5
111
  8
0
  6
CONTINUOUS
 62
     7
 10
474.7723891561
 20
299.4088247812
 30
0.0
 11
473.2723891561
 21
300.9088252521
 31
0.0
  0
LINE
  5
112
  8
0
  6
CONTINUOUS
 62
     7
 10
474.7723891561
 20
294.9186960159
 30
0.0
 11
473.2723891561
 21
296.4186964868
 31
0.0
  0
LINE
  5
113
  8
0
  6
CONTINUOUS
 62
     7
 10
474.7723891561
 20
290.4285672506
 30
0.0
 11
473.2723891561
 21
291.9285677215
 31
0.0
  0
LINE
  5
114
  8
0
  6
CONTINUOUS
 62
     7
 10
474.7723891561
 20
285.9384384853
 30
0.0
 11
473.2723891561
 21
287.4384389562
 31
0.0
  0
LINE
  5
115
  8
0
  6
CONTINUOUS
 62
     7
 10
474.7723891561
 20
304.3100997485
 30
0.0
 11
473.2723891561
 21
302.8101002194
 31
0.0
  0
LINE
  5
116
  8
0
  6
CONTINUOUS
 62
     7
 10
474.7723891561
 20
299.8199723927
 30
0.0
 11
473.2723891561
 21
298.3199728636
 31
0.0
  0
LINE
  5
117
  8
0
  6
CONTINUOUS
 62
     7
 10
474.7723891561
 20
295.3298450369
 30
0.0
 11
473.2723891561
 21
293.8298455078
 31
0.0
  0
LINE
  5
118
  8
0
  6
CONTINUOUS
 62
     7
 10
474.7723891561
 20
290.8397176812
 30
0.0
 11
473.2723891561
 21
289.339718152
 31
0.0
  0
LINE
  5
119
  8
0
  6
CONTINUOUS
 62
     7
 10
474.7723891561
 20
286.3495903254
 30
0.0
 11
473.3217456435
 21
284.8989472682
 31
0.0
  0
LINE
  5
11A
  8
0
  6
CONTINUOUS
 62
     7
 10
492.2723891561
 20
299.8693314498
 30
0.0
 11
491.2427733377
 21
300.8989472682
 31
0.0
  0
LINE
  5
11B
  8
0
  6
CONTINUOUS
 62
     7
 10
492.2723891561
 20
295.3792033893
 30
0.0
 11
488.2625172167
 21
299.3890753287
 31
0.0
  0
LINE
  5
11C
  8
0
  6
CONTINUOUS
 62
     7
 10
492.2723891561
 20
290.8890753287
 30
0.0
 11
483.7934506077
 21
299.3680138771
 31
0.0
  0
LINE
  5
11D
  8
0
  6
CONTINUOUS
 62
     7
 10
492.2723891561
 20
286.3989472682
 30
0.0
 11
486.7723891561
 21
291.8989472682
 31
0.0
  0
LINE
  5
11E
  8
0
  6
CONTINUOUS
 62
     7
 10
492.2723891561
 20
281.9088192077
 30
0.0
 11
486.7723891561
 21
287.4088192077
 31
0.0
  0
LINE
  5
11F
  8
0
  6
CONTINUOUS
 62
     7
 10
492.2723891561
 20
277.4186911471
 30
0.0
 11
486.7723891561
 21
282.9186911471
 31
0.0
  0
LINE
  5
120
  8
0
  6
CONTINUOUS
 62
     7
 10
492.2723891561
 20
272.9285630866
 30
0.0
 11
486.7723891561
 21
278.4285630866
 31
0.0
  0
LINE
  5
121
  8
0
  6
CONTINUOUS
 62
     7
 10
489.811876914
 20
270.8989472682
 30
0.0
 11
485.6708126915
 21
275.0400114907
 31
0.0
  0
LINE
  5
122
  8
0
  6
CONTINUOUS
 62
     7
 10
485.3217488534
 20
270.8989472682
 30
0.0
 11
483.7931471339
 21
272.4275489877
 31
0.0
  0
LINE
  5
123
  8
0
  6
CONTINUOUS
 62
     7
 10
492.2723891561
 20
299.3594595103
 30
0.0
 11
494.811876914
 21
301.8989472682
 31
0.0
  0
LINE
  5
124
  8
0
  6
CONTINUOUS
 62
     7
 10
492.2723891561
 20
294.8693314498
 30
0.0
 11
495.4723891561
 21
298.0693314498
 31
0.0
  0
LINE
  5
125
  8
0
  6
CONTINUOUS
 62
     7
 10
492.2723891561
 20
290.3792033893
 30
0.0
 11
495.4723891561
 21
293.5792033893
 31
0.0
  0
LINE
  5
126
  8
0
  6
CONTINUOUS
 62
     7
 10
492.2723891561
 20
285.8890753287
 30
0.0
 11
495.4723891561
 21
289.0890753287
 31
0.0
  0
LINE
  5
127
  8
0
  6
CONTINUOUS
 62
     7
 10
492.2723891561
 20
281.3989472682
 30
0.0
 11
495.4723891561
 21
284.5989472682
 31
0.0
  0
LINE
  5
128
  8
0
  6
CONTINUOUS
 62
     7
 10
492.2723891561
 20
276.9088192077
 30
0.0
 11
495.4723891561
 21
280.1088192077
 31
0.0
  0
LINE
  5
129
  8
0
  6
CONTINUOUS
 62
     7
 10
492.2723891561
 20
272.4186911471
 30
0.0
 11
495.4723891561
 21
275.6186911471
 31
0.0
  0
LINE
  5
12A
  8
0
  6
CONTINUOUS
 62
     7
 10
494.2427733377
 20
269.8989472682
 30
0.0
 11
495.4723891561
 21
271.1285630866
 31
0.0
  0
LINE
  5
12B
  8
0
  6
CONTINUOUS
 62
     7
 10
495.3020049745
 20
269.8989472682
 30
0.0
 11
492.2723891561
 21
272.9285630866
 31
0.0
  0
LINE
  5
12C
  8
0
  6
CONTINUOUS
 62
     7
 10
495.4723891561
 20
274.2186911471
 30
0.0
 11
492.2723891561
 21
277.4186911471
 31
0.0
  0
LINE
  5
12D
  8
0
  6
CONTINUOUS
 62
     7
 10
495.4723891561
 20
278.7088192077
 30
0.0
 11
492.2723891561
 21
281.9088192077
 31
0.0
  0
LINE
  5
12E
  8
0
  6
CONTINUOUS
 62
     7
 10
495.4723891561
 20
283.1989472682
 30
0.0
 11
492.2723891561
 21
286.3989472682
 31
0.0
  0
LINE
  5
12F
  8
0
  6
CONTINUOUS
 62
     7
 10
495.4723891561
 20
287.6890753287
 30
0.0
 11
492.2723891561
 21
290.8890753287
 31
0.0
  0
LINE
  5
130
  8
0
  6
CONTINUOUS
 62
     7
 10
495.4723891561
 20
292.1792033893
 30
0.0
 11
492.2723891561
 21
295.3792033893
 31
0.0
  0
LINE
  5
131
  8
0
  6
CONTINUOUS
 62
     7
 10
495.4723891561
 20
296.6693314498
 30
0.0
 11
492.2723891561
 21
299.8693314498
 31
0.0
  0
LINE
  5
132
  8
0
  6
CONTINUOUS
 62
     7
 10
495.4723891561
 20
301.1594595103
 30
0.0
 11
494.7329013983
 21
301.8989472682
 31
0.0
  0
LINE
  5
133
  8
0
  6
CONTINUOUS
 62
     7
 10
472.0063006416
 20
299.2989472682
 30
0.0
 11
473.2723891561
 21
300.5650357827
 31
0.0
  0
LINE
  5
134
  8
0
  6
CONTINUOUS
 62
     7
 10
469.7612366113
 20
299.2989472682
 30
0.0
 11
473.2723891561
 21
302.810099813
 31
0.0
  0
LINE
  5
135
  8
0
  6
CONTINUOUS
 62
     7
 10
467.8192808686
 20
299.6020555557
 30
0.0
 11
473.2723891561
 21
305.0551638433
 31
0.0
  0
LINE
  5
136
  8
0
  6
CONTINUOUS
 62
     7
 10
467.2723891561
 20
301.3002278735
 30
0.0
 11
472.8711085508
 21
306.8989472682
 31
0.0
  0
LINE
  5
137
  8
0
  6
CONTINUOUS
 62
     7
 10
467.2723891561
 20
303.5452919038
 30
0.0
 11
470.6260445205
 21
306.8989472682
 31
0.0
  0
LINE
  5
138
  8
0
  6
CONTINUOUS
 62
     7
 10
467.2723891561
 20
305.7903559341
 30
0.0
 11
468.3809804902
 21
306.8989472682
 31
0.0
  0
LINE
  5
139
  8
0
  6
CONTINUOUS
 62
     7
 10
471.0766848232
 20
284.8989472682
 30
0.0
 11
473.2723891561
 21
287.0946516011
 31
0.0
  0
LINE
  5
13A
  8
0
  6
CONTINUOUS
 62
     7
 10
468.8316207929
 20
284.8989472682
 30
0.0
 11
473.2723891561
 21
289.3397156314
 31
0.0
  0
LINE
  5
13B
  8
0
  6
CONTINUOUS
 62
     7
 10
467.2723891561
 20
285.5847796617
 30
0.0
 11
473.2723891561
 21
291.5847796617
 31
0.0
  0
LINE
  5
13C
  8
0
  6
CONTINUOUS
 62
     7
 10
467.2723891561
 20
287.8298436919
 30
0.0
 11
471.9414927324
 21
292.4989472682
 31
0.0
  0
LINE
  5
13D
  8
0
  6
CONTINUOUS
 62
     7
 10
467.2723891561
 20
290.0749077222
 30
0.0
 11
469.6964287021
 21
292.4989472682
 31
0.0
  0
LINE
  5
13E
  8
0
  6
CONTINUOUS
 62
     7
 10
461.3612366113
 20
290.8989472682
 30
0.0
 11
470.3612366113
 21
299.8989472682
 31
0.0
  0
LINE
  5
13F
  8
0
  6
CONTINUOUS
 62
     7
 10
447.8908524297
 20
290.8989472682
 30
0.0
 11
457.8908524297
 21
300.8989472682
 31
0.0
  0
LINE
  5
140
  8
0
  6
CONTINUOUS
 62
     7
 10
434.4204682481
 20
290.8989472682
 30
0.0
 11
444.4204682481
 21
300.8989472682
 31
0.0
  0
LINE
  5
141
  8
0
  6
CONTINUOUS
 62
     7
 10
420.9500840665
 20
290.8989472682
 30
0.0
 11
430.9500840665
 21
300.8989472682
 31
0.0
  0
LINE
  5
142
  8
0
  6
CONTINUOUS
 62
     7
 10
407.4796998849
 20
290.8989472682
 30
0.0
 11
417.4796998849
 21
300.8989472682
 31
0.0
  0
LINE
  5
143
  8
0
  6
CONTINUOUS
 62
     7
 10
394.0093157033
 20
290.8989472682
 30
0.0
 11
404.0093157033
 21
300.8989472682
 31
0.0
  0
LINE
  5
144
  8
0
  6
CONTINUOUS
 62
     7
 10
380.5389315217
 20
290.8989472682
 30
0.0
 11
390.5389315217
 21
300.8989472682
 31
0.0
  0
LINE
  5
145
  8
0
  6
CONTINUOUS
 62
     7
 10
367.0685473401
 20
290.8989472682
 30
0.0
 11
377.0685473401
 21
300.8989472682
 31
0.0
  0
LINE
  5
146
  8
0
  6
CONTINUOUS
 62
     7
 10
353.5981631585
 20
290.8989472682
 30
0.0
 11
363.5981631585
 21
300.8989472682
 31
0.0
  0
LINE
  5
147
  8
0
  6
CONTINUOUS
 62
     7
 10
340.1277789769
 20
290.8989472682
 30
0.0
 11
350.1277789769
 21
300.8989472682
 31
0.0
  0
LINE
  5
148
  8
0
  6
CONTINUOUS
 62
     7
 10
326.6573947953
 20
290.8989472682
 30
0.0
 11
336.6573947953
 21
300.8989472682
 31
0.0
  0
LINE
  5
149
  8
0
  6
CONTINUOUS
 62
     7
 10
313.1870106137
 20
290.8989472682
 30
0.0
 11
323.1870106137
 21
300.8989472682
 31
0.0
  0
LINE
  5
14A
  8
0
  6
CONTINUOUS
 62
     7
 10
299.7166264321
 20
290.8989472682
 30
0.0
 11
309.7166264321
 21
300.8989472682
 31
0.0
  0
LINE
  5
14B
  8
0
  6
CONTINUOUS
 62
     7
 10
286.2462422505
 20
290.8989472682
 30
0.0
 11
296.2462422505
 21
300.8989472682
 31
0.0
  0
LINE
  5
14C
  8
0
  6
CONTINUOUS
 62
     7
 10
272.7758580689
 20
290.8989472682
 30
0.0
 11
282.7758580689
 21
300.8989472682
 31
0.0
  0
LINE
  5
14D
  8
0
  6
CONTINUOUS
 62
     7
 10
259.3054738873
 20
290.8989472682
 30
0.0
 11
269.3054738873
 21
300.8989472682
 31
0.0
  0
LINE
  5
14E
  8
0
  6
CONTINUOUS
 62
     7
 10
245.8350897056
 20
290.8989472682
 30
0.0
 11
255.8350897056
 21
300.8989472682
 31
0.0
  0
LINE
  5
14F
  8
0
  6
CONTINUOUS
 62
     7
 10
232.364705524
 20
290.8989472682
 30
0.0
 11
242.364705524
 21
300.8989472682
 31
0.0
  0
LINE
  5
150
  8
0
  6
CONTINUOUS
 62
     7
 10
218.8943213424
 20
290.8989472682
 30
0.0
 11
228.8943213424
 21
300.8989472682
 31
0.0
  0
LINE
  5
151
  8
0
  6
CONTINUOUS
 62
     7
 10
205.4239371608
 20
290.8989472682
 30
0.0
 11
215.4239371608
 21
300.8989472682
 31
0.0
  0
LINE
  5
152
  8
0
  6
CONTINUOUS
 62
     7
 10
191.9535529792
 20
290.8989472682
 30
0.0
 11
201.9535529792
 21
300.8989472682
 31
0.0
  0
LINE
  5
153
  8
0
  6
CONTINUOUS
 62
     7
 10
178.4831687976
 20
290.8989472682
 30
0.0
 11
188.4831687976
 21
300.8989472682
 31
0.0
  0
LINE
  5
154
  8
0
  6
CONTINUOUS
 62
     7
 10
165.012784616
 20
290.8989472682
 30
0.0
 11
175.012784616
 21
300.8989472682
 31
0.0
  0
LINE
  5
155
  8
0
  6
CONTINUOUS
 62
     7
 10
151.5424004344
 20
290.8989472682
 30
0.0
 11
161.5424004344
 21
300.8989472682
 31
0.0
  0
LINE
  5
156
  8
0
  6
CONTINUOUS
 62
     7
 10
138.0720162528
 20
290.8989472682
 30
0.0
 11
148.0720162528
 21
300.8989472682
 31
0.0
  0
LINE
  5
157
  8
0
  6
CONTINUOUS
 62
     7
 10
124.6016320712
 20
290.8989472682
 30
0.0
 11
134.6016320712
 21
300.8989472682
 31
0.0
  0
LINE
  5
158
  8
0
  6
CONTINUOUS
 62
     7
 10
111.1312478896
 20
290.8989472682
 30
0.0
 11
121.1312478896
 21
300.8989472682
 31
0.0
  0
LINE
  5
159
  8
0
  6
CONTINUOUS
 62
     7
 10
97.660863708
 20
290.8989472682
 30
0.0
 11
107.660863708
 21
300.8989472682
 31
0.0
  0
LINE
  5
15A
  8
0
  6
CONTINUOUS
 62
     7
 10
84.1904795264
 20
290.8989472682
 30
0.0
 11
86.6904795264
 21
293.3989472682
 31
0.0
  0
LINE
  5
15B
  8
0
  6
CONTINUOUS
 62
     7
 10
89.2429895178
 20
295.9514572596
 30
0.0
 11
94.1904795264
 21
300.8989472682
 31
0.0
  0
LINE
  5
15C
  8
0
  6
CONTINUOUS
 62
     7
 10
70.7200953448
 20
290.8989472682
 30
0.0
 11
72.7200953448
 21
292.8989472682
 31
0.0
  0
LINE
  5
15D
  8
0
  6
CONTINUOUS
 62
     7
 10
78.2200953448
 20
298.3989472682
 30
0.0
 11
80.7200953448
 21
300.8989472682
 31
0.0
  0
LINE
  5
15E
  8
0
  6
CONTINUOUS
 62
     7
 10
466.3513646643
 20
291.3989472682
 30
0.0
 11
467.2723891561
 21
292.31997176
 31
0.0
  0
LINE
  5
15F
  8
0
  6
CONTINUOUS
 62
     7
 10
467.6500625743
 20
292.6976451782
 30
0.0
 11
473.2723891561
 21
298.31997176
 31
0.0
  0
LINE
  5
160
  8
0
  6
CONTINUOUS
 62
     7
 10
452.3809804827
 20
290.8989472682
 30
0.0
 11
462.2723891561
 21
300.7903559416
 31
0.0
  0
LINE
  5
161
  8
0
  6
CONTINUOUS
 62
     7
 10
438.9105963011
 20
290.8989472682
 30
0.0
 11
448.9105963011
 21
300.8989472682
 31
0.0
  0
LINE
  5
162
  8
0
  6
CONTINUOUS
 62
     7
 10
425.4402121195
 20
290.8989472682
 30
0.0
 11
435.4402121195
 21
300.8989472682
 31
0.0
  0
LINE
  5
163
  8
0
  6
CONTINUOUS
 62
     7
 10
411.9698279379
 20
290.8989472682
 30
0.0
 11
421.9698279379
 21
300.8989472682
 31
0.0
  0
LINE
  5
164
  8
0
  6
CONTINUOUS
 62
     7
 10
398.4994437563
 20
290.8989472682
 30
0.0
 11
408.4994437563
 21
300.8989472682
 31
0.0
  0
LINE
  5
165
  8
0
  6
CONTINUOUS
 62
     7
 10
385.0290595747
 20
290.8989472682
 30
0.0
 11
395.0290595747
 21
300.8989472682
 31
0.0
  0
LINE
  5
166
  8
0
  6
CONTINUOUS
 62
     7
 10
371.5586753931
 20
290.8989472682
 30
0.0
 11
381.5586753931
 21
300.8989472682
 31
0.0
  0
LINE
  5
167
  8
0
  6
CONTINUOUS
 62
     7
 10
358.0882912115
 20
290.8989472682
 30
0.0
 11
368.0882912115
 21
300.8989472682
 31
0.0
  0
LINE
  5
168
  8
0
  6
CONTINUOUS
 62
     7
 10
344.6179070299
 20
290.8989472682
 30
0.0
 11
354.6179070299
 21
300.8989472682
 31
0.0
  0
LINE
  5
169
  8
0
  6
CONTINUOUS
 62
     7
 10
331.1475228483
 20
290.8989472682
 30
0.0
 11
341.1475228483
 21
300.8989472682
 31
0.0
  0
LINE
  5
16A
  8
0
  6
CONTINUOUS
 62
     7
 10
317.6771386667
 20
290.8989472682
 30
0.0
 11
327.6771386667
 21
300.8989472682
 31
0.0
  0
LINE
  5
16B
  8
0
  6
CONTINUOUS
 62
     7
 10
304.2067544851
 20
290.8989472682
 30
0.0
 11
314.2067544851
 21
300.8989472682
 31
0.0
  0
LINE
  5
16C
  8
0
  6
CONTINUOUS
 62
     7
 10
290.7363703035
 20
290.8989472682
 30
0.0
 11
300.7363703035
 21
300.8989472682
 31
0.0
  0
LINE
  5
16D
  8
0
  6
CONTINUOUS
 62
     7
 10
277.2659861219
 20
290.8989472682
 30
0.0
 11
287.2659861219
 21
300.8989472682
 31
0.0
  0
LINE
  5
16E
  8
0
  6
CONTINUOUS
 62
     7
 10
263.7956019403
 20
290.8989472682
 30
0.0
 11
273.7956019403
 21
300.8989472682
 31
0.0
  0
LINE
  5
16F
  8
0
  6
CONTINUOUS
 62
     7
 10
250.3252177586
 20
290.8989472682
 30
0.0
 11
260.3252177586
 21
300.8989472682
 31
0.0
  0
LINE
  5
170
  8
0
  6
CONTINUOUS
 62
     7
 10
236.854833577
 20
290.8989472682
 30
0.0
 11
246.854833577
 21
300.8989472682
 31
0.0
  0
LINE
  5
171
  8
0
  6
CONTINUOUS
 62
     7
 10
223.3844493954
 20
290.8989472682
 30
0.0
 11
233.3844493954
 21
300.8989472682
 31
0.0
  0
LINE
  5
172
  8
0
  6
CONTINUOUS
 62
     7
 10
209.9140652138
 20
290.8989472682
 30
0.0
 11
219.9140652138
 21
300.8989472682
 31
0.0
  0
LINE
  5
173
  8
0
  6
CONTINUOUS
 62
     7
 10
196.4436810322
 20
290.8989472682
 30
0.0
 11
206.4436810322
 21
300.8989472682
 31
0.0
  0
LINE
  5
174
  8
0
  6
CONTINUOUS
 62
     7
 10
182.9732968506
 20
290.8989472682
 30
0.0
 11
192.9732968506
 21
300.8989472682
 31
0.0
  0
LINE
  5
175
  8
0
  6
CONTINUOUS
 62
     7
 10
169.502912669
 20
290.8989472682
 30
0.0
 11
179.502912669
 21
300.8989472682
 31
0.0
  0
LINE
  5
176
  8
0
  6
CONTINUOUS
 62
     7
 10
156.0325284874
 20
290.8989472682
 30
0.0
 11
166.0325284874
 21
300.8989472682
 31
0.0
  0
LINE
  5
177
  8
0
  6
CONTINUOUS
 62
     7
 10
142.5621443058
 20
290.8989472682
 30
0.0
 11
152.5621443058
 21
300.8989472682
 31
0.0
  0
LINE
  5
178
  8
0
  6
CONTINUOUS
 62
     7
 10
129.0917601242
 20
290.8989472682
 30
0.0
 11
139.0917601242
 21
300.8989472682
 31
0.0
  0
LINE
  5
179
  8
0
  6
CONTINUOUS
 62
     7
 10
115.6213759426
 20
290.8989472682
 30
0.0
 11
125.6213759426
 21
300.8989472682
 31
0.0
  0
LINE
  5
17A
  8
0
  6
CONTINUOUS
 62
     7
 10
102.150991761
 20
290.8989472682
 30
0.0
 11
112.150991761
 21
300.8989472682
 31
0.0
  0
LINE
  5
17B
  8
0
  6
CONTINUOUS
 62
     7
 10
88.6806075794
 20
290.8989472682
 30
0.0
 11
98.6806075794
 21
300.8989472682
 31
0.0
  0
LINE
  5
17C
  8
0
  6
CONTINUOUS
 62
     7
 10
75.2102233978
 20
290.8989472682
 30
0.0
 11
77.7102233978
 21
293.3989472682
 31
0.0
  0
LINE
  5
17D
  8
0
  6
CONTINUOUS
 62
     7
 10
82.7102233978
 20
298.3989472682
 30
0.0
 11
85.2102233978
 21
300.8989472682
 31
0.0
  0
LINE
  5
17E
  8
0
  6
CONTINUOUS
 62
     7
 10
69.7398392162
 20
298.8989472682
 30
0.0
 11
71.7398392162
 21
300.8989472682
 31
0.0
  0
LINE
  5
17F
  8
0
  6
CONTINUOUS
 62
     7
 10
84.860863708
 20
289.6989472682
 30
0.0
 11
83.760863708
 21
290.7989472682
 31
0.0
  0
LINE
  5
180
  8
0
  6
CONTINUOUS
 62
     7
 10
57.9200953448
 20
289.6989472682
 30
0.0
 11
56.7723891561
 21
290.8466534569
 31
0.0
  0
LINE
  5
181
  8
0
  6
CONTINUOUS
 62
     7
 10
89.350991761
 20
289.6989472682
 30
0.0
 11
88.250991761
 21
290.7989472682
 31
0.0
  0
LINE
  5
182
  8
0
  6
CONTINUOUS
 62
     7
 10
62.4102233978
 20
289.6989472682
 30
0.0
 11
59.3102233978
 21
292.7989472682
 31
0.0
  0
LINE
  5
183
  8
0
  6
CONTINUOUS
 62
     7
 10
93.8411198394
 20
289.6989472682
 30
0.0
 11
92.7411198394
 21
290.7989472682
 31
0.0
  0
LINE
  5
184
  8
0
  6
CONTINUOUS
 62
     7
 10
66.9003514762
 20
289.6989472682
 30
0.0
 11
63.8003514762
 21
292.7989472682
 31
0.0
  0
LINE
  5
185
  8
0
  6
CONTINUOUS
 62
     7
 10
71.3904795292
 20
289.6989472682
 30
0.0
 11
70.2904795292
 21
290.7989472682
 31
0.0
  0
LINE
  5
186
  8
0
  6
CONTINUOUS
 62
     7
 10
73.560863708
 20
300.9989472682
 30
0.0
 11
72.460863708
 21
302.0989472682
 31
0.0
  0
LINE
  5
187
  8
0
  6
CONTINUOUS
 62
     7
 10
78.050991761
 20
300.9989472682
 30
0.0
 11
76.950991761
 21
302.0989472682
 31
0.0
  0
LINE
  5
188
  8
0
  6
CONTINUOUS
 62
     7
 10
82.5411198394
 20
300.9989472682
 30
0.0
 11
81.4411198394
 21
302.0989472682
 31
0.0
  0
LINE
  5
189
  8
0
  6
CONTINUOUS
 62
     7
 10
57.6003514762
 20
298.9989472682
 30
0.0
 11
56.7723891561
 21
299.8269095883
 31
0.0
  0
LINE
  5
18A
  8
0
  6
CONTINUOUS
 62
     7
 10
87.0312478924
 20
300.9989472682
 30
0.0
 11
85.9312478924
 21
302.0989472682
 31
0.0
  0
LINE
  5
18B
  8
0
  6
CONTINUOUS
 62
     7
 10
62.0904795292
 20
298.9989472682
 30
0.0
 11
58.9904795292
 21
302.0989472682
 31
0.0
  0
LINE
  5
18C
  8
0
  6
CONTINUOUS
 62
     7
 10
32.2990708605
 20
288.3989472682
 30
0.0
 11
33.2990708605
 21
289.3989472682
 31
0.0
  0
LINE
  5
18D
  8
0
  6
CONTINUOUS
 62
     7
 10
41.2793269816
 20
288.3989472682
 30
0.0
 11
42.2793269816
 21
289.3989472682
 31
0.0
  0
LINE
  5
18E
  8
0
  6
CONTINUOUS
 62
     7
 10
50.2595831027
 20
288.3989472682
 30
0.0
 11
51.2595831027
 21
289.3989472682
 31
0.0
  0
LINE
  5
18F
  8
0
  6
CONTINUOUS
 62
     7
 10
59.2398392237
 20
288.3989472682
 30
0.0
 11
60.2398392237
 21
289.3989472682
 31
0.0
  0
LINE
  5
190
  8
0
  6
CONTINUOUS
 62
     7
 10
68.2200953448
 20
288.3989472682
 30
0.0
 11
69.2200953448
 21
289.3989472682
 31
0.0
  0
LINE
  5
191
  8
0
  6
CONTINUOUS
 62
     7
 10
77.2003514659
 20
288.3989472682
 30
0.0
 11
78.2003514659
 21
289.3989472682
 31
0.0
  0
LINE
  5
192
  8
0
  6
CONTINUOUS
 62
     7
 10
86.1806075869
 20
288.3989472682
 30
0.0
 11
87.1806075869
 21
289.3989472682
 31
0.0
  0
LINE
  5
193
  8
0
  6
CONTINUOUS
 62
     7
 10
95.160863708
 20
288.3989472682
 30
0.0
 11
96.160863708
 21
289.3989472682
 31
0.0
  0
LINE
  5
194
  8
0
  6
CONTINUOUS
 62
     7
 10
104.1411198291
 20
288.3989472682
 30
0.0
 11
105.1411198291
 21
289.3989472682
 31
0.0
  0
LINE
  5
195
  8
0
  6
CONTINUOUS
 62
     7
 10
113.1213759501
 20
288.3989472682
 30
0.0
 11
114.1213759501
 21
289.3989472682
 31
0.0
  0
LINE
  5
196
  8
0
  6
CONTINUOUS
 62
     7
 10
122.1016320712
 20
288.3989472682
 30
0.0
 11
123.1016320712
 21
289.3989472682
 31
0.0
  0
LINE
  5
197
  8
0
  6
CONTINUOUS
 62
     7
 10
131.0818881923
 20
288.3989472682
 30
0.0
 11
132.0818881923
 21
289.3989472682
 31
0.0
  0
LINE
  5
198
  8
0
  6
CONTINUOUS
 62
     7
 10
140.0621443134
 20
288.3989472682
 30
0.0
 11
141.0621443134
 21
289.3989472682
 31
0.0
  0
LINE
  5
199
  8
0
  6
CONTINUOUS
 62
     7
 10
149.0424004344
 20
288.3989472682
 30
0.0
 11
150.0424004344
 21
289.3989472682
 31
0.0
  0
LINE
  5
19A
  8
0
  6
CONTINUOUS
 62
     7
 10
158.0226565555
 20
288.3989472682
 30
0.0
 11
159.0226565555
 21
289.3989472682
 31
0.0
  0
LINE
  5
19B
  8
0
  6
CONTINUOUS
 62
     7
 10
167.0029126766
 20
288.3989472682
 30
0.0
 11
168.0029126766
 21
289.3989472682
 31
0.0
  0
LINE
  5
19C
  8
0
  6
CONTINUOUS
 62
     7
 10
175.9831687976
 20
288.3989472682
 30
0.0
 11
176.9831687976
 21
289.3989472682
 31
0.0
  0
LINE
  5
19D
  8
0
  6
CONTINUOUS
 62
     7
 10
184.9634249187
 20
288.3989472682
 30
0.0
 11
185.9634249187
 21
289.3989472682
 31
0.0
  0
LINE
  5
19E
  8
0
  6
CONTINUOUS
 62
     7
 10
193.9436810398
 20
288.3989472682
 30
0.0
 11
194.9436810398
 21
289.3989472682
 31
0.0
  0
LINE
  5
19F
  8
0
  6
CONTINUOUS
 62
     7
 10
202.9239371608
 20
288.3989472682
 30
0.0
 11
203.9239371608
 21
289.3989472682
 31
0.0
  0
LINE
  5
1A0
  8
0
  6
CONTINUOUS
 62
     7
 10
211.9041932819
 20
288.3989472682
 30
0.0
 11
212.9041932819
 21
289.3989472682
 31
0.0
  0
LINE
  5
1A1
  8
0
  6
CONTINUOUS
 62
     7
 10
220.884449403
 20
288.3989472682
 30
0.0
 11
221.884449403
 21
289.3989472682
 31
0.0
  0
LINE
  5
1A2
  8
0
  6
CONTINUOUS
 62
     7
 10
229.864705524
 20
288.3989472682
 30
0.0
 11
230.864705524
 21
289.3989472682
 31
0.0
  0
LINE
  5
1A3
  8
0
  6
CONTINUOUS
 62
     7
 10
238.8449616451
 20
288.3989472682
 30
0.0
 11
239.8449616451
 21
289.3989472682
 31
0.0
  0
LINE
  5
1A4
  8
0
  6
CONTINUOUS
 62
     7
 10
247.8252177662
 20
288.3989472682
 30
0.0
 11
248.8252177662
 21
289.3989472682
 31
0.0
  0
LINE
  5
1A5
  8
0
  6
CONTINUOUS
 62
     7
 10
256.8054738873
 20
288.3989472682
 30
0.0
 11
257.8054738873
 21
289.3989472682
 31
0.0
  0
LINE
  5
1A6
  8
0
  6
CONTINUOUS
 62
     7
 10
265.7857300083
 20
288.3989472682
 30
0.0
 11
266.7857300083
 21
289.3989472682
 31
0.0
  0
LINE
  5
1A7
  8
0
  6
CONTINUOUS
 62
     7
 10
274.7659861294
 20
288.3989472682
 30
0.0
 11
275.7659861294
 21
289.3989472682
 31
0.0
  0
LINE
  5
1A8
  8
0
  6
CONTINUOUS
 62
     7
 10
283.7462422505
 20
288.3989472682
 30
0.0
 11
284.7462422505
 21
289.3989472682
 31
0.0
  0
LINE
  5
1A9
  8
0
  6
CONTINUOUS
 62
     7
 10
292.7264983715
 20
288.3989472682
 30
0.0
 11
293.7264983715
 21
289.3989472682
 31
0.0
  0
LINE
  5
1AA
  8
0
  6
CONTINUOUS
 62
     7
 10
301.7067544926
 20
288.3989472682
 30
0.0
 11
302.7067544926
 21
289.3989472682
 31
0.0
  0
LINE
  5
1AB
  8
0
  6
CONTINUOUS
 62
     7
 10
310.6870106137
 20
288.3989472682
 30
0.0
 11
311.6870106137
 21
289.3989472682
 31
0.0
  0
LINE
  5
1AC
  8
0
  6
CONTINUOUS
 62
     7
 10
319.6672667347
 20
288.3989472682
 30
0.0
 11
320.6672667347
 21
289.3989472682
 31
0.0
  0
LINE
  5
1AD
  8
0
  6
CONTINUOUS
 62
     7
 10
328.6475228558
 20
288.3989472682
 30
0.0
 11
329.6475228558
 21
289.3989472682
 31
0.0
  0
LINE
  5
1AE
  8
0
  6
CONTINUOUS
 62
     7
 10
337.6277789769
 20
288.3989472682
 30
0.0
 11
338.6277789769
 21
289.3989472682
 31
0.0
  0
LINE
  5
1AF
  8
0
  6
CONTINUOUS
 62
     7
 10
346.6080350979
 20
288.3989472682
 30
0.0
 11
347.6080350979
 21
289.3989472682
 31
0.0
  0
LINE
  5
1B0
  8
0
  6
CONTINUOUS
 62
     7
 10
355.588291219
 20
288.3989472682
 30
0.0
 11
356.588291219
 21
289.3989472682
 31
0.0
  0
LINE
  5
1B1
  8
0
  6
CONTINUOUS
 62
     7
 10
364.5685473401
 20
288.3989472682
 30
0.0
 11
365.5685473401
 21
289.3989472682
 31
0.0
  0
LINE
  5
1B2
  8
0
  6
CONTINUOUS
 62
     7
 10
373.5488034611
 20
288.3989472682
 30
0.0
 11
374.5488034611
 21
289.3989472682
 31
0.0
  0
LINE
  5
1B3
  8
0
  6
CONTINUOUS
 62
     7
 10
382.5290595822
 20
288.3989472682
 30
0.0
 11
383.5290595822
 21
289.3989472682
 31
0.0
  0
LINE
  5
1B4
  8
0
  6
CONTINUOUS
 62
     7
 10
391.5093157033
 20
288.3989472682
 30
0.0
 11
392.5093157033
 21
289.3989472682
 31
0.0
  0
LINE
  5
1B5
  8
0
  6
CONTINUOUS
 62
     7
 10
400.4895718244
 20
288.3989472682
 30
0.0
 11
401.4895718244
 21
289.3989472682
 31
0.0
  0
LINE
  5
1B6
  8
0
  6
CONTINUOUS
 62
     7
 10
409.4698279454
 20
288.3989472682
 30
0.0
 11
410.4698279454
 21
289.3989472682
 31
0.0
  0
LINE
  5
1B7
  8
0
  6
CONTINUOUS
 62
     7
 10
418.4500840665
 20
288.3989472682
 30
0.0
 11
419.4500840665
 21
289.3989472682
 31
0.0
  0
LINE
  5
1B8
  8
0
  6
CONTINUOUS
 62
     7
 10
427.4303401876
 20
288.3989472682
 30
0.0
 11
428.4303401876
 21
289.3989472682
 31
0.0
  0
LINE
  5
1B9
  8
0
  6
CONTINUOUS
 62
     7
 10
436.4105963086
 20
288.3989472682
 30
0.0
 11
437.4105963086
 21
289.3989472682
 31
0.0
  0
LINE
  5
1BA
  8
0
  6
CONTINUOUS
 62
     7
 10
445.3908524297
 20
288.3989472682
 30
0.0
 11
446.3908524297
 21
289.3989472682
 31
0.0
  0
LINE
  5
1BB
  8
0
  6
CONTINUOUS
 62
     7
 10
454.3711085508
 20
288.3989472682
 30
0.0
 11
455.3711085508
 21
289.3989472682
 31
0.0
  0
LINE
  5
1BC
  8
0
  6
CONTINUOUS
 62
     7
 10
36.7891989135
 20
288.3989472682
 30
0.0
 11
37.7891989135
 21
289.3989472682
 31
0.0
  0
LINE
  5
1BD
  8
0
  6
CONTINUOUS
 62
     7
 10
45.7694550346
 20
288.3989472682
 30
0.0
 11
46.7694550346
 21
289.3989472682
 31
0.0
  0
LINE
  5
1BE
  8
0
  6
CONTINUOUS
 62
     7
 10
63.7299672767
 20
288.3989472682
 30
0.0
 11
64.7299672767
 21
289.3989472682
 31
0.0
  0
LINE
  5
1BF
  8
0
  6
CONTINUOUS
 62
     7
 10
72.7102233978
 20
288.3989472682
 30
0.0
 11
73.7102233978
 21
289.3989472682
 31
0.0
  0
LINE
  5
1C0
  8
0
  6
CONTINUOUS
 62
     7
 10
90.6707356399
 20
288.3989472682
 30
0.0
 11
91.6707356399
 21
289.3989472682
 31
0.0
  0
LINE
  5
1C1
  8
0
  6
CONTINUOUS
 62
     7
 10
99.650991761
 20
288.3989472682
 30
0.0
 11
100.650991761
 21
289.3989472682
 31
0.0
  0
LINE
  5
1C2
  8
0
  6
CONTINUOUS
 62
     7
 10
117.6115040031
 20
288.3989472682
 30
0.0
 11
118.6115040031
 21
289.3989472682
 31
0.0
  0
LINE
  5
1C3
  8
0
  6
CONTINUOUS
 62
     7
 10
126.5917601242
 20
288.3989472682
 30
0.0
 11
127.5917601242
 21
289.3989472682
 31
0.0
  0
LINE
  5
1C4
  8
0
  6
CONTINUOUS
 62
     7
 10
144.5522723664
 20
288.3989472682
 30
0.0
 11
145.5522723664
 21
289.3989472682
 31
0.0
  0
LINE
  5
1C5
  8
0
  6
CONTINUOUS
 62
     7
 10
153.5325284874
 20
288.3989472682
 30
0.0
 11
154.5325284874
 21
289.3989472682
 31
0.0
  0
LINE
  5
1C6
  8
0
  6
CONTINUOUS
 62
     7
 10
171.4930407296
 20
288.3989472682
 30
0.0
 11
172.4930407296
 21
289.3989472682
 31
0.0
  0
LINE
  5
1C7
  8
0
  6
CONTINUOUS
 62
     7
 10
180.4732968506
 20
288.3989472682
 30
0.0
 11
181.4732968506
 21
289.3989472682
 31
0.0
  0
LINE
  5
1C8
  8
0
  6
CONTINUOUS
 62
     7
 10
198.4338090928
 20
288.3989472682
 30
0.0
 11
199.4338090928
 21
289.3989472682
 31
0.0
  0
LINE
  5
1C9
  8
0
  6
CONTINUOUS
 62
     7
 10
207.4140652138
 20
288.3989472682
 30
0.0
 11
208.4140652138
 21
289.3989472682
 31
0.0
  0
LINE
  5
1CA
  8
0
  6
CONTINUOUS
 62
     7
 10
225.374577456
 20
288.3989472682
 30
0.0
 11
226.374577456
 21
289.3989472682
 31
0.0
  0
LINE
  5
1CB
  8
0
  6
CONTINUOUS
 62
     7
 10
234.354833577
 20
288.3989472682
 30
0.0
 11
235.354833577
 21
289.3989472682
 31
0.0
  0
LINE
  5
1CC
  8
0
  6
CONTINUOUS
 62
     7
 10
252.3153458192
 20
288.3989472682
 30
0.0
 11
253.3153458192
 21
289.3989472682
 31
0.0
  0
LINE
  5
1CD
  8
0
  6
CONTINUOUS
 62
     7
 10
261.2956019403
 20
288.3989472682
 30
0.0
 11
262.2956019403
 21
289.3989472682
 31
0.0
  0
LINE
  5
1CE
  8
0
  6
CONTINUOUS
 62
     7
 10
279.2561141824
 20
288.3989472682
 30
0.0
 11
280.2561141824
 21
289.3989472682
 31
0.0
  0
LINE
  5
1CF
  8
0
  6
CONTINUOUS
 62
     7
 10
288.2363703035
 20
288.3989472682
 30
0.0
 11
289.2363703035
 21
289.3989472682
 31
0.0
  0
LINE
  5
1D0
  8
0
  6
CONTINUOUS
 62
     7
 10
306.1968825456
 20
288.3989472682
 30
0.0
 11
307.1968825456
 21
289.3989472682
 31
0.0
  0
LINE
  5
1D1
  8
0
  6
CONTINUOUS
 62
     7
 10
315.1771386667
 20
288.3989472682
 30
0.0
 11
316.1771386667
 21
289.3989472682
 31
0.0
  0
LINE
  5
1D2
  8
0
  6
CONTINUOUS
 62
     7
 10
333.1376509088
 20
288.3989472682
 30
0.0
 11
334.1376509088
 21
289.3989472682
 31
0.0
  0
LINE
  5
1D3
  8
0
  6
CONTINUOUS
 62
     7
 10
342.1179070299
 20
288.3989472682
 30
0.0
 11
343.1179070299
 21
289.3989472682
 31
0.0
  0
LINE
  5
1D4
  8
0
  6
CONTINUOUS
 62
     7
 10
360.078419272
 20
288.3989472682
 30
0.0
 11
361.078419272
 21
289.3989472682
 31
0.0
  0
LINE
  5
1D5
  8
0
  6
CONTINUOUS
 62
     7
 10
369.0586753931
 20
288.3989472682
 30
0.0
 11
370.0586753931
 21
289.3989472682
 31
0.0
  0
LINE
  5
1D6
  8
0
  6
CONTINUOUS
 62
     7
 10
387.0191876352
 20
288.3989472682
 30
0.0
 11
388.0191876352
 21
289.3989472682
 31
0.0
  0
LINE
  5
1D7
  8
0
  6
CONTINUOUS
 62
     7
 10
395.9994437563
 20
288.3989472682
 30
0.0
 11
396.9994437563
 21
289.3989472682
 31
0.0
  0
LINE
  5
1D8
  8
0
  6
CONTINUOUS
 62
     7
 10
413.9599559984
 20
288.3989472682
 30
0.0
 11
414.9599559984
 21
289.3989472682
 31
0.0
  0
LINE
  5
1D9
  8
0
  6
CONTINUOUS
 62
     7
 10
422.9402121195
 20
288.3989472682
 30
0.0
 11
423.9402121195
 21
289.3989472682
 31
0.0
  0
LINE
  5
1DA
  8
0
  6
CONTINUOUS
 62
     7
 10
440.9007243616
 20
288.3989472682
 30
0.0
 11
441.9007243616
 21
289.3989472682
 31
0.0
  0
LINE
  5
1DB
  8
0
  6
CONTINUOUS
 62
     7
 10
449.8809804827
 20
288.3989472682
 30
0.0
 11
450.8809804827
 21
289.3989472682
 31
0.0
  0
LINE
  5
1DC
  8
0
  6
CONTINUOUS
 62
     7
 10
28.3385586184
 20
302.3989472682
 30
0.0
 11
29.3385586184
 21
303.3989472682
 31
0.0
  0
LINE
  5
1DD
  8
0
  6
CONTINUOUS
 62
     7
 10
37.3188147395
 20
302.3989472682
 30
0.0
 11
38.3188147395
 21
303.3989472682
 31
0.0
  0
LINE
  5
1DE
  8
0
  6
CONTINUOUS
 62
     7
 10
46.2990708605
 20
302.3989472682
 30
0.0
 11
47.2990708605
 21
303.3989472682
 31
0.0
  0
LINE
  5
1DF
  8
0
  6
CONTINUOUS
 62
     7
 10
55.2793269816
 20
302.3989472682
 30
0.0
 11
56.2793269816
 21
303.3989472682
 31
0.0
  0
LINE
  5
1E0
  8
0
  6
CONTINUOUS
 62
     7
 10
64.2595831027
 20
302.3989472682
 30
0.0
 11
65.2595831027
 21
303.3989472682
 31
0.0
  0
LINE
  5
1E1
  8
0
  6
CONTINUOUS
 62
     7
 10
73.2398392237
 20
302.3989472682
 30
0.0
 11
74.2398392237
 21
303.3989472682
 31
0.0
  0
LINE
  5
1E2
  8
0
  6
CONTINUOUS
 62
     7
 10
82.2200953448
 20
302.3989472682
 30
0.0
 11
83.2200953448
 21
303.3989472682
 31
0.0
  0
LINE
  5
1E3
  8
0
  6
CONTINUOUS
 62
     7
 10
91.2003514659
 20
302.3989472682
 30
0.0
 11
92.2003514659
 21
303.3989472682
 31
0.0
  0
LINE
  5
1E4
  8
0
  6
CONTINUOUS
 62
     7
 10
100.1806075869
 20
302.3989472682
 30
0.0
 11
101.1806075869
 21
303.3989472682
 31
0.0
  0
LINE
  5
1E5
  8
0
  6
CONTINUOUS
 62
     7
 10
109.160863708
 20
302.3989472682
 30
0.0
 11
110.160863708
 21
303.3989472682
 31
0.0
  0
LINE
  5
1E6
  8
0
  6
CONTINUOUS
 62
     7
 10
118.1411198291
 20
302.3989472682
 30
0.0
 11
119.1411198291
 21
303.3989472682
 31
0.0
  0
LINE
  5
1E7
  8
0
  6
CONTINUOUS
 62
     7
 10
127.1213759501
 20
302.3989472682
 30
0.0
 11
128.1213759501
 21
303.3989472682
 31
0.0
  0
LINE
  5
1E8
  8
0
  6
CONTINUOUS
 62
     7
 10
136.1016320712
 20
302.3989472682
 30
0.0
 11
137.1016320712
 21
303.3989472682
 31
0.0
  0
LINE
  5
1E9
  8
0
  6
CONTINUOUS
 62
     7
 10
145.0818881923
 20
302.3989472682
 30
0.0
 11
146.0818881923
 21
303.3989472682
 31
0.0
  0
LINE
  5
1EA
  8
0
  6
CONTINUOUS
 62
     7
 10
154.0621443134
 20
302.3989472682
 30
0.0
 11
155.0621443134
 21
303.3989472682
 31
0.0
  0
LINE
  5
1EB
  8
0
  6
CONTINUOUS
 62
     7
 10
163.0424004344
 20
302.3989472682
 30
0.0
 11
164.0424004344
 21
303.3989472682
 31
0.0
  0
LINE
  5
1EC
  8
0
  6
CONTINUOUS
 62
     7
 10
172.0226565555
 20
302.3989472682
 30
0.0
 11
173.0226565555
 21
303.3989472682
 31
0.0
  0
LINE
  5
1ED
  8
0
  6
CONTINUOUS
 62
     7
 10
181.0029126766
 20
302.3989472682
 30
0.0
 11
182.0029126766
 21
303.3989472682
 31
0.0
  0
LINE
  5
1EE
  8
0
  6
CONTINUOUS
 62
     7
 10
189.9831687976
 20
302.3989472682
 30
0.0
 11
190.9831687976
 21
303.3989472682
 31
0.0
  0
LINE
  5
1EF
  8
0
  6
CONTINUOUS
 62
     7
 10
198.9634249187
 20
302.3989472682
 30
0.0
 11
199.9634249187
 21
303.3989472682
 31
0.0
  0
LINE
  5
1F0
  8
0
  6
CONTINUOUS
 62
     7
 10
207.9436810398
 20
302.3989472682
 30
0.0
 11
208.9436810398
 21
303.3989472682
 31
0.0
  0
LINE
  5
1F1
  8
0
  6
CONTINUOUS
 62
     7
 10
216.9239371608
 20
302.3989472682
 30
0.0
 11
217.9239371608
 21
303.3989472682
 31
0.0
  0
LINE
  5
1F2
  8
0
  6
CONTINUOUS
 62
     7
 10
225.9041932819
 20
302.3989472682
 30
0.0
 11
226.9041932819
 21
303.3989472682
 31
0.0
  0
LINE
  5
1F3
  8
0
  6
CONTINUOUS
 62
     7
 10
234.884449403
 20
302.3989472682
 30
0.0
 11
235.884449403
 21
303.3989472682
 31
0.0
  0
LINE
  5
1F4
  8
0
  6
CONTINUOUS
 62
     7
 10
243.864705524
 20
302.3989472682
 30
0.0
 11
244.864705524
 21
303.3989472682
 31
0.0
  0
LINE
  5
1F5
  8
0
  6
CONTINUOUS
 62
     7
 10
252.8449616451
 20
302.3989472682
 30
0.0
 11
253.8449616451
 21
303.3989472682
 31
0.0
  0
LINE
  5
1F6
  8
0
  6
CONTINUOUS
 62
     7
 10
261.8252177662
 20
302.3989472682
 30
0.0
 11
262.8252177662
 21
303.3989472682
 31
0.0
  0
LINE
  5
1F7
  8
0
  6
CONTINUOUS
 62
     7
 10
270.8054738873
 20
302.3989472682
 30
0.0
 11
271.8054738873
 21
303.3989472682
 31
0.0
  0
LINE
  5
1F8
  8
0
  6
CONTINUOUS
 62
     7
 10
279.7857300083
 20
302.3989472682
 30
0.0
 11
280.7857300083
 21
303.3989472682
 31
0.0
  0
LINE
  5
1F9
  8
0
  6
CONTINUOUS
 62
     7
 10
288.7659861294
 20
302.3989472682
 30
0.0
 11
289.7659861294
 21
303.3989472682
 31
0.0
  0
LINE
  5
1FA
  8
0
  6
CONTINUOUS
 62
     7
 10
297.7462422505
 20
302.3989472682
 30
0.0
 11
298.7462422505
 21
303.3989472682
 31
0.0
  0
LINE
  5
1FB
  8
0
  6
CONTINUOUS
 62
     7
 10
306.7264983715
 20
302.3989472682
 30
0.0
 11
307.7264983715
 21
303.3989472682
 31
0.0
  0
LINE
  5
1FC
  8
0
  6
CONTINUOUS
 62
     7
 10
315.7067544926
 20
302.3989472682
 30
0.0
 11
316.7067544926
 21
303.3989472682
 31
0.0
  0
LINE
  5
1FD
  8
0
  6
CONTINUOUS
 62
     7
 10
324.6870106137
 20
302.3989472682
 30
0.0
 11
325.6870106137
 21
303.3989472682
 31
0.0
  0
LINE
  5
1FE
  8
0
  6
CONTINUOUS
 62
     7
 10
333.6672667347
 20
302.3989472682
 30
0.0
 11
334.6672667347
 21
303.3989472682
 31
0.0
  0
LINE
  5
1FF
  8
0
  6
CONTINUOUS
 62
     7
 10
342.6475228558
 20
302.3989472682
 30
0.0
 11
343.6475228558
 21
303.3989472682
 31
0.0
  0
LINE
  5
200
  8
0
  6
CONTINUOUS
 62
     7
 10
351.6277789769
 20
302.3989472682
 30
0.0
 11
352.6277789769
 21
303.3989472682
 31
0.0
  0
LINE
  5
201
  8
0
  6
CONTINUOUS
 62
     7
 10
360.6080350979
 20
302.3989472682
 30
0.0
 11
361.6080350979
 21
303.3989472682
 31
0.0
  0
LINE
  5
202
  8
0
  6
CONTINUOUS
 62
     7
 10
369.588291219
 20
302.3989472682
 30
0.0
 11
370.588291219
 21
303.3989472682
 31
0.0
  0
LINE
  5
203
  8
0
  6
CONTINUOUS
 62
     7
 10
378.5685473401
 20
302.3989472682
 30
0.0
 11
379.5685473401
 21
303.3989472682
 31
0.0
  0
LINE
  5
204
  8
0
  6
CONTINUOUS
 62
     7
 10
387.5488034611
 20
302.3989472682
 30
0.0
 11
388.5488034611
 21
303.3989472682
 31
0.0
  0
LINE
  5
205
  8
0
  6
CONTINUOUS
 62
     7
 10
396.5290595822
 20
302.3989472682
 30
0.0
 11
397.5290595822
 21
303.3989472682
 31
0.0
  0
LINE
  5
206
  8
0
  6
CONTINUOUS
 62
     7
 10
405.5093157033
 20
302.3989472682
 30
0.0
 11
406.5093157033
 21
303.3989472682
 31
0.0
  0
LINE
  5
207
  8
0
  6
CONTINUOUS
 62
     7
 10
414.4895718244
 20
302.3989472682
 30
0.0
 11
415.4895718244
 21
303.3989472682
 31
0.0
  0
LINE
  5
208
  8
0
  6
CONTINUOUS
 62
     7
 10
423.4698279454
 20
302.3989472682
 30
0.0
 11
424.4698279454
 21
303.3989472682
 31
0.0
  0
LINE
  5
209
  8
0
  6
CONTINUOUS
 62
     7
 10
432.4500840665
 20
302.3989472682
 30
0.0
 11
433.4500840665
 21
303.3989472682
 31
0.0
  0
LINE
  5
20A
  8
0
  6
CONTINUOUS
 62
     7
 10
441.4303401876
 20
302.3989472682
 30
0.0
 11
442.4303401876
 21
303.3989472682
 31
0.0
  0
LINE
  5
20B
  8
0
  6
CONTINUOUS
 62
     7
 10
450.4105963086
 20
302.3989472682
 30
0.0
 11
451.4105963086
 21
303.3989472682
 31
0.0
  0
LINE
  5
20C
  8
0
  6
CONTINUOUS
 62
     7
 10
32.8286866714
 20
302.3989472682
 30
0.0
 11
33.4117309287
 21
302.9819915255
 31
0.0
  0
LINE
  5
20D
  8
0
  6
CONTINUOUS
 62
     7
 10
42.3919870497
 20
302.9819915255
 30
0.0
 11
42.8089427925
 21
303.3989472682
 31
0.0
  0
LINE
  5
20E
  8
0
  6
CONTINUOUS
 62
     7
 10
50.7891989135
 20
302.3989472682
 30
0.0
 11
51.7891989135
 21
303.3989472682
 31
0.0
  0
LINE
  5
20F
  8
0
  6
CONTINUOUS
 62
     7
 10
59.7694550346
 20
302.3989472682
 30
0.0
 11
60.3524992919
 21
302.9819915255
 31
0.0
  0
LINE
  5
210
  8
0
  6
CONTINUOUS
 62
     7
 10
69.3327554129
 20
302.9819915255
 30
0.0
 11
69.7497111557
 21
303.3989472682
 31
0.0
  0
LINE
  5
211
  8
0
  6
CONTINUOUS
 62
     7
 10
77.7299672767
 20
302.3989472682
 30
0.0
 11
78.7299672767
 21
303.3989472682
 31
0.0
  0
LINE
  5
212
  8
0
  6
CONTINUOUS
 62
     7
 10
86.7102233978
 20
302.3989472682
 30
0.0
 11
87.2932676551
 21
302.9819915255
 31
0.0
  0
LINE
  5
213
  8
0
  6
CONTINUOUS
 62
     7
 10
96.2735237761
 20
302.9819915255
 30
0.0
 11
96.6904795189
 21
303.3989472682
 31
0.0
  0
LINE
  5
214
  8
0
  6
CONTINUOUS
 62
     7
 10
104.6707356399
 20
302.3989472682
 30
0.0
 11
105.6707356399
 21
303.3989472682
 31
0.0
  0
LINE
  5
215
  8
0
  6
CONTINUOUS
 62
     7
 10
113.650991761
 20
302.3989472682
 30
0.0
 11
114.2340360183
 21
302.9819915255
 31
0.0
  0
LINE
  5
216
  8
0
  6
CONTINUOUS
 62
     7
 10
123.2142921393
 20
302.9819915255
 30
0.0
 11
123.6312478821
 21
303.3989472682
 31
0.0
  0
LINE
  5
217
  8
0
  6
CONTINUOUS
 62
     7
 10
131.6115040031
 20
302.3989472682
 30
0.0
 11
132.6115040031
 21
303.3989472682
 31
0.0
  0
LINE
  5
218
  8
0
  6
CONTINUOUS
 62
     7
 10
140.5917601242
 20
302.3989472682
 30
0.0
 11
141.1748043815
 21
302.9819915255
 31
0.0
  0
LINE
  5
219
  8
0
  6
CONTINUOUS
 62
     7
 10
150.1550605026
 20
302.9819915255
 30
0.0
 11
150.5720162453
 21
303.3989472682
 31
0.0
  0
LINE
  5
21A
  8
0
  6
CONTINUOUS
 62
     7
 10
158.5522723664
 20
302.3989472682
 30
0.0
 11
159.5522723664
 21
303.3989472682
 31
0.0
  0
LINE
  5
21B
  8
0
  6
CONTINUOUS
 62
     7
 10
167.5325284874
 20
302.3989472682
 30
0.0
 11
168.1155727447
 21
302.9819915255
 31
0.0
  0
LINE
  5
21C
  8
0
  6
CONTINUOUS
 62
     7
 10
177.0958288658
 20
302.9819915255
 30
0.0
 11
177.5127846085
 21
303.3989472682
 31
0.0
  0
LINE
  5
21D
  8
0
  6
CONTINUOUS
 62
     7
 10
185.4930407296
 20
302.3989472682
 30
0.0
 11
186.4930407296
 21
303.3989472682
 31
0.0
  0
LINE
  5
21E
  8
0
  6
CONTINUOUS
 62
     7
 10
194.4732968506
 20
302.3989472682
 30
0.0
 11
195.0563411079
 21
302.9819915255
 31
0.0
  0
LINE
  5
21F
  8
0
  6
CONTINUOUS
 62
     7
 10
204.036597229
 20
302.9819915255
 30
0.0
 11
204.4535529717
 21
303.3989472682
 31
0.0
  0
LINE
  5
220
  8
0
  6
CONTINUOUS
 62
     7
 10
212.4338090928
 20
302.3989472682
 30
0.0
 11
213.4338090928
 21
303.3989472682
 31
0.0
  0
LINE
  5
221
  8
0
  6
CONTINUOUS
 62
     7
 10
221.4140652138
 20
302.3989472682
 30
0.0
 11
221.9971094711
 21
302.9819915255
 31
0.0
  0
LINE
  5
222
  8
0
  6
CONTINUOUS
 62
     7
 10
230.9773655922
 20
302.9819915255
 30
0.0
 11
231.3943213349
 21
303.3989472682
 31
0.0
  0
LINE
  5
223
  8
0
  6
CONTINUOUS
 62
     7
 10
239.374577456
 20
302.3989472682
 30
0.0
 11
240.374577456
 21
303.3989472682
 31
0.0
  0
LINE
  5
224
  8
0
  6
CONTINUOUS
 62
     7
 10
248.354833577
 20
302.3989472682
 30
0.0
 11
248.9378778343
 21
302.9819915255
 31
0.0
  0
LINE
  5
225
  8
0
  6
CONTINUOUS
 62
     7
 10
257.9181339554
 20
302.9819915255
 30
0.0
 11
258.3350896981
 21
303.3989472682
 31
0.0
  0
LINE
  5
226
  8
0
  6
CONTINUOUS
 62
     7
 10
266.3153458192
 20
302.3989472682
 30
0.0
 11
267.3153458192
 21
303.3989472682
 31
0.0
  0
LINE
  5
227
  8
0
  6
CONTINUOUS
 62
     7
 10
275.2956019403
 20
302.3989472682
 30
0.0
 11
275.8786461975
 21
302.9819915255
 31
0.0
  0
LINE
  5
228
  8
0
  6
CONTINUOUS
 62
     7
 10
284.8589023186
 20
302.9819915255
 30
0.0
 11
285.2758580613
 21
303.3989472682
 31
0.0
  0
LINE
  5
229
  8
0
  6
CONTINUOUS
 62
     7
 10
293.2561141824
 20
302.3989472682
 30
0.0
 11
294.2561141824
 21
303.3989472682
 31
0.0
  0
LINE
  5
22A
  8
0
  6
CONTINUOUS
 62
     7
 10
302.2363703035
 20
302.3989472682
 30
0.0
 11
302.8194145607
 21
302.9819915255
 31
0.0
  0
LINE
  5
22B
  8
0
  6
CONTINUOUS
 62
     7
 10
311.7996706818
 20
302.9819915255
 30
0.0
 11
312.2166264245
 21
303.3989472682
 31
0.0
  0
LINE
  5
22C
  8
0
  6
CONTINUOUS
 62
     7
 10
320.1968825456
 20
302.3989472682
 30
0.0
 11
321.1968825456
 21
303.3989472682
 31
0.0
  0
LINE
  5
22D
  8
0
  6
CONTINUOUS
 62
     7
 10
329.1771386667
 20
302.3989472682
 30
0.0
 11
329.7601829239
 21
302.9819915255
 31
0.0
  0
LINE
  5
22E
  8
0
  6
CONTINUOUS
 62
     7
 10
338.740439045
 20
302.9819915255
 30
0.0
 11
339.1573947877
 21
303.3989472682
 31
0.0
  0
LINE
  5
22F
  8
0
  6
CONTINUOUS
 62
     7
 10
347.1376509088
 20
302.3989472682
 30
0.0
 11
348.1376509088
 21
303.3989472682
 31
0.0
  0
LINE
  5
230
  8
0
  6
CONTINUOUS
 62
     7
 10
356.1179070299
 20
302.3989472682
 30
0.0
 11
356.7009512871
 21
302.9819915255
 31
0.0
  0
LINE
  5
231
  8
0
  6
CONTINUOUS
 62
     7
 10
365.6812074082
 20
302.9819915255
 30
0.0
 11
366.0981631509
 21
303.3989472682
 31
0.0
  0
LINE
  5
232
  8
0
  6
CONTINUOUS
 62
     7
 10
374.078419272
 20
302.3989472682
 30
0.0
 11
375.078419272
 21
303.3989472682
 31
0.0
  0
LINE
  5
233
  8
0
  6
CONTINUOUS
 62
     7
 10
383.0586753931
 20
302.3989472682
 30
0.0
 11
383.6417196504
 21
302.9819915255
 31
0.0
  0
LINE
  5
234
  8
0
  6
CONTINUOUS
 62
     7
 10
392.6219757714
 20
302.9819915255
 30
0.0
 11
393.0389315141
 21
303.3989472682
 31
0.0
  0
LINE
  5
235
  8
0
  6
CONTINUOUS
 62
     7
 10
401.0191876352
 20
302.3989472682
 30
0.0
 11
402.0191876352
 21
303.3989472682
 31
0.0
  0
LINE
  5
236
  8
0
  6
CONTINUOUS
 62
     7
 10
409.9994437563
 20
302.3989472682
 30
0.0
 11
410.5824880136
 21
302.9819915255
 31
0.0
  0
LINE
  5
237
  8
0
  6
CONTINUOUS
 62
     7
 10
419.5627441346
 20
302.9819915255
 30
0.0
 11
419.9796998774
 21
303.3989472682
 31
0.0
  0
LINE
  5
238
  8
0
  6
CONTINUOUS
 62
     7
 10
427.9599559984
 20
302.3989472682
 30
0.0
 11
428.9599559984
 21
303.3989472682
 31
0.0
  0
LINE
  5
239
  8
0
  6
CONTINUOUS
 62
     7
 10
436.9402121195
 20
302.3989472682
 30
0.0
 11
437.5232563768
 21
302.9819915255
 31
0.0
  0
LINE
  5
23A
  8
0
  6
CONTINUOUS
 62
     7
 10
446.5035124978
 20
302.9819915255
 30
0.0
 11
446.9204682406
 21
303.3989472682
 31
0.0
  0
LINE
  5
23B
  8
0
  6
CONTINUOUS
 62
     7
 10
454.9007243616
 20
302.3989472682
 30
0.0
 11
455.9007243616
 21
303.3989472682
 31
0.0
  0
LINE
  5
23C
  8
0
  6
CONTINUOUS
 62
     7
 10
29.2619450198
 20
291.41632923
 30
0.0
 11
24.8516514186
 21
295.8266228312
 31
0.0
  0
LINE
  5
23D
  8
0
  6
CONTINUOUS
 62
     7
 10
31.7793269816
 20
288.8989472682
 30
0.0
 11
29.2793269816
 21
291.3989472682
 31
0.0
  0
LINE
  5
23E
  8
0
  6
CONTINUOUS
 62
     7
 10
27.2723891561
 20
302.3861412147
 30
0.0
 11
26.2687420874
 21
303.3897882834
 31
0.0
  0
LINE
  5
23F
  8
0
  6
CONTINUOUS
 62
     7
 10
29.2675825833
 20
300.3909477876
 30
0.0
 11
27.7595831027
 21
301.8989472682
 31
0.0
  0
LINE
  5
240
  8
0
  6
CONTINUOUS
 62
     7
 10
27.2723891561
 20
288.9157570256
 30
0.0
 11
26.6765388454
 21
289.5116073363
 31
0.0
  0
LINE
  5
241
  8
0
  6
CONTINUOUS
 62
     7
 10
25.5540068303
 20
290.6341393515
 30
0.0
 11
25.5225731929
 21
290.6655729888
 31
0.0
  0
LINE
  5
242
  8
0
  6
CONTINUOUS
 62
     7
 10
26.6765388454
 20
298.4918634574
 30
0.0
 11
25.2417903025
 21
299.9266120003
 31
0.0
  0
LINE
  5
243
  8
0
  6
CONTINUOUS
 62
     7
 10
33.7497111557
 20
300.3989472682
 30
0.0
 11
32.2891989211
 21
301.8594595028
 31
0.0
  0
LINE
  5
244
  8
0
  6
CONTINUOUS
 62
     7
 10
450.6816207929
 20
301.0489472682
 30
0.0
 11
448.8316207929
 21
302.8989472682
 31
0.0
  0
LINE
  5
245
  8
0
  6
CONTINUOUS
 62
     7
 10
459.661876914
 20
301.0489472682
 30
0.0
 11
456.811876914
 21
303.8989472682
 31
0.0
  0
LINE
  5
246
  8
0
  6
CONTINUOUS
 62
     7
 10
446.1914927248
 20
301.0489472682
 30
0.0
 11
444.3414927248
 21
302.8989472682
 31
0.0
  0
LINE
  5
247
  8
0
  6
CONTINUOUS
 62
     7
 10
454.3612366113
 20
301.8594595028
 30
0.0
 11
453.3217488459
 21
302.8989472682
 31
0.0
  0
LINE
  5
248
  8
0
  6
CONTINUOUS
 62
     7
 10
444.8711085508
 20
288.8989472682
 30
0.0
 11
444.2723891561
 21
289.4976666629
 31
0.0
  0
LINE
  5
249
  8
0
  6
CONTINUOUS
 62
     7
 10
453.8513646718
 20
288.8989472682
 30
0.0
 11
452.0013646718
 21
290.7489472682
 31
0.0
  0
LINE
  5
24A
  8
0
  6
CONTINUOUS
 62
     7
 10
448.7485765356
 20
289.5116073363
 30
0.0
 11
447.5112366038
 21
290.7489472682
 31
0.0
  0
LINE
  5
24B
  8
0
  6
CONTINUOUS
 62
     7
 10
459.3414927248
 20
287.8989472682
 30
0.0
 11
457.7288326567
 21
289.5116073363
 31
0.0
  0
LINE
  5
24C
  8
0
  6
CONTINUOUS
 62
     7
 10
456.6063006416
 20
290.6341393515
 30
0.0
 11
456.4914927248
 21
290.7489472682
 31
0.0
  0
LINE
  5
24D
  8
0
  6
CONTINUOUS
 62
     7
 10
456.3612366113
 20
285.8989472682
 30
0.0
 11
459.3612366113
 21
288.8989472682
 31
0.0
  0
LINE
  5
24E
  8
0
  6
CONTINUOUS
 62
     7
 10
460.8513646718
 20
285.8989472682
 30
0.0
 11
465.7013646718
 21
290.7489472682
 31
0.0
  0
LINE
  5
24F
  8
0
  6
CONTINUOUS
 62
     7
 10
465.3471070102
 20
285.904561546
 30
0.0
 11
465.7667748783
 21
286.3242294141
 31
0.0
  0
LINE
  5
250
  8
0
  6
CONTINUOUS
 62
     7
 10
455.7723891561
 20
287.555163847
 30
0.0
 11
456.6063006378
 21
288.3890753287
 31
0.0
  0
LINE
  5
251
  8
0
  6
CONTINUOUS
 62
     7
 10
458.6063006378
 20
285.8989472682
 30
0.0
 11
458.8513646681
 21
286.1440112985
 31
0.0
  0
LINE
  5
252
  8
0
  6
CONTINUOUS
 62
     7
 10
459.9738966832
 20
287.2665433136
 30
0.0
 11
461.6063006378
 21
288.8989472682
 31
0.0
  0
LINE
  5
253
  8
0
  6
CONTINUOUS
 62
     7
 10
463.0964286983
 20
285.8989472682
 30
0.0
 11
464.4640247437
 21
287.2665433136
 31
0.0
  0
LINE
  5
254
  8
0
  6
CONTINUOUS
 62
     7
 10
465.5865567589
 20
288.3890753287
 30
0.0
 11
465.7723891561
 21
288.574907726
 31
0.0
  0
LINE
  5
255
  8
0
  6
CONTINUOUS
 62
     7
 10
455.7723891561
 20
303.2706120551
 30
0.0
 11
458.4007243692
 21
305.8989472682
 31
0.0
  0
LINE
  5
256
  8
0
  6
CONTINUOUS
 62
     7
 10
459.8908524297
 20
302.8989472682
 30
0.0
 11
462.8908524297
 21
305.8989472682
 31
0.0
  0
LINE
  5
257
  8
0
  6
CONTINUOUS
 62
     7
 10
463.7723891561
 20
302.2903559341
 30
0.0
 11
465.7723891561
 21
304.2903559341
 31
0.0
  0
LINE
  5
258
  8
0
  6
CONTINUOUS
 62
     7
 10
455.7910756481
 20
305.5343625811
 30
0.0
 11
456.1369738432
 21
305.8802607762
 31
0.0
  0
LINE
  5
259
  8
0
  6
CONTINUOUS
 62
     7
 10
457.7288326529
 20
302.9819915255
 30
0.0
 11
459.9738966832
 21
305.2270555557
 31
0.0
  0
LINE
  5
25A
  8
0
  6
CONTINUOUS
 62
     7
 10
462.1359164562
 20
302.8989472682
 30
0.0
 11
462.2189607135
 21
302.9819915255
 31
0.0
  0
LINE
  5
25B
  8
0
  6
CONTINUOUS
 62
     7
 10
463.3414927286
 20
304.1045235406
 30
0.0
 11
465.1359164562
 21
305.8989472682
 31
0.0
  0
LINE
  5
25C
  8
0
  6
CONTINUOUS
 62
     7
 10
465.5865567589
 20
301.8594595103
 30
0.0
 11
465.7723891561
 21
302.0452919076
 31
0.0
  0
LINE
  5
25D
  8
0
  6
CONTINUOUS
 62
     7
 10
460.7723891561
 20
290.3100998102
 30
0.0
 11
461.2612366141
 21
290.7989472682
 31
0.0
  0
LINE
  5
25E
  8
0
  6
CONTINUOUS
 62
     7
 10
462.4809804827
 20
300.9989472682
 30
0.0
 11
463.7723891561
 21
302.2903559416
 31
0.0
  0
LINE
  5
25F
  8
0
  6
CONTINUOUS
 62
     7
 10
24.8516367863
 20
295.9954644732
 30
0.0
 11
24.8516367863
 21
295.8024300632
 31
0.0
  0
LINE
  5
260
  8
0
  6
CONTINUOUS
 62
     7
 10
481.4723891561
 20
293.3989472682
 30
0.0
 11
482.7773891561
 21
293.3989472682
 31
0.0
  0
LINE
  5
261
  8
0
  6
CONTINUOUS
 62
     7
 10
482.7773891561
 20
298.3989472682
 30
0.0
 11
481.4723891561
 21
298.3989472682
 31
0.0
  0
LINE
  5
262
  8
0
  6
CONTINUOUS
 62
     7
 10
482.7773891561
 20
293.3989472682
 30
0.0
 11
483.2223891561
 21
293.8439472682
 31
0.0
  0
LINE
  5
263
  8
0
  6
CONTINUOUS
 62
     7
 10
483.2223891561
 20
297.9539472682
 30
0.0
 11
482.7773891561
 21
298.3989472682
 31
0.0
  0
LINE
  5
264
  8
0
  6
CONTINUOUS
 62
     7
 10
478.7723891561
 20
291.8989472682
 30
0.0
 11
479.129654746
 21
291.2801451147
 31
0.0
  0
LINE
  5
265
  8
0
  6
CONTINUOUS
 62
     7
 10
481.1151235662
 20
291.2801451147
 30
0.0
 11
481.4723891561
 21
291.8989472682
 31
0.0
  0
LINE
  5
266
  8
0
  6
CONTINUOUS
 62
     7
 10
481.4723891561
 20
299.8989472682
 30
0.0
 11
481.1151235662
 21
300.5177494217
 31
0.0
  0
LINE
  5
267
  8
0
  6
CONTINUOUS
 62
     7
 10
479.129654746
 20
300.5177494217
 30
0.0
 11
478.7723891561
 21
299.8989472682
 31
0.0
  0
ARC
  5
268
  8
0
  6
CONTINUOUS
 62
     7
 10
51.0723891561
 20
291.1989472682
 30
0.0
 40
0.3000000000000256
 50
180.0
 51
270.0
  0
ARC
  5
269
  8
0
  6
CONTINUOUS
 62
     7
 10
51.0723891561
 20
300.5989472682
 30
0.0
 40
0.3000000000000256
 50
90.0
 51
180.0
  0
LINE
  5
26A
  8
0
  6
CONTINUOUS
 62
     7
 10
51.0723891561
 20
290.8989472682
 30
0.0
 11
56.7723891561
 21
290.8989472682
 31
0.0
  0
LINE
  5
26B
  8
0
  6
CONTINUOUS
 62
     7
 10
56.7723891561
 20
300.8989472682
 30
0.0
 11
51.0723891561
 21
300.8989472682
 31
0.0
  0
ARC
  5
26C
  8
0
  6
CONTINUOUS
 62
     7
 10
57.0223891561
 20
299.1489472682
 30
0.0
 40
0.2500000000000284
 50
180.0
 51
270.0
  0
ARC
  5
26D
  8
0
  6
CONTINUOUS
 62
     7
 10
57.0223891561
 20
292.6489472682
 30
0.0
 40
0.2500000000000568
 50
90.0
 51
180.0
  0
LINE
  5
26E
  8
0
  6
CONTINUOUS
 62
     7
 10
57.0223891561
 20
292.8989472682
 30
0.0
 11
76.2178891561
 21
292.8989472682
 31
0.0
  0
LINE
  5
26F
  8
0
  6
CONTINUOUS
 62
     7
 10
76.2178891561
 20
298.8989472682
 30
0.0
 11
57.0223891561
 21
298.8989472682
 31
0.0
  0
LINE
  5
270
  8
0
  6
CONTINUOUS
 62
     7
 10
76.2178891561
 20
292.8989472682
 30
0.0
 11
76.7723891561
 21
293.4534472682
 31
0.0
  0
LINE
  5
271
  8
0
  6
CONTINUOUS
 62
     7
 10
76.7723891561
 20
298.3444472682
 30
0.0
 11
76.2178891561
 21
298.8989472682
 31
0.0
  0
LINE
  5
272
  8
0
  6
CONTINUOUS
 62
     7
 10
484.7723891561
 20
263.2190879925
 30
0.0
 11
485.3268891561
 21
262.8989472682
 31
0.0
  0
LINE
  5
273
  8
0
  6
CONTINUOUS
 62
     7
 10
490.2178891561
 20
262.8989472682
 30
0.0
 11
490.7723891561
 21
263.2190879925
 31
0.0
  0
LINE
  5
274
  8
0
  6
CONTINUOUS
 62
     7
 10
490.7723891561
 20
263.2190879925
 30
0.0
 11
490.7723891561
 21
269.8989472682
 31
0.0
  0
LINE
  5
275
  8
0
  6
CONTINUOUS
 62
     7
 10
484.7723891561
 20
269.8989472682
 30
0.0
 11
484.7723891561
 21
263.2190879925
 31
0.0
  0
LINE
  5
276
  8
0
  6
CONTINUOUS
 62
     7
 10
490.7723891561
 20
269.8989472682
 30
0.0
 11
487.7723891561
 21
272.8989472682
 31
0.0
  0
LINE
  5
277
  8
0
  6
CONTINUOUS
 62
     7
 10
487.7723891561
 20
272.8989472682
 30
0.0
 11
484.7723891561
 21
269.8989472682
 31
0.0
  0
LINE
  5
278
  8
0
  6
CONTINUOUS
 62
     7
 10
460.7723891561
 20
290.7989472682
 30
0.0
 11
460.7723891561
 21
288.3989472682
 31
0.0
  0
LINE
  5
279
  8
0
  6
CONTINUOUS
 62
     7
 10
463.7723891561
 20
290.7989472682
 30
0.0
 11
460.7723891561
 21
290.7989472682
 31
0.0
  0
LINE
  5
27A
  8
0
  6
CONTINUOUS
 62
     7
 10
463.7723891561
 20
290.7989472682
 30
0.0
 11
463.7723891561
 21
288.3989472682
 31
0.0
  0
LINE
  5
27B
  8
0
  6
CONTINUOUS
 62
     7
 10
463.7723891561
 20
288.3989472682
 30
0.0
 11
460.7723891561
 21
288.3989472682
 31
0.0
  0
LINE
  5
27C
  8
0
  6
CONTINUOUS
 62
     7
 10
460.7723891561
 20
303.3989472682
 30
0.0
 11
463.7723891561
 21
303.3989472682
 31
0.0
  0
LINE
  5
27D
  8
0
  6
CONTINUOUS
 62
     7
 10
460.7723891561
 20
300.9989472682
 30
0.0
 11
463.7723891561
 21
300.9989472682
 31
0.0
  0
LINE
  5
27E
  8
0
  6
CONTINUOUS
 62
     7
 10
463.7723891561
 20
300.9989472682
 30
0.0
 11
463.7723891561
 21
300.3989472682
 31
0.0
  0
LINE
  5
27F
  8
0
  6
CONTINUOUS
 62
     7
 10
463.7723891561
 20
291.3989472682
 30
0.0
 11
463.7723891561
 21
290.7989472682
 31
0.0
  0
LINE
  5
280
  8
0
  6
CONTINUOUS
 62
     7
 10
460.7723891561
 20
300.9989472682
 30
0.0
 11
460.7723891561
 21
300.8989472682
 31
0.0
  0
LINE
  5
281
  8
0
  6
CONTINUOUS
 62
     7
 10
460.7723891561
 20
290.8989472682
 30
0.0
 11
460.7723891561
 21
290.7989472682
 31
0.0
  0
LINE
  5
282
  8
0
  6
CONTINUOUS
 62
     7
 10
463.7723891561
 20
303.3989472682
 30
0.0
 11
463.7723891561
 21
300.9989472682
 31
0.0
  0
LINE
  5
283
  8
0
  6
CONTINUOUS
 62
     7
 10
460.7723891561
 20
303.3989472682
 30
0.0
 11
460.7723891561
 21
300.9989472682
 31
0.0
  0
ARC
  5
284
  8
0
  6
CONTINUOUS
 62
     7
 10
456.2723891561
 20
305.3989472682
 30
0.0
 40
0.5
 50
90.0
 51
180.0
  0
ARC
  5
285
  8
0
  6
CONTINUOUS
 62
     7
 10
456.2723891561
 20
286.3989472682
 30
0.0
 40
0.5
 50
180.0
 51
270.0
  0
LINE
  5
286
  8
0
  6
CONTINUOUS
 62
     7
 10
456.2723891561
 20
285.8989472682
 30
0.0
 11
465.2723891561
 21
285.8989472682
 31
0.0
  0
LINE
  5
287
  8
0
  6
CONTINUOUS
 62
     7
 10
465.2723891561
 20
305.8989472682
 30
0.0
 11
456.2723891561
 21
305.8989472682
 31
0.0
  0
ARC
  5
288
  8
0
  6
CONTINUOUS
 62
     7
 10
465.2723891561
 20
286.3989472682
 30
0.0
 40
0.5000000000000568
 50
270.0
 51
0.0
  0
ARC
  5
289
  8
0
  6
CONTINUOUS
 62
     7
 10
465.2723891561
 20
305.3989472682
 30
0.0
 40
0.5000000000000568
 50
0.0
 51
90.0
  0
LINE
  5
28A
  8
0
  6
CONTINUOUS
 62
     7
 10
463.7723891561
 20
288.8989472682
 30
0.0
 11
455.7723891561
 21
288.8989472682
 31
0.0
  0
LINE
  5
28B
  8
0
  6
CONTINUOUS
 62
     7
 10
455.7723891561
 20
302.8989472682
 30
0.0
 11
463.7723891561
 21
302.8989472682
 31
0.0
  0
LINE
  5
28C
  8
0
  6
CONTINUOUS
 62
     7
 10
465.7723891561
 20
290.7489472682
 30
0.0
 11
463.7723891561
 21
290.7489472682
 31
0.0
  0
LINE
  5
28D
  8
0
  6
CONTINUOUS
 62
     7
 10
463.7723891561
 20
301.0489472682
 30
0.0
 11
465.7723891561
 21
301.0489472682
 31
0.0
  0
LINE
  5
28E
  8
0
  6
CONTINUOUS
 62
     7
 10
465.7723891561
 20
290.7489472682
 30
0.0
 11
465.7723891561
 21
291.3989472682
 31
0.0
  0
LINE
  5
28F
  8
0
  6
CONTINUOUS
 62
     7
 10
465.7723891561
 20
300.3989472682
 30
0.0
 11
465.7723891561
 21
301.0489472682
 31
0.0
  0
LINE
  5
290
  8
0
  6
CONTINUOUS
 62
     7
 10
463.7723891561
 20
290.7489472682
 30
0.0
 11
463.7723891561
 21
288.8989472682
 31
0.0
  0
LINE
  5
291
  8
0
  6
CONTINUOUS
 62
     7
 10
465.7723891561
 20
286.3989472682
 30
0.0
 11
465.7723891561
 21
290.7489472682
 31
0.0
  0
LINE
  5
292
  8
0
  6
CONTINUOUS
 62
     7
 10
455.7723891561
 20
288.8989472682
 30
0.0
 11
455.7723891561
 21
286.3989472682
 31
0.0
  0
LINE
  5
293
  8
0
  6
CONTINUOUS
 62
     7
 10
463.7723891561
 20
302.8989472682
 30
0.0
 11
463.7723891561
 21
301.0489472682
 31
0.0
  0
LINE
  5
294
  8
0
  6
CONTINUOUS
 62
     7
 10
465.7723891561
 20
301.0489472682
 30
0.0
 11
465.7723891561
 21
305.3989472682
 31
0.0
  0
LINE
  5
295
  8
0
  6
CONTINUOUS
 62
     7
 10
455.7723891561
 20
305.3989472682
 30
0.0
 11
455.7723891561
 21
302.8989472682
 31
0.0
  0
CIRCLE
  5
296
  8
0
  6
CONTINUOUS
 62
     7
 10
466.5223891561
 20
290.1489472682
 30
0.0
 40
0.75
  0
CIRCLE
  5
297
  8
0
  6
CONTINUOUS
 62
     7
 10
466.5223891561
 20
301.6489472682
 30
0.0
 40
0.75
  0
LINE
  5
298
  8
0
  6
CONTINUOUS
 62
     7
 10
456.2723891561
 20
303.8989472682
 30
0.0
 11
460.7723891561
 21
303.8989472682
 31
0.0
  0
LINE
  5
299
  8
0
  6
CONTINUOUS
 62
     7
 10
460.7723891561
 20
287.8989472682
 30
0.0
 11
456.2723891561
 21
287.8989472682
 31
0.0
  0
LINE
  5
29A
  8
0
  6
CONTINUOUS
 62
     7
 10
444.2723891561
 20
288.8989472682
 30
0.0
 11
444.2723891561
 21
290.7489472682
 31
0.0
  0
LINE
  5
29B
  8
0
  6
CONTINUOUS
 62
     7
 10
444.2723891561
 20
290.7489472682
 30
0.0
 11
460.7723891561
 21
290.7489472682
 31
0.0
  0
LINE
  5
29C
  8
0
  6
CONTINUOUS
 62
     7
 10
456.2723891561
 20
287.8989472682
 30
0.0
 11
456.2723891561
 21
288.8989472682
 31
0.0
  0
LINE
  5
29D
  8
0
  6
CONTINUOUS
 62
     7
 10
456.2723891561
 20
288.8989472682
 30
0.0
 11
444.2723891561
 21
288.8989472682
 31
0.0
  0
LINE
  5
29E
  8
0
  6
CONTINUOUS
 62
     7
 10
460.7723891561
 20
287.8989472682
 30
0.0
 11
460.7723891561
 21
290.7489472682
 31
0.0
  0
LINE
  5
29F
  8
0
  6
CONTINUOUS
 62
     7
 10
444.2723891561
 20
302.8989472682
 30
0.0
 11
456.2723891561
 21
302.8989472682
 31
0.0
  0
LINE
  5
2A0
  8
0
  6
CONTINUOUS
 62
     7
 10
460.7723891561
 20
301.0489472682
 30
0.0
 11
444.2723891561
 21
301.0489472682
 31
0.0
  0
LINE
  5
2A1
  8
0
  6
CONTINUOUS
 62
     7
 10
444.2723891561
 20
290.7489472682
 30
0.0
 11
444.2723891561
 21
290.8989472682
 31
0.0
  0
LINE
  5
2A2
  8
0
  6
CONTINUOUS
 62
     7
 10
444.2723891561
 20
300.8989472682
 30
0.0
 11
444.2723891561
 21
301.0489472682
 31
0.0
  0
LINE
  5
2A3
  8
0
  6
CONTINUOUS
 62
     7
 10
444.2723891561
 20
301.0489472682
 30
0.0
 11
444.2723891561
 21
302.8989472682
 31
0.0
  0
LINE
  5
2A4
  8
0
  6
CONTINUOUS
 62
     7
 10
456.2723891561
 20
302.8989472682
 30
0.0
 11
456.2723891561
 21
303.8989472682
 31
0.0
  0
LINE
  5
2A5
  8
0
  6
CONTINUOUS
 62
     7
 10
460.7723891561
 20
301.0489472682
 30
0.0
 11
460.7723891561
 21
303.8989472682
 31
0.0
  0
LINE
  5
2A6
  8
0
  6
CONTINUOUS
 62
     7
 10
27.2723891561
 20
303.3989472682
 30
0.0
 11
26.2723891561
 21
303.3989472682
 31
0.0
  0
LINE
  5
2A7
  8
0
  6
CONTINUOUS
 62
     7
 10
26.2723891561
 20
288.3989472682
 30
0.0
 11
27.2723891561
 21
288.3989472682
 31
0.0
  0
ARC
  5
2A8
  8
0
  6
CONTINUOUS
 62
     7
 10
44.8516367863
 20
295.9954644732
 30
0.0
 40
20.00000000000004
 50
158.2736426693
 51
180.2765024982
  0
ARC
  5
2A9
  8
0
  6
CONTINUOUS
 62
     7
 10
44.8516367863
 20
295.8024300632
 30
0.0
 40
20.00000000000004
 50
179.7234975018
 51
201.7263573307
  0
LINE
  5
2AA
  8
0
  6
CONTINUOUS
 62
     7
 10
34.2723891561
 20
288.8989472682
 30
0.0
 11
34.2723891561
 21
291.3989472682
 31
0.0
  0
LINE
  5
2AB
  8
0
  6
CONTINUOUS
 62
     7
 10
34.2723891561
 20
288.8989472682
 30
0.0
 11
28.7723891561
 21
288.8989472682
 31
0.0
  0
LINE
  5
2AC
  8
0
  6
CONTINUOUS
 62
     7
 10
28.7723891561
 20
288.8989472682
 30
0.0
 11
28.7723891561
 21
289.8989472682
 31
0.0
  0
LINE
  5
2AD
  8
0
  6
CONTINUOUS
 62
     7
 10
28.7723891561
 20
289.8989472682
 30
0.0
 11
27.2723891561
 21
289.8989472682
 31
0.0
  0
LINE
  5
2AE
  8
0
  6
CONTINUOUS
 62
     7
 10
27.2723891561
 20
288.3989472682
 30
0.0
 11
27.2723891561
 21
289.8989472682
 31
0.0
  0
LINE
  5
2AF
  8
0
  6
CONTINUOUS
 62
     7
 10
27.2723891561
 20
301.8989472682
 30
0.0
 11
27.2723891561
 21
303.3989472682
 31
0.0
  0
LINE
  5
2B0
  8
0
  6
CONTINUOUS
 62
     7
 10
27.2723891561
 20
301.8989472682
 30
0.0
 11
28.7723891561
 21
301.8989472682
 31
0.0
  0
LINE
  5
2B1
  8
0
  6
CONTINUOUS
 62
     7
 10
28.7723891561
 20
301.8989472682
 30
0.0
 11
28.7723891561
 21
302.8989472682
 31
0.0
  0
LINE
  5
2B2
  8
0
  6
CONTINUOUS
 62
     7
 10
28.7723891561
 20
302.8989472682
 30
0.0
 11
34.2723891561
 21
302.8989472682
 31
0.0
  0
LINE
  5
2B3
  8
0
  6
CONTINUOUS
 62
     7
 10
34.2723891561
 20
300.3989472682
 30
0.0
 11
34.2723891561
 21
302.8989472682
 31
0.0
  0
LINE
  5
2B4
  8
0
  6
CONTINUOUS
 62
     7
 10
34.2723891561
 20
300.3989472682
 30
0.0
 11
29.2723891561
 21
300.3989472682
 31
0.0
  0
LINE
  5
2B5
  8
0
  6
CONTINUOUS
 62
     7
 10
29.2723891561
 20
300.3989472682
 30
0.0
 11
26.5685163705
 21
295.8989472682
 31
0.0
  0
LINE
  5
2B6
  8
0
  6
CONTINUOUS
 62
     7
 10
26.5685163705
 20
295.8989472682
 30
0.0
 11
29.2723891561
 21
291.3989472682
 31
0.0
  0
LINE
  5
2B7
  8
0
  6
CONTINUOUS
 62
     7
 10
29.2723891561
 20
291.3989472682
 30
0.0
 11
34.2723891561
 21
291.3989472682
 31
0.0
  0
LINE
  5
2B8
  8
0
  6
CONTINUOUS
 62
     7
 10
29.2723891561
 20
291.3989472682
 30
0.0
 11
29.2723891561
 21
300.3989472682
 31
0.0
  0
LINE
  5
2B9
  8
0
  6
CONTINUOUS
 62
     7
 10
34.2723891561
 20
291.3989472682
 30
0.0
 11
34.2723891561
 21
300.3989472682
 31
0.0
  0
LINE
  5
2BA
  8
0
  6
CONTINUOUS
 62
     7
 10
456.2723891561
 20
289.3989472682
 30
0.0
 11
27.2723891561
 21
289.3989472682
 31
0.0
  0
LINE
  5
2BB
  8
0
  6
CONTINUOUS
 62
     7
 10
456.2723891561
 20
289.3989472682
 30
0.0
 11
456.2723891561
 21
288.3989472682
 31
0.0
  0
LINE
  5
2BC
  8
0
  6
CONTINUOUS
 62
     7
 10
456.2723891561
 20
288.3989472682
 30
0.0
 11
27.2723891561
 21
288.3989472682
 31
0.0
  0
LINE
  5
2BD
  8
0
  6
CONTINUOUS
 62
     7
 10
27.2723891561
 20
289.3989472682
 30
0.0
 11
27.2723891561
 21
288.3989472682
 31
0.0
  0
LINE
  5
2BE
  8
0
  6
CONTINUOUS
 62
     7
 10
27.2723891561
 20
303.3989472682
 30
0.0
 11
456.2723891561
 21
303.3989472682
 31
0.0
  0
LINE
  5
2BF
  8
0
  6
CONTINUOUS
 62
     7
 10
27.2723891561
 20
302.3989472682
 30
0.0
 11
456.2723891561
 21
302.3989472682
 31
0.0
  0
LINE
  5
2C0
  8
0
  6
CONTINUOUS
 62
     7
 10
456.2723891561
 20
303.3989472682
 30
0.0
 11
456.2723891561
 21
302.3989472682
 31
0.0
  0
LINE
  5
2C1
  8
0
  6
CONTINUOUS
 62
     7
 10
27.2723891561
 20
303.3989472682
 30
0.0
 11
27.2723891561
 21
302.3989472682
 31
0.0
  0
LINE
  5
2C2
  8
0
  6
CONTINUOUS
 62
     7
 10
96.7723891561
 20
302.0989472682
 30
0.0
 11
56.7723891561
 21
302.0989472682
 31
0.0
  0
LINE
  5
2C3
  8
0
  6
CONTINUOUS
 62
     7
 10
56.7723891561
 20
289.6989472682
 30
0.0
 11
96.7723891561
 21
289.6989472682
 31
0.0
  0
LINE
  5
2C4
  8
0
  6
CONTINUOUS
 62
     7
 10
66.7723891561
 20
292.7989472682
 30
0.0
 11
56.8223891561
 21
292.7989472682
 31
0.0
  0
LINE
  5
2C5
  8
0
  6
CONTINUOUS
 62
     7
 10
66.7723891561
 20
290.7989472682
 30
0.0
 11
66.7723891561
 21
292.7989472682
 31
0.0
  0
LINE
  5
2C6
  8
0
  6
CONTINUOUS
 62
     7
 10
96.7723891561
 20
290.7989472682
 30
0.0
 11
66.7723891561
 21
290.7989472682
 31
0.0
  0
LINE
  5
2C7
  8
0
  6
CONTINUOUS
 62
     7
 10
96.7723891561
 20
289.6989472682
 30
0.0
 11
96.7723891561
 21
290.7989472682
 31
0.0
  0
LINE
  5
2C8
  8
0
  6
CONTINUOUS
 62
     7
 10
56.7723891561
 20
290.8989472682
 30
0.0
 11
56.7723891561
 21
289.6989472682
 31
0.0
  0
LINE
  5
2C9
  8
0
  6
CONTINUOUS
 62
     7
 10
66.7723891561
 20
300.9989472682
 30
0.0
 11
96.7723891561
 21
300.9989472682
 31
0.0
  0
LINE
  5
2CA
  8
0
  6
CONTINUOUS
 62
     7
 10
96.7723891561
 20
300.9989472682
 30
0.0
 11
96.7723891561
 21
300.8989472682
 31
0.0
  0
LINE
  5
2CB
  8
0
  6
CONTINUOUS
 62
     7
 10
96.7723891561
 20
290.8989472682
 30
0.0
 11
96.7723891561
 21
290.7989472682
 31
0.0
  0
LINE
  5
2CC
  8
0
  6
CONTINUOUS
 62
     7
 10
56.8223891561
 20
298.9989472682
 30
0.0
 11
66.7723891561
 21
298.9989472682
 31
0.0
  0
LINE
  5
2CD
  8
0
  6
CONTINUOUS
 62
     7
 10
66.7723891561
 20
298.9989472682
 30
0.0
 11
66.7723891561
 21
300.9989472682
 31
0.0
  0
LINE
  5
2CE
  8
0
  6
CONTINUOUS
 62
     7
 10
56.7723891561
 20
302.0989472682
 30
0.0
 11
56.7723891561
 21
300.8989472682
 31
0.0
  0
LINE
  5
2CF
  8
0
  6
CONTINUOUS
 62
     7
 10
96.7723891561
 20
300.9989472682
 30
0.0
 11
96.7723891561
 21
302.0989472682
 31
0.0
  0
LINE
  5
2D0
  8
0
  6
CONTINUOUS
 62
     7
 10
467.2723891561
 20
299.1002493582
 30
0.0
 11
467.2723891561
 21
300.3989472682
 31
0.0
  0
LINE
  5
2D1
  8
0
  6
CONTINUOUS
 62
     7
 10
468.2723891561
 20
299.1002493582
 30
0.0
 11
467.2723891561
 21
299.1002493582
 31
0.0
  0
LINE
  5
2D2
  8
0
  6
CONTINUOUS
 62
     7
 10
468.2723891561
 20
299.8989472682
 30
0.0
 11
468.2723891561
 21
299.1002493582
 31
0.0
  0
LINE
  5
2D3
  8
0
  6
CONTINUOUS
 62
     7
 10
472.4736912461
 20
299.8989472682
 30
0.0
 11
468.2723891561
 21
299.8989472682
 31
0.0
  0
LINE
  5
2D4
  8
0
  6
CONTINUOUS
 62
     7
 10
473.2723891561
 20
299.1002493582
 30
0.0
 11
472.4736912461
 21
299.8989472682
 31
0.0
  0
LINE
  5
2D5
  8
0
  6
CONTINUOUS
 62
     7
 10
473.2723891561
 20
292.6976451782
 30
0.0
 11
473.2723891561
 21
299.1002493582
 31
0.0
  0
LINE
  5
2D6
  8
0
  6
CONTINUOUS
 62
     7
 10
472.4736912461
 20
291.8989472682
 30
0.0
 11
473.2723891561
 21
292.6976451782
 31
0.0
  0
LINE
  5
2D7
  8
0
  6
CONTINUOUS
 62
     7
 10
468.2723891561
 20
291.8989472682
 30
0.0
 11
472.4736912461
 21
291.8989472682
 31
0.0
  0
LINE
  5
2D8
  8
0
  6
CONTINUOUS
 62
     7
 10
468.2723891561
 20
292.6976451782
 30
0.0
 11
468.2723891561
 21
291.8989472682
 31
0.0
  0
LINE
  5
2D9
  8
0
  6
CONTINUOUS
 62
     7
 10
467.2723891561
 20
292.6976451782
 30
0.0
 11
468.2723891561
 21
292.6976451782
 31
0.0
  0
LINE
  5
2DA
  8
0
  6
CONTINUOUS
 62
     7
 10
467.2723891561
 20
291.3989472682
 30
0.0
 11
467.2723891561
 21
292.6976451782
 31
0.0
  0
LINE
  5
2DB
  8
0
  6
CONTINUOUS
 62
     7
 10
467.2723891561
 20
291.3989472682
 30
0.0
 11
462.2723891561
 21
291.3989472682
 31
0.0
  0
LINE
  5
2DC
  8
0
  6
CONTINUOUS
 62
     7
 10
462.2723891561
 20
291.3989472682
 30
0.0
 11
462.2723891561
 21
290.8989472682
 31
0.0
  0
LINE
  5
2DD
  8
0
  6
CONTINUOUS
 62
     7
 10
67.2723891561
 20
290.8989472682
 30
0.0
 11
462.2723891561
 21
290.8989472682
 31
0.0
  0
LINE
  5
2DE
  8
0
  6
CONTINUOUS
 62
     7
 10
66.7723891561
 20
291.3989472682
 30
0.0
 11
67.2723891561
 21
290.8989472682
 31
0.0
  0
LINE
  5
2DF
  8
0
  6
CONTINUOUS
 62
     7
 10
66.7723891561
 20
292.8989472682
 30
0.0
 11
66.7723891561
 21
291.3989472682
 31
0.0
  0
LINE
  5
2E0
  8
0
  6
CONTINUOUS
 62
     7
 10
76.7178891561
 20
293.3989472682
 30
0.0
 11
87.7723891561
 21
293.3989472682
 31
0.0
  0
LINE
  5
2E1
  8
0
  6
CONTINUOUS
 62
     7
 10
87.7723891561
 20
293.3989472682
 30
0.0
 11
89.2745407037
 21
295.8989472682
 31
0.0
  0
LINE
  5
2E2
  8
0
  6
CONTINUOUS
 62
     7
 10
89.2745407037
 20
295.8989472682
 30
0.0
 11
87.7723891561
 21
298.3989472682
 31
0.0
  0
LINE
  5
2E3
  8
0
  6
CONTINUOUS
 62
     7
 10
87.7723891561
 20
298.3989472682
 30
0.0
 11
76.7178891561
 21
298.3989472682
 31
0.0
  0
LINE
  5
2E4
  8
0
  6
CONTINUOUS
 62
     7
 10
66.7723891561
 20
300.3989472682
 30
0.0
 11
66.7723891561
 21
298.8989472682
 31
0.0
  0
LINE
  5
2E5
  8
0
  6
CONTINUOUS
 62
     7
 10
67.2723891561
 20
300.8989472682
 30
0.0
 11
66.7723891561
 21
300.3989472682
 31
0.0
  0
LINE
  5
2E6
  8
0
  6
CONTINUOUS
 62
     7
 10
462.2723891561
 20
300.8989472682
 30
0.0
 11
67.2723891561
 21
300.8989472682
 31
0.0
  0
LINE
  5
2E7
  8
0
  6
CONTINUOUS
 62
     7
 10
462.2723891561
 20
300.8989472682
 30
0.0
 11
462.2723891561
 21
300.3989472682
 31
0.0
  0
LINE
  5
2E8
  8
0
  6
CONTINUOUS
 62
     7
 10
462.2723891561
 20
300.3989472682
 30
0.0
 11
467.2723891561
 21
300.3989472682
 31
0.0
  0
LINE
  5
2E9
  8
0
  6
CONTINUOUS
 62
     7
 10
87.7723891561
 20
298.3989472682
 30
0.0
 11
87.7723891561
 21
293.3989472682
 31
0.0
  0
LINE
  5
2EA
  8
0
  6
CONTINUOUS
 62
     7
 10
467.2723891561
 20
285.1989472682
 30
0.0
 11
467.2723891561
 21
291.6489472682
 31
0.0
  0
LINE
  5
2EB
  8
0
  6
CONTINUOUS
 62
     7
 10
467.2723891561
 20
291.6489472682
 30
0.0
 11
468.1223891561
 21
292.4989472682
 31
0.0
  0
LINE
  5
2EC
  8
0
  6
CONTINUOUS
 62
     7
 10
468.1223891561
 20
292.4989472682
 30
0.0
 11
473.2723891561
 21
292.4989472682
 31
0.0
  0
LINE
  5
2ED
  8
0
  6
CONTINUOUS
 62
     7
 10
473.2723891561
 20
285.1989472682
 30
0.0
 11
473.2723891561
 21
292.4989472682
 31
0.0
  0
LINE
  5
2EE
  8
0
  6
CONTINUOUS
 62
     7
 10
472.9723891561
 20
284.8989472682
 30
0.0
 11
467.5723891561
 21
284.8989472682
 31
0.0
  0
ARC
  5
2EF
  8
0
  6
CONTINUOUS
 62
     7
 10
472.9723891561
 20
285.1989472682
 30
0.0
 40
0.3000000000000682
 50
270.0
 51
0.0
  0
ARC
  5
2F0
  8
0
  6
CONTINUOUS
 62
     7
 10
467.5723891561
 20
285.1989472682
 30
0.0
 40
0.3000000000000682
 50
180.0
 51
270.0
  0
LINE
  5
2F1
  8
0
  6
CONTINUOUS
 62
     7
 10
468.1223891561
 20
299.2989472682
 30
0.0
 11
467.2723891561
 21
300.1489472682
 31
0.0
  0
LINE
  5
2F2
  8
0
  6
CONTINUOUS
 62
     7
 10
468.1223891561
 20
299.2989472682
 30
0.0
 11
468.1223891561
 21
299.1002493582
 31
0.0
  0
LINE
  5
2F3
  8
0
  6
CONTINUOUS
 62
     7
 10
468.1223891561
 20
292.6976451782
 30
0.0
 11
468.1223891561
 21
292.4989472682
 31
0.0
  0
LINE
  5
2F4
  8
0
  6
CONTINUOUS
 62
     7
 10
473.2723891561
 20
299.2989472682
 30
0.0
 11
468.1223891561
 21
299.2989472682
 31
0.0
  0
ARC
  5
2F5
  8
0
  6
CONTINUOUS
 62
     7
 10
472.9723891561
 20
306.5989472682
 30
0.0
 40
0.3000000000000114
 50
0.0
 51
90.0
  0
ARC
  5
2F6
  8
0
  6
CONTINUOUS
 62
     7
 10
467.5723891561
 20
306.5989472682
 30
0.0
 40
0.3000000000000114
 50
90.0
 51
180.0
  0
LINE
  5
2F7
  8
0
  6
CONTINUOUS
 62
     7
 10
467.5723891561
 20
306.8989472682
 30
0.0
 11
472.9723891561
 21
306.8989472682
 31
0.0
  0
LINE
  5
2F8
  8
0
  6
CONTINUOUS
 62
     7
 10
467.2723891561
 20
300.1489472682
 30
0.0
 11
467.2723891561
 21
306.5989472682
 31
0.0
  0
LINE
  5
2F9
  8
0
  6
CONTINUOUS
 62
     7
 10
473.2723891561
 20
299.2989472682
 30
0.0
 11
473.2723891561
 21
306.5989472682
 31
0.0
  0
LINE
  5
2FA
  8
0
  6
CONTINUOUS
 62
     7
 10
492.2723891561
 20
301.8989472682
 30
0.0
 11
495.4723891561
 21
301.8989472682
 31
0.0
  0
LINE
  5
2FB
  8
0
  6
CONTINUOUS
 62
     7
 10
495.4723891561
 20
269.8989472682
 30
0.0
 11
495.4723891561
 21
301.8989472682
 31
0.0
  0
LINE
  5
2FC
  8
0
  6
CONTINUOUS
 62
     7
 10
495.4723891561
 20
269.8989472682
 30
0.0
 11
492.2723891561
 21
269.8989472682
 31
0.0
  0
LINE
  5
2FD
  8
0
  6
CONTINUOUS
 62
     7
 10
492.2723891561
 20
269.8989472682
 30
0.0
 11
492.2723891561
 21
301.8989472682
 31
0.0
  0
LINE
  5
2FE
  8
0
  6
CONTINUOUS
 62
     7
 10
486.8723891561
 20
278.9957214617
 30
0.0
 11
486.7723891561
 21
278.9957214617
 31
0.0
  0
LINE
  5
2FF
  8
0
  6
CONTINUOUS
 62
     7
 10
486.7723891561
 20
278.9957214617
 30
0.0
 11
486.7723891561
 21
279.1462682361
 31
0.0
  0
LINE
  5
300
  8
0
  6
CONTINUOUS
 62
     7
 10
486.7723891561
 20
279.1462682361
 30
0.0
 11
486.8723891561
 21
279.1462682388
 31
0.0
  0
LINE
  5
301
  8
0
  6
CONTINUOUS
 62
     7
 10
489.7723891561
 20
270.8989472682
 30
0.0
 11
492.2723891561
 21
270.8989472682
 31
0.0
  0
LINE
  5
302
  8
0
  6
CONTINUOUS
 62
     7
 10
490.7723891561
 20
269.8989472682
 30
0.0
 11
492.2723891561
 21
269.8989472682
 31
0.0
  0
LINE
  5
303
  8
0
  6
CONTINUOUS
 62
     7
 10
483.7723891561
 20
269.8989472682
 30
0.0
 11
484.7723891561
 21
269.8989472682
 31
0.0
  0
LINE
  5
304
  8
0
  6
CONTINUOUS
 62
     7
 10
483.7723891561
 20
270.8989472682
 30
0.0
 11
485.7723891561
 21
270.8989472682
 31
0.0
  0
LINE
  5
305
  8
0
  6
CONTINUOUS
 62
     7
 10
483.7723891561
 20
270.8989472682
 30
0.0
 11
483.7723891561
 21
269.8989472682
 31
0.0
  0
LINE
  5
306
  8
0
  6
CONTINUOUS
 62
     7
 10
489.7723891561
 20
300.8989472682
 30
0.0
 11
492.2723891561
 21
300.8989472682
 31
0.0
  0
ARC
  5
307
  8
0
  6
CONTINUOUS
 62
     7
 10
486.2723891561
 20
272.1060540494
 30
0.0
 40
2.500000000000057
 50
135.0
 51
180.0
  0
LINE
  5
308
  8
0
  6
CONTINUOUS
 62
     7
 10
484.5046222032
 20
273.8738210024
 30
0.0
 11
486.1866027185
 21
275.5558015177
 31
0.0
  0
ARC
  5
309
  8
0
  6
CONTINUOUS
 62
     7
 10
484.7723891561
 20
276.9700150801
 30
0.0
 40
2.000000000000056
 50
315.0
 51
0.0
  0
LINE
  5
30A
  8
0
  6
CONTINUOUS
 62
     7
 10
486.7723891561
 20
276.9700150801
 30
0.0
 11
486.7723891561
 21
278.9895199027
 31
0.0
  0
LINE
  5
30B
  8
0
  6
CONTINUOUS
 62
     7
 10
486.8723891561
 20
278.9895199018
 30
0.0
 11
486.7723891561
 21
278.9895199027
 31
0.0
  0
LINE
  5
30C
  8
0
  6
CONTINUOUS
 62
     7
 10
486.7723891561
 20
279.1462682361
 30
0.0
 11
486.7723891561
 21
279.7241167673
 31
0.0
  0
LINE
  5
30D
  8
0
  6
CONTINUOUS
 62
     7
 10
486.8723891561
 20
279.7241167744
 30
0.0
 11
486.7723891561
 21
279.7241167673
 31
0.0
  0
LINE
  5
30E
  8
0
  6
CONTINUOUS
 62
     7
 10
486.7723891561
 20
279.882030187
 30
0.0
 11
486.7723891561
 21
280.5876620525
 31
0.0
  0
LINE
  5
30F
  8
0
  6
CONTINUOUS
 62
     7
 10
486.8723891561
 20
280.5876620658
 30
0.0
 11
486.7723891561
 21
280.5876620525
 31
0.0
  0
LINE
  5
310
  8
0
  6
CONTINUOUS
 62
     7
 10
486.7723891561
 20
280.8010067504
 30
0.0
 11
486.8723891561
 21
280.8010067564
 31
0.0
  0
LINE
  5
311
  8
0
  6
CONTINUOUS
 62
     7
 10
486.7723891561
 20
280.8010067504
 30
0.0
 11
486.7723891561
 21
294.8278794563
 31
0.0
  0
ARC
  5
312
  8
0
  6
CONTINUOUS
 62
     7
 10
484.7723891561
 20
294.8278794563
 30
0.0
 40
2.000000000000057
 50
0.0
 51
45.0
  0
LINE
  5
313
  8
0
  6
CONTINUOUS
 62
     7
 10
486.1866027185
 20
296.2420930187
 30
0.0
 11
484.5046222032
 21
297.924073534
 31
0.0
  0
ARC
  5
314
  8
0
  6
CONTINUOUS
 62
     7
 10
486.2723891561
 20
299.691840487
 30
0.0
 40
2.50000000000006
 50
180.0
 51
225.0
  0
LINE
  5
315
  8
0
  6
CONTINUOUS
 62
     7
 10
483.7723891561
 20
299.691840487
 30
0.0
 11
483.7723891561
 21
300.8989472682
 31
0.0
  0
LINE
  5
316
  8
0
  6
CONTINUOUS
 62
     7
 10
483.7723891561
 20
300.8989472682
 30
0.0
 11
485.7723891561
 21
300.8989472682
 31
0.0
  0
LINE
  5
317
  8
0
  6
CONTINUOUS
 62
     7
 10
485.7723891561
 20
300.8989472682
 30
0.0
 11
487.7723891561
 21
298.8989472682
 31
0.0
  0
LINE
  5
318
  8
0
  6
CONTINUOUS
 62
     7
 10
487.7723891561
 20
298.8989472682
 30
0.0
 11
489.7723891561
 21
300.8989472682
 31
0.0
  0
LINE
  5
319
  8
0
  6
CONTINUOUS
 62
     7
 10
492.2723891561
 20
300.8989472682
 30
0.0
 11
492.2723891561
 21
270.8989472682
 31
0.0
  0
LINE
  5
31A
  8
0
  6
CONTINUOUS
 62
     7
 10
483.7723891561
 20
270.8989472682
 30
0.0
 11
483.7723891561
 21
272.1060540494
 31
0.0
  0
LINE
  5
31B
  8
0
  6
CONTINUOUS
 62
     7
 10
489.7723891561
 20
270.8989472682
 30
0.0
 11
487.7723891561
 21
272.8989472682
 31
0.0
  0
LINE
  5
31C
  8
0
  6
CONTINUOUS
 62
     7
 10
487.7723891561
 20
272.8989472682
 30
0.0
 11
485.7723891561
 21
270.8989472682
 31
0.0
  0
LINE
  5
31D
  8
0
  6
CONTINUOUS
 62
     7
 10
486.8723891561
 20
279.1462682388
 30
0.0
 11
486.8723891561
 21
278.9895199018
 31
0.0
  0
LINE
  5
31E
  8
0
  6
CONTINUOUS
 62
     7
 10
486.7723891561
 20
279.882030187
 30
0.0
 11
486.8723891561
 21
279.882030185
 31
0.0
  0
LINE
  5
31F
  8
0
  6
CONTINUOUS
 62
     7
 10
486.8723891561
 20
279.882030185
 30
0.0
 11
486.8723891561
 21
279.7241167744
 31
0.0
  0
LINE
  5
320
  8
0
  6
CONTINUOUS
 62
     7
 10
486.8723891561
 20
280.8010067564
 30
0.0
 11
486.8723891561
 21
280.5876620658
 31
0.0
  0
LINE
  5
321
  8
0
  6
CONTINUOUS
 62
     7
 10
486.8723891561
 20
279.7865480746
 30
0.0
 11
486.7723891561
 21
279.7865480746
 31
0.0
  0
LINE
  5
322
  8
0
  6
CONTINUOUS
 62
     7
 10
486.7723891561
 20
279.7241167673
 30
0.0
 11
486.7723891561
 21
279.7865480746
 31
0.0
  0
LINE
  5
323
  8
0
  6
CONTINUOUS
 62
     7
 10
486.7723891561
 20
280.5876620525
 30
0.0
 11
486.7723891561
 21
280.8021730746
 31
0.0
  0
LINE
  5
324
  8
0
  6
CONTINUOUS
 62
     7
 10
490.7723891561
 20
301.8989472682
 30
0.0
 11
492.2723891561
 21
301.8989472682
 31
0.0
  0
LINE
  5
325
  8
0
  6
CONTINUOUS
 62
     7
 10
483.7723891561
 20
301.8989472682
 30
0.0
 11
484.7723891561
 21
301.8989472682
 31
0.0
  0
LINE
  5
326
  8
0
  6
CONTINUOUS
 62
     7
 10
483.7723891561
 20
301.8989472682
 30
0.0
 11
483.7723891561
 21
300.8989472682
 31
0.0
  0
LINE
  5
327
  8
0
  6
CONTINUOUS
 62
     7
 10
486.7723891561
 20
279.7865480746
 30
0.0
 11
486.7723891561
 21
279.8666892037
 31
0.0
  0
LINE
  5
328
  8
0
  6
CONTINUOUS
 62
     7
 10
473.2723891561
 20
284.8989472682
 30
0.0
 11
473.2723891561
 21
304.8989472682
 31
0.0
  0
LINE
  5
329
  8
0
  6
CONTINUOUS
 62
     7
 10
473.2723891561
 20
304.8989472682
 30
0.0
 11
474.7723891561
 21
304.8989472682
 31
0.0
  0
LINE
  5
32A
  8
0
  6
CONTINUOUS
 62
     7
 10
474.7723891561
 20
284.8989472682
 30
0.0
 11
474.7723891561
 21
304.8989472682
 31
0.0
  0
LINE
  5
32B
  8
0
  6
CONTINUOUS
 62
     7
 10
474.7723891561
 20
284.8989472682
 30
0.0
 11
473.2723891561
 21
284.8989472682
 31
0.0
  0
LINE
  5
32C
  8
0
  6
CONTINUOUS
 62
     7
 10
491.2723891561
 20
262.8989472682
 30
0.0
 11
490.7723891561
 21
263.3989472682
 31
0.0
  0
LINE
  5
32D
  8
0
  6
CONTINUOUS
 62
     7
 10
490.7723891561
 20
267.3989472682
 30
0.0
 11
494.7723891561
 21
267.3989472682
 31
0.0
  0
LINE
  5
32E
  8
0
  6
CONTINUOUS
 62
     7
 10
494.7723891561
 20
267.3989472682
 30
0.0
 11
494.7723891561
 21
263.1989472682
 31
0.0
  0
ARC
  5
32F
  8
0
  6
CONTINUOUS
 62
     7
 10
494.4723891561
 20
263.1989472682
 30
0.0
 40
0.3000000000000114
 50
270.0
 51
0.0
  0
LINE
  5
330
  8
0
  6
CONTINUOUS
 62
     7
 10
494.4723891561
 20
262.8989472682
 30
0.0
 11
491.2723891561
 21
262.8989472682
 31
0.0
  0
ARC
  5
331
  8
0
  6
CONTINUOUS
 62
     7
 10
494.4723891561
 20
304.5989472682
 30
0.0
 40
0.3000000000000114
 50
360.0
 51
90.0
  0
LINE
  5
332
  8
0
  6
CONTINUOUS
 62
     7
 10
494.7723891561
 20
304.5989472682
 30
0.0
 11
494.7723891561
 21
302.8989472682
 31
0.0
  0
LINE
  5
333
  8
0
  6
CONTINUOUS
 62
     7
 10
494.7723891561
 20
302.8989472682
 30
0.0
 11
491.7723891561
 21
302.8989472682
 31
0.0
  0
LINE
  5
334
  8
0
  6
CONTINUOUS
 62
     7
 10
491.7723891561
 20
302.8989472682
 30
0.0
 11
488.7723891561
 21
299.8989472682
 31
0.0
  0
LINE
  5
335
  8
0
  6
CONTINUOUS
 62
     7
 10
488.7723891561
 20
299.8989472682
 30
0.0
 11
486.7723891561
 21
299.8989472682
 31
0.0
  0
LINE
  5
336
  8
0
  6
CONTINUOUS
 62
     7
 10
486.7723891561
 20
299.8989472682
 30
0.0
 11
483.7723891561
 21
302.8989472682
 31
0.0
  0
LINE
  5
337
  8
0
  6
CONTINUOUS
 62
     7
 10
483.7723891561
 20
302.8989472682
 30
0.0
 11
479.7723891561
 21
302.8989472682
 31
0.0
  0
ARC
  5
338
  8
0
  6
CONTINUOUS
 62
     7
 10
479.7723891561
 20
301.8989472682
 30
0.0
 40
1.0
 50
90.0
 51
180.0
  0
LINE
  5
339
  8
0
  6
CONTINUOUS
 62
     7
 10
478.7723891561
 20
301.8989472682
 30
0.0
 11
478.7723891561
 21
268.3989472682
 31
0.0
  0
ARC
  5
33A
  8
0
  6
CONTINUOUS
 62
     7
 10
479.7723891561
 20
268.3989472682
 30
0.0
 40
1.0
 50
180.0
 51
270.0
  0
LINE
  5
33B
  8
0
  6
CONTINUOUS
 62
     7
 10
479.7723891561
 20
267.3989472682
 30
0.0
 11
484.7723891561
 21
267.3989472682
 31
0.0
  0
LINE
  5
33C
  8
0
  6
CONTINUOUS
 62
     7
 10
484.7723891561
 20
263.3989472682
 30
0.0
 11
484.2723891561
 21
262.8989472682
 31
0.0
  0
LINE
  5
33D
  8
0
  6
CONTINUOUS
 62
     7
 10
484.2723891561
 20
262.8989472682
 30
0.0
 11
475.0723891561
 21
262.8989472682
 31
0.0
  0
ARC
  5
33E
  8
0
  6
CONTINUOUS
 62
     7
 10
475.0723891561
 20
263.1989472682
 30
0.0
 40
0.2999999999999545
 50
180.0
 51
270.0
  0
LINE
  5
33F
  8
0
  6
CONTINUOUS
 62
     7
 10
474.7723891561
 20
263.1989472682
 30
0.0
 11
474.7723891561
 21
278.3989472682
 31
0.0
  0
ARC
  5
340
  8
0
  6
CONTINUOUS
 62
     7
 10
471.7723891561
 20
278.3989472682
 30
0.0
 40
3.0
 50
0.0
 51
90.0
  0
LINE
  5
341
  8
0
  6
CONTINUOUS
 62
     7
 10
471.7723891561
 20
281.3989472682
 30
0.0
 11
470.7723891561
 21
281.3989472682
 31
0.0
  0
LINE
  5
342
  8
0
  6
CONTINUOUS
 62
     7
 10
470.7723891561
 20
281.3989472682
 30
0.0
 11
470.7723891561
 21
284.321596999
 31
0.0
  0
LINE
  5
343
  8
0
  6
CONTINUOUS
 62
     7
 10
471.7723891561
 20
284.8989472682
 30
0.0
 11
470.7723891561
 21
284.321596999
 31
0.0
  0
LINE
  5
344
  8
0
  6
CONTINUOUS
 62
     7
 10
471.7723891561
 20
284.8989472682
 30
0.0
 11
474.7723891561
 21
284.8989472682
 31
0.0
  0
LINE
  5
345
  8
0
  6
CONTINUOUS
 62
     7
 10
474.7723891561
 20
284.8989472682
 30
0.0
 11
474.7723891561
 21
304.5989472682
 31
0.0
  0
ARC
  5
346
  8
0
  6
CONTINUOUS
 62
     7
 10
475.0723891561
 20
304.5989472682
 30
0.0
 40
0.3000000000000114
 50
90.0
 51
180.0
  0
LINE
  5
347
  8
0
  6
CONTINUOUS
 62
     7
 10
475.0723891561
 20
304.8989472682
 30
0.0
 11
494.4723891561
 21
304.8989472682
 31
0.0
  0
LINE
  5
348
  8
0
  6
CONTINUOUS
 62
     7
 10
484.2723891561
 20
262.8989472682
 30
0.0
 11
485.3268891561
 21
262.8989472682
 31
0.0
  0
LINE
  5
349
  8
0
  6
CONTINUOUS
 62
     7
 10
490.2178891561
 20
262.8989472682
 30
0.0
 11
491.2723891561
 21
262.8989472682
 31
0.0
  0
LINE
  5
34A
  8
0
  6
CONTINUOUS
 62
     7
 10
491.7723891561
 20
301.8989472682
 30
0.0
 11
491.7723891561
 21
302.8989472682
 31
0.0
  0
LINE
  5
34B
  8
0
  6
CONTINUOUS
 62
     7
 10
494.7723891561
 20
269.8989472682
 30
0.0
 11
494.7723891561
 21
267.3989472682
 31
0.0
  0
LINE
  5
34C
  8
0
  6
CONTINUOUS
 62
     7
 10
494.7723891561
 20
302.8989472682
 30
0.0
 11
494.7723891561
 21
301.8989472682
 31
0.0
  0
LINE
  5
34D
  8
0
  6
CONTINUOUS
 62
     7
 10
482.7773891561
 20
297.8088764955
 30
0.0
 11
482.7773891561
 21
298.3989472682
 31
0.0
  0
LINE
  5
34E
  8
0
  6
CONTINUOUS
 62
     7
 10
482.7773891561
 20
293.3989472682
 30
0.0
 11
482.7773891561
 21
297.8088764955
 31
0.0
  0
LINE
  5
34F
  8
0
  6
CONTINUOUS
 62
     7
 10
483.2223891561
 20
297.4689090931
 30
0.0
 11
483.2223891561
 21
297.9539472682
 31
0.0
  0
LINE
  5
350
  8
0
  6
CONTINUOUS
 62
     7
 10
483.2223891561
 20
293.8439472682
 30
0.0
 11
483.2223891561
 21
297.4689090931
 31
0.0
  0
ARC
  5
351
  8
0
  6
CONTINUOUS
 62
     7
 10
473.2951737011
 20
295.9816317736
 30
0.0
 40
8.17763347948785
 50
342.9913769
 51
359.420669326
  0
LINE
  5
352
  8
0
  6
CONTINUOUS
 62
     7
 10
481.4723891561
 20
292.4348456531
 30
0.0
 11
481.4723891561
 21
295.8989472682
 31
0.0
  0
ARC
  5
353
  8
0
  6
CONTINUOUS
 62
     7
 10
479.151611927
 20
292.3494141278
 30
0.0
 40
2.32234913234647
 50
2.1081974481
 51
32.27605002
  0
ARC
  5
354
  8
0
  6
CONTINUOUS
 62
     7
 10
481.0931663852
 20
292.3494141278
 30
0.0
 40
2.322349132346733
 50
147.72394998
 51
177.8918025519
  0
ARC
  5
355
  8
0
  6
CONTINUOUS
 62
     7
 10
486.9496046111
 20
295.9816317736
 30
0.0
 40
8.177633479496675
 50
180.579330674
 51
197.0086231
  0
ARC
  5
356
  8
0
  6
CONTINUOUS
 62
     7
 10
486.9509750391
 20
295.8160507568
 30
0.0
 40
8.179005983438207
 50
162.9927649058
 51
179.4192813202
  0
LINE
  5
357
  8
0
  6
CONTINUOUS
 62
     7
 10
481.1151235662
 20
298.208348345
 30
0.0
 11
479.129654746
 21
298.208348345
 31
0.0
  0
ARC
  5
358
  8
0
  6
CONTINUOUS
 62
     7
 10
473.2938032731
 20
295.8160507568
 30
0.0
 40
8.179005983430962
 50
0.5807186798
 51
17.0072350942
  0
LINE
  5
359
  8
0
  6
CONTINUOUS
 62
     7
 10
481.1151235662
 20
293.5895461914
 30
0.0
 11
479.129654746
 21
293.5895461914
 31
0.0
  0
ARC
  5
35A
  8
0
  6
CONTINUOUS
 62
     7
 10
479.1702430573
 20
292.5145126866
 30
0.0
 40
2.303524147190787
 50
327.5977136254
 51
358.0180389065
  0
LINE
  5
35B
  8
0
  6
CONTINUOUS
 62
     7
 10
481.1151235662
 20
291.2801451147
 30
0.0
 11
479.129654746
 21
291.2801451147
 31
0.0
  0
ARC
  5
35C
  8
0
  6
CONTINUOUS
 62
     7
 10
481.074535255
 20
292.5145126866
 30
0.0
 40
2.303524147192881
 50
181.9819610935
 51
212.4022863745
  0
ARC
  5
35D
  8
0
  6
CONTINUOUS
 62
     7
 10
481.074535255
 20
299.4427159169
 30
0.0
 40
2.303524147192756
 50
181.9819610935
 51
212.4022863745
  0
ARC
  5
35E
  8
0
  6
CONTINUOUS
 62
     7
 10
479.1702430573
 20
299.4427159169
 30
0.0
 40
2.303524147191154
 50
327.5977136254
 51
358.0180389065
  0
LINE
  5
35F
  8
0
  6
CONTINUOUS
 62
     7
 10
481.4723891561
 20
295.8989472682
 30
0.0
 11
481.4723891561
 21
299.3630488833
 31
0.0
  0
ARC
  5
360
  8
0
  6
CONTINUOUS
 62
     7
 10
479.151611927
 20
299.277617358
 30
0.0
 40
2.322349132345201
 50
2.1081974481
 51
32.27605002
  0
ARC
  5
361
  8
0
  6
CONTINUOUS
 62
     7
 10
481.0931663852
 20
299.277617358
 30
0.0
 40
2.322349132346182
 50
147.72394998
 51
177.8918025519
  0
LINE
  5
362
  8
0
  6
CONTINUOUS
 62
     7
 10
481.1151235662
 20
300.5177494217
 30
0.0
 11
479.129654746
 21
300.5177494217
 31
0.0
  0
LINE
  5
363
  8
0
  6
CONTINUOUS
 62
     7
 10
481.4723891561
 20
291.8989472682
 30
0.0
 11
481.4723891561
 21
292.4348456531
 31
0.0
  0
LINE
  5
364
  8
0
  6
CONTINUOUS
 62
     7
 10
481.4723891561
 20
299.3630488833
 30
0.0
 11
481.4723891561
 21
299.8989472682
 31
0.0
  0
LINE
  5
365
  8
0
  6
CONTINUOUS
 62
     7
 10
50.7723891561
 20
291.1989472682
 30
0.0
 11
50.7723891561
 21
300.5989470338
 31
0.0
  0
LINE
  5
366
  8
0
  6
CONTINUOUS
 62
     7
 10
56.7723891561
 20
290.8989472682
 30
0.0
 11
56.7723891561
 21
300.8989472682
 31
0.0
  0
LINE
  5
367
  8
0
  6
CONTINUOUS
 62
     7
 10
76.2178891561
 20
292.8989472682
 30
0.0
 11
76.2178891561
 21
298.8989472682
 31
0.0
  0
LINE
  5
368
  8
0
  6
CONTINUOUS
 62
     7
 10
76.7723891561
 20
293.4534472682
 30
0.0
 11
76.7723891561
 21
298.3444472682
 31
0.0
  0
LINE
  5
369
  8
0
  6
CONTINUOUS
 62
     7
 10
490.2178891561
 20
262.8989472682
 30
0.0
 11
485.3268891561
 21
262.8989472682
 31
0.0
  0
LINE
  5
36A
  8
0
  6
CONTINUOUS
 62
     7
 10
490.7723891561
 20
263.2190879925
 30
0.0
 11
484.7723891561
 21
263.2190879925
 31
0.0
  0
LINE
  5
36B
  8
0
  6
CONTINUOUS
 62
     7
 10
490.7723891561
 20
269.8989472682
 30
0.0
 11
484.7723891561
 21
269.8989472682
 31
0.0
  0
LINE
  5
36C
  8
0
  6
CONTINUOUS
 62
     8
 10
486.8723891561
 20
279.8666892037
 30
0.0
 11
486.7723891561
 21
279.8666892037
 31
0.0
  0
LINE
  5
36D
  8
0
  6
CONTINUOUS
 62
     8
 10
483.2223891561
 20
295.8989472682
 30
0.0
 11
486.4614166107
 21
295.8989472682
 31
0.0
  0
LINE
  5
36E
  8
0
  6
CONTINUOUS
 62
     8
 10
479.7723891561
 20
302.8989472682
 30
0.0
 11
479.7723891561
 21
300.5177494217
 31
0.0
  0
LINE
  5
36F
  8
0
  6
CONTINUOUS
 62
     8
 10
479.7723891561
 20
269.8989472682
 30
0.0
 11
479.7723891561
 21
267.3989472682
 31
0.0
  0
LINE
  5
370
  8
0
  6
CONTINUOUS
 62
     8
 10
479.7723891561
 20
269.8989472682
 30
0.0
 11
483.7723891561
 21
269.8989472682
 31
0.0
  0
LINE
  5
371
  8
0
  6
CONTINUOUS
 62
     8
 10
478.7723891561
 20
269.8989472682
 30
0.0
 11
479.7723891561
 21
269.8989472682
 31
0.0
  0
LINE
  5
372
  8
0
  6
CONTINUOUS
 62
     8
 10
479.7723891561
 20
291.2801451147
 30
0.0
 11
479.7723891561
 21
269.8989472682
 31
0.0
  0
LINE
  5
373
  8
0
  6
CONTINUOUS
 62
     8
 10
51.0723891561
 20
300.8989472682
 30
0.0
 11
51.0723891561
 21
290.8989472682
 31
0.0
  0
LINE
  5
374
  8
0
  6
CONTINUOUS
 62
     8
 10
57.0223891561
 20
298.8989472682
 30
0.0
 11
57.0223891561
 21
292.8989472682
 31
0.0
  0
DIMENSION
  5
375
  8
0
  6
CONTINUOUS
 62
     7
  2
_D_3
 10
24.8516367863
 20
316.8989472682
 30
0.0
 11
262.1148614578
 21
316.8989472682
 31
0.0
 70
   160
  1
Min.<> - Max 815
  3
SLDDIMSTYLE2
 13
494.7723891561
 23
304.5989472682
 33
0.0
 14
24.8516367863
 24
295.9954644732
 34
0.0
 50
0.0
  0
TEXT
  5
381
  8
0
  6
CONTINUOUS
 62
     7
 10
256.3891675688
 20
347.7142089555
 30
0.0
 40
5.0
  1
A-A
 41
0.7
 11
256.3891675688
 21
345.9479086459
 31
0.0
 73
     1
  0
LINE
  5
382
  8
0
  6
CENTERX2
 62
     7
 10
487.7723891561
 20
260.8989472682
 30
0.0
 11
487.7723891561
 21
274.8989472682
 31
0.0
  0
LINE
  5
383
  8
0
  6
CENTERX2
 62
     7
 10
22.8516367863
 20
295.8989472682
 30
0.0
 11
27.2723891561
 21
295.8989472682
 31
0.0
  0
LINE
  5
384
  8
0
  6
CENTERX2
 62
     7
 10
27.2723891561
 20
295.8989472682
 30
0.0
 11
493.7723891561
 21
295.8989472682
 31
0.0
  0
LINE
  5
385
  8
0
  6
CONTINUOUS
 62
     7
 10
559.6786998607
 20
297.6425452823
 30
0.0
 11
561.188699717
 21
296.7707463274
 31
0.0
  0
LINE
  5
386
  8
0
  6
CONTINUOUS
 62
     7
 10
558.168699073
 20
296.7707463274
 30
0.0
 11
559.6786998607
 21
297.6425452823
 31
0.0
  0
LINE
  5
387
  8
0
  6
CONTINUOUS
 62
     7
 10
559.6786998607
 20
294.1553494627
 30
0.0
 11
558.168699073
 21
295.0271484176
 31
0.0
  0
CIRCLE
  5
388
  8
0
  6
CONTINUOUS
 62
     7
 10
559.6786989368
 20
295.8989472682
 30
0.0
 40
5.0
  0
LINE
  5
389
  8
0
  6
CONTINUOUS
 62
     7
 10
558.168699073
 20
295.0271484176
 30
0.0
 11
558.168699073
 21
296.7707463274
 31
0.0
  0
LINE
  5
38A
  8
0
  6
CONTINUOUS
 62
     7
 10
561.188699717
 20
295.0271484176
 30
0.0
 11
559.6786998607
 21
294.1553494627
 31
0.0
  0
LINE
  5
38B
  8
0
  6
CONTINUOUS
 62
     7
 10
561.188699717
 20
296.7707463274
 30
0.0
 11
561.188699717
 21
295.0271484176
 31
0.0
  0
ARC
  5
38C
  8
0
  6
CONTINUOUS
 62
     7
 10
559.6786989368
 20
295.8989472682
 30
0.0
 40
1.510000000000046
 50
300.0
 51
0.0
  0
ARC
  5
38D
  8
0
  6
CONTINUOUS
 62
     7
 10
559.6786989368
 20
295.8989472682
 30
0.0
 40
1.510000000000046
 50
240.0
 51
300.0
  0
ARC
  5
38E
  8
0
  6
CONTINUOUS
 62
     7
 10
559.6786989368
 20
295.8989472682
 30
0.0
 40
1.509999999999991
 50
180.0
 51
240.0
  0
ARC
  5
38F
  8
0
  6
CONTINUOUS
 62
     7
 10
559.6786989368
 20
295.8989472682
 30
0.0
 40
1.509999999999991
 50
120.0
 51
180.0
  0
ARC
  5
390
  8
0
  6
CONTINUOUS
 62
     7
 10
559.6786989368
 20
295.8989472682
 30
0.0
 40
1.510000000000046
 50
60.0
 51
120.0
  0
ARC
  5
391
  8
0
  6
CONTINUOUS
 62
     7
 10
559.6786989368
 20
295.8989472682
 30
0.0
 40
1.510000000000046
 50
0.0
 51
60.0
  0
LINE
  5
392
  8
0
  6
CONTINUOUS
 62
     7
 10
525.9869955875
 20
297.6150721977
 30
0.0
 11
527.3190560214
 21
296.4900168324
 31
0.0
  0
LINE
  5
393
  8
0
  6
CONTINUOUS
 62
     7
 10
524.346640373
 20
297.0240036691
 30
0.0
 11
525.9869955875
 21
297.6150721977
 31
0.0
  0
LINE
  5
394
  8
0
  6
CONTINUOUS
 62
     7
 10
524.0383427985
 20
295.3078779126
 30
0.0
 11
524.346640373
 21
297.0240036691
 31
0.0
  0
LINE
  5
395
  8
0
  6
CONTINUOUS
 62
     7
 10
525.3704023011
 20
294.182821616
 30
0.0
 11
524.0383427985
 21
295.3078779126
 31
0.0
  0
LINE
  5
396
  8
0
  6
CONTINUOUS
 62
     7
 10
527.0107575155
 20
294.7738910759
 30
0.0
 11
525.3704023011
 21
294.182821616
 31
0.0
  0
CIRCLE
  5
397
  8
0
  6
CONTINUOUS
 62
     7
 10
525.6786989368
 20
295.8989472682
 30
0.0
 40
4.999999999999892
  0
LINE
  5
398
  8
0
  6
CONTINUOUS
 62
     7
 10
527.3190560214
 20
296.4900168324
 30
0.0
 11
527.0107575155
 21
294.7738910759
 31
0.0
  0
ARC
  5
399
  8
0
  6
CONTINUOUS
 62
     7
 10
525.6786989368
 20
295.8989472682
 30
0.0
 40
1.509999999999987
 50
229.8155956457
 51
289.8155956457
  0
ARC
  5
39A
  8
0
  6
CONTINUOUS
 62
     7
 10
525.6786989368
 20
295.8989472682
 30
0.0
 40
1.510000000000079
 50
169.8155956457
 51
229.8155956457
  0
ARC
  5
39B
  8
0
  6
CONTINUOUS
 62
     7
 10
525.6786989368
 20
295.8989472682
 30
0.0
 40
1.51000000000003
 50
349.8155956457
 51
49.8155956457
  0
ARC
  5
39C
  8
0
  6
CONTINUOUS
 62
     7
 10
525.6786989368
 20
295.8989472682
 30
0.0
 40
1.509999999999974
 50
289.8155956457
 51
349.8155956457
  0
ARC
  5
39D
  8
0
  6
CONTINUOUS
 62
     7
 10
525.6786989368
 20
295.8989472682
 30
0.0
 40
1.510000000000079
 50
109.8155956457
 51
169.8155956457
  0
ARC
  5
39E
  8
0
  6
CONTINUOUS
 62
     7
 10
525.6786989368
 20
295.8989472682
 30
0.0
 40
1.51000000000003
 50
49.8155956457
 51
109.8155956457
  0
CIRCLE
  5
39F
  8
0
  6
CONTINUOUS
 62
     7
 10
542.6786989368
 20
295.8989472682
 30
0.0
 40
9.999999999999964
  0
CIRCLE
  5
3A0
  8
0
  6
CONTINUOUS
 62
     7
 10
542.6786989368
 20
295.8989472682
 30
0.0
 40
7.500000000000114
  0
LINE
  5
3A1
  8
0
  6
CONTINUOUS
 62
     7
 10
518.6786987282
 20
306.8989473129
 30
0.0
 11
566.6786991454
 21
306.8989473129
 31
0.0
  0
CIRCLE
  5
3A2
  8
0
  6
CONTINUOUS
 62
     7
 10
559.6786989368
 20
295.8989472682
 30
0.0
 40
5.25
  0
CIRCLE
  5
3A3
  8
0
  6
CONTINUOUS
 62
     7
 10
525.6786989368
 20
295.8989472682
 30
0.0
 40
5.250000000000114
  0
LINE
  5
3A4
  8
0
  6
CONTINUOUS
 62
     7
 10
566.6786991454
 20
306.8989473129
 30
0.0
 11
568.3786981202
 21
306.8989473129
 31
0.0
  0
ARC
  5
3A5
  8
0
  6
CONTINUOUS
 62
     7
 10
568.3786989368
 20
306.5989472682
 30
0.0
 40
0.3000000000000114
 50
0.0
 51
90.0
  0
LINE
  5
3A6
  8
0
  6
CONTINUOUS
 62
     7
 10
568.6786994733
 20
306.5989478225
 30
0.0
 11
568.6786994733
 21
285.1989472717
 31
0.0
  0
LINE
  5
3A7
  8
0
  6
CONTINUOUS
 62
     7
 10
566.6786991454
 20
284.8989473157
 30
0.0
 11
518.6786987282
 21
284.8989473157
 31
0.0
  0
LINE
  5
3A8
  8
0
  6
CONTINUOUS
 62
     7
 10
568.3786981202
 20
284.8989473157
 30
0.0
 11
566.6786991454
 21
284.8989473157
 31
0.0
  0
ARC
  5
3A9
  8
0
  6
CONTINUOUS
 62
     7
 10
568.3786989368
 20
285.1989472682
 30
0.0
 40
0.3000000000000114
 50
270.0
 51
0.0
  0
LINE
  5
3AA
  8
0
  6
CONTINUOUS
 62
     7
 10
518.6786987282
 20
284.8989473157
 30
0.0
 11
516.9786997534
 21
284.8989473157
 31
0.0
  0
ARC
  5
3AB
  8
0
  6
CONTINUOUS
 62
     7
 10
516.9786989368
 20
285.1989472682
 30
0.0
 40
0.3000000000000114
 50
180.0
 51
270.0
  0
LINE
  5
3AC
  8
0
  6
CONTINUOUS
 62
     7
 10
516.6786984004
 20
285.1989472717
 30
0.0
 11
516.6786984004
 21
306.5989478225
 31
0.0
  0
ARC
  5
3AD
  8
0
  6
CONTINUOUS
 62
     7
 10
516.9786989368
 20
306.5989472682
 30
0.0
 40
0.3000000000000114
 50
90.0
 51
180.0
  0
LINE
  5
3AE
  8
0
  6
CONTINUOUS
 62
     7
 10
516.9786997534
 20
306.8989473129
 30
0.0
 11
518.6786987282
 21
306.8989473129
 31
0.0
  0
LINE
  5
3AF
  8
0
  6
CONTINUOUS
 62
     7
 10
568.6786994733
 20
284.1483919208
 30
0.0
 11
568.6786994733
 21
281.6989472801
 31
0.0
  0
ARC
  5
3B0
  8
0
  6
CONTINUOUS
 62
     7
 10
568.3786993133
 20
281.6989474841
 30
0.0
 40
0.300000159988441
 50
269.9997721468
 51
359.9999610495
  0
POLYLINE
  5
3B1
  8
0
  6
CONTINUOUS
 62
     7
 66
     1
 10
0.0
 20
0.0
 30
0.0
 70
   128
  0
VERTEX
  5
3F9
  8
0
  6
CONTINUOUS
 62
     7
 10
568.6786994733
 20
284.1483919208
 30
0.0
  0
VERTEX
  5
3FA
  8
0
  6
CONTINUOUS
 62
     7
 10
568.6741415806
 20
284.1784686632
 30
0.0
  0
VERTEX
  5
3FB
  8
0
  6
CONTINUOUS
 62
     7
 10
568.6606076009
 20
284.2076315453
 30
0.0
  0
VERTEX
  5
3FC
  8
0
  6
CONTINUOUS
 62
     7
 10
568.6385073162
 20
284.2349944719
 30
0.0
  0
VERTEX
  5
3FD
  8
0
  6
CONTINUOUS
 62
     7
 10
568.6085131414
 20
284.2597260048
 30
0.0
  0
VERTEX
  5
3FE
  8
0
  6
CONTINUOUS
 62
     7
 10
568.5715359099
 20
284.2810747122
 30
0.0
  0
VERTEX
  5
3FF
  8
0
  6
CONTINUOUS
 62
     7
 10
568.5286987967
 20
284.2983919279
 30
0.0
  0
VERTEX
  5
400
  8
0
  6
CONTINUOUS
 62
     7
 10
568.4813056536
 20
284.3111514546
 30
0.0
  0
VERTEX
  5
401
  8
0
  6
CONTINUOUS
 62
     7
 10
568.4307925798
 20
284.3189656294
 30
0.0
  0
VERTEX
  5
402
  8
0
  6
CONTINUOUS
 62
     7
 10
568.3786981202
 20
284.321596994
 30
0.0
  0
SEQEND
  5
40D
  8
0
  6
CONTINUOUS
 62
     7
  0
ARC
  5
3B2
  8
0
  6
CONTINUOUS
 62
     7
 10
568.3786991148
 20
284.5989469572
 30
0.0
 40
0.3000003584956175
 50
0.000054629
 51
90.000189941
  0
LINE
  5
3B3
  8
0
  6
CONTINUOUS
 62
     7
 10
568.6786994733
 20
284.5989472432
 30
0.0
 11
568.6786994733
 21
284.1483919208
 31
0.0
  0
ARC
  5
3B4
  8
0
  6
CONTINUOUS
 62
     7
 10
516.9786985604
 20
281.6989474841
 30
0.0
 40
0.300000159988441
 50
180.0000389505
 51
270.0002278532
  0
LINE
  5
3B5
  8
0
  6
CONTINUOUS
 62
     7
 10
516.6786984004
 20
281.6989472801
 30
0.0
 11
516.6786984004
 21
284.1483919208
 31
0.0
  0
POLYLINE
  5
3B6
  8
0
  6
CONTINUOUS
 62
     7
 66
     1
 10
0.0
 20
0.0
 30
0.0
 70
   128
  0
VERTEX
  5
403
  8
0
  6
CONTINUOUS
 62
     7
 10
516.9786997534
 20
284.321596994
 30
0.0
  0
VERTEX
  5
404
  8
0
  6
CONTINUOUS
 62
     7
 10
516.9266052939
 20
284.3189656294
 30
0.0
  0
VERTEX
  5
405
  8
0
  6
CONTINUOUS
 62
     7
 10
516.8760922201
 20
284.3111514546
 30
0.0
  0
VERTEX
  5
406
  8
0
  6
CONTINUOUS
 62
     7
 10
516.8286990769
 20
284.2983919279
 30
0.0
  0
VERTEX
  5
407
  8
0
  6
CONTINUOUS
 62
     7
 10
516.7858619637
 20
284.2810747122
 30
0.0
  0
VERTEX
  5
408
  8
0
  6
CONTINUOUS
 62
     7
 10
516.7488847322
 20
284.2597260048
 30
0.0
  0
VERTEX
  5
409
  8
0
  6
CONTINUOUS
 62
     7
 10
516.7188905574
 20
284.2349944719
 30
0.0
  0
VERTEX
  5
40A
  8
0
  6
CONTINUOUS
 62
     7
 10
516.6967902727
 20
284.2076315453
 30
0.0
  0
VERTEX
  5
40B
  8
0
  6
CONTINUOUS
 62
     7
 10
516.6832562931
 20
284.1784686632
 30
0.0
  0
VERTEX
  5
40C
  8
0
  6
CONTINUOUS
 62
     7
 10
516.6786984004
 20
284.1483919208
 30
0.0
  0
SEQEND
  5
40E
  8
0
  6
CONTINUOUS
 62
     7
  0
LINE
  5
3B7
  8
0
  6
CONTINUOUS
 62
     7
 10
516.6786984004
 20
284.1483919208
 30
0.0
 11
516.6786984004
 21
284.5989472432
 31
0.0
  0
ARC
  5
3B8
  8
0
  6
CONTINUOUS
 62
     7
 10
516.9786987589
 20
284.5989469572
 30
0.0
 40
0.3000003584956175
 50
89.999810059
 51
179.999945371
  0
LINE
  5
3B9
  8
0
  6
CONTINUOUS
 62
     7
 10
516.9786997534
 20
281.3989473241
 30
0.0
 11
568.3786981202
 21
281.3989473241
 31
0.0
  0
LINE
  5
3BA
  8
0
  6
CONTINUOUS
 62
     7
 10
568.3786981202
 20
284.321596994
 30
0.0
 11
516.9786997534
 21
284.321596994
 31
0.0
  0
LINE
  5
3BB
  8
0
  6
CONTINUOUS
 62
     7
 10
568.6786994733
 20
281.6989472801
 30
0.0
 11
568.6786994733
 21
278.398947298
 31
0.0
  0
LINE
  5
3BC
  8
0
  6
CONTINUOUS
 62
     7
 10
516.6786984004
 20
278.398947298
 30
0.0
 11
516.6786984004
 21
281.6989472801
 31
0.0
  0
LINE
  5
3BD
  8
0
  6
CONTINUOUS
 62
     7
 10
516.6786984004
 20
284.5989472432
 30
0.0
 11
516.6786984004
 21
285.1989472717
 31
0.0
  0
LINE
  5
3BE
  8
0
  6
CONTINUOUS
 62
     7
 10
568.6786994733
 20
278.398947298
 30
0.0
 11
568.6786994733
 21
263.1989470417
 31
0.0
  0
ARC
  5
3BF
  8
0
  6
CONTINUOUS
 62
     7
 10
568.3786989368
 20
263.1989472682
 30
0.0
 40
0.3000000000000114
 50
270.0
 51
0.0
  0
LINE
  5
3C0
  8
0
  6
CONTINUOUS
 62
     7
 10
516.6786984004
 20
263.1989470417
 30
0.0
 11
516.6786984004
 21
278.398947298
 31
0.0
  0
LINE
  5
3C1
  8
0
  6
CONTINUOUS
 62
     7
 10
568.6786994733
 20
285.1989472717
 30
0.0
 11
568.6786994733
 21
284.5989472432
 31
0.0
  0
LINE
  5
3C2
  8
0
  6
CONTINUOUS
 62
     7
 10
568.3786981202
 20
262.8989475513
 30
0.0
 11
516.9786997534
 21
262.8989475513
 31
0.0
  0
ARC
  5
3C3
  8
0
  6
CONTINUOUS
 62
     7
 10
516.9786989368
 20
263.1989472682
 30
0.0
 40
0.3000000000000114
 50
180.0
 51
270.0
  0
CIRCLE
  5
3C4
  8
0
  6
CONTINUOUS
 62
     8
 10
542.6786989368
 20
295.8989472682
 30
0.0
 40
9.499999999999877
  0
LINE
  5
3C5
  8
0
  6
CONTINUOUS
 62
     8
 10
566.6786991454
 20
306.5989478225
 30
0.0
 11
518.6786987282
 21
306.5989478225
 31
0.0
  0
LINE
  5
3C6
  8
0
  6
CONTINUOUS
 62
     8
 10
518.6786987282
 20
306.5989478225
 30
0.0
 11
518.6786987282
 21
306.8989473129
 31
0.0
  0
LINE
  5
3C7
  8
0
  6
CONTINUOUS
 62
     8
 10
566.6786991454
 20
306.5989478225
 30
0.0
 11
566.6786991454
 21
306.8989473129
 31
0.0
  0
LINE
  5
3C8
  8
0
  6
CONTINUOUS
 62
     8
 10
568.6786994733
 20
306.5989478225
 30
0.0
 11
566.6786991454
 21
306.5989478225
 31
0.0
  0
LINE
  5
3C9
  8
0
  6
CONTINUOUS
 62
     8
 10
566.6786991454
 20
285.1989472717
 30
0.0
 11
568.6786994733
 21
285.1989472717
 31
0.0
  0
LINE
  5
3CA
  8
0
  6
CONTINUOUS
 62
     8
 10
566.6786991454
 20
285.1989472717
 30
0.0
 11
566.6786991454
 21
306.5989478225
 31
0.0
  0
LINE
  5
3CB
  8
0
  6
CONTINUOUS
 62
     8
 10
518.6786987282
 20
284.8989473157
 30
0.0
 11
518.6786987282
 21
285.1989472717
 31
0.0
  0
LINE
  5
3CC
  8
0
  6
CONTINUOUS
 62
     8
 10
518.6786987282
 20
285.1989472717
 30
0.0
 11
566.6786991454
 21
285.1989472717
 31
0.0
  0
LINE
  5
3CD
  8
0
  6
CONTINUOUS
 62
     8
 10
566.6786991454
 20
284.8989473157
 30
0.0
 11
566.6786991454
 21
285.1989472717
 31
0.0
  0
LINE
  5
3CE
  8
0
  6
CONTINUOUS
 62
     8
 10
516.6786984004
 20
285.1989472717
 30
0.0
 11
518.6786987282
 21
285.1989472717
 31
0.0
  0
LINE
  5
3CF
  8
0
  6
CONTINUOUS
 62
     8
 10
518.6786987282
 20
306.5989478225
 30
0.0
 11
516.6786984004
 21
306.5989478225
 31
0.0
  0
LINE
  5
3D0
  8
0
  6
CONTINUOUS
 62
     8
 10
518.6786987282
 20
306.5989478225
 30
0.0
 11
518.6786987282
 21
285.1989472717
 31
0.0
  0
LINE
  5
3D1
  8
0
  6
CONTINUOUS
 62
     8
 10
568.3786981202
 20
281.3989473241
 30
0.0
 11
568.3786981202
 21
284.321596994
 31
0.0
  0
LINE
  5
3D2
  8
0
  6
CONTINUOUS
 62
     8
 10
568.3786981202
 20
284.321596994
 30
0.0
 11
568.3786981202
 21
284.8989473157
 31
0.0
  0
LINE
  5
3D3
  8
0
  6
CONTINUOUS
 62
     8
 10
516.9786997534
 20
284.321596994
 30
0.0
 11
516.9786997534
 21
281.3989473241
 31
0.0
  0
LINE
  5
3D4
  8
0
  6
CONTINUOUS
 62
     8
 10
516.9786997534
 20
284.8989473157
 30
0.0
 11
516.9786997534
 21
284.321596994
 31
0.0
  0
LINE
  5
3D5
  8
0
  6
CONTINUOUS
 62
     8
 10
568.6786994733
 20
278.398947298
 30
0.0
 11
568.3786981202
 21
278.398947298
 31
0.0
  0
LINE
  5
3D6
  8
0
  6
CONTINUOUS
 62
     8
 10
568.3786981202
 20
278.398947298
 30
0.0
 11
568.3786981202
 21
281.3989473241
 31
0.0
  0
LINE
  5
3D7
  8
0
  6
CONTINUOUS
 62
     8
 10
516.9786997534
 20
281.3989473241
 30
0.0
 11
516.9786997534
 21
278.398947298
 31
0.0
  0
LINE
  5
3D8
  8
0
  6
CONTINUOUS
 62
     8
 10
516.6786984004
 20
278.398947298
 30
0.0
 11
516.9786997534
 21
278.398947298
 31
0.0
  0
LINE
  5
3D9
  8
0
  6
CONTINUOUS
 62
     8
 10
568.3786981202
 20
278.398947298
 30
0.0
 11
516.9786997534
 21
278.398947298
 31
0.0
  0
LINE
  5
3DA
  8
0
  6
CONTINUOUS
 62
     8
 10
568.6786994733
 20
263.1989470417
 30
0.0
 11
568.3786981202
 21
263.1989470417
 31
0.0
  0
LINE
  5
3DB
  8
0
  6
CONTINUOUS
 62
     8
 10
568.3786981202
 20
263.1989470417
 30
0.0
 11
568.3786981202
 21
278.398947298
 31
0.0
  0
LINE
  5
3DC
  8
0
  6
CONTINUOUS
 62
     8
 10
568.3786981202
 20
262.8989475513
 30
0.0
 11
568.3786981202
 21
263.1989470417
 31
0.0
  0
LINE
  5
3DD
  8
0
  6
CONTINUOUS
 62
     8
 10
516.9786997534
 20
278.398947298
 30
0.0
 11
516.9786997534
 21
263.1989470417
 31
0.0
  0
LINE
  5
3DE
  8
0
  6
CONTINUOUS
 62
     8
 10
516.6786984004
 20
263.1989470417
 30
0.0
 11
516.9786997534
 21
263.1989470417
 31
0.0
  0
LINE
  5
3DF
  8
0
  6
CONTINUOUS
 62
     8
 10
516.9786997534
 20
262.8989475513
 30
0.0
 11
516.9786997534
 21
263.1989470417
 31
0.0
  0
LINE
  5
3E0
  8
0
  6
CONTINUOUS
 62
     8
 10
516.9786997534
 20
263.1989470417
 30
0.0
 11
568.3786981202
 21
263.1989470417
 31
0.0
  0
DIMENSION
  5
3E1
  8
0
  6
CONTINUOUS
 62
     7
  2
_D_4
 10
577.431458181
 20
262.8989472682
 30
0.0
 11
577.431458181
 21
285.4326471956
 31
0.0
 70
   160
  1
(<>)
  3
SLDDIMSTYLE0
 13
568.3786989368
 23
306.8989472682
 33
0.0
 14
568.3786989368
 24
262.8989472682
 34
0.0
 50
90.0
  0
INSERT
  5
3F8
  8
0
  6
CONTINUOUS
 62
     7
  2
SW_CENTERMARKSYMBOL_0
 10
542.6786989368
 20
295.8989472682
 30
0.0
  0
ENDSEC
  0
EOF
