  0
SECTION
  2
HEADER
  9
$ACADVER
  1
AC1015
  9
$ACADMAINTVER
 70
     6
  9
$DWGCODEPAGE
  3
ANSI_1252
  9
$INSBASE
 10
0.0
 20
0.0
 30
0.0
  9
$EXTMIN
 10
0.0
 20
0.0
 30
0.0
  9
$EXTMAX
 10
594.0
 20
420.0
 30
0.0
  9
$LIMMIN
 10
0.0
 20
0.0
  9
$LIMMAX
 10
594.0
 20
420.0
  9
$ORTHOMODE
 70
     0
  9
$REGENMODE
 70
     1
  9
$FILLMODE
 70
     1
  9
$QTEXTMODE
 70
     0
  9
$MIRRTEXT
 70
     1
  9
$LTSCALE
 40
1.0
  9
$ATTMODE
 70
     1
  9
$TEXTSIZE
 40
3.5
  9
$TRACEWID
 40
1.0
  9
$TEXTSTYLE
  7
Standard
  9
$CLAYER
  8
0
  9
$CELTYPE
  6
ByLayer
  9
$CECOLOR
 62
   256
  9
$CELTSCALE
 40
1.0
  9
$DISPSILH
 70
     0
  9
$DIMSCALE
 40
1.0
  9
$DIMASZ
 40
3.5
  9
$DIMEXO
 40
1.0
  9
$DIMDLI
 40
3.75
  9
$DIMRND
 40
0.0
  9
$DIMDLE
 40
0.0
  9
$DIMEXE
 40
1.0
  9
$DIMTP
 40
0.0
  9
$DIMTM
 40
0.0
  9
$DIMTXT
 40
3.5
  9
$DIMCEN
 40
2.5
  9
$DIMTSZ
 40
0.0
  9
$DIMTOL
 70
     0
  9
$DIMLIM
 70
     0
  9
$DIMTIH
 70
     1
  9
$DIMTOH
 70
     1
  9
$DIMSE1
 70
     0
  9
$DIMSE2
 70
     0
  9
$DIMTAD
 70
     1
  9
$DIMZIN
 70
     0
  9
$DIMBLK
  1

  9
$DIMASO
 70
     1
  9
$DIMSHO
 70
     1
  9
$DIMPOST
  1

  9
$DIMAPOST
  1

  9
$DIMALT
 70
     0
  9
$DIMALTD
 70
     3
  9
$DIMALTF
 40
0.0393700787
  9
$DIMLFAC
 40
1.0
  9
$DIMTOFL
 70
     1
  9
$DIMTVP
 40
0.0
  9
$DIMTIX
 70
     0
  9
$DIMSOXD
 70
     0
  9
$DIMSAH
 70
     0
  9
$DIMBLK1
  1

  9
$DIMBLK2
  1

  9
$DIMSTYLE
  2
ISO-25
  9
$DIMCLRD
 70
     0
  9
$DIMCLRE
 70
     0
  9
$DIMCLRT
 70
     0
  9
$DIMTFAC
 40
1.0
  9
$DIMGAP
 40
4.0
  9
$DIMJUST
 70
     0
  9
$DIMSD1
 70
     0
  9
$DIMSD2
 70
     0
  9
$DIMTOLJ
 70
     0
  9
$DIMTZIN
 70
     0
  9
$DIMALTZ
 70
     0
  9
$DIMALTTZ
 70
     0
  9
$DIMUPT
 70
     0
  9
$DIMDEC
 70
     1
  9
$DIMTDEC
 70
     1
  9
$DIMALTU
 70
     2
  9
$DIMALTTD
 70
     3
  9
$DIMTXSTY
  7
Standard
  9
$DIMAUNIT
 70
     0
  9
$DIMADEC
 70
     1
  9
$DIMALTRND
 40
0.0
  9
$DIMAZIN
 70
     0
  9
$DIMDSEP
 70
    44
  9
$DIMATFIT
 70
     3
  9
$DIMFRAC
 70
     0
  9
$DIMLDRBLK
  1

  9
$DIMLUNIT
 70
     2
  9
$DIMLWD
 70
    -2
  9
$DIMLWE
 70
    -2
  9
$DIMTMOVE
 70
     0
  9
$LUNITS
 70
     2
  9
$LUPREC
 70
     1
  9
$SKETCHINC
 40
1.0
  9
$FILLETRAD
 40
10.0
  9
$AUNITS
 70
     0
  9
$AUPREC
 70
     1
  9
$MENU
  1
.
  9
$ELEVATION
 40
0.0
  9
$PELEVATION
 40
0.0
  9
$THICKNESS
 40
0.0
  9
$LIMCHECK
 70
     0
  9
$CHAMFERA
 40
10.0
  9
$CHAMFERB
 40
10.0
  9
$CHAMFERC
 40
20.0
  9
$CHAMFERD
 40
0.0
  9
$SKPOLY
 70
     0
  9
$TDCREATE
 40
2456156.49200897
  9
$TDUCREATE
 40
2456156.408675637
  9
$TDUPDATE
 40
2456156.492008981
  9
$TDUUPDATE
 40
2456156.408675648
  9
$TDINDWG
 40
0.0000000116
  9
$TDUSRTIMER
 40
0.0000000116
  9
$USRTIMER
 70
     1
  9
$ANGBASE
 50
0.0
  9
$ANGDIR
 70
     0
  9
$PDMODE
 70
     0
  9
$PDSIZE
 40
-1.0
  9
$PLINEWID
 40
0.0
  9
$SPLFRAME
 70
     0
  9
$SPLINETYPE
 70
     6
  9
$SPLINESEGS
 70
     8
  9
$HANDSEED
  5
43F
  9
$SURFTAB1
 70
     6
  9
$SURFTAB2
 70
     6
  9
$SURFTYPE
 70
     6
  9
$SURFU
 70
     6
  9
$SURFV
 70
     6
  9
$UCSBASE
  2

  9
$UCSNAME
  2

  9
$UCSORG
 10
0.0
 20
0.0
 30
0.0
  9
$UCSXDIR
 10
1.0
 20
0.0
 30
0.0
  9
$UCSYDIR
 10
0.0
 20
1.0
 30
0.0
  9
$UCSORTHOREF
  2

  9
$UCSORTHOVIEW
 70
     0
  9
$UCSORGTOP
 10
0.0
 20
0.0
 30
0.0
  9
$UCSORGBOTTOM
 10
0.0
 20
0.0
 30
0.0
  9
$UCSORGLEFT
 10
0.0
 20
0.0
 30
0.0
  9
$UCSORGRIGHT
 10
0.0
 20
0.0
 30
0.0
  9
$UCSORGFRONT
 10
0.0
 20
0.0
 30
0.0
  9
$UCSORGBACK
 10
0.0
 20
0.0
 30
0.0
  9
$PUCSBASE
  2

  9
$PUCSNAME
  2

  9
$PUCSORG
 10
0.0
 20
0.0
 30
0.0
  9
$PUCSXDIR
 10
1.0
 20
0.0
 30
0.0
  9
$PUCSYDIR
 10
0.0
 20
1.0
 30
0.0
  9
$PUCSORTHOREF
  2

  9
$PUCSORTHOVIEW
 70
     0
  9
$PUCSORGTOP
 10
0.0
 20
0.0
 30
0.0
  9
$PUCSORGBOTTOM
 10
0.0
 20
0.0
 30
0.0
  9
$PUCSORGLEFT
 10
0.0
 20
0.0
 30
0.0
  9
$PUCSORGRIGHT
 10
0.0
 20
0.0
 30
0.0
  9
$PUCSORGFRONT
 10
0.0
 20
0.0
 30
0.0
  9
$PUCSORGBACK
 10
0.0
 20
0.0
 30
0.0
  9
$USERI1
 70
     0
  9
$USERI2
 70
     0
  9
$USERI3
 70
     0
  9
$USERI4
 70
     0
  9
$USERI5
 70
     0
  9
$USERR1
 40
0.0
  9
$USERR2
 40
0.0
  9
$USERR3
 40
0.0
  9
$USERR4
 40
0.0
  9
$USERR5
 40
0.0
  9
$WORLDVIEW
 70
     1
  9
$SHADEDGE
 70
     3
  9
$SHADEDIF
 70
    70
  9
$TILEMODE
 70
     1
  9
$MAXACTVP
 70
    64
  9
$PINSBASE
 10
0.0
 20
0.0
 30
0.0
  9
$PLIMCHECK
 70
     0
  9
$PEXTMIN
 10
1.0000000000E+20
 20
1.0000000000E+20
 30
1.0000000000E+20
  9
$PEXTMAX
 10
-1.0000000000E+20
 20
-1.0000000000E+20
 30
-1.0000000000E+20
  9
$PLIMMIN
 10
0.0
 20
0.0
  9
$PLIMMAX
 10
420.0
 20
297.0
  9
$UNITMODE
 70
     0
  9
$VISRETAIN
 70
     1
  9
$PLINEGEN
 70
     0
  9
$PSLTSCALE
 70
     1
  9
$TREEDEPTH
 70
  3020
  9
$CMLSTYLE
  2
Standard
  9
$CMLJUST
 70
     0
  9
$CMLSCALE
 40
20.0
  9
$PROXYGRAPHICS
 70
     1
  9
$MEASUREMENT
 70
     1
  9
$CELWEIGHT
370
    -1
  9
$ENDCAPS
280
     0
  9
$JOINSTYLE
280
     0
  9
$LWDISPLAY
290
     1
  9
$INSUNITS
 70
     4
  9
$HYPERLINKBASE
  1

  9
$STYLESHEET
  1

  9
$XEDIT
290
     1
  9
$CEPSNTYPE
380
     0
  9
$PSTYLEMODE
290
     1
  9
$FINGERPRINTGUID
  2
{7E501744-7EDA-45A9-ABA2-A4BB1F229A8D}
  9
$VERSIONGUID
  2
{FAEB1C32-E019-11D5-929B-00C0DF256EC4}
  9
$EXTNAMES
290
     1
  9
$PSVPSCALE
 40
0.0
  9
$OLESTARTUP
290
     0
  0
ENDSEC
  0
SECTION
  2
CLASSES
  0
CLASS
  1
ACDBDICTIONARYWDFLT
  2
AcDbDictionaryWithDefault
  3
ObjectDBX Classes
 90
        0
280
     0
281
     0
  0
CLASS
  1
VISUALSTYLE
  2
AcDbVisualStyle
  3
ObjectDBX Classes
 90
     4095
280
     0
281
     0
  0
CLASS
  1
MATERIAL
  2
AcDbMaterial
  3
ObjectDBX Classes
 90
     1153
280
     0
281
     0
  0
CLASS
  1
ACDBPLACEHOLDER
  2
AcDbPlaceHolder
  3
ObjectDBX Classes
 90
        0
280
     0
281
     0
  0
CLASS
  1
LAYOUT
  2
AcDbLayout
  3
ObjectDBX Classes
 90
        0
280
     0
281
     0
  0
ENDSEC
  0
SECTION
  2
TABLES
  0
TABLE
  2
VPORT
  5
8
330
0
100
AcDbSymbolTable
 70
     1
  0
VPORT
  5
29
330
8
100
AcDbSymbolTableRecord
100
AcDbViewportTableRecord
  2
*Active
 70
     0
 10
0.0
 20
0.0
 11
1.0
 21
1.0
 12
297.0
 22
210.0
 13
0.0
 23
0.0
 14
10.0
 24
10.0
 15
10.0
 25
10.0
 16
0.0
 26
0.0
 36
1.0
 17
0.0
 27
0.0
 37
0.0
 40
420.0
 41
1.4142857143
 42
50.0
 43
0.0
 44
0.0
 50
0.0
 51
0.0
 71
     0
 72
  2000
 73
     1
 74
     3
 75
     0
 76
     0
 77
     0
 78
     0
281
     0
 65
     1
110
0.0
120
0.0
130
0.0
111
1.0
121
0.0
131
0.0
112
0.0
122
1.0
132
0.0
 79
     0
146
0.0
  0
ENDTAB
  0
TABLE
  2
LTYPE
  5
5
330
0
100
AcDbSymbolTable
 70
     6
  0
LTYPE
  5
14
330
5
100
AcDbSymbolTableRecord
100
AcDbLinetypeTableRecord
  2
ByBlock
 70
     0
  3

 72
    65
 73
     0
 40
0.0
  0
LTYPE
  5
15
330
5
100
AcDbSymbolTableRecord
100
AcDbLinetypeTableRecord
  2
ByLayer
 70
     0
  3

 72
    65
 73
     0
 40
0.0
  0
LTYPE
  5
16
330
5
100
AcDbSymbolTableRecord
100
AcDbLinetypeTableRecord
  2
Continuous
 70
     0
  3
Solid line
 72
    65
 73
     0
 40
0.0
  0
LTYPE
  5
3F
330
5
100
AcDbSymbolTableRecord
100
AcDbLinetypeTableRecord
  2
HIDDEN
 70
     0
  3
Hidden __ __ __ __ __ __ __ __ __ __ __ __ __ __
 72
    65
 73
     2
 40
1.905
 49
1.27
 74
     0
 49
-0.635
 74
     0
  0
LTYPE
  5
40
330
5
100
AcDbSymbolTableRecord
100
AcDbLinetypeTableRecord
  2
PHANTOM
 70
     0
  3
Phantom ______  __  __  ______  __  __  ______
 72
    65
 73
     6
 40
12.7
 49
6.35
 74
     0
 49
-1.27
 74
     0
 49
1.27
 74
     0
 49
-1.27
 74
     0
 49
1.27
 74
     0
 49
-1.27
 74
     0
  0
LTYPE
  5
41
330
5
100
AcDbSymbolTableRecord
100
AcDbLinetypeTableRecord
  2
CENTER
 70
     0
  3
Center ____ _ ____ _ ____ _ ____ _ ____ _ ____
 72
    65
 73
     4
 40
10.16
 49
6.35
 74
     0
 49
-1.27
 74
     0
 49
1.27
 74
     0
 49
-1.27
 74
     0
  0
LTYPE
  5
42
330
5
100
AcDbSymbolTableRecord
100
AcDbLinetypeTableRecord
  2
CENTERX2
 70
     0
  3
Center (2x) ________  __  ________  __  _____
 72
    65
 73
     4
 40
20.32
 49
12.7
 74
     0
 49
-2.54
 74
     0
 49
2.54
 74
     0
 49
-2.54
 74
     0
  0
LTYPE
  5
43
330
5
100
AcDbSymbolTableRecord
100
AcDbLinetypeTableRecord
  2
DOT2
 70
     0
  3
Dot (.5x) ........................................
 72
    65
 73
     2
 40
0.635
 49
0.0
 74
     0
 49
-0.635
 74
     0
  0
ENDTAB
  0
TABLE
  2
LAYER
  5
2
330
0
100
AcDbSymbolTable
 70
     5
  0
LAYER
  5
10
330
2
100
AcDbSymbolTableRecord
100
AcDbLayerTableRecord
  2
0
 70
     0
 62
     7
  6
Continuous
370
    -3
390
F
  0
LAYER
  5
44
330
2
100
AcDbSymbolTableRecord
100
AcDbLayerTableRecord
  2
VORLAGE
 70
     0
 62
    -1
  6
Continuous
370
    -3
390
F
  0
LAYER
  5
45
330
2
100
AcDbSymbolTableRecord
100
AcDbLayerTableRecord
  2
RAHMEN
 70
     0
 62
   179
  6
Continuous
370
    -3
390
F
  0
LAYER
  5
46
330
2
100
AcDbSymbolTableRecord
100
AcDbLayerTableRecord
  2
KOPF
 70
     0
 62
     7
  6
Continuous
370
    -3
390
F
  0
LAYER
  5
47
330
2
100
AcDbSymbolTableRecord
100
AcDbLayerTableRecord
  2
TEMP
 70
     0
 62
    -7
  6
Continuous
370
    -3
390
F
  0
ENDTAB
  0
TABLE
  2
STYLE
  5
3
330
0
100
AcDbSymbolTable
 70
     2
  0
STYLE
  5
11
330
3
100
AcDbSymbolTableRecord
100
AcDbTextStyleTableRecord
  2
Standard
 70
     0
 40
0.0
 41
1.0
 50
0.0
 71
     0
 42
2.5
  3
txt
  4

  0
STYLE
  5
95
330
3
100
AcDbSymbolTableRecord
100
AcDbTextStyleTableRecord
  2
SLDTEXTSTYLE0
 70
     0
 40
0.0
 41
0.605
 50
0.0
 71
     0
 42
0.2
  3
TXT
  4

  0
ENDTAB
  0
TABLE
  2
VIEW
  5
6
330
0
100
AcDbSymbolTable
 70
     0
  0
ENDTAB
  0
TABLE
  2
UCS
  5
7
330
0
100
AcDbSymbolTable
 70
     0
  0
ENDTAB
  0
TABLE
  2
APPID
  5
9
330
0
100
AcDbSymbolTable
 70
     1
  0
APPID
  5
12
330
9
100
AcDbSymbolTableRecord
100
AcDbRegAppTableRecord
  2
ACAD
 70
     0
  0
ENDTAB
  0
TABLE
  2
DIMSTYLE
  5
A
330
0
100
AcDbSymbolTable
 70
     2
100
AcDbDimStyleTable
  0
DIMSTYLE
105
27
330
A
100
AcDbSymbolTableRecord
100
AcDbDimStyleTableRecord
  2
ISO-25
 70
     0
 41
2.5
 42
0.625
 43
3.75
 44
1.25
 73
     0
 74
     0
 77
     1
 78
     8
140
2.5
141
2.5
143
0.0393700787
147
0.625
171
     3
172
     1
178
     0
271
     2
272
     2
274
     3
278
    44
283
     0
284
     8
340
11
  0
DIMSTYLE
105
96
102
{ACAD_REACTORS
330
94
330
41B
330
427
102
}
330
A
100
AcDbSymbolTableRecord
100
AcDbDimStyleTableRecord
  2
SLDDIMSTYLE0
 70
     0
 41
3.5
 44
0.0
 45
0.000000001
 73
     0
 74
     0
 77
     1
 78
    12
 79
     3
140
3.5
147
0.875
173
     1
178
     0
271
     1
272
     1
276
     2
284
    12
340
95
  0
ENDTAB
  0
TABLE
  2
BLOCK_RECORD
  5
1
330
0
100
AcDbSymbolTable
 70
     5
  0
BLOCK_RECORD
  5
1F
330
1
100
AcDbSymbolTableRecord
100
AcDbBlockTableRecord
  2
*Model_Space
340
22
  0
BLOCK_RECORD
  5
1B
330
1
100
AcDbSymbolTableRecord
100
AcDbBlockTableRecord
  2
*Paper_Space
340
1E
  0
BLOCK_RECORD
  5
23
330
1
100
AcDbSymbolTableRecord
100
AcDbBlockTableRecord
  2
*Paper_Space0
340
26
  0
BLOCK_RECORD
  5
97
330
1
100
AcDbSymbolTableRecord
100
AcDbBlockTableRecord
  2
*D1
340
0
  0
BLOCK_RECORD
  5
41C
330
1
100
AcDbSymbolTableRecord
100
AcDbBlockTableRecord
  2
*D2
340
0
  0
BLOCK_RECORD
  5
428
330
1
100
AcDbSymbolTableRecord
100
AcDbBlockTableRecord
  2
*D3
340
0
  0
BLOCK_RECORD
  5
433
330
1
100
AcDbSymbolTableRecord
100
AcDbBlockTableRecord
  2
SW_CENTERMARKSYMBOL_0
340
0
102
{BLKREFS
331
43E
102
}
  0
ENDTAB
  0
ENDSEC
  0
SECTION
  2
BLOCKS
  0
BLOCK
  5
20
330
1F
100
AcDbEntity
  8
0
100
AcDbBlockBegin
  2
*Model_Space
 70
     0
 10
0.0
 20
0.0
 30
0.0
  3
*Model_Space
  1

  0
ENDBLK
  5
21
330
1F
100
AcDbEntity
  8
0
100
AcDbBlockEnd
  0
BLOCK
  5
1C
330
1B
100
AcDbEntity
 67
     1
  8
0
100
AcDbBlockBegin
  2
*Paper_Space
 70
     0
 10
0.0
 20
0.0
 30
0.0
  3
*Paper_Space
  1

  0
ENDBLK
  5
1D
330
1B
100
AcDbEntity
 67
     1
  8
0
100
AcDbBlockEnd
  0
BLOCK
  5
24
330
23
100
AcDbEntity
  8
0
100
AcDbBlockBegin
  2
*Paper_Space0
 70
     0
 10
0.0
 20
0.0
 30
0.0
  3
*Paper_Space0
  1

  0
ENDBLK
  5
25
330
23
100
AcDbEntity
  8
0
100
AcDbBlockEnd
  0
BLOCK
  5
98
330
97
100
AcDbEntity
  8
0
100
AcDbBlockBegin
  2
*D1
 70
     1
 10
0.0
 20
0.0
 30
0.0
  3
*D1
  1

  0
ARC
  5
9A
330
97
100
AcDbEntity
  8
0
  6
Continuous
 62
     7
370
     0
100
AcDbCircle
 10
146.529713655
 20
192.2695783523
 30
0.0
 40
6.004840602299559
100
AcDbArc
 50
243.4349488229
 51
296.5650511771
  0
ARC
  5
9B
330
97
100
AcDbEntity
  8
0
  6
Continuous
 62
     7
370
     0
100
AcDbCircle
 10
146.529713655
 20
196.7339410797
 30
0.0
 40
6.004840602299573
100
AcDbArc
 50
63.4349488229
 51
116.5650511771
  0
SOLID
  5
9C
330
97
100
AcDbEntity
  8
0
  6
Continuous
 62
     7
370
     0
100
AcDbTrace
 10
149.2151600112
 20
404.8916556291
 30
0.0
 11
148.3151600112
 21
401.3916556291
 31
0.0
 12
150.1151600112
 22
401.3916556291
 32
0.0
 13
150.1151600112
 23
401.3916556291
 33
0.0
  0
SOLID
  5
9D
330
97
100
AcDbEntity
  8
0
  6
Continuous
 62
     7
370
     0
100
AcDbTrace
 10
149.2151600112
 20
22.3916556291
 30
0.0
 11
150.1151600112
 21
25.8916556291
 31
0.0
 12
148.3151600112
 22
25.8916556291
 32
0.0
 13
148.3151600112
 23
25.8916556291
 33
0.0
  0
LINE
  5
9E
330
97
100
AcDbEntity
  8
0
  6
Continuous
 62
     7
370
     0
100
AcDbLine
 10
97.4609271523
 20
404.8916556291
 30
0.0
 11
150.2151600112
 21
404.8916556291
 31
0.0
  0
LINE
  5
9F
330
97
100
AcDbEntity
  8
0
  6
Continuous
 62
     7
370
     0
100
AcDbLine
 10
122.1097767036
 20
22.3916556291
 30
0.0
 11
150.2151600112
 21
22.3916556291
 31
0.0
  0
LINE
  5
A0
330
97
100
AcDbEntity
  8
0
  6
Continuous
 62
     7
370
     0
100
AcDbLine
 10
149.2151600112
 20
404.8916556291
 30
0.0
 11
149.2151600112
 21
22.3916556291
 31
0.0
  0
MTEXT
  5
A1
330
97
100
AcDbEntity
  8
0
  6
Continuous
 62
     7
370
     0
100
AcDbMText
 10
144.7034226891
 20
188.48618564
 30
0.0
 40
3.5
 41
0.0
 71
     1
 72
     1
  1
382.5
  7
SLDTEXTSTYLE0
 11
-7.044195017643634E-15
 21
1.0
 31
0.0
 73
     1
 44
1.0
  0
ENDBLK
  5
99
330
97
100
AcDbEntity
  8
0
100
AcDbBlockEnd
  0
BLOCK
  5
41D
330
41C
100
AcDbEntity
  8
0
100
AcDbBlockBegin
  2
*D2
 70
     1
 10
0.0
 20
0.0
 30
0.0
  3
*D2
  1

  0
ARC
  5
41F
330
41C
100
AcDbEntity
  8
0
  6
Continuous
 62
     7
370
     0
100
AcDbCircle
 10
355.6105405053
 20
228.0237633837
 30
0.0
 40
6.004840602299598
100
AcDbArc
 50
153.4349488229
 51
206.5650511771
  0
ARC
  5
420
330
41C
100
AcDbEntity
  8
0
  6
Continuous
 62
     7
370
     0
100
AcDbCircle
 10
360.0749032327
 20
228.0237633837
 30
0.0
 40
6.004840602299547
100
AcDbArc
 50
333.4349488229
 51
26.5650511771
  0
SOLID
  5
421
330
41C
100
AcDbEntity
  8
0
  6
Continuous
 62
     7
370
     0
100
AcDbTrace
 10
307.6194443203
 20
225.3383170276
 30
0.0
 11
311.1194443203
 21
224.4383170276
 31
0.0
 12
311.1194443203
 22
226.2383170276
 32
0.0
 13
311.1194443203
 23
226.2383170276
 33
0.0
  0
SOLID
  5
422
330
41C
100
AcDbEntity
  8
0
  6
Continuous
 62
     7
370
     0
100
AcDbTrace
 10
409.1194443203
 20
225.3383170276
 30
0.0
 11
405.6194443203
 21
226.2383170276
 31
0.0
 12
405.6194443203
 22
224.4383170276
 32
0.0
 13
405.6194443203
 23
224.4383170276
 33
0.0
  0
LINE
  5
423
330
41C
100
AcDbEntity
  8
0
  6
Continuous
 62
     7
370
     0
100
AcDbLine
 10
307.6194443203
 20
242.9180185997
 30
0.0
 11
307.6194443203
 21
224.3383170276
 31
0.0
  0
LINE
  5
424
330
41C
100
AcDbEntity
  8
0
  6
Continuous
 62
     7
370
     0
100
AcDbLine
 10
409.1194443203
 20
242.9180185997
 30
0.0
 11
409.1194443203
 21
224.3383170276
 31
0.0
  0
LINE
  5
425
330
41C
100
AcDbEntity
  8
0
  6
Continuous
 62
     7
370
     0
100
AcDbLine
 10
307.6194443203
 20
225.3383170276
 30
0.0
 11
409.1194443203
 21
225.3383170276
 31
0.0
  0
MTEXT
  5
426
330
41C
100
AcDbEntity
  8
0
  6
Continuous
 62
     7
370
     0
100
AcDbMText
 10
351.827147793
 20
229.8500543496
 30
0.0
 40
3.5
 41
0.0
 71
     1
 72
     1
  1
101.5
  7
SLDTEXTSTYLE0
 73
     1
 44
1.0
  0
ENDBLK
  5
41E
330
41C
100
AcDbEntity
  8
0
100
AcDbBlockEnd
  0
BLOCK
  5
429
330
428
100
AcDbEntity
  8
0
100
AcDbBlockBegin
  2
*D3
 70
     1
 10
0.0
 20
0.0
 30
0.0
  3
*D3
  1

  0
ARC
  5
42B
330
428
100
AcDbEntity
  8
0
  6
Continuous
 62
     7
370
     0
100
AcDbCircle
 10
295.6593913928
 20
286.7400671625
 30
0.0
 40
6.004840602299573
100
AcDbArc
 50
243.4349488229
 51
296.5650511771
  0
ARC
  5
42C
330
428
100
AcDbEntity
  8
0
  6
Continuous
 62
     7
370
     0
100
AcDbCircle
 10
295.6593913928
 20
287.1925951874
 30
0.0
 40
6.004840602299623
100
AcDbArc
 50
63.4349488229
 51
116.5650511771
  0
SOLID
  5
42D
330
428
100
AcDbEntity
  8
0
  6
Continuous
 62
     7
370
     0
100
AcDbTrace
 10
298.3448377489
 20
362.9180185997
 30
0.0
 11
297.4448377489
 21
359.4180185997
 31
0.0
 12
299.2448377489
 22
359.4180185997
 32
0.0
 13
299.2448377489
 23
359.4180185997
 33
0.0
  0
SOLID
  5
42E
330
428
100
AcDbEntity
  8
0
  6
Continuous
 62
     7
370
     0
100
AcDbTrace
 10
298.3448377489
 20
235.9180185997
 30
0.0
 11
299.2448377489
 21
239.4180185997
 31
0.0
 12
297.4448377489
 22
239.4180185997
 32
0.0
 13
297.4448377489
 23
239.4180185997
 33
0.0
  0
LINE
  5
42F
330
428
100
AcDbEntity
  8
0
  6
Continuous
 62
     7
370
     0
100
AcDbLine
 10
331.6694443203
 20
362.9180185997
 30
0.0
 11
297.3448377489
 21
362.9180185997
 31
0.0
  0
LINE
  5
430
330
428
100
AcDbEntity
  8
0
  6
Continuous
 62
     7
370
     0
100
AcDbLine
 10
314.6194443203
 20
235.9180185997
 30
0.0
 11
297.3448377489
 21
235.9180185997
 31
0.0
  0
LINE
  5
431
330
428
100
AcDbEntity
  8
0
  6
Continuous
 62
     7
370
     0
100
AcDbLine
 10
298.3448377489
 20
362.9180185997
 30
0.0
 11
298.3448377489
 21
235.9180185997
 31
0.0
  0
MTEXT
  5
432
330
428
100
AcDbEntity
  8
0
  6
Continuous
 62
     7
370
     0
100
AcDbMText
 10
293.8331004269
 20
282.9566744501
 30
0.0
 40
3.5
 41
0.0
 71
     1
 72
     1
  1
127
  7
SLDTEXTSTYLE0
 11
-7.044195017643634E-15
 21
1.0
 31
0.0
 73
     1
 44
1.0
  0
ENDBLK
  5
42A
330
428
100
AcDbEntity
  8
0
100
AcDbBlockEnd
  0
BLOCK
  5
434
330
433
100
AcDbEntity
  8
0
100
AcDbBlockBegin
  2
SW_CENTERMARKSYMBOL_0
 70
     0
 10
0.0
 20
0.0
 30
0.0
  3
SW_CENTERMARKSYMBOL_0
  1

  0
LINE
  5
436
330
433
100
AcDbEntity
  8
0
  6
Continuous
 62
     0
370
     0
100
AcDbLine
 10
0.0
 20
0.0
 30
0.0
 11
0.0
 21
2.5
 31
0.0
  0
LINE
  5
437
330
433
100
AcDbEntity
  8
0
  6
Continuous
 62
     0
370
     0
100
AcDbLine
 10
0.0
 20
0.0
 30
0.0
 11
-2.5
 21
0.0
 31
0.0
  0
LINE
  5
438
330
433
100
AcDbEntity
  8
0
  6
Continuous
 62
     0
370
     0
100
AcDbLine
 10
0.0
 20
0.0
 30
0.0
 11
0.0
 21
-2.5
 31
0.0
  0
LINE
  5
439
330
433
100
AcDbEntity
  8
0
  6
Continuous
 62
     0
370
     0
100
AcDbLine
 10
0.0
 20
0.0
 30
0.0
 11
2.5
 21
0.0
 31
0.0
  0
LINE
  5
43A
330
433
100
AcDbEntity
  8
0
  6
Continuous
 62
     0
370
     0
100
AcDbLine
 10
0.0
 20
5.0
 30
0.0
 11
0.0
 21
78.6736285018
 31
0.0
  0
LINE
  5
43B
330
433
100
AcDbEntity
  8
0
  6
Continuous
 62
     0
370
     0
100
AcDbLine
 10
-5.0
 20
0.0
 30
0.0
 11
-56.5544036905
 21
0.0
 31
0.0
  0
LINE
  5
43C
330
433
100
AcDbEntity
  8
0
  6
Continuous
 62
     0
370
     0
100
AcDbLine
 10
0.0
 20
-5.0
 30
0.0
 11
0.0
 21
-53.8690609356
 31
0.0
  0
LINE
  5
43D
330
433
100
AcDbEntity
  8
0
  6
Continuous
 62
     0
370
     0
100
AcDbLine
 10
5.0
 20
0.0
 30
0.0
 11
56.2834819876
 21
0.0
 31
0.0
  0
ENDBLK
  5
435
330
433
100
AcDbEntity
  8
0
100
AcDbBlockEnd
  0
ENDSEC
  0
SECTION
  2
ENTITIES
  0
ARC
  5
48
330
1F
100
AcDbEntity
  8
0
  6
Continuous
 62
     7
370
    30
100
AcDbCircle
 10
95.3509271523
 20
400.3916556291
 30
0.0
 40
0.8900000000000444
100
AcDbArc
 50
277.0996552363
 51
82.9003447637
  0
ARC
  5
49
330
1F
100
AcDbEntity
  8
0
  6
Continuous
 62
     7
370
    30
100
AcDbCircle
 10
79.5709271523
 20
400.3916556291
 30
0.0
 40
0.8900000000000444
100
AcDbArc
 50
97.0996552363
 51
262.9003447637
  0
LINE
  5
4A
330
1F
100
AcDbEntity
  8
0
  6
Continuous
 62
     7
370
    30
100
AcDbLine
 10
97.4609269288
 20
159.8916567318
 30
0.0
 11
97.4609269288
 21
254.8916518144
 31
0.0
  0
LINE
  5
4B
330
1F
100
AcDbEntity
  8
0
  6
Continuous
 62
     7
370
    30
100
AcDbLine
 10
77.4609273758
 20
254.8916518144
 30
0.0
 11
77.4609273758
 21
159.8916567318
 31
0.0
  0
LINE
  5
4C
330
1F
100
AcDbEntity
  8
0
  6
Continuous
 62
     7
370
    30
100
AcDbLine
 10
96.4609267649
 20
401.8916665964
 30
0.0
 11
96.4609267649
 21
403.8916408472
 31
0.0
  0
LINE
  5
4D
330
1F
100
AcDbEntity
  8
0
  6
Continuous
 62
     7
370
    30
100
AcDbLine
 10
78.4609275397
 20
403.8916408472
 30
0.0
 11
78.4609275397
 21
401.8916665964
 31
0.0
  0
LINE
  5
4E
330
1F
100
AcDbEntity
  8
0
  6
Continuous
 62
     7
370
    30
100
AcDbLine
 10
95.4609275323
 20
254.8916518144
 30
0.0
 11
95.4609275323
 21
399.5084940843
 31
0.0
  0
LINE
  5
4F
330
1F
100
AcDbEntity
  8
0
  6
Continuous
 62
     7
370
    30
100
AcDbLine
 10
95.4609275323
 20
401.2748181276
 30
0.0
 11
95.4609275323
 21
401.8916665964
 31
0.0
  0
LINE
  5
50
330
1F
100
AcDbEntity
  8
0
  6
Continuous
 62
     7
370
    30
100
AcDbLine
 10
79.4609267723
 20
401.8916665964
 30
0.0
 11
79.4609267723
 21
401.2748181276
 31
0.0
  0
LINE
  5
51
330
1F
100
AcDbEntity
  8
0
  6
Continuous
 62
     7
370
    30
100
AcDbLine
 10
79.4609267723
 20
399.5084940843
 30
0.0
 11
79.4609267723
 21
254.8916518144
 31
0.0
  0
LINE
  5
52
330
1F
100
AcDbEntity
  8
0
  6
Continuous
 62
     7
370
    30
100
AcDbLine
 10
89.0252763166
 20
22.3916574769
 30
0.0
 11
89.0252763166
 21
22.3791554026
 31
0.0
  0
LINE
  5
53
330
1F
100
AcDbEntity
  8
0
  6
Continuous
 62
     7
370
    30
100
AcDbLine
 10
97.4609269288
 20
254.8916518144
 30
0.0
 11
77.4609273758
 21
254.8916518144
 31
0.0
  0
LINE
  5
54
330
1F
100
AcDbEntity
  8
0
  6
Continuous
 62
     7
370
    30
100
AcDbLine
 10
96.4609267649
 20
403.8916408472
 30
0.0
 11
78.4609275397
 21
403.8916408472
 31
0.0
  0
LINE
  5
55
330
1F
100
AcDbEntity
  8
0
  6
Continuous
 62
     7
370
    30
100
AcDbLine
 10
96.4609267649
 20
401.8916665964
 30
0.0
 11
78.4609275397
 21
401.8916665964
 31
0.0
  0
LINE
  5
56
330
1F
100
AcDbEntity
  8
0
  6
Continuous
 62
     7
370
    30
100
AcDbLine
 10
42.9183947381
 20
159.8916567318
 30
0.0
 11
48.9101740059
 21
159.8916567318
 31
0.0
  0
ARC
  5
57
330
1F
100
AcDbEntity
  8
0
  6
Continuous
 62
     7
370
    30
100
AcDbCircle
 10
42.9183961063
 20
158.8916556291
 30
0.0
 40
1.000000000000004
100
AcDbArc
 50
90.0
 51
183.0
  0
LINE
  5
58
330
1F
100
AcDbEntity
  8
0
  6
Continuous
 62
     7
370
    30
100
AcDbLine
 10
48.9101740059
 20
159.8916567318
 30
0.0
 11
126.0116802987
 21
159.8916567318
 31
0.0
  0
LINE
  5
59
330
1F
100
AcDbEntity
  8
0
  6
Continuous
 62
     7
370
    30
100
AcDbLine
 10
126.0116802987
 20
159.8916567318
 30
0.0
 11
132.0034595665
 21
159.8916567318
 31
0.0
  0
ARC
  5
5A
330
1F
100
AcDbEntity
  8
0
  6
Continuous
 62
     7
370
    30
100
AcDbCircle
 10
132.0034581984
 20
158.8916556291
 30
0.0
 40
1.0
100
AcDbArc
 50
357.0
 51
90.0
  0
LINE
  5
5B
330
1F
100
AcDbEntity
  8
0
  6
Continuous
 62
     7
370
    30
100
AcDbLine
 10
42.9913843509
 20
138.3916560017
 30
0.0
 11
41.9197673437
 21
158.8393181019
 31
0.0
  0
LINE
  5
5C
330
1F
100
AcDbEntity
  8
0
  6
Continuous
 62
     7
370
    30
100
AcDbLine
 10
133.002086961
 20
158.8393181019
 30
0.0
 11
131.9304699537
 21
138.3916560017
 31
0.0
  0
LINE
  5
5D
330
1F
100
AcDbEntity
  8
0
  6
Continuous
 62
     7
370
    30
100
AcDbLine
 10
51.3155045447
 20
24.7608154468
 30
0.0
 11
46.6181518969
 21
114.3916556766
 31
0.0
  0
LINE
  5
5E
330
1F
100
AcDbEntity
  8
0
  6
Continuous
 62
     7
370
    30
100
AcDbLine
 10
128.3037024078
 20
114.3916556766
 30
0.0
 11
123.60634976
 21
24.7608154468
 31
0.0
  0
LINE
  5
5F
330
1F
100
AcDbEntity
  8
0
  6
Continuous
 62
     7
370
    30
100
AcDbLine
 10
116.6159430978
 20
22.3916574769
 30
0.0
 11
58.3059112069
 21
22.3916574769
 31
0.0
  0
LINE
  5
60
330
1F
100
AcDbEntity
  8
0
  6
Continuous
 62
     7
370
    30
100
AcDbLine
 10
58.3059112069
 20
22.3916574769
 30
0.0
 11
53.8120786187
 21
22.3916574769
 31
0.0
  0
ARC
  5
61
330
1F
100
AcDbEntity
  8
0
  6
Continuous
 62
     7
370
    30
100
AcDbCircle
 10
53.812077601
 20
24.8916556291
 30
0.0
 40
2.5
100
AcDbArc
 50
183.0
 51
270.0
  0
ARC
  5
62
330
1F
100
AcDbEntity
  8
0
  6
Continuous
 62
     7
370
    30
100
AcDbCircle
 10
121.1097767036
 20
24.8916556291
 30
0.0
 40
2.5
100
AcDbArc
 50
270.0
 51
357.0
  0
LINE
  5
63
330
1F
100
AcDbEntity
  8
0
  6
Continuous
 62
     7
370
    30
100
AcDbLine
 10
121.1097756859
 20
22.3916574769
 30
0.0
 11
116.6159430978
 21
22.3916574769
 31
0.0
  0
LINE
  5
64
330
1F
100
AcDbEntity
  8
0
  6
Continuous
 62
     7
370
    30
100
AcDbLine
 10
38.7109289405
 20
136.3916556738
 30
0.0
 11
38.7109289405
 21
138.3916560017
 31
0.0
  0
LINE
  5
65
330
1F
100
AcDbEntity
  8
0
  6
Continuous
 62
     7
370
    30
100
AcDbLine
 10
38.7109289405
 20
138.3916560017
 30
0.0
 11
47.2109275397
 21
138.3916560017
 31
0.0
  0
LINE
  5
66
330
1F
100
AcDbEntity
  8
0
  6
Continuous
 62
     7
370
    30
100
AcDbLine
 10
47.2109275397
 20
138.3916560017
 30
0.0
 11
127.7109267649
 21
138.3916560017
 31
0.0
  0
LINE
  5
67
330
1F
100
AcDbEntity
  8
0
  6
Continuous
 62
     7
370
    30
100
AcDbLine
 10
136.2109253642
 20
136.3916556738
 30
0.0
 11
136.2109253642
 21
138.3916560017
 31
0.0
  0
LINE
  5
68
330
1F
100
AcDbEntity
  8
0
  6
Continuous
 62
     7
370
    30
100
AcDbLine
 10
127.7109267649
 20
138.3916560017
 30
0.0
 11
136.2109253642
 21
138.3916560017
 31
0.0
  0
LINE
  5
69
330
1F
100
AcDbEntity
  8
0
  6
Continuous
 62
     7
370
    30
100
AcDbLine
 10
130.210928106
 20
114.3916556766
 30
0.0
 11
44.7109261986
 21
114.3916556766
 31
0.0
  0
LINE
  5
6A
330
1F
100
AcDbEntity
  8
0
  6
Continuous
 62
     7
370
    30
100
AcDbLine
 10
138.210925692
 20
135.8916565232
 30
0.0
 11
138.210925692
 21
114.8916556422
 31
0.0
  0
LINE
  5
6B
330
1F
100
AcDbEntity
  8
0
  6
Continuous
 62
     7
370
    30
100
AcDbLine
 10
44.7109261986
 20
114.3916556766
 30
0.0
 11
37.2109259006
 21
114.3916556766
 31
0.0
  0
ARC
  5
6C
330
1F
100
AcDbEntity
  8
0
  6
Continuous
 62
     7
370
    30
100
AcDbCircle
 10
37.2109271523
 20
114.8916556291
 30
0.0
 40
0.5000000000000426
100
AcDbArc
 50
180.0
 51
270.0
  0
LINE
  5
6D
330
1F
100
AcDbEntity
  8
0
  6
Continuous
 62
     7
370
    30
100
AcDbLine
 10
130.210928106
 20
136.3916556738
 30
0.0
 11
137.710928404
 21
136.3916556738
 31
0.0
  0
ARC
  5
6E
330
1F
100
AcDbEntity
  8
0
  6
Continuous
 62
     7
370
    30
100
AcDbCircle
 10
137.7109271523
 20
135.8916556291
 30
0.0
 40
0.5
100
AcDbArc
 50
0.0
 51
90.0
  0
LINE
  5
6F
330
1F
100
AcDbEntity
  8
0
  6
Continuous
 62
     7
370
    30
100
AcDbLine
 10
44.7109261986
 20
136.3916556738
 30
0.0
 11
130.210928106
 21
136.3916556738
 31
0.0
  0
LINE
  5
70
330
1F
100
AcDbEntity
  8
0
  6
Continuous
 62
     7
370
    30
100
AcDbLine
 10
137.710928404
 20
114.3916556766
 30
0.0
 11
130.210928106
 21
114.3916556766
 31
0.0
  0
ARC
  5
71
330
1F
100
AcDbEntity
  8
0
  6
Continuous
 62
     7
370
    30
100
AcDbCircle
 10
137.7109271523
 20
114.8916556291
 30
0.0
 40
0.5
100
AcDbArc
 50
270.0
 51
0.0
  0
ARC
  5
72
330
1F
100
AcDbEntity
  8
0
  6
Continuous
 62
     7
370
    30
100
AcDbCircle
 10
37.2109271523
 20
135.8916556291
 30
0.0
 40
0.5000000000000284
100
AcDbArc
 50
90.0
 51
180.0
  0
LINE
  5
73
330
1F
100
AcDbEntity
  8
0
  6
Continuous
 62
     7
370
    30
100
AcDbLine
 10
37.2109259006
 20
136.3916556738
 30
0.0
 11
44.7109261986
 21
136.3916556738
 31
0.0
  0
LINE
  5
74
330
1F
100
AcDbEntity
  8
0
  6
Continuous
 62
     7
370
    30
100
AcDbLine
 10
36.7109286126
 20
135.8916565232
 30
0.0
 11
36.7109286126
 21
114.8916556422
 31
0.0
  0
LINE
  5
75
330
1F
100
AcDbEntity
  8
0
  6
Continuous
 62
     8
370
     0
100
AcDbLine
 10
48.9101740059
 20
158.8393181019
 30
0.0
 11
48.9101740059
 21
159.8916567318
 31
0.0
  0
ELLIPSE
  5
76
330
1F
100
AcDbEntity
  8
0
  6
Continuous
 62
     8
370
     0
100
AcDbEllipse
 10
48.9266301823
 20
158.8916556291
 30
0.0
 11
7.006864133796221
 21
0.0523184823678946
 31
0.0
210
0.0
220
0.0
230
0.9999999999999999
 40
0.00745131
 41
3.141927392155202
 42
4.709984663207208
  0
LINE
  5
77
330
1F
100
AcDbEntity
  8
0
  6
Continuous
 62
     8
370
     0
100
AcDbLine
 10
126.0116802987
 20
158.8393181019
 30
0.0
 11
48.9101740059
 21
158.8393181019
 31
0.0
  0
LINE
  5
78
330
1F
100
AcDbEntity
  8
0
  6
Continuous
 62
     8
370
     0
100
AcDbLine
 10
126.0116802987
 20
158.8393181019
 30
0.0
 11
126.0116802987
 21
159.8916567318
 31
0.0
  0
ELLIPSE
  5
79
330
1F
100
AcDbEntity
  8
0
  6
Continuous
 62
     8
370
     0
100
AcDbEllipse
 10
125.9952241224
 20
158.8916556291
 30
0.0
 11
7.006864133796228
 21
-0.05231848236786619
 31
0.0
210
0.0
220
0.0
230
0.9999999999999999
 40
0.00745131
 41
4.714793297562169
 42
6.282850568618001
  0
LINE
  5
7A
330
1F
100
AcDbEntity
  8
0
  6
Continuous
 62
     8
370
     0
100
AcDbLine
 10
48.9101740059
 20
158.8393181019
 30
0.0
 11
49.9817910132
 21
138.3916560017
 31
0.0
  0
LINE
  5
7B
330
1F
100
AcDbEntity
  8
0
  6
Continuous
 62
     8
370
     0
100
AcDbLine
 10
124.9400632915
 20
138.3916560017
 30
0.0
 11
126.0116802987
 21
158.8393181019
 31
0.0
  0
ELLIPSE
  5
7C
330
1F
100
AcDbEntity
  8
0
  6
Continuous
 62
     8
370
     0
100
AcDbEllipse
 10
58.318253158
 20
24.8916556291
 30
0.0
 11
7.002752308332348
 21
0.1307578735743889
 31
0.0
210
0.0
220
0.0
230
0.9999999999999999
 40
0.0186446967
 41
3.14222102536206
 42
4.710278296415477
  0
LINE
  5
7D
330
1F
100
AcDbEntity
  8
0
  6
Continuous
 62
     8
370
     0
100
AcDbLine
 10
53.6085585591
 20
114.3916556766
 30
0.0
 11
58.3059112069
 21
24.7608154468
 31
0.0
  0
ELLIPSE
  5
7E
330
1F
100
AcDbEntity
  8
0
  6
Continuous
 62
     8
370
     0
100
AcDbEllipse
 10
116.6036011466
 20
24.8916556291
 30
0.0
 11
7.002752308332334
 21
-0.1307578735743889
 31
0.0
210
0.0
220
0.0
230
0.9999999999999999
 40
0.0186446967
 41
4.714499664353907
 42
6.282556935408824
  0
LINE
  5
7F
330
1F
100
AcDbEntity
  8
0
  6
Continuous
 62
     8
370
     0
100
AcDbLine
 10
116.6159430978
 20
24.7608154468
 30
0.0
 11
121.3132957455
 21
114.3916556766
 31
0.0
  0
LINE
  5
80
330
1F
100
AcDbEntity
  8
0
  6
Continuous
 62
     8
370
     0
100
AcDbLine
 10
58.3059112069
 20
24.7608154468
 30
0.0
 11
116.6159430978
 21
24.7608154468
 31
0.0
  0
LINE
  5
81
330
1F
100
AcDbEntity
  8
0
  6
Continuous
 62
     8
370
     0
100
AcDbLine
 10
116.6159430978
 20
24.7608154468
 30
0.0
 11
116.6159430978
 21
22.3916574769
 31
0.0
  0
LINE
  5
82
330
1F
100
AcDbEntity
  8
0
  6
Continuous
 62
     8
370
     0
100
AcDbLine
 10
58.3059112069
 20
24.7608154468
 30
0.0
 11
58.3059112069
 21
22.3916574769
 31
0.0
  0
LINE
  5
83
330
1F
100
AcDbEntity
  8
0
  6
Continuous
 62
     8
370
     0
100
AcDbLine
 10
47.2109275397
 20
136.3916556738
 30
0.0
 11
47.2109275397
 21
138.3916560017
 31
0.0
  0
LINE
  5
84
330
1F
100
AcDbEntity
  8
0
  6
Continuous
 62
     8
370
     0
100
AcDbLine
 10
127.7109267649
 20
136.3916556738
 30
0.0
 11
127.7109267649
 21
138.3916560017
 31
0.0
  0
LINE
  5
85
330
1F
100
AcDbEntity
  8
0
  6
Continuous
 62
     8
370
     0
100
AcDbLine
 10
44.7109261986
 20
114.3916556766
 30
0.0
 11
44.7109261986
 21
114.8916556422
 31
0.0
  0
LINE
  5
86
330
1F
100
AcDbEntity
  8
0
  6
Continuous
 62
     8
370
     0
100
AcDbLine
 10
44.7109261986
 20
114.8916556422
 30
0.0
 11
130.210928106
 21
114.8916556422
 31
0.0
  0
LINE
  5
87
330
1F
100
AcDbEntity
  8
0
  6
Continuous
 62
     8
370
     0
100
AcDbLine
 10
130.210928106
 20
114.3916556766
 30
0.0
 11
130.210928106
 21
114.8916556422
 31
0.0
  0
LINE
  5
88
330
1F
100
AcDbEntity
  8
0
  6
Continuous
 62
     8
370
     0
100
AcDbLine
 10
130.210928106
 20
114.8916556422
 30
0.0
 11
138.210925692
 21
114.8916556422
 31
0.0
  0
LINE
  5
89
330
1F
100
AcDbEntity
  8
0
  6
Continuous
 62
     8
370
     0
100
AcDbLine
 10
130.210928106
 20
114.8916556422
 30
0.0
 11
130.210928106
 21
135.8916565232
 31
0.0
  0
LINE
  5
8A
330
1F
100
AcDbEntity
  8
0
  6
Continuous
 62
     8
370
     0
100
AcDbLine
 10
138.210925692
 20
135.8916565232
 30
0.0
 11
130.210928106
 21
135.8916565232
 31
0.0
  0
LINE
  5
8B
330
1F
100
AcDbEntity
  8
0
  6
Continuous
 62
     8
370
     0
100
AcDbLine
 10
36.7109286126
 20
114.8916556422
 30
0.0
 11
44.7109261986
 21
114.8916556422
 31
0.0
  0
LINE
  5
8C
330
1F
100
AcDbEntity
  8
0
  6
Continuous
 62
     8
370
     0
100
AcDbLine
 10
130.210928106
 20
135.8916565232
 30
0.0
 11
130.210928106
 21
136.3916556738
 31
0.0
  0
LINE
  5
8D
330
1F
100
AcDbEntity
  8
0
  6
Continuous
 62
     8
370
     0
100
AcDbLine
 10
44.7109261986
 20
114.8916556422
 30
0.0
 11
44.7109261986
 21
135.8916565232
 31
0.0
  0
LINE
  5
8E
330
1F
100
AcDbEntity
  8
0
  6
Continuous
 62
     8
370
     0
100
AcDbLine
 10
130.210928106
 20
135.8916565232
 30
0.0
 11
44.7109261986
 21
135.8916565232
 31
0.0
  0
LINE
  5
8F
330
1F
100
AcDbEntity
  8
0
  6
Continuous
 62
     8
370
     0
100
AcDbLine
 10
44.7109261986
 20
135.8916565232
 30
0.0
 11
44.7109261986
 21
136.3916556738
 31
0.0
  0
LINE
  5
90
330
1F
100
AcDbEntity
  8
0
  6
Continuous
 62
     8
370
     0
100
AcDbLine
 10
44.7109261986
 20
135.8916565232
 30
0.0
 11
36.7109286126
 21
135.8916565232
 31
0.0
  0
LINE
  5
91
330
1F
100
AcDbEntity
  8
0
  6
Continuous
 62
     7
370
     0
100
AcDbLine
 10
111.4554977606
 20
366.9019533282
 30
0.0
 11
111.4554977606
 21
348.6928230345
 31
0.0
  0
LINE
  5
92
330
1F
100
AcDbEntity
  8
0
  6
Continuous
 62
     7
370
     0
100
AcDbLine
 10
111.4554977606
 20
348.6928230345
 30
0.0
 11
114.5549241935
 21
354.0199622162
 31
0.0
  0
LINE
  5
93
330
1F
100
AcDbEntity
  8
0
  6
Continuous
 62
     7
370
     0
100
AcDbLine
 10
111.4554977606
 20
348.6928230345
 30
0.0
 11
108.3560713276
 21
354.0199622162
 31
0.0
  0
DIMENSION
  5
94
330
1F
100
AcDbEntity
  8
0
  6
Continuous
 62
     7
370
     0
100
AcDbDimension
  2
*D1
 10
149.2151600112
 20
22.3916556291
 30
0.0
 11
149.2151600112
 21
194.501759716
 31
0.0
 70
   160
  1
(<>)
 71
     2
 42
-1.0
  3
SLDDIMSTYLE0
100
AcDbAlignedDimension
 13
96.4609271523
 23
404.8916556291
 33
0.0
 14
121.1097767036
 24
22.3916556291
 34
0.0
 50
90.0
100
AcDbRotatedDimension
  0
MTEXT
  5
A2
330
1F
100
AcDbEntity
  8
0
  6
Continuous
 62
     7
370
     0
100
AcDbMText
 10
106.9172419743
 20
373.890849512
 30
0.0
 40
5.0
 41
0.0
 71
     1
 72
     1
  1
"X"
  7
SLDTEXTSTYLE0
 73
     1
 44
1.0
  0
LINE
  5
A3
330
1F
100
AcDbEntity
  8
0
  6
CENTER
 62
     7
370
     0
100
AcDbLine
 10
87.4609271523
 20
410.8306744894
 30
0.0
 11
87.4609271523
 21
11.0292832214
 31
0.0
  0
LINE
  5
A4
330
1F
100
AcDbEntity
  8
0
  6
Continuous
 62
     7
370
     0
100
AcDbLine
 10
75.4609271523
 20
408.8306744894
 30
0.0
 11
87.4609271523
 21
408.8306744894
 31
0.0
  0
SOLID
  5
A5
330
1F
100
AcDbEntity
  8
0
  6
Continuous
 62
     7
370
     0
100
AcDbTrace
 10
87.4609271523
 20
408.8306744894
 30
0.0
 11
81.4609271523
 21
410.3306744894
 31
0.0
 12
81.4609271523
 22
407.3306744894
 32
0.0
 13
81.4609271523
 23
407.3306744894
 33
0.0
  0
LINE
  5
A6
330
1F
100
AcDbEntity
  8
0
  6
Continuous
 62
     7
370
     0
100
AcDbLine
 10
75.4609271523
 20
13.0292832214
 30
0.0
 11
87.4609271523
 21
13.0292832214
 31
0.0
  0
SOLID
  5
A7
330
1F
100
AcDbEntity
  8
0
  6
Continuous
 62
     7
370
     0
100
AcDbTrace
 10
87.4609271523
 20
13.0292832214
 30
0.0
 11
81.4609271523
 21
14.5292832214
 31
0.0
 12
81.4609271523
 22
11.5292832214
 32
0.0
 13
81.4609271523
 23
11.5292832214
 33
0.0
  0
MTEXT
  5
A8
330
1F
100
AcDbEntity
  8
0
  6
Continuous
 62
     7
100
AcDbMText
 10
69.7522542896
 20
411.8590064777
 30
0.0
 40
5.0
 41
0.0
 71
     1
 72
     1
  1
A
  7
SLDTEXTSTYLE0
 73
     1
 44
1.0
  0
MTEXT
  5
A9
330
1F
100
AcDbEntity
  8
0
  6
Continuous
 62
     7
100
AcDbMText
 10
69.9323887064
 20
15.9002200919
 30
0.0
 40
5.0
 41
0.0
 71
     1
 72
     1
  1
A
  7
SLDTEXTSTYLE0
 73
     1
 44
1.0
  0
LINE
  5
AA
330
1F
100
AcDbEntity
  8
0
  6
Continuous
 62
     7
370
    30
100
AcDbLine
 10
188.6670899506
 20
99.391655197
 30
0.0
 11
185.6670903901
 21
102.3916556887
 31
0.0
  0
LINE
  5
AB
330
1F
100
AcDbEntity
  8
0
  6
Continuous
 62
     7
370
    30
100
AcDbLine
 10
185.6670903901
 20
102.3916556887
 30
0.0
 11
182.6670903641
 21
99.391655197
 31
0.0
  0
LINE
  5
AC
330
1F
100
AcDbEntity
  8
0
  6
Continuous
 62
     7
370
    30
100
AcDbLine
 10
188.6670899506
 20
92.7117961846
 30
0.0
 11
188.6670899506
 21
99.391655197
 31
0.0
  0
LINE
  5
AD
330
1F
100
AcDbEntity
  8
0
  6
Continuous
 62
     7
370
    30
100
AcDbLine
 10
182.6670903641
 20
99.391655197
 30
0.0
 11
182.6670903641
 21
92.7117961846
 31
0.0
  0
LINE
  5
AE
330
1F
100
AcDbEntity
  8
0
  6
Continuous
 62
     7
370
    30
100
AcDbLine
 10
182.6670903641
 20
92.7117961846
 30
0.0
 11
183.2215900461
 21
92.3916559123
 31
0.0
  0
LINE
  5
AF
330
1F
100
AcDbEntity
  8
0
  6
Continuous
 62
     7
370
    30
100
AcDbLine
 10
188.1125898029
 20
92.3916559123
 30
0.0
 11
188.6670899506
 21
92.7117961846
 31
0.0
  0
LINE
  5
B0
330
1F
100
AcDbEntity
  8
0
  6
Continuous
 62
     7
370
    30
100
AcDbLine
 10
194.667090934
 20
130.391656553
 30
0.0
 11
192.2180515642
 21
130.1342520319
 31
0.0
  0
LINE
  5
B1
330
1F
100
AcDbEntity
  8
0
  6
Continuous
 62
     7
370
    30
100
AcDbLine
 10
192.2180515642
 20
120.6490599007
 30
0.0
 11
194.667090934
 21
120.3916558452
 31
0.0
  0
ARC
  5
B2
330
1F
100
AcDbEntity
  8
0
  6
Continuous
 62
     7
370
    30
100
AcDbCircle
 10
199.8670901741
 20
125.3916556291
 30
0.0
 40
9.00000000000002
100
AcDbArc
 50
148.2000483175
 51
165.5224878141
  0
ARC
  5
B3
330
1F
100
AcDbEntity
  8
0
  6
Continuous
 62
     7
370
    30
100
AcDbCircle
 10
199.8670901741
 20
125.3916556291
 30
0.0
 40
9.00000000000003
100
AcDbArc
 50
194.4775121859
 51
211.7999516825
  0
LINE
  5
B4
330
1F
100
AcDbEntity
  8
0
  6
Continuous
 62
     7
370
    30
100
AcDbLine
 10
181.1670901182
 20
99.391655197
 30
0.0
 11
177.967090199
 21
99.391655197
 31
0.0
  0
LINE
  5
B5
330
1F
100
AcDbEntity
  8
0
  6
Continuous
 62
     7
370
    30
100
AcDbLine
 10
177.967090199
 20
131.3916548543
 30
0.0
 11
177.967090199
 21
99.391655197
 31
0.0
  0
LINE
  5
B6
330
1F
100
AcDbEntity
  8
0
  6
Continuous
 62
     7
370
    30
100
AcDbLine
 10
177.967090199
 20
131.3916548543
 30
0.0
 11
181.1670901182
 21
131.3916548543
 31
0.0
  0
LINE
  5
B7
330
1F
100
AcDbEntity
  8
0
  6
Continuous
 62
     7
370
    30
100
AcDbLine
 10
181.1670901182
 20
131.3916548543
 30
0.0
 11
181.1670901182
 21
99.391655197
 31
0.0
  0
LINE
  5
B8
330
1F
100
AcDbEntity
  8
0
  6
Continuous
 62
     7
370
    30
100
AcDbLine
 10
185.6670903901
 20
128.3916552939
 30
0.0
 11
187.6670897867
 21
130.391656553
 31
0.0
  0
LINE
  5
B9
330
1F
100
AcDbEntity
  8
0
  6
Continuous
 62
     7
370
    30
100
AcDbLine
 10
189.6670901145
 20
130.391656553
 30
0.0
 11
187.6670897867
 21
130.391656553
 31
0.0
  0
LINE
  5
BA
330
1F
100
AcDbEntity
  8
0
  6
Continuous
 62
     7
370
    30
100
AcDbLine
 10
189.6670901145
 20
130.391656553
 30
0.0
 11
189.6670901145
 21
129.184548875
 31
0.0
  0
ARC
  5
BB
330
1F
100
AcDbEntity
  8
0
  6
Continuous
 62
     7
370
    30
100
AcDbCircle
 10
187.1670901741
 20
129.184548848
 30
0.0
 40
2.50000000000001
100
AcDbArc
 50
315.0
 51
0.0
  0
LINE
  5
BC
330
1F
100
AcDbEntity
  8
0
  6
Continuous
 62
     7
370
    30
100
AcDbLine
 10
188.934857298
 20
127.416782213
 30
0.0
 11
187.252876621
 21
125.7348015361
 31
0.0
  0
ARC
  5
BD
330
1F
100
AcDbEntity
  8
0
  6
Continuous
 62
     7
370
    30
100
AcDbCircle
 10
188.6670901741
 20
124.3205878173
 30
0.0
 40
2.0
100
AcDbArc
 50
135.0
 51
180.0
  0
LINE
  5
BE
330
1F
100
AcDbEntity
  8
0
  6
Continuous
 62
     7
370
    30
100
AcDbLine
 10
186.6670905541
 20
124.3205882065
 30
0.0
 11
186.6670905541
 21
110.29371516
 31
0.0
  0
LINE
  5
BF
330
1F
100
AcDbEntity
  8
0
  6
Continuous
 62
     7
370
    30
100
AcDbLine
 10
186.5670897926
 20
110.29371516
 30
0.0
 11
186.6670905541
 21
110.29371516
 31
0.0
  0
LINE
  5
C0
330
1F
100
AcDbEntity
  8
0
  6
Continuous
 62
     7
370
    30
100
AcDbLine
 10
186.5670897926
 20
110.0803703457
 30
0.0
 11
186.5670897926
 21
110.29371516
 31
0.0
  0
LINE
  5
C1
330
1F
100
AcDbEntity
  8
0
  6
Continuous
 62
     7
370
    30
100
AcDbLine
 10
186.6670905541
 20
110.0803703457
 30
0.0
 11
186.5670897926
 21
110.0803703457
 31
0.0
  0
LINE
  5
C2
330
1F
100
AcDbEntity
  8
0
  6
Continuous
 62
     7
370
    30
100
AcDbLine
 10
186.6670905541
 20
110.0803703457
 30
0.0
 11
186.6670905541
 21
109.3747384302
 31
0.0
  0
LINE
  5
C3
330
1F
100
AcDbEntity
  8
0
  6
Continuous
 62
     7
370
    30
100
AcDbLine
 10
186.5670897926
 20
109.3747384302
 30
0.0
 11
186.6670905541
 21
109.3747384302
 31
0.0
  0
LINE
  5
C4
330
1F
100
AcDbEntity
  8
0
  6
Continuous
 62
     7
370
    30
100
AcDbLine
 10
186.5670897926
 20
109.2168252371
 30
0.0
 11
186.5670897926
 21
109.3747384302
 31
0.0
  0
LINE
  5
C5
330
1F
100
AcDbEntity
  8
0
  6
Continuous
 62
     7
370
    30
100
AcDbLine
 10
186.6670905541
 20
109.2168252371
 30
0.0
 11
186.5670897926
 21
109.2168252371
 31
0.0
  0
LINE
  5
C6
330
1F
100
AcDbEntity
  8
0
  6
Continuous
 62
     7
370
    30
100
AcDbLine
 10
186.6670905541
 20
109.2168252371
 30
0.0
 11
186.6670905541
 21
108.6389763668
 31
0.0
  0
LINE
  5
C7
330
1F
100
AcDbEntity
  8
0
  6
Continuous
 62
     7
370
    30
100
AcDbLine
 10
186.5670897926
 20
108.6389768325
 30
0.0
 11
186.6670905541
 21
108.6389763668
 31
0.0
  0
LINE
  5
C8
330
1F
100
AcDbEntity
  8
0
  6
Continuous
 62
     7
370
    30
100
AcDbLine
 10
186.5670897926
 20
108.4822282583
 30
0.0
 11
186.5670897926
 21
108.6389768325
 31
0.0
  0
LINE
  5
C9
330
1F
100
AcDbEntity
  8
0
  6
Continuous
 62
     7
370
    30
100
AcDbLine
 10
186.6670905541
 20
108.4822282583
 30
0.0
 11
186.5670897926
 21
108.4822282583
 31
0.0
  0
LINE
  5
CA
330
1F
100
AcDbEntity
  8
0
  6
Continuous
 62
     7
370
    30
100
AcDbLine
 10
186.6670905541
 20
108.4822282583
 30
0.0
 11
186.6670905541
 21
106.4627232418
 31
0.0
  0
ARC
  5
CB
330
1F
100
AcDbEntity
  8
0
  6
Continuous
 62
     7
370
    30
100
AcDbCircle
 10
188.6670901741
 20
106.462723441
 30
0.0
 40
2.0
100
AcDbArc
 50
180.0
 51
225.0
  0
LINE
  5
CC
330
1F
100
AcDbEntity
  8
0
  6
Continuous
 62
     7
370
    30
100
AcDbLine
 10
187.252876621
 20
105.0485094465
 30
0.0
 11
188.934857298
 21
103.3665297009
 31
0.0
  0
ARC
  5
CD
330
1F
100
AcDbEntity
  8
0
  6
Continuous
 62
     7
370
    30
100
AcDbCircle
 10
187.1670901741
 20
101.5987624103
 30
0.0
 40
2.50000000000001
100
AcDbArc
 50
0.0
 51
45.0
  0
LINE
  5
CE
330
1F
100
AcDbEntity
  8
0
  6
Continuous
 62
     7
370
    30
100
AcDbLine
 10
189.6670901145
 20
101.5987621077
 30
0.0
 11
189.6670901145
 21
100.3916553609
 31
0.0
  0
LINE
  5
CF
330
1F
100
AcDbEntity
  8
0
  6
Continuous
 62
     7
370
    30
100
AcDbLine
 10
189.6670901145
 20
100.3916553609
 30
0.0
 11
187.6670897867
 21
100.3916553609
 31
0.0
  0
LINE
  5
D0
330
1F
100
AcDbEntity
  8
0
  6
Continuous
 62
     7
370
    30
100
AcDbLine
 10
187.6670897867
 20
100.3916553609
 30
0.0
 11
185.6670903901
 21
102.3916556887
 31
0.0
  0
LINE
  5
D1
330
1F
100
AcDbEntity
  8
0
  6
Continuous
 62
     7
370
    30
100
AcDbLine
 10
185.6670903901
 20
102.3916556887
 30
0.0
 11
183.6670900623
 21
100.3916553609
 31
0.0
  0
LINE
  5
D2
330
1F
100
AcDbEntity
  8
0
  6
Continuous
 62
     7
370
    30
100
AcDbLine
 10
183.6670900623
 20
100.3916553609
 30
0.0
 11
181.1670901182
 21
100.3916553609
 31
0.0
  0
LINE
  5
D3
330
1F
100
AcDbEntity
  8
0
  6
Continuous
 62
     7
370
    30
100
AcDbLine
 10
181.1670901182
 20
100.3916553609
 30
0.0
 11
181.1670901182
 21
130.391656553
 31
0.0
  0
LINE
  5
D4
330
1F
100
AcDbEntity
  8
0
  6
Continuous
 62
     7
370
    30
100
AcDbLine
 10
183.6670900623
 20
130.391656553
 30
0.0
 11
181.1670901182
 21
130.391656553
 31
0.0
  0
LINE
  5
D5
330
1F
100
AcDbEntity
  8
0
  6
Continuous
 62
     7
370
    30
100
AcDbLine
 10
183.6670900623
 20
130.391656553
 30
0.0
 11
185.6670903901
 21
128.3916552939
 31
0.0
  0
SPLINE
  5
D6
330
1F
100
AcDbEntity
  8
0
  6
Continuous
 62
     7
370
    30
100
AcDbSpline
210
0.0
220
0.0
230
1.0
 70
    24
 71
     3
 72
     9
 73
     5
 74
     0
 42
0.00000001
 43
0.00000001
 40
0.0
 40
0.0
 40
0.0
 40
0.0
 40
0.559737096626981
 40
1.0
 40
1.0
 40
1.0
 40
1.0
 10
186.6670905540605
 20
110.2937151599793
 30
0.0
 10
186.6670905540605
 20
110.2852316761599
 30
0.0
 10
186.6670905540605
 20
110.2700754825281
 30
0.0
 10
186.6670905540605
 20
110.253702658515
 30
0.0
 10
186.6670905540605
 20
110.2464943114786
 30
0.0
  0
LINE
  5
D7
330
1F
100
AcDbEntity
  8
0
  6
Continuous
 62
     7
370
    30
100
AcDbLine
 10
186.5670897926
 20
110.2464943115
 30
0.0
 11
186.6670905541
 21
110.2464943115
 31
0.0
  0
LINE
  5
D8
330
1F
100
AcDbEntity
  8
0
  6
Continuous
 62
     7
370
    30
100
AcDbLine
 10
186.6670905541
 20
108.5790532097
 30
0.0
 11
186.6670905541
 21
108.4822282583
 31
0.0
  0
SPLINE
  5
D9
330
1F
100
AcDbEntity
  8
0
  6
Continuous
 62
     7
370
    30
100
AcDbSpline
210
0.0
220
0.0
230
1.0
 70
    24
 71
     3
 72
     9
 73
     5
 74
     0
 42
0.00000001
 43
0.00000001
 40
0.0
 40
0.0
 40
0.0
 40
0.0
 40
0.8748291038270384
 40
0.9999999999999999
 40
0.9999999999999999
 40
0.9999999999999999
 40
0.9999999999999999
 10
186.6670905540605
 20
109.3747384302436
 30
0.0
 10
186.6670905540605
 20
109.351911794835
 30
0.0
 10
186.6670905540605
 20
109.3258191153521
 30
0.0
 10
186.6670905540605
 20
109.2786129624199
 30
0.0
 10
186.6670905540605
 20
109.2727041259526
 30
0.0
  0
LINE
  5
DA
330
1F
100
AcDbEntity
  8
0
  6
Continuous
 62
     7
370
    30
100
AcDbLine
 10
182.6670903641
 20
131.3916548543
 30
0.0
 11
181.1670901182
 21
131.3916548543
 31
0.0
  0
LINE
  5
DB
330
1F
100
AcDbEntity
  8
0
  6
Continuous
 62
     7
370
    30
100
AcDbLine
 10
189.6670901145
 20
131.3916548543
 30
0.0
 11
188.6670899506
 21
131.3916548543
 31
0.0
  0
LINE
  5
DC
330
1F
100
AcDbEntity
  8
0
  6
Continuous
 62
     7
370
    30
100
AcDbLine
 10
189.6670901145
 20
130.391656553
 30
0.0
 11
189.6670901145
 21
131.3916548543
 31
0.0
  0
LINE
  5
DD
330
1F
100
AcDbEntity
  8
0
  6
Continuous
 62
     7
370
    30
100
AcDbLine
 10
181.1670901182
 20
99.391655197
 30
0.0
 11
182.6670903641
 21
99.391655197
 31
0.0
  0
LINE
  5
DE
330
1F
100
AcDbEntity
  8
0
  6
Continuous
 62
     7
370
    30
100
AcDbLine
 10
189.6670901145
 20
99.391655197
 30
0.0
 11
189.6670901145
 21
100.3916553609
 31
0.0
  0
LINE
  5
DF
330
1F
100
AcDbEntity
  8
0
  6
Continuous
 62
     7
370
    30
100
AcDbLine
 10
189.6670901145
 20
99.391655197
 30
0.0
 11
188.6670899506
 21
99.391655197
 31
0.0
  0
LINE
  5
E0
330
1F
100
AcDbEntity
  8
0
  6
Continuous
 62
     7
370
    30
100
AcDbLine
 10
186.6670905541
 20
110.2406274449
 30
0.0
 11
186.6670905541
 21
110.0803703457
 31
0.0
  0
CIRCLE
  5
E1
330
1F
100
AcDbEntity
  8
0
  6
Continuous
 62
     7
370
    30
100
AcDbCircle
 10
247.0270901741
 20
400.3916556291
 30
0.0
 40
0.8899999999999864
  0
CIRCLE
  5
E2
330
1F
100
AcDbEntity
  8
0
  6
Continuous
 62
     7
370
    30
100
AcDbCircle
 10
262.8070901741
 20
400.3916556291
 30
0.0
 40
0.8899999999999864
  0
LINE
  5
E3
330
1F
100
AcDbEntity
  8
0
  6
Continuous
 62
     7
370
    30
100
AcDbLine
 10
246.8670898045
 20
254.8916518144
 30
0.0
 11
246.8670898045
 21
239.8916512184
 31
0.0
  0
LINE
  5
E4
330
1F
100
AcDbEntity
  8
0
  6
Continuous
 62
     7
370
    30
100
AcDbLine
 10
246.8670898045
 20
239.8916512184
 30
0.0
 11
245.9170886244
 21
239.8916512184
 31
0.0
  0
LINE
  5
E5
330
1F
100
AcDbEntity
  8
0
  6
Continuous
 62
     7
370
    30
100
AcDbLine
 10
245.9170886244
 20
239.8916512184
 30
0.0
 11
245.9170886244
 21
254.8916518144
 31
0.0
  0
LINE
  5
E6
330
1F
100
AcDbEntity
  8
0
  6
Continuous
 62
     7
370
    30
100
AcDbLine
 10
245.9170886244
 20
254.8916518144
 30
0.0
 11
246.8670898045
 21
254.8916518144
 31
0.0
  0
LINE
  5
E7
330
1F
100
AcDbEntity
  8
0
  6
Continuous
 62
     7
370
    30
100
AcDbLine
 10
263.9170878495
 20
254.8916518144
 30
0.0
 11
263.9170878495
 21
239.8916512184
 31
0.0
  0
LINE
  5
E8
330
1F
100
AcDbEntity
  8
0
  6
Continuous
 62
     7
370
    30
100
AcDbLine
 10
262.9670866693
 20
239.8916512184
 30
0.0
 11
262.9670866693
 21
254.8916518144
 31
0.0
  0
LINE
  5
E9
330
1F
100
AcDbEntity
  8
0
  6
Continuous
 62
     7
370
    30
100
AcDbLine
 10
246.8670898045
 20
239.8916512184
 30
0.0
 11
246.9170906509
 21
239.8916512184
 31
0.0
  0
LINE
  5
EA
330
1F
100
AcDbEntity
  8
0
  6
Continuous
 62
     7
370
    30
100
AcDbLine
 10
262.9170932735
 20
239.8916512184
 30
0.0
 11
262.9670866693
 21
239.8916512184
 31
0.0
  0
LINE
  5
EB
330
1F
100
AcDbEntity
  8
0
  6
Continuous
 62
     7
370
    30
100
AcDbLine
 10
246.8670898045
 20
254.8916518144
 30
0.0
 11
246.9170906509
 21
254.8916518144
 31
0.0
  0
LINE
  5
EC
330
1F
100
AcDbEntity
  8
0
  6
Continuous
 62
     7
370
    30
100
AcDbLine
 10
262.9170932735
 20
254.8916518144
 30
0.0
 11
262.9670866693
 21
254.8916518144
 31
0.0
  0
LINE
  5
ED
330
1F
100
AcDbEntity
  8
0
  6
Continuous
 62
     7
370
    30
100
AcDbLine
 10
263.9170878495
 20
239.8916512184
 30
0.0
 11
262.9670866693
 21
239.8916512184
 31
0.0
  0
LINE
  5
EE
330
1F
100
AcDbEntity
  8
0
  6
Continuous
 62
     7
370
    30
100
AcDbLine
 10
262.9670866693
 20
254.8916518144
 30
0.0
 11
263.9170878495
 21
254.8916518144
 31
0.0
  0
LINE
  5
EF
330
1F
100
AcDbEntity
  8
0
  6
Continuous
 62
     7
370
    30
100
AcDbLine
 10
245.9170886244
 20
154.3916567616
 30
0.0
 11
245.9170886244
 21
169.3916573577
 31
0.0
  0
LINE
  5
F0
330
1F
100
AcDbEntity
  8
0
  6
Continuous
 62
     7
370
    30
100
AcDbLine
 10
263.9170878495
 20
169.3916573577
 30
0.0
 11
263.9170878495
 21
154.3916567616
 31
0.0
  0
LINE
  5
F1
330
1F
100
AcDbEntity
  8
0
  6
Continuous
 62
     7
370
    30
100
AcDbLine
 10
245.9170886244
 20
169.3916573577
 30
0.0
 11
246.8670898045
 21
169.3916573577
 31
0.0
  0
LINE
  5
F2
330
1F
100
AcDbEntity
  8
0
  6
Continuous
 62
     7
370
    30
100
AcDbLine
 10
246.8670898045
 20
169.3916573577
 30
0.0
 11
246.8670898045
 21
154.3916567616
 31
0.0
  0
LINE
  5
F3
330
1F
100
AcDbEntity
  8
0
  6
Continuous
 62
     7
370
    30
100
AcDbLine
 10
246.8670898045
 20
154.3916567616
 30
0.0
 11
245.9170886244
 21
154.3916567616
 31
0.0
  0
LINE
  5
F4
330
1F
100
AcDbEntity
  8
0
  6
Continuous
 62
     7
370
    30
100
AcDbLine
 10
262.9670866693
 20
154.3916567616
 30
0.0
 11
262.9670866693
 21
169.3916573577
 31
0.0
  0
LINE
  5
F5
330
1F
100
AcDbEntity
  8
0
  6
Continuous
 62
     7
370
    30
100
AcDbLine
 10
246.8670898045
 20
154.3916567616
 30
0.0
 11
246.9170906509
 21
154.3916567616
 31
0.0
  0
LINE
  5
F6
330
1F
100
AcDbEntity
  8
0
  6
Continuous
 62
     7
370
    30
100
AcDbLine
 10
262.9170932735
 20
154.3916567616
 30
0.0
 11
262.9670866693
 21
154.3916567616
 31
0.0
  0
LINE
  5
F7
330
1F
100
AcDbEntity
  8
0
  6
Continuous
 62
     7
370
    30
100
AcDbLine
 10
246.8670898045
 20
169.3916573577
 30
0.0
 11
246.9170906509
 21
169.3916573577
 31
0.0
  0
LINE
  5
F8
330
1F
100
AcDbEntity
  8
0
  6
Continuous
 62
     7
370
    30
100
AcDbLine
 10
262.9170932735
 20
169.3916573577
 30
0.0
 11
262.9670866693
 21
169.3916573577
 31
0.0
  0
LINE
  5
F9
330
1F
100
AcDbEntity
  8
0
  6
Continuous
 62
     7
370
    30
100
AcDbLine
 10
263.9170878495
 20
154.3916567616
 30
0.0
 11
262.9670866693
 21
154.3916567616
 31
0.0
  0
LINE
  5
FA
330
1F
100
AcDbEntity
  8
0
  6
Continuous
 62
     7
370
    30
100
AcDbLine
 10
262.9670866693
 20
169.3916573577
 30
0.0
 11
263.9170878495
 21
169.3916573577
 31
0.0
  0
LINE
  5
FB
330
1F
100
AcDbEntity
  8
0
  6
Continuous
 62
     7
370
    30
100
AcDbLine
 10
264.6670930947
 20
154.8916540496
 30
0.0
 11
264.6670930947
 21
156.3916570895
 31
0.0
  0
LINE
  5
FC
330
1F
100
AcDbEntity
  8
0
  6
Continuous
 62
     7
370
    30
100
AcDbLine
 10
245.1670908297
 20
156.3916570895
 30
0.0
 11
245.1670908297
 21
154.8916540496
 31
0.0
  0
LINE
  5
FD
330
1F
100
AcDbEntity
  8
0
  6
Continuous
 62
     7
370
    30
100
AcDbLine
 10
264.6670930947
 20
154.8916540496
 30
0.0
 11
289.9170883859
 21
154.8916540496
 31
0.0
  0
LINE
  5
FE
330
1F
100
AcDbEntity
  8
0
  6
Continuous
 62
     7
370
    30
100
AcDbLine
 10
289.9170883859
 20
156.3916570895
 30
0.0
 11
289.9170883859
 21
154.8916540496
 31
0.0
  0
LINE
  5
FF
330
1F
100
AcDbEntity
  8
0
  6
Continuous
 62
     7
370
    30
100
AcDbLine
 10
264.6670930947
 20
156.3916570895
 30
0.0
 11
289.9170883859
 21
156.3916570895
 31
0.0
  0
LINE
  5
100
330
1F
100
AcDbEntity
  8
0
  6
Continuous
 62
     7
370
    30
100
AcDbLine
 10
219.9170918132
 20
154.8916540496
 30
0.0
 11
245.1670908297
 21
154.8916540496
 31
0.0
  0
LINE
  5
101
330
1F
100
AcDbEntity
  8
0
  6
Continuous
 62
     7
370
    30
100
AcDbLine
 10
219.9170918132
 20
154.8916540496
 30
0.0
 11
219.9170918132
 21
156.3916570895
 31
0.0
  0
LINE
  5
102
330
1F
100
AcDbEntity
  8
0
  6
Continuous
 62
     7
370
    30
100
AcDbLine
 10
219.9170918132
 20
156.3916570895
 30
0.0
 11
245.1670908297
 21
156.3916570895
 31
0.0
  0
ARC
  5
103
330
1F
100
AcDbEntity
  8
0
  6
Continuous
 62
     7
370
    30
100
AcDbCircle
 10
218.9170901741
 20
158.8916556291
 30
0.0
 40
1.0
100
AcDbArc
 50
90.0
 51
180.0
  0
LINE
  5
104
330
1F
100
AcDbEntity
  8
0
  6
Continuous
 62
     7
370
    30
100
AcDbLine
 10
219.9170918132
 20
159.8916567318
 30
0.0
 11
218.9170897867
 21
159.8916567318
 31
0.0
  0
LINE
  5
105
330
1F
100
AcDbEntity
  8
0
  6
Continuous
 62
     7
370
    30
100
AcDbLine
 10
219.9170918132
 20
159.8916567318
 30
0.0
 11
219.9170918132
 21
158.3916574173
 31
0.0
  0
LINE
  5
106
330
1F
100
AcDbEntity
  8
0
  6
Continuous
 62
     7
370
    30
100
AcDbLine
 10
224.9170907701
 20
158.3916574173
 30
0.0
 11
219.9170918132
 21
158.3916574173
 31
0.0
  0
LINE
  5
107
330
1F
100
AcDbEntity
  8
0
  6
Continuous
 62
     7
370
    30
100
AcDbLine
 10
224.9170907701
 20
158.3916574173
 30
0.0
 11
224.9170907701
 21
156.3916570895
 31
0.0
  0
LINE
  5
108
330
1F
100
AcDbEntity
  8
0
  6
Continuous
 62
     7
370
    30
100
AcDbLine
 10
224.9170907701
 20
156.3916570895
 30
0.0
 11
219.9170918132
 21
156.3916570895
 31
0.0
  0
LINE
  5
109
330
1F
100
AcDbEntity
  8
0
  6
Continuous
 62
     7
370
    30
100
AcDbLine
 10
219.9170918132
 20
156.3916570895
 30
0.0
 11
219.9170918132
 21
154.7328225725
 31
0.0
  0
ARC
  5
10A
330
1F
100
AcDbEntity
  8
0
  6
Continuous
 62
     7
370
    30
100
AcDbCircle
 10
217.4170901741
 20
154.7328230295
 30
0.0
 40
2.500000000000014
100
AcDbArc
 50
287.2591628249
 51
0.0
  0
LINE
  5
10B
330
1F
100
AcDbEntity
  8
0
  6
Continuous
 62
     7
370
    30
100
AcDbLine
 10
218.1588255729
 20
152.3453920536
 30
0.0
 11
216.1670916642
 21
151.7265915327
 31
0.0
  0
LINE
  5
10C
330
1F
100
AcDbEntity
  8
0
  6
Continuous
 62
     7
370
    30
100
AcDbLine
 10
216.1670916642
 20
151.7265915327
 30
0.0
 11
215.9170911576
 21
152.1596043758
 31
0.0
  0
LINE
  5
10D
330
1F
100
AcDbEntity
  8
0
  6
Continuous
 62
     7
370
    30
100
AcDbLine
 10
215.9170911576
 20
152.1596043758
 30
0.0
 11
217.4170904721
 21
153.0256300621
 31
0.0
  0
ARC
  5
10E
330
1F
100
AcDbEntity
  8
0
  6
Continuous
 62
     7
370
    30
100
AcDbCircle
 10
216.9170901741
 20
153.8916556291
 30
0.0
 40
0.999999999999994
100
AcDbArc
 50
300.0
 51
0.0
  0
LINE
  5
10F
330
1F
100
AcDbEntity
  8
0
  6
Continuous
 62
     7
370
    30
100
AcDbLine
 10
217.9170914854
 20
153.8916557483
 30
0.0
 11
217.9170914854
 21
158.8916547053
 31
0.0
  0
ARC
  5
110
330
1F
100
AcDbEntity
  8
0
  6
Continuous
 62
     7
370
    30
100
AcDbCircle
 10
292.9170901741
 20
153.8916556291
 30
0.0
 40
1.000000000000008
100
AcDbArc
 50
180.0
 51
240.0
  0
LINE
  5
111
330
1F
100
AcDbEntity
  8
0
  6
Continuous
 62
     7
370
    30
100
AcDbLine
 10
292.4170934523
 20
153.0256300621
 30
0.0
 11
293.9170890416
 21
152.1596043758
 31
0.0
  0
LINE
  5
112
330
1F
100
AcDbEntity
  8
0
  6
Continuous
 62
     7
370
    30
100
AcDbLine
 10
293.9170890416
 20
152.1596043758
 30
0.0
 11
293.6670922602
 21
151.7265915327
 31
0.0
  0
LINE
  5
113
330
1F
100
AcDbEntity
  8
0
  6
Continuous
 62
     7
370
    30
100
AcDbLine
 10
293.6670922602
 20
151.7265915327
 30
0.0
 11
291.675350901
 21
152.3453920536
 31
0.0
  0
ARC
  5
114
330
1F
100
AcDbEntity
  8
0
  6
Continuous
 62
     7
370
    30
100
AcDbCircle
 10
292.4170901741
 20
154.7328230295
 30
0.0
 40
2.500000000000014
100
AcDbArc
 50
180.0
 51
252.7408371751
  0
LINE
  5
115
330
1F
100
AcDbEntity
  8
0
  6
Continuous
 62
     7
370
    30
100
AcDbLine
 10
289.9170883859
 20
154.7328225725
 30
0.0
 11
289.9170883859
 21
156.3916570895
 31
0.0
  0
LINE
  5
116
330
1F
100
AcDbEntity
  8
0
  6
Continuous
 62
     7
370
    30
100
AcDbLine
 10
284.9170931543
 20
156.3916570895
 30
0.0
 11
284.9170931543
 21
158.3916574173
 31
0.0
  0
LINE
  5
117
330
1F
100
AcDbEntity
  8
0
  6
Continuous
 62
     7
370
    30
100
AcDbLine
 10
289.9170883859
 20
158.3916574173
 30
0.0
 11
289.9170883859
 21
159.8916567318
 31
0.0
  0
ARC
  5
118
330
1F
100
AcDbEntity
  8
0
  6
Continuous
 62
     7
370
    30
100
AcDbCircle
 10
290.9170901741
 20
158.8916556291
 30
0.0
 40
1.0
100
AcDbArc
 50
360.0
 51
90.0
  0
LINE
  5
119
330
1F
100
AcDbEntity
  8
0
  6
Continuous
 62
     7
370
    30
100
AcDbLine
 10
291.9170924391
 20
158.8916547053
 30
0.0
 11
291.9170924391
 21
153.8916557483
 31
0.0
  0
LINE
  5
11A
330
1F
100
AcDbEntity
  8
0
  6
Continuous
 62
     7
370
    30
100
AcDbLine
 10
289.9170883859
 20
156.3916570895
 30
0.0
 11
284.9170931543
 21
156.3916570895
 31
0.0
  0
LINE
  5
11B
330
1F
100
AcDbEntity
  8
0
  6
Continuous
 62
     7
370
    30
100
AcDbLine
 10
289.9170883859
 20
158.3916574173
 30
0.0
 11
284.9170931543
 21
158.3916574173
 31
0.0
  0
LINE
  5
11C
330
1F
100
AcDbEntity
  8
0
  6
Continuous
 62
     7
370
    30
100
AcDbLine
 10
290.9170904125
 20
159.8916567318
 30
0.0
 11
289.9170883859
 21
159.8916567318
 31
0.0
  0
LINE
  5
11D
330
1F
100
AcDbEntity
  8
0
  6
Continuous
 62
     7
370
    30
100
AcDbLine
 10
216.1670916642
 20
151.7265915327
 30
0.0
 11
220.9170901145
 21
151.7265915327
 31
0.0
  0
LINE
  5
11E
330
1F
100
AcDbEntity
  8
0
  6
Continuous
 62
     7
370
    30
100
AcDbLine
 10
288.91709381
 20
151.7265915327
 30
0.0
 11
293.6670922602
 21
151.7265915327
 31
0.0
  0
LINE
  5
11F
330
1F
100
AcDbEntity
  8
0
  6
Continuous
 62
     7
370
    30
100
AcDbLine
 10
220.9170901145
 20
151.7265915327
 30
0.0
 11
246.9170906509
 21
151.7265915327
 31
0.0
  0
LINE
  5
120
330
1F
100
AcDbEntity
  8
0
  6
Continuous
 62
     7
370
    30
100
AcDbLine
 10
262.9170932735
 20
151.7265915327
 30
0.0
 11
288.91709381
 21
151.7265915327
 31
0.0
  0
LINE
  5
121
330
1F
100
AcDbEntity
  8
0
  6
Continuous
 62
     7
370
    30
100
AcDbLine
 10
245.9170886244
 20
254.8916518144
 30
0.0
 11
245.9170886244
 21
154.3916567616
 31
0.0
  0
LINE
  5
122
330
1F
100
AcDbEntity
  8
0
  6
Continuous
 62
     7
370
    30
100
AcDbLine
 10
245.9170886244
 20
154.3916567616
 30
0.0
 11
245.1670908297
 21
154.3916567616
 31
0.0
  0
LINE
  5
123
330
1F
100
AcDbEntity
  8
0
  6
Continuous
 62
     7
370
    30
100
AcDbLine
 10
245.1670908297
 20
154.3916567616
 30
0.0
 11
245.1670908297
 21
159.8916567318
 31
0.0
  0
LINE
  5
124
330
1F
100
AcDbEntity
  8
0
  6
Continuous
 62
     7
370
    30
100
AcDbLine
 10
245.1670908297
 20
159.8916567318
 30
0.0
 11
244.9170865978
 21
159.8916567318
 31
0.0
  0
LINE
  5
125
330
1F
100
AcDbEntity
  8
0
  6
Continuous
 62
     7
370
    30
100
AcDbLine
 10
244.9170865978
 20
159.8916567318
 30
0.0
 11
244.9170865978
 21
254.8916518144
 31
0.0
  0
LINE
  5
126
330
1F
100
AcDbEntity
  8
0
  6
Continuous
 62
     7
370
    30
100
AcDbLine
 10
244.9170865978
 20
254.8916518144
 30
0.0
 11
245.9170886244
 21
254.8916518144
 31
0.0
  0
LINE
  5
127
330
1F
100
AcDbEntity
  8
0
  6
Continuous
 62
     7
370
    30
100
AcDbLine
 10
263.9170878495
 20
154.3916567616
 30
0.0
 11
263.9170878495
 21
254.8916518144
 31
0.0
  0
LINE
  5
128
330
1F
100
AcDbEntity
  8
0
  6
Continuous
 62
     7
370
    30
100
AcDbLine
 10
264.9170898761
 20
254.8916518144
 30
0.0
 11
264.9170898761
 21
159.8916567318
 31
0.0
  0
LINE
  5
129
330
1F
100
AcDbEntity
  8
0
  6
Continuous
 62
     7
370
    30
100
AcDbLine
 10
264.9170898761
 20
159.8916567318
 30
0.0
 11
264.6670930947
 21
159.8916567318
 31
0.0
  0
LINE
  5
12A
330
1F
100
AcDbEntity
  8
0
  6
Continuous
 62
     7
370
    30
100
AcDbLine
 10
264.6670930947
 20
159.8916567318
 30
0.0
 11
264.6670930947
 21
154.3916567616
 31
0.0
  0
LINE
  5
12B
330
1F
100
AcDbEntity
  8
0
  6
Continuous
 62
     7
370
    30
100
AcDbLine
 10
263.9170878495
 20
254.8916518144
 30
0.0
 11
264.9170898761
 21
254.8916518144
 31
0.0
  0
LINE
  5
12C
330
1F
100
AcDbEntity
  8
0
  6
Continuous
 62
     7
370
    30
100
AcDbLine
 10
264.6670930947
 20
154.3916567616
 30
0.0
 11
263.9170878495
 21
154.3916567616
 31
0.0
  0
LINE
  5
12D
330
1F
100
AcDbEntity
  8
0
  6
Continuous
 62
     7
370
    30
100
AcDbLine
 10
264.6670930947
 20
158.3916574173
 30
0.0
 11
264.6670930947
 21
159.8916567318
 31
0.0
  0
LINE
  5
12E
330
1F
100
AcDbEntity
  8
0
  6
Continuous
 62
     7
370
    30
100
AcDbLine
 10
245.1670908297
 20
159.8916567318
 30
0.0
 11
245.1670908297
 21
158.3916574173
 31
0.0
  0
LINE
  5
12F
330
1F
100
AcDbEntity
  8
0
  6
Continuous
 62
     7
370
    30
100
AcDbLine
 10
264.6670930947
 20
158.3916574173
 30
0.0
 11
289.9170883859
 21
158.3916574173
 31
0.0
  0
LINE
  5
130
330
1F
100
AcDbEntity
  8
0
  6
Continuous
 62
     7
370
    30
100
AcDbLine
 10
264.6670930947
 20
159.8916567318
 30
0.0
 11
289.9170883859
 21
159.8916567318
 31
0.0
  0
LINE
  5
131
330
1F
100
AcDbEntity
  8
0
  6
Continuous
 62
     7
370
    30
100
AcDbLine
 10
219.9170918132
 20
158.3916574173
 30
0.0
 11
245.1670908297
 21
158.3916574173
 31
0.0
  0
LINE
  5
132
330
1F
100
AcDbEntity
  8
0
  6
Continuous
 62
     7
370
    30
100
AcDbLine
 10
219.9170918132
 20
159.8916567318
 30
0.0
 11
245.1670908297
 21
159.8916567318
 31
0.0
  0
LINE
  5
133
330
1F
100
AcDbEntity
  8
0
  6
Continuous
 62
     7
370
    30
100
AcDbLine
 10
247.9170926775
 20
401.8916665964
 30
0.0
 11
245.9170886244
 21
401.8916665964
 31
0.0
  0
LINE
  5
134
330
1F
100
AcDbEntity
  8
0
  6
Continuous
 62
     7
370
    30
100
AcDbLine
 10
245.9170886244
 20
401.8916665964
 30
0.0
 11
245.9170886244
 21
403.8916408472
 31
0.0
  0
LINE
  5
135
330
1F
100
AcDbEntity
  8
0
  6
Continuous
 62
     7
370
    30
100
AcDbLine
 10
245.9170886244
 20
403.8916408472
 30
0.0
 11
263.9170878495
 21
403.8916408472
 31
0.0
  0
LINE
  5
136
330
1F
100
AcDbEntity
  8
0
  6
Continuous
 62
     7
370
    30
100
AcDbLine
 10
263.9170878495
 20
403.8916408472
 30
0.0
 11
263.9170878495
 21
401.8916665964
 31
0.0
  0
LINE
  5
137
330
1F
100
AcDbEntity
  8
0
  6
Continuous
 62
     7
370
    30
100
AcDbLine
 10
263.9170878495
 20
401.8916665964
 30
0.0
 11
261.917091247
 21
401.8916665964
 31
0.0
  0
LINE
  5
138
330
1F
100
AcDbEntity
  8
0
  6
Continuous
 62
     7
370
    30
100
AcDbLine
 10
261.917091247
 20
401.8916665964
 30
0.0
 11
261.917091247
 21
397.8916584902
 31
0.0
  0
LINE
  5
139
330
1F
100
AcDbEntity
  8
0
  6
Continuous
 62
     7
370
    30
100
AcDbLine
 10
261.0510655607
 20
396.3916479997
 30
0.0
 11
261.917091247
 21
397.8916584902
 31
0.0
  0
LINE
  5
13A
330
1F
100
AcDbEntity
  8
0
  6
Continuous
 62
     7
370
    30
100
AcDbLine
 10
261.0510655607
 20
396.3916479997
 30
0.0
 11
259.9170871938
 21
396.3916479997
 31
0.0
  0
LINE
  5
13B
330
1F
100
AcDbEntity
  8
0
  6
Continuous
 62
     7
370
    30
100
AcDbLine
 10
259.9170871938
 20
396.3916479997
 30
0.0
 11
259.9170871938
 21
399.3916689806
 31
0.0
  0
LINE
  5
13C
330
1F
100
AcDbEntity
  8
0
  6
Continuous
 62
     7
370
    30
100
AcDbLine
 10
259.9170871938
 20
399.3916689806
 30
0.0
 11
254.9170919622
 21
402.3959516935
 31
0.0
  0
LINE
  5
13D
330
1F
100
AcDbEntity
  8
0
  6
Continuous
 62
     7
370
    30
100
AcDbLine
 10
254.9170919622
 20
402.3959516935
 30
0.0
 11
249.91708928
 21
399.3916689806
 31
0.0
  0
LINE
  5
13E
330
1F
100
AcDbEntity
  8
0
  6
Continuous
 62
     7
370
    30
100
AcDbLine
 10
249.91708928
 20
399.3916689806
 30
0.0
 11
249.91708928
 21
396.3916479997
 31
0.0
  0
LINE
  5
13F
330
1F
100
AcDbEntity
  8
0
  6
Continuous
 62
     7
370
    30
100
AcDbLine
 10
249.91708928
 20
396.3916479997
 30
0.0
 11
248.7831183637
 21
396.3916479997
 31
0.0
  0
LINE
  5
140
330
1F
100
AcDbEntity
  8
0
  6
Continuous
 62
     7
370
    30
100
AcDbLine
 10
247.9170926775
 20
397.8916584902
 30
0.0
 11
248.7831183637
 21
396.3916479997
 31
0.0
  0
LINE
  5
141
330
1F
100
AcDbEntity
  8
0
  6
Continuous
 62
     7
370
    30
100
AcDbLine
 10
247.9170926775
 20
397.8916584902
 30
0.0
 11
247.9170926775
 21
401.8916665964
 31
0.0
  0
LINE
  5
142
330
1F
100
AcDbEntity
  8
0
  6
Continuous
 62
     7
370
    30
100
AcDbLine
 10
249.91708928
 20
399.3916689806
 30
0.0
 11
259.9170871938
 21
399.3916689806
 31
0.0
  0
LINE
  5
143
330
1F
100
AcDbEntity
  8
0
  6
Continuous
 62
     7
370
    30
100
AcDbLine
 10
249.91708928
 20
396.3916479997
 30
0.0
 11
259.9170871938
 21
396.3916479997
 31
0.0
  0
LINE
  5
144
330
1F
100
AcDbEntity
  8
0
  6
Continuous
 62
     7
370
    30
100
AcDbLine
 10
246.9170906509
 20
146.8916564636
 30
0.0
 11
246.9170906509
 21
401.8916665964
 31
0.0
  0
LINE
  5
145
330
1F
100
AcDbEntity
  8
0
  6
Continuous
 62
     7
370
    30
100
AcDbLine
 10
262.9170932735
 20
401.8916665964
 30
0.0
 11
262.9170932735
 21
146.8916564636
 31
0.0
  0
LINE
  5
146
330
1F
100
AcDbEntity
  8
0
  6
Continuous
 62
     7
370
    30
100
AcDbLine
 10
247.9170926775
 20
146.8916564636
 30
0.0
 11
247.9170926775
 21
401.8916665964
 31
0.0
  0
LINE
  5
147
330
1F
100
AcDbEntity
  8
0
  6
Continuous
 62
     7
370
    30
100
AcDbLine
 10
261.917091247
 20
401.8916665964
 30
0.0
 11
261.917091247
 21
146.8916564636
 31
0.0
  0
LINE
  5
148
330
1F
100
AcDbEntity
  8
0
  6
Continuous
 62
     7
370
    30
100
AcDbLine
 10
247.9170926775
 20
146.8916564636
 30
0.0
 11
246.9170906509
 21
146.8916564636
 31
0.0
  0
LINE
  5
149
330
1F
100
AcDbEntity
  8
0
  6
Continuous
 62
     7
370
    30
100
AcDbLine
 10
247.9170926775
 20
401.8916665964
 30
0.0
 11
246.9170906509
 21
401.8916665964
 31
0.0
  0
LINE
  5
14A
330
1F
100
AcDbEntity
  8
0
  6
Continuous
 62
     7
370
    30
100
AcDbLine
 10
262.9170932735
 20
146.8916564636
 30
0.0
 11
261.917091247
 21
146.8916564636
 31
0.0
  0
LINE
  5
14B
330
1F
100
AcDbEntity
  8
0
  6
Continuous
 62
     7
370
    30
100
AcDbLine
 10
262.9170932735
 20
401.8916665964
 30
0.0
 11
261.917091247
 21
401.8916665964
 31
0.0
  0
LINE
  5
14C
330
1F
100
AcDbEntity
  8
0
  6
Continuous
 62
     7
370
    30
100
AcDbLine
 10
261.917091247
 20
147.8916547649
 30
0.0
 11
261.917091247
 21
161.8916570597
 31
0.0
  0
LINE
  5
14D
330
1F
100
AcDbEntity
  8
0
  6
Continuous
 62
     7
370
    30
100
AcDbLine
 10
260.9170892204
 20
147.8916547649
 30
0.0
 11
261.917091247
 21
147.8916547649
 31
0.0
  0
LINE
  5
14E
330
1F
100
AcDbEntity
  8
0
  6
Continuous
 62
     7
370
    30
100
AcDbLine
 10
260.9170892204
 20
133.8916561954
 30
0.0
 11
260.9170892204
 21
147.8916547649
 31
0.0
  0
LINE
  5
14F
330
1F
100
AcDbEntity
  8
0
  6
Continuous
 62
     7
370
    30
100
AcDbLine
 10
258.9170926179
 20
131.8916558676
 30
0.0
 11
260.9170892204
 21
133.8916561954
 31
0.0
  0
LINE
  5
150
330
1F
100
AcDbEntity
  8
0
  6
Continuous
 62
     7
370
    30
100
AcDbLine
 10
250.9170913066
 20
131.8916558676
 30
0.0
 11
258.9170926179
 21
131.8916558676
 31
0.0
  0
LINE
  5
151
330
1F
100
AcDbEntity
  8
0
  6
Continuous
 62
     7
370
    30
100
AcDbLine
 10
248.9170872535
 20
133.8916561954
 30
0.0
 11
250.9170913066
 21
131.8916558676
 31
0.0
  0
LINE
  5
152
330
1F
100
AcDbEntity
  8
0
  6
Continuous
 62
     7
370
    30
100
AcDbLine
 10
248.9170872535
 20
147.8916547649
 30
0.0
 11
248.9170872535
 21
133.8916561954
 31
0.0
  0
LINE
  5
153
330
1F
100
AcDbEntity
  8
0
  6
Continuous
 62
     7
370
    30
100
AcDbLine
 10
247.9170926775
 20
147.8916547649
 30
0.0
 11
248.9170872535
 21
147.8916547649
 31
0.0
  0
LINE
  5
154
330
1F
100
AcDbEntity
  8
0
  6
Continuous
 62
     7
370
    30
100
AcDbLine
 10
247.9170926775
 20
161.8916570597
 30
0.0
 11
247.9170926775
 21
147.8916547649
 31
0.0
  0
LINE
  5
155
330
1F
100
AcDbEntity
  8
0
  6
Continuous
 62
     7
370
    30
100
AcDbLine
 10
261.917091247
 20
161.8916570597
 30
0.0
 11
247.9170926775
 21
161.8916570597
 31
0.0
  0
LINE
  5
156
330
1F
100
AcDbEntity
  8
0
  6
Continuous
 62
     7
370
    30
100
AcDbLine
 10
241.4170869554
 20
69.8916568808
 30
0.0
 11
241.4170869554
 21
124.3916555695
 31
0.0
  0
LINE
  5
157
330
1F
100
AcDbEntity
  8
0
  6
Continuous
 62
     7
370
    30
100
AcDbLine
 10
241.4170869554
 20
124.3916555695
 30
0.0
 11
240.4170886542
 21
124.3916555695
 31
0.0
  0
LINE
  5
158
330
1F
100
AcDbEntity
  8
0
  6
Continuous
 62
     7
370
    30
100
AcDbLine
 10
240.4170886542
 20
124.3916555695
 30
0.0
 11
240.4170886542
 21
126.8916559793
 31
0.0
  0
LINE
  5
159
330
1F
100
AcDbEntity
  8
0
  6
Continuous
 62
     7
370
    30
100
AcDbLine
 10
240.4170886542
 20
126.8916559793
 30
0.0
 11
245.7186722125
 21
126.8916559793
 31
0.0
  0
LINE
  5
15A
330
1F
100
AcDbEntity
  8
0
  6
Continuous
 62
     7
370
    30
100
AcDbLine
 10
245.7186722125
 20
126.8916559793
 30
0.0
 11
246.4170896376
 21
146.8916564636
 31
0.0
  0
LINE
  5
15B
330
1F
100
AcDbEntity
  8
0
  6
Continuous
 62
     7
370
    30
100
AcDbLine
 10
246.4170896376
 20
146.8916564636
 30
0.0
 11
248.9170872535
 21
146.8916564636
 31
0.0
  0
LINE
  5
15C
330
1F
100
AcDbEntity
  8
0
  6
Continuous
 62
     7
370
    30
100
AcDbLine
 10
248.9170872535
 20
146.8916564636
 30
0.0
 11
248.9170872535
 21
131.8916558676
 31
0.0
  0
LINE
  5
15D
330
1F
100
AcDbEntity
  8
0
  6
Continuous
 62
     7
370
    30
100
AcDbLine
 10
248.9170872535
 20
131.8916558676
 30
0.0
 11
249.8170875872
 21
131.8916558676
 31
0.0
  0
LINE
  5
15E
330
1F
100
AcDbEntity
  8
0
  6
Continuous
 62
     7
370
    30
100
AcDbLine
 10
249.8170875872
 20
131.8916558676
 30
0.0
 11
249.8170875872
 21
126.8916559793
 31
0.0
  0
LINE
  5
15F
330
1F
100
AcDbEntity
  8
0
  6
Continuous
 62
     7
370
    30
100
AcDbLine
 10
249.8170875872
 20
126.8916559793
 30
0.0
 11
254.9170919622
 21
123.8272666387
 31
0.0
  0
LINE
  5
160
330
1F
100
AcDbEntity
  8
0
  6
Continuous
 62
     7
370
    30
100
AcDbLine
 10
254.9170919622
 20
123.8272666387
 30
0.0
 11
260.0170888866
 21
126.8916559793
 31
0.0
  0
LINE
  5
161
330
1F
100
AcDbEntity
  8
0
  6
Continuous
 62
     7
370
    30
100
AcDbLine
 10
260.0170888866
 20
126.8916559793
 30
0.0
 11
260.0170888866
 21
131.8916558676
 31
0.0
  0
LINE
  5
162
330
1F
100
AcDbEntity
  8
0
  6
Continuous
 62
     7
370
    30
100
AcDbLine
 10
260.0170888866
 20
131.8916558676
 30
0.0
 11
260.9170892204
 21
131.8916558676
 31
0.0
  0
LINE
  5
163
330
1F
100
AcDbEntity
  8
0
  6
Continuous
 62
     7
370
    30
100
AcDbLine
 10
260.9170892204
 20
131.8916558676
 30
0.0
 11
260.9170892204
 21
146.8916564636
 31
0.0
  0
LINE
  5
164
330
1F
100
AcDbEntity
  8
0
  6
Continuous
 62
     7
370
    30
100
AcDbLine
 10
260.9170892204
 20
146.8916564636
 30
0.0
 11
263.4170868362
 21
146.8916564636
 31
0.0
  0
LINE
  5
165
330
1F
100
AcDbEntity
  8
0
  6
Continuous
 62
     7
370
    30
100
AcDbLine
 10
263.4170868362
 20
146.8916564636
 30
0.0
 11
264.1155042614
 21
126.8916559793
 31
0.0
  0
LINE
  5
166
330
1F
100
AcDbEntity
  8
0
  6
Continuous
 62
     7
370
    30
100
AcDbLine
 10
264.1155042614
 20
126.8916559793
 30
0.0
 11
269.417091545
 21
126.8916559793
 31
0.0
  0
LINE
  5
167
330
1F
100
AcDbEntity
  8
0
  6
Continuous
 62
     7
370
    30
100
AcDbLine
 10
269.417091545
 20
126.8916559793
 30
0.0
 11
269.417091545
 21
124.3916555695
 31
0.0
  0
LINE
  5
168
330
1F
100
AcDbEntity
  8
0
  6
Continuous
 62
     7
370
    30
100
AcDbLine
 10
269.417091545
 20
124.3916555695
 30
0.0
 11
268.4170895184
 21
124.3916555695
 31
0.0
  0
LINE
  5
169
330
1F
100
AcDbEntity
  8
0
  6
Continuous
 62
     7
370
    30
100
AcDbLine
 10
268.4170895184
 20
124.3916555695
 30
0.0
 11
268.4170895184
 21
69.8916568808
 31
0.0
  0
ARC
  5
16A
330
1F
100
AcDbEntity
  8
0
  6
Continuous
 62
     7
370
    30
100
AcDbCircle
 10
254.9170901741
 20
69.8916556291
 30
0.0
 40
13.50000000000003
100
AcDbArc
 50
180.0
 51
0.0
  0
LINE
  5
16B
330
1F
100
AcDbEntity
  8
0
  6
Continuous
 62
     7
370
    30
100
AcDbLine
 10
260.0170888866
 20
126.8916559793
 30
0.0
 11
249.8170875872
 21
126.8916559793
 31
0.0
  0
LINE
  5
16C
330
1F
100
AcDbEntity
  8
0
  6
Continuous
 62
     7
370
    30
100
AcDbLine
 10
260.0170888866
 20
131.8916558676
 30
0.0
 11
258.9170926179
 21
131.8916558676
 31
0.0
  0
LINE
  5
16D
330
1F
100
AcDbEntity
  8
0
  6
Continuous
 62
     7
370
    30
100
AcDbLine
 10
250.9170913066
 20
131.8916558676
 30
0.0
 11
249.8170875872
 21
131.8916558676
 31
0.0
  0
LINE
  5
16E
330
1F
100
AcDbEntity
  8
0
  6
Continuous
 62
     7
370
    30
100
AcDbLine
 10
285.8982079591
 20
68.8097729735
 30
0.0
 11
287.472500738
 21
113.8916556529
 31
0.0
  0
LINE
  5
16F
330
1F
100
AcDbEntity
  8
0
  6
Continuous
 62
     7
370
    30
100
AcDbLine
 10
222.3616794611
 20
113.8916556529
 30
0.0
 11
223.9359759654
 21
68.8097729735
 31
0.0
  0
ARC
  5
170
330
1F
100
AcDbEntity
  8
0
  6
Continuous
 62
     7
370
    30
100
AcDbCircle
 10
254.9170901741
 20
69.8916556291
 30
0.0
 40
31.00000000000004
100
AcDbArc
 50
182.0
 51
358.0
  0
LINE
  5
171
330
1F
100
AcDbEntity
  8
0
  6
Continuous
 62
     7
370
    30
100
AcDbLine
 10
287.472500738
 20
113.8916556529
 30
0.0
 11
222.3616794611
 21
113.8916556529
 31
0.0
  0
LWPOLYLINE
  5
172
330
1F
100
AcDbEntity
  8
0
  6
Continuous
 62
     7
370
    30
100
AcDbPolyline
 90
        3
 70
   128
 43
0.0
 10
291.927947935
 20
146.4275709741
 10
293.1201153363
 20
147.6782142572
 10
294.7396554912
 20
149.3771850519
  0
LINE
  5
173
330
1F
100
AcDbEntity
  8
0
  6
Continuous
 62
     7
370
    30
100
AcDbLine
 10
291.9179492558
 20
146.4170768313
 30
0.0
 11
291.927947935
 21
146.4275709741
 31
0.0
  0
LWPOLYLINE
  5
174
330
1F
100
AcDbEntity
  8
0
  6
Continuous
 62
     7
370
    30
100
AcDbPolyline
 90
        3
 70
   128
 43
0.0
 10
215.0945247079
 20
149.3771850519
 10
216.3147807981
 20
148.0970784478
 10
217.9062322642
 20
146.4275709741
  0
ARC
  5
175
330
1F
100
AcDbEntity
  8
0
  6
Continuous
 62
     7
370
    30
100
AcDbCircle
 10
216.4585803194
 20
145.0476046526
 30
0.0
 40
2.000000000006261
100
AcDbArc
 50
3.000143436
 51
43.6287896689
  0
ARC
  5
176
330
1F
100
AcDbEntity
  8
0
  6
Continuous
 62
     7
370
    30
100
AcDbCircle
 10
293.3756000288
 20
145.0476046526
 30
0.0
 40
2.000000000006259
100
AcDbArc
 50
136.3712103311
 51
176.999856564
  0
ARC
  5
177
330
1F
100
AcDbEntity
  8
0
  6
Continuous
 62
     7
370
    30
100
AcDbCircle
 10
211.9600108873
 20
116.5203077912
 30
0.0
 40
2.000000000000006
100
AcDbArc
 50
3.0
 51
45.0
  0
ARC
  5
178
330
1F
100
AcDbEntity
  8
0
  6
Continuous
 62
     7
370
    30
100
AcDbCircle
 10
297.8741694609
 20
116.5203077912
 30
0.0
 40
2.000000000000054
100
AcDbArc
 50
135.0
 51
177.0
  0
LWPOLYLINE
  5
179
330
1F
100
AcDbEntity
  8
0
  6
Continuous
 62
     7
370
    30
100
AcDbPolyline
 90
        2
 70
   128
 43
0.0
 10
297.8742265071
 20
119.3487896972
 10
297.8742265071
 20
119.3487896972
  0
LWPOLYLINE
  5
17A
330
1F
100
AcDbEntity
  8
0
  6
Continuous
 62
     7
370
    30
100
AcDbPolyline
 90
        2
 70
   128
 43
0.0
 10
211.9599574174
 20
119.3487896972
 10
211.9599574174
 20
119.3487896972
  0
LWPOLYLINE
  5
17B
330
1F
100
AcDbEntity
  8
0
  6
Continuous
 62
     7
370
    30
100
AcDbPolyline
 90
        3
 70
   128
 43
0.0
 10
211.9599574174
 20
119.3487896972
 10
212.6764574016
 20
118.6322901785
 10
213.374222901
 20
117.9345214196
  0
LINE
  5
17C
330
1F
100
AcDbEntity
  8
0
  6
Continuous
 62
     7
370
    30
100
AcDbLine
 10
296.4599572982
 20
117.9345214196
 30
0.0
 11
297.8742265071
 21
119.3487896972
 31
0.0
  0
ARC
  5
17D
330
1F
100
AcDbEntity
  8
0
  6
Continuous
 62
     7
370
    30
100
AcDbCircle
 10
213.3741694609
 20
120.7630034671
 30
0.0
 40
2.000000000000026
100
AcDbArc
 50
183.0
 51
225.0
  0
ARC
  5
17E
330
1F
100
AcDbEntity
  8
0
  6
Continuous
 62
     7
370
    30
100
AcDbCircle
 10
293.2920046397
 20
150.7571505922
 30
0.0
 40
1.999999999999983
100
AcDbArc
 50
316.3712103311
 51
355.5
  0
LINE
  5
17F
330
1F
100
AcDbEntity
  8
0
  6
Continuous
 62
     7
370
    30
100
AcDbLine
 10
252.9471435512
 20
22.3916574769
 30
0.0
 11
253.8201653327
 21
22.3916574769
 31
0.0
  0
LINE
  5
180
330
1F
100
AcDbEntity
  8
0
  6
Continuous
 62
     7
370
    30
100
AcDbLine
 10
252.9471435512
 20
22.3916574769
 30
0.0
 11
252.9471435512
 21
22.4916591697
 31
0.0
  0
LINE
  5
181
330
1F
100
AcDbEntity
  8
0
  6
Continuous
 62
     7
370
    30
100
AcDbLine
 10
252.9471435512
 20
22.4916591697
 30
0.0
 11
252.8147616352
 21
22.4916591697
 31
0.0
  0
LINE
  5
182
330
1F
100
AcDbEntity
  8
0
  6
Continuous
 62
     7
370
    30
100
AcDbLine
 10
252.8147616352
 20
22.4916591697
 30
0.0
 11
252.8147616352
 21
22.3916574769
 31
0.0
  0
LINE
  5
183
330
1F
100
AcDbEntity
  8
0
  6
Continuous
 62
     7
370
    30
100
AcDbLine
 10
252.0139210786
 20
22.3916574769
 30
0.0
 11
252.8147616352
 21
22.3916574769
 31
0.0
  0
LINE
  5
184
330
1F
100
AcDbEntity
  8
0
  6
Continuous
 62
     7
370
    30
100
AcDbLine
 10
252.0139210786
 20
22.3916574769
 30
0.0
 11
252.0139210786
 21
22.4916591697
 31
0.0
  0
LINE
  5
185
330
1F
100
AcDbEntity
  8
0
  6
Continuous
 62
     7
370
    30
100
AcDbLine
 10
252.0139210786
 20
22.4916591697
 30
0.0
 11
251.8849440779
 21
22.4916591697
 31
0.0
  0
LINE
  5
186
330
1F
100
AcDbEntity
  8
0
  6
Continuous
 62
     7
370
    30
100
AcDbLine
 10
251.8849440779
 20
22.4916591697
 30
0.0
 11
251.8849440779
 21
22.3916574769
 31
0.0
  0
LINE
  5
187
330
1F
100
AcDbEntity
  8
0
  6
Continuous
 62
     7
370
    30
100
AcDbLine
 10
221.2682397033
 20
22.3916574769
 30
0.0
 11
251.8849440779
 21
22.3916574769
 31
0.0
  0
ARC
  5
188
330
1F
100
AcDbEntity
  8
0
  6
Continuous
 62
     7
370
    30
100
AcDbCircle
 10
221.2682406228
 20
24.8916556291
 30
0.0
 40
2.500000000000004
100
AcDbArc
 50
183.0
 51
270.0
  0
LINE
  5
189
330
1F
100
AcDbEntity
  8
0
  6
Continuous
 62
     7
370
    30
100
AcDbLine
 10
211.3769122328
 20
120.6583316825
 30
0.0
 11
209.3759302909
 21
158.8393181019
 31
0.0
  0
ARC
  5
18A
330
1F
100
AcDbEntity
  8
0
  6
Continuous
 62
     7
370
    30
100
AcDbCircle
 10
210.374559128
 20
158.8916556291
 30
0.0
 40
1.0
100
AcDbArc
 50
90.0
 51
183.0
  0
LINE
  5
18B
330
1F
100
AcDbEntity
  8
0
  6
Continuous
 62
     7
370
    30
100
AcDbLine
 10
210.374559548
 20
159.8916567318
 30
0.0
 11
212.8926993276
 21
159.8916567318
 31
0.0
  0
ARC
  5
18C
330
1F
100
AcDbEntity
  8
0
  6
Continuous
 62
     7
370
    30
100
AcDbCircle
 10
212.8926996824
 20
158.8916556291
 30
0.0
 40
1.000000000000009
100
AcDbArc
 50
4.5
 51
90.0
  0
LINE
  5
18D
330
1F
100
AcDbEntity
  8
0
  6
Continuous
 62
     7
370
    30
100
AcDbLine
 10
213.8896168138
 20
158.9701130442
 30
0.0
 11
214.5483412708
 21
150.6002313845
 31
0.0
  0
ARC
  5
18E
330
1F
100
AcDbEntity
  8
0
  6
Continuous
 62
     7
370
    30
100
AcDbCircle
 10
216.5421757085
 20
150.7571505922
 30
0.0
 40
1.99999999999999
100
AcDbArc
 50
184.5
 51
223.6287896689
  0
LINE
  5
18F
330
1F
100
AcDbEntity
  8
0
  6
Continuous
 62
     7
370
    30
100
AcDbLine
 10
218.4558392431
 20
145.1522811704
 30
0.0
 11
223.7901122237
 21
43.3682977609
 31
0.0
  0
ARC
  5
190
330
1F
100
AcDbEntity
  8
0
  6
Continuous
 62
     7
370
    30
100
AcDbCircle
 10
233.7764071209
 20
43.8916556291
 30
0.0
 40
10.00000000000002
100
AcDbArc
 50
183.0
 51
270.0
  0
LINE
  5
191
330
1F
100
AcDbEntity
  8
0
  6
Continuous
 62
     7
370
    30
100
AcDbLine
 10
233.7764085199
 20
33.8916584306
 30
0.0
 11
234.2712686325
 21
33.8916584306
 31
0.0
  0
ARC
  5
192
330
1F
100
AcDbEntity
  8
0
  6
Continuous
 62
     7
370
    30
100
AcDbCircle
 10
234.271267352
 20
43.8916556291
 30
0.0
 40
10.0
100
AcDbArc
 50
270.0
 51
302.4093867534
  0
ARC
  5
193
330
1F
100
AcDbEntity
  8
0
  6
Continuous
 62
     7
370
    30
100
AcDbCircle
 10
254.9170901741
 20
11.3708222958
 30
0.0
 40
28.52083333333333
100
AcDbArc
 50
57.5906132466
 51
122.4093867534
  0
ARC
  5
194
330
1F
100
AcDbEntity
  8
0
  6
Continuous
 62
     7
370
    30
100
AcDbCircle
 10
275.5629129961
 20
43.8916556291
 30
0.0
 40
10.00000000000002
100
AcDbArc
 50
237.5906132466
 51
270.0
  0
LINE
  5
195
330
1F
100
AcDbEntity
  8
0
  6
Continuous
 62
     7
370
    30
100
AcDbLine
 10
275.5629115666
 20
33.8916584306
 30
0.0
 11
276.0577716793
 21
33.8916584306
 31
0.0
  0
ARC
  5
196
330
1F
100
AcDbEntity
  8
0
  6
Continuous
 62
     7
370
    30
100
AcDbCircle
 10
276.0577732272
 20
43.8916556291
 30
0.0
 40
10.00000000000002
100
AcDbArc
 50
270.0
 51
357.0
  0
LINE
  5
197
330
1F
100
AcDbEntity
  8
0
  6
Continuous
 62
     7
370
    30
100
AcDbLine
 10
286.0440679754
 20
43.3682977609
 30
0.0
 11
291.3783409561
 21
145.1522811704
 31
0.0
  0
LINE
  5
198
330
1F
100
AcDbEntity
  8
0
  6
Continuous
 62
     7
370
    30
100
AcDbLine
 10
295.2858426536
 20
150.6002313845
 30
0.0
 11
295.9445633854
 21
158.9701130442
 31
0.0
  0
ARC
  5
199
330
1F
100
AcDbEntity
  8
0
  6
Continuous
 62
     7
370
    30
100
AcDbCircle
 10
296.9414806657
 20
158.8916556291
 30
0.0
 40
1.000000000000038
100
AcDbArc
 50
90.0
 51
175.5
  0
LINE
  5
19A
330
1F
100
AcDbEntity
  8
0
  6
Continuous
 62
     7
370
    30
100
AcDbLine
 10
296.9414808716
 20
159.8916567318
 30
0.0
 11
299.4596206511
 21
159.8916567318
 31
0.0
  0
ARC
  5
19B
330
1F
100
AcDbEntity
  8
0
  6
Continuous
 62
     7
370
    30
100
AcDbCircle
 10
299.4596212201
 20
158.8916556291
 30
0.0
 40
1.0
100
AcDbArc
 50
357.0
 51
90.0
  0
LINE
  5
19C
330
1F
100
AcDbEntity
  8
0
  6
Continuous
 62
     7
370
    30
100
AcDbLine
 10
300.4582517709
 20
158.8393181019
 30
0.0
 11
298.4572716917
 21
120.6583316825
 31
0.0
  0
ARC
  5
19D
330
1F
100
AcDbEntity
  8
0
  6
Continuous
 62
     7
370
    30
100
AcDbCircle
 10
296.4600108873
 20
120.7630034671
 30
0.0
 40
1.999999999999986
100
AcDbArc
 50
315.0
 51
357.0
  0
ARC
  5
19E
330
1F
100
AcDbEntity
  8
0
  6
Continuous
 62
     7
370
    30
100
AcDbCircle
 10
288.5659397254
 20
24.8916556291
 30
0.0
 40
2.50000000000002
100
AcDbArc
 50
270.0
 51
357.0
  0
LINE
  5
19F
330
1F
100
AcDbEntity
  8
0
  6
Continuous
 62
     7
370
    30
100
AcDbLine
 10
257.2396689023
 20
22.3916574769
 30
0.0
 11
288.5659404959
 21
22.3916574769
 31
0.0
  0
LINE
  5
1A0
330
1F
100
AcDbEntity
  8
0
  6
Continuous
 62
     7
370
    30
100
AcDbLine
 10
257.2396689023
 20
22.3916574769
 30
0.0
 11
257.2396689023
 21
22.4916591697
 31
0.0
  0
LINE
  5
1A1
330
1F
100
AcDbEntity
  8
0
  6
Continuous
 62
     7
370
    30
100
AcDbLine
 10
257.2396689023
 20
22.4916591697
 30
0.0
 11
257.108978268
 21
22.4916591697
 31
0.0
  0
LINE
  5
1A2
330
1F
100
AcDbEntity
  8
0
  6
Continuous
 62
     7
370
    30
100
AcDbLine
 10
257.108978268
 20
22.4916591697
 30
0.0
 11
257.108978268
 21
22.3916574769
 31
0.0
  0
LINE
  5
1A3
330
1F
100
AcDbEntity
  8
0
  6
Continuous
 62
     7
370
    30
100
AcDbLine
 10
253.9493360485
 20
22.3916574769
 30
0.0
 11
257.108978268
 21
22.3916574769
 31
0.0
  0
LINE
  5
1A4
330
1F
100
AcDbEntity
  8
0
  6
Continuous
 62
     7
370
    30
100
AcDbLine
 10
253.9493360485
 20
22.3916574769
 30
0.0
 11
253.9493360485
 21
22.4916591697
 31
0.0
  0
LINE
  5
1A5
330
1F
100
AcDbEntity
  8
0
  6
Continuous
 62
     7
370
    30
100
AcDbLine
 10
253.9493360485
 20
22.4916591697
 30
0.0
 11
253.8201653327
 21
22.4916591697
 31
0.0
  0
LINE
  5
1A6
330
1F
100
AcDbEntity
  8
0
  6
Continuous
 62
     7
370
    30
100
AcDbLine
 10
253.8201653327
 20
22.4916591697
 30
0.0
 11
253.8201653327
 21
22.3916574769
 31
0.0
  0
LINE
  5
1A7
330
1F
100
AcDbEntity
  8
0
  6
Continuous
 62
     7
370
    30
100
AcDbLine
 10
291.0625108446
 20
24.7608154468
 30
0.0
 11
295.8769121135
 21
116.624979667
 31
0.0
  0
LINE
  5
1A8
330
1F
100
AcDbEntity
  8
0
  6
Continuous
 62
     7
370
    30
100
AcDbLine
 10
213.9572718109
 20
116.624979667
 30
0.0
 11
218.7716656293
 21
24.7608154468
 31
0.0
  0
LINE
  5
1A9
330
1F
100
AcDbEntity
  8
0
  6
Continuous
 62
     7
370
    30
100
AcDbLine
 10
252.0138614739
 20
22.4916591697
 30
0.0
 11
252.0138614739
 21
22.3916574769
 31
0.0
  0
SPLINE
  5
1AA
330
1F
100
AcDbEntity
  8
0
  6
Continuous
 62
     7
370
    30
100
AcDbSpline
210
0.0
220
0.0
230
1.0
 70
    24
 71
     3
 72
     9
 73
     5
 74
     0
 42
0.00000001
 43
0.00000001
 40
0.0
 40
0.0
 40
0.0
 40
0.0
 40
0.5600361047708263
 40
0.9999999999999999
 40
0.9999999999999999
 40
0.9999999999999999
 40
0.9999999999999999
 10
252.0138614739199
 20
22.39165747688396
 30
0.0
 10
252.0138747130397
 20
22.39165747688393
 30
0.0
 10
252.013898352801
 20
22.39165747688396
 30
0.0
 10
252.013914134977
 20
22.39165747688396
 30
0.0
 10
252.0139210785647
 20
22.39165747688396
 30
0.0
  0
LINE
  5
1AB
330
1F
100
AcDbEntity
  8
0
  6
Continuous
 62
     7
370
    30
100
AcDbLine
 10
252.8147616352
 20
22.3916574769
 30
0.0
 11
252.8203123177
 21
22.3916574769
 31
0.0
  0
LINE
  5
1AC
330
1F
100
AcDbEntity
  8
0
  6
Continuous
 62
     7
370
    30
100
AcDbLine
 10
253.8203143443
 20
22.4916591697
 30
0.0
 11
253.8203143443
 21
22.3916574769
 31
0.0
  0
LINE
  5
1AD
330
1F
100
AcDbEntity
  8
0
  6
Continuous
 62
     7
370
    30
100
AcDbLine
 10
257.110133108
 20
22.4916591697
 30
0.0
 11
257.110133108
 21
22.3916574769
 31
0.0
  0
LINE
  5
1AE
330
1F
100
AcDbEntity
  8
0
  6
Continuous
 62
     7
370
    30
100
AcDbLine
 10
257.108978268
 20
22.3916574769
 30
0.0
 11
257.110133108
 21
22.3916574769
 31
0.0
  0
LINE
  5
1AF
330
1F
100
AcDbEntity
  8
0
  6
Continuous
 62
     7
370
    30
100
AcDbLine
 10
253.8804032768
 20
22.3916574769
 30
0.0
 11
253.9493509496
 21
22.3916574769
 31
0.0
  0
SPLINE
  5
1B0
330
1F
100
AcDbEntity
  8
0
  6
Continuous
 62
     7
370
    30
100
AcDbSpline
210
0.0
220
0.0
230
1.0
 70
    24
 71
     3
 72
     9
 73
     5
 74
     0
 42
0.00000001
 43
0.00000001
 40
0.0
 40
0.0
 40
0.0
 40
0.0
 40
0.7855136525274814
 40
0.9999999999999999
 40
0.9999999999999999
 40
0.9999999999999999
 40
0.9999999999999999
 10
251.8848323191424
 20
22.39165747688396
 30
0.0
 10
251.8893098906243
 20
22.39165747688396
 30
0.0
 10
251.8950100735142
 20
22.39165747688396
 30
0.0
 10
251.9663141578967
 20
22.39165747688396
 30
0.0
 10
251.9816079105158
 20
22.39165747688396
 30
0.0
  0
SPLINE
  5
1B1
330
1F
100
AcDbEntity
  8
0
  6
Continuous
 62
     7
370
    30
100
AcDbSpline
210
0.0
220
0.0
230
1.0
 70
    24
 71
     3
 72
     9
 73
     5
 74
     0
 42
0.00000001
 43
0.00000001
 40
0.0
 40
0.0
 40
0.0
 40
0.0
 40
0.3490130525300824
 40
1.0
 40
1.0
 40
1.0
 40
1.0
 10
252.8455250824709
 20
22.39165747688396
 30
0.0
 10
252.8509178007286
 20
22.39165747688396
 30
0.0
 10
252.86636913763
 20
22.39165747688396
 30
0.0
 10
252.8992284808008
 20
22.39165747688396
 30
0.0
 10
252.9206194843073
 20
22.39165747688396
 30
0.0
  0
LINE
  5
1B2
330
1F
100
AcDbEntity
  8
0
  6
Continuous
 62
     7
370
    30
100
AcDbLine
 10
257.110133108
 20
22.3916574769
 30
0.0
 11
257.2396689023
 21
22.3916574769
 31
0.0
  0
LINE
  5
1B3
330
1F
100
AcDbEntity
  8
0
  6
Continuous
 62
     7
370
    30
100
AcDbLine
 10
212.8926993276
 20
159.8916567318
 30
0.0
 11
217.8772867585
 21
159.8916567318
 31
0.0
  0
LINE
  5
1B4
330
1F
100
AcDbEntity
  8
0
  6
Continuous
 62
     7
370
    30
100
AcDbLine
 10
291.9568934406
 20
159.8916567318
 30
0.0
 11
296.9414808716
 21
159.8916567318
 31
0.0
  0
LINE
  5
1B5
330
1F
100
AcDbEntity
  8
0
  6
Continuous
 62
     7
370
    30
100
AcDbLine
 10
217.8772867585
 20
159.8916567318
 30
0.0
 11
218.9170897867
 21
159.8916567318
 31
0.0
  0
LINE
  5
1B6
330
1F
100
AcDbEntity
  8
0
  6
Continuous
 62
     7
370
    30
100
AcDbLine
 10
290.9170904125
 20
159.8916567318
 30
0.0
 11
291.9568934406
 21
159.8916567318
 31
0.0
  0
LINE
  5
1B7
330
1F
100
AcDbEntity
  8
0
  6
Continuous
 62
     7
370
    30
100
AcDbLine
 10
202.1670893694
 20
136.3916556738
 30
0.0
 11
208.1670903529
 21
136.3916556738
 31
0.0
  0
LINE
  5
1B8
330
1F
100
AcDbEntity
  8
0
  6
Continuous
 62
     7
370
    30
100
AcDbLine
 10
202.1670893694
 20
138.3916560017
 30
0.0
 11
202.1670893694
 21
136.3916556738
 31
0.0
  0
ARC
  5
1B9
330
1F
100
AcDbEntity
  8
0
  6
Continuous
 62
     7
370
    30
100
AcDbCircle
 10
212.1670901741
 20
120.9331075135
 30
0.0
 40
2.0
100
AcDbArc
 50
180.0
 51
240.0
  0
LINE
  5
1BA
330
1F
100
AcDbEntity
  8
0
  6
Continuous
 62
     7
370
    30
100
AcDbLine
 10
211.167088982
 20
119.2010567911
 30
0.0
 11
212.9170888032
 21
118.1906938009
 31
0.0
  0
ARC
  5
1BB
330
1F
100
AcDbEntity
  8
0
  6
Continuous
 62
     7
370
    30
100
AcDbCircle
 10
212.1670901741
 20
116.8916556291
 30
0.0
 40
1.5
100
AcDbArc
 50
270.0
 51
60.0
  0
LINE
  5
1BC
330
1F
100
AcDbEntity
  8
0
  6
Continuous
 62
     7
370
    30
100
AcDbLine
 10
208.5690137858
 20
115.3916557241
 30
0.0
 11
212.1670910085
 21
115.3916557241
 31
0.0
  0
LINE
  5
1BD
330
1F
100
AcDbEntity
  8
0
  6
Continuous
 62
     7
370
    30
100
AcDbLine
 10
208.1670903529
 20
116.8916557372
 30
0.0
 11
208.5690137858
 21
115.3916557241
 31
0.0
  0
LINE
  5
1BE
330
1F
100
AcDbEntity
  8
0
  6
Continuous
 62
     7
370
    30
100
AcDbLine
 10
208.1670903529
 20
116.8916557372
 30
0.0
 11
208.1670903529
 21
136.3916556738
 31
0.0
  0
LINE
  5
1BF
330
1F
100
AcDbEntity
  8
0
  6
Continuous
 62
     7
370
    30
100
AcDbLine
 10
210.1670906807
 20
120.933107698
 30
0.0
 11
210.1670906807
 21
138.3916560017
 31
0.0
  0
LINE
  5
1C0
330
1F
100
AcDbEntity
  8
0
  6
Continuous
 62
     7
370
    30
100
AcDbLine
 10
202.1670893694
 20
138.3916560017
 30
0.0
 11
210.1670906807
 21
138.3916560017
 31
0.0
  0
LINE
  5
1C1
330
1F
100
AcDbEntity
  8
0
  6
Continuous
 62
     7
370
    30
100
AcDbLine
 10
301.2651645507
 20
115.3916557241
 30
0.0
 11
301.6670935715
 21
116.8916557372
 31
0.0
  0
ARC
  5
1C2
330
1F
100
AcDbEntity
  8
0
  6
Continuous
 62
     7
370
    30
100
AcDbCircle
 10
297.6670901741
 20
116.8916556291
 30
0.0
 40
1.5
100
AcDbArc
 50
120.0
 51
270.0
  0
LINE
  5
1C3
330
1F
100
AcDbEntity
  8
0
  6
Continuous
 62
     7
370
    30
100
AcDbLine
 10
296.9170876707
 20
118.1906938009
 30
0.0
 11
298.6670874919
 21
119.2010567911
 31
0.0
  0
ARC
  5
1C4
330
1F
100
AcDbEntity
  8
0
  6
Continuous
 62
     7
370
    30
100
AcDbCircle
 10
297.6670901741
 20
120.9331075135
 30
0.0
 40
2.0
100
AcDbArc
 50
300.0
 51
0.0
  0
LINE
  5
1C5
330
1F
100
AcDbEntity
  8
0
  6
Continuous
 62
     7
370
    30
100
AcDbLine
 10
303.6670901741
 20
136.3916556738
 30
0.0
 11
303.6670901741
 21
138.3916560017
 31
0.0
  0
LINE
  5
1C6
330
1F
100
AcDbEntity
  8
0
  6
Continuous
 62
     7
370
    30
100
AcDbLine
 10
301.6670935715
 20
136.3916556738
 30
0.0
 11
301.6670935715
 21
116.8916557372
 31
0.0
  0
LINE
  5
1C7
330
1F
100
AcDbEntity
  8
0
  6
Continuous
 62
     7
370
    30
100
AcDbLine
 10
297.6670929159
 20
115.3916557241
 30
0.0
 11
301.2651645507
 21
115.3916557241
 31
0.0
  0
LINE
  5
1C8
330
1F
100
AcDbEntity
  8
0
  6
Continuous
 62
     7
370
    30
100
AcDbLine
 10
301.6670935715
 20
136.3916556738
 30
0.0
 11
303.6670901741
 21
136.3916556738
 31
0.0
  0
LINE
  5
1C9
330
1F
100
AcDbEntity
  8
0
  6
Continuous
 62
     7
370
    30
100
AcDbLine
 10
299.6670895184
 20
138.3916560017
 30
0.0
 11
299.6670895184
 21
120.933107698
 31
0.0
  0
LINE
  5
1CA
330
1F
100
AcDbEntity
  8
0
  6
Continuous
 62
     7
370
    30
100
AcDbLine
 10
299.6670895184
 20
138.3916560017
 30
0.0
 11
303.6670901741
 21
138.3916560017
 31
0.0
  0
LINE
  5
1CB
330
1F
100
AcDbEntity
  8
0
  6
Continuous
 62
     7
370
    30
100
AcDbLine
 10
210.1670906807
 20
138.3916560017
 30
0.0
 11
210.4475454355
 21
138.3916560017
 31
0.0
  0
LINE
  5
1CC
330
1F
100
AcDbEntity
  8
0
  6
Continuous
 62
     7
370
    30
100
AcDbLine
 10
299.6670895184
 20
138.3916560017
 30
0.0
 11
299.3866347636
 21
138.3916560017
 31
0.0
  0
ARC
  5
1CD
330
1F
100
AcDbEntity
  8
0
  6
Continuous
 62
     7
370
    30
100
AcDbCircle
 10
207.8670901741
 20
116.1916556291
 30
0.0
 40
0.3000000000000114
100
AcDbArc
 50
270.0
 51
0.0
  0
LINE
  5
1CE
330
1F
100
AcDbEntity
  8
0
  6
Continuous
 62
     7
370
    30
100
AcDbLine
 10
207.8670908625
 20
115.8916555733
 30
0.0
 11
204.4670910503
 21
115.8916555733
 31
0.0
  0
ARC
  5
1CF
330
1F
100
AcDbEntity
  8
0
  6
Continuous
 62
     7
370
    30
100
AcDbCircle
 10
204.4670901741
 20
116.1916556291
 30
0.0
 40
0.2999999999999972
100
AcDbArc
 50
180.0
 51
270.0
  0
LINE
  5
1D0
330
1F
100
AcDbEntity
  8
0
  6
Continuous
 62
     7
370
    30
100
AcDbLine
 10
204.1670896972
 20
134.5916550063
 30
0.0
 11
204.1670896972
 21
116.1916555293
 31
0.0
  0
ARC
  5
1D1
330
1F
100
AcDbEntity
  8
0
  6
Continuous
 62
     7
370
    30
100
AcDbCircle
 10
204.4670901741
 20
134.5916556291
 30
0.0
 40
0.2999999999999829
100
AcDbArc
 50
90.0
 51
180.0
  0
LINE
  5
1D2
330
1F
100
AcDbEntity
  8
0
  6
Continuous
 62
     7
370
    30
100
AcDbLine
 10
204.4670910503
 20
134.8916563593
 30
0.0
 11
207.8670908625
 21
134.8916563593
 31
0.0
  0
ARC
  5
1D3
330
1F
100
AcDbEntity
  8
0
  6
Continuous
 62
     7
370
    30
100
AcDbCircle
 10
207.8670901741
 20
134.5916556291
 30
0.0
 40
0.3000000000000114
100
AcDbArc
 50
0.0
 51
90.0
  0
LINE
  5
1D4
330
1F
100
AcDbEntity
  8
0
  6
Continuous
 62
     7
370
    30
100
AcDbLine
 10
208.1670903529
 20
134.5916550063
 30
0.0
 11
208.1670903529
 21
116.1916555293
 31
0.0
  0
ARC
  5
1D5
330
1F
100
AcDbEntity
  8
0
  6
Continuous
 62
     7
370
    30
100
AcDbCircle
 10
302.1670901741
 20
114.8916556291
 30
0.0
 40
0.5
100
AcDbArc
 50
180.0
 51
270.0
  0
LINE
  5
1D6
330
1F
100
AcDbEntity
  8
0
  6
Continuous
 62
     7
370
    30
100
AcDbLine
 10
301.6670935715
 20
135.8916565232
 30
0.0
 11
301.6670935715
 21
114.8916556422
 31
0.0
  0
ARC
  5
1D7
330
1F
100
AcDbEntity
  8
0
  6
Continuous
 62
     7
370
    30
100
AcDbCircle
 10
302.1670901741
 20
135.8916556291
 30
0.0
 40
0.5
100
AcDbArc
 50
90.0
 51
180.0
  0
LINE
  5
1D8
330
1F
100
AcDbEntity
  8
0
  6
Continuous
 62
     7
370
    30
100
AcDbLine
 10
302.1670871342
 20
136.3916556738
 30
0.0
 11
305.1670857633
 21
136.3916556738
 31
0.0
  0
ARC
  5
1D9
330
1F
100
AcDbEntity
  8
0
  6
Continuous
 62
     7
370
    30
100
AcDbCircle
 10
305.1670901741
 20
135.8916556291
 30
0.0
 40
0.5
100
AcDbArc
 50
0.0
 51
90.0
  0
LINE
  5
1DA
330
1F
100
AcDbEntity
  8
0
  6
Continuous
 62
     7
370
    30
100
AcDbLine
 10
305.6670942272
 20
114.8916556422
 30
0.0
 11
305.6670942272
 21
135.8916565232
 31
0.0
  0
ARC
  5
1DB
330
1F
100
AcDbEntity
  8
0
  6
Continuous
 62
     7
370
    30
100
AcDbCircle
 10
305.1670901741
 20
114.8916556291
 30
0.0
 40
0.5
100
AcDbArc
 50
270.0
 51
0.0
  0
LINE
  5
1DC
330
1F
100
AcDbEntity
  8
0
  6
Continuous
 62
     7
370
    30
100
AcDbLine
 10
302.1670871342
 20
114.3916556766
 30
0.0
 11
305.1670857633
 21
114.3916556766
 31
0.0
  0
LINE
  5
1DD
330
1F
100
AcDbEntity
  8
0
  6
Continuous
 62
     7
370
    30
100
AcDbLine
 10
200.1670909042
 20
134.391655346
 30
0.0
 11
200.1670909042
 21
135.8916565232
 31
0.0
  0
ARC
  5
1DE
330
1F
100
AcDbEntity
  8
0
  6
Continuous
 62
     7
370
    30
100
AcDbCircle
 10
200.6670901741
 20
135.8916556291
 30
0.0
 40
0.5
100
AcDbArc
 50
90.0
 51
180.0
  0
LINE
  5
1DF
330
1F
100
AcDbEntity
  8
0
  6
Continuous
 62
     7
370
    30
100
AcDbLine
 10
202.1670893694
 20
136.3916556738
 30
0.0
 11
200.6670900549
 21
136.3916556738
 31
0.0
  0
ARC
  5
1E0
330
1F
100
AcDbEntity
  8
0
  6
Continuous
 62
     7
370
    30
100
AcDbCircle
 10
203.6670901741
 20
135.8916556291
 30
0.0
 40
0.5
100
AcDbArc
 50
0.0
 51
90.0
  0
LINE
  5
1E1
330
1F
100
AcDbEntity
  8
0
  6
Continuous
 62
     7
370
    30
100
AcDbLine
 10
204.1670896972
 20
135.8916565232
 30
0.0
 11
204.1670896972
 21
134.5916550063
 31
0.0
  0
ARC
  5
1E2
330
1F
100
AcDbEntity
  8
0
  6
Continuous
 62
     7
370
    30
100
AcDbCircle
 10
200.6670901741
 20
114.8916556291
 30
0.0
 40
0.5
100
AcDbArc
 50
180.0
 51
270.0
  0
LINE
  5
1E3
330
1F
100
AcDbEntity
  8
0
  6
Continuous
 62
     7
370
    30
100
AcDbLine
 10
203.6670905466
 20
114.3916556766
 30
0.0
 11
201.6670902188
 21
114.3916556766
 31
0.0
  0
LINE
  5
1E4
330
1F
100
AcDbEntity
  8
0
  6
Continuous
 62
     7
370
    30
100
AcDbLine
 10
204.1670896972
 20
116.1916555293
 30
0.0
 11
204.1670896972
 21
114.8916556422
 31
0.0
  0
ARC
  5
1E5
330
1F
100
AcDbEntity
  8
0
  6
Continuous
 62
     7
370
    30
100
AcDbCircle
 10
203.6670901741
 20
114.8916556291
 30
0.0
 40
0.5
100
AcDbArc
 50
270.0
 51
0.0
  0
LINE
  5
1E6
330
1F
100
AcDbEntity
  8
0
  6
Continuous
 62
     7
370
    30
100
AcDbLine
 10
208.1670903529
 20
114.3916556766
 30
0.0
 11
203.6670905466
 21
114.3916556766
 31
0.0
  0
LINE
  5
1E7
330
1F
100
AcDbEntity
  8
0
  6
Continuous
 62
     7
370
    30
100
AcDbLine
 10
302.1670871342
 20
114.3916556766
 30
0.0
 11
297.6670929159
 21
114.3916556766
 31
0.0
  0
LINE
  5
1E8
330
1F
100
AcDbEntity
  8
0
  6
Continuous
 62
     7
370
    30
100
AcDbLine
 10
297.6670929159
 20
114.3916556766
 30
0.0
 11
295.7598634924
 21
114.3916556766
 31
0.0
  0
LINE
  5
1E9
330
1F
100
AcDbEntity
  8
0
  6
Continuous
 62
     7
370
    30
100
AcDbLine
 10
214.0743129815
 20
114.3916556766
 30
0.0
 11
208.1670903529
 21
114.3916556766
 31
0.0
  0
LINE
  5
1EA
330
1F
100
AcDbEntity
  8
0
  6
Continuous
 62
     7
370
    30
100
AcDbLine
 10
198.667089727
 20
134.391655346
 30
0.0
 11
200.1670909042
 21
134.391655346
 31
0.0
  0
LINE
  5
1EB
330
1F
100
AcDbEntity
  8
0
  6
Continuous
 62
     7
370
    30
100
AcDbLine
 10
200.1670909042
 20
134.391655346
 30
0.0
 11
200.1670909042
 21
114.3916556766
 31
0.0
  0
LINE
  5
1EC
330
1F
100
AcDbEntity
  8
0
  6
Continuous
 62
     7
370
    30
100
AcDbLine
 10
200.1670909042
 20
114.3916556766
 30
0.0
 11
198.667089727
 21
114.3916556766
 31
0.0
  0
LINE
  5
1ED
330
1F
100
AcDbEntity
  8
0
  6
Continuous
 62
     7
370
    30
100
AcDbLine
 10
198.667089727
 20
134.391655346
 30
0.0
 11
198.667089727
 21
114.3916556766
 31
0.0
  0
LINE
  5
1EE
330
1F
100
AcDbEntity
  8
0
  6
Continuous
 62
     7
370
    30
100
AcDbLine
 10
178.6670901741
 20
96.8916557185
 30
0.0
 11
182.6670903641
 21
96.8916557185
 31
0.0
  0
LINE
  5
1EF
330
1F
100
AcDbEntity
  8
0
  6
Continuous
 62
     7
370
    30
100
AcDbLine
 10
182.6670903641
 20
92.8916550629
 30
0.0
 11
182.1670902821
 21
92.3916559123
 31
0.0
  0
LINE
  5
1F0
330
1F
100
AcDbEntity
  8
0
  6
Continuous
 62
     7
370
    30
100
AcDbLine
 10
182.1670902821
 20
92.3916559123
 30
0.0
 11
178.9670901883
 21
92.3916559123
 31
0.0
  0
ARC
  5
1F1
330
1F
100
AcDbEntity
  8
0
  6
Continuous
 62
     7
370
    30
100
AcDbCircle
 10
178.9670901741
 20
92.6916556291
 30
0.0
 40
0.3000000000000114
100
AcDbArc
 50
180.0
 51
270.0
  0
LINE
  5
1F2
330
1F
100
AcDbEntity
  8
0
  6
Continuous
 62
     7
370
    30
100
AcDbLine
 10
178.6670901741
 20
92.6916554026
 30
0.0
 11
178.6670901741
 21
96.8916557185
 31
0.0
  0
LINE
  5
1F3
330
1F
100
AcDbEntity
  8
0
  6
Continuous
 62
     7
370
    30
100
AcDbLine
 10
189.1670900325
 20
92.3916559123
 30
0.0
 11
188.6670899506
 21
92.8916550629
 31
0.0
  0
LINE
  5
1F4
330
1F
100
AcDbEntity
  8
0
  6
Continuous
 62
     7
370
    30
100
AcDbLine
 10
182.1670902821
 20
92.3916559123
 30
0.0
 11
183.2215900461
 21
92.3916559123
 31
0.0
  0
LINE
  5
1F5
330
1F
100
AcDbEntity
  8
0
  6
Continuous
 62
     7
370
    30
100
AcDbLine
 10
188.1125898029
 20
92.3916559123
 30
0.0
 11
189.1670900325
 21
92.3916559123
 31
0.0
  0
LINE
  5
1F6
330
1F
100
AcDbEntity
  8
0
  6
Continuous
 62
     7
370
    30
100
AcDbLine
 10
198.667089727
 20
114.3916556766
 30
0.0
 11
201.6670902188
 21
114.3916556766
 31
0.0
  0
LINE
  5
1F7
330
1F
100
AcDbEntity
  8
0
  6
Continuous
 62
     7
370
    30
100
AcDbLine
 10
202.6670903827
 20
113.8143053549
 30
0.0
 11
201.6670902188
 21
114.3916556766
 31
0.0
  0
LINE
  5
1F8
330
1F
100
AcDbEntity
  8
0
  6
Continuous
 62
     7
370
    30
100
AcDbLine
 10
202.6670903827
 20
113.8143053549
 30
0.0
 11
202.6670903827
 21
110.891655685
 31
0.0
  0
LINE
  5
1F9
330
1F
100
AcDbEntity
  8
0
  6
Continuous
 62
     7
370
    30
100
AcDbLine
 10
202.6670903827
 20
110.891655685
 30
0.0
 11
201.6670902188
 21
110.891655685
 31
0.0
  0
ARC
  5
1FA
330
1F
100
AcDbEntity
  8
0
  6
Continuous
 62
     7
370
    30
100
AcDbCircle
 10
201.6670901741
 20
107.8916556291
 30
0.0
 40
3.0
100
AcDbArc
 50
90.0
 51
180.0
  0
LINE
  5
1FB
330
1F
100
AcDbEntity
  8
0
  6
Continuous
 62
     7
370
    30
100
AcDbLine
 10
198.667089727
 20
107.8916556589
 30
0.0
 11
198.667089727
 21
92.6916554026
 31
0.0
  0
ARC
  5
1FC
330
1F
100
AcDbEntity
  8
0
  6
Continuous
 62
     7
370
    30
100
AcDbCircle
 10
198.3670901741
 20
92.6916556291
 30
0.0
 40
0.3000000000000114
100
AcDbArc
 50
270.0
 51
0.0
  0
LINE
  5
1FD
330
1F
100
AcDbEntity
  8
0
  6
Continuous
 62
     7
370
    30
100
AcDbLine
 10
198.3670902367
 20
92.3916559123
 30
0.0
 11
189.1670900325
 21
92.3916559123
 31
0.0
  0
LINE
  5
1FE
330
1F
100
AcDbEntity
  8
0
  6
Continuous
 62
     7
370
    30
100
AcDbLine
 10
188.6670899506
 20
96.8916557185
 30
0.0
 11
193.6670898388
 21
96.8916557185
 31
0.0
  0
ARC
  5
1FF
330
1F
100
AcDbEntity
  8
0
  6
Continuous
 62
     7
370
    30
100
AcDbCircle
 10
193.6670901741
 20
97.8916556291
 30
0.0
 40
1.0
100
AcDbArc
 50
270.0
 51
0.0
  0
LINE
  5
200
330
1F
100
AcDbEntity
  8
0
  6
Continuous
 62
     7
370
    30
100
AcDbLine
 10
194.667090934
 20
97.8916558825
 30
0.0
 11
194.667090934
 21
131.3916548543
 31
0.0
  0
ARC
  5
201
330
1F
100
AcDbEntity
  8
0
  6
Continuous
 62
     7
370
    30
100
AcDbCircle
 10
193.6670901741
 20
131.3916556291
 30
0.0
 40
1.0
100
AcDbArc
 50
0.0
 51
90.0
  0
LINE
  5
202
330
1F
100
AcDbEntity
  8
0
  6
Continuous
 62
     7
370
    30
100
AcDbLine
 10
193.6670898388
 20
132.3916550182
 30
0.0
 11
189.6670901145
 21
132.3916550182
 31
0.0
  0
LINE
  5
203
330
1F
100
AcDbEntity
  8
0
  6
Continuous
 62
     7
370
    30
100
AcDbLine
 10
189.6670901145
 20
132.3916550182
 30
0.0
 11
186.6670905541
 21
129.3916563891
 31
0.0
  0
LINE
  5
204
330
1F
100
AcDbEntity
  8
0
  6
Continuous
 62
     7
370
    30
100
AcDbLine
 10
186.6670905541
 20
129.3916563891
 30
0.0
 11
184.6670902262
 21
129.3916563891
 31
0.0
  0
LINE
  5
205
330
1F
100
AcDbEntity
  8
0
  6
Continuous
 62
     7
370
    30
100
AcDbLine
 10
184.6670902262
 20
129.3916563891
 30
0.0
 11
181.6670902002
 21
132.3916550182
 31
0.0
  0
LINE
  5
206
330
1F
100
AcDbEntity
  8
0
  6
Continuous
 62
     7
370
    30
100
AcDbLine
 10
181.6670902002
 20
132.3916550182
 30
0.0
 11
178.6670901741
 21
132.3916550182
 31
0.0
  0
LINE
  5
207
330
1F
100
AcDbEntity
  8
0
  6
Continuous
 62
     7
370
    30
100
AcDbLine
 10
178.6670901741
 20
132.3916550182
 30
0.0
 11
178.6670901741
 21
134.0916558556
 31
0.0
  0
ARC
  5
208
330
1F
100
AcDbEntity
  8
0
  6
Continuous
 62
     7
370
    30
100
AcDbCircle
 10
178.9670901741
 20
134.0916556291
 30
0.0
 40
0.2999999999999829
100
AcDbArc
 50
90.0
 51
180.0
  0
LINE
  5
209
330
1F
100
AcDbEntity
  8
0
  6
Continuous
 62
     7
370
    30
100
AcDbLine
 10
178.9670901883
 20
134.391655346
 30
0.0
 11
198.3670902367
 21
134.391655346
 31
0.0
  0
ARC
  5
20A
330
1F
100
AcDbEntity
  8
0
  6
Continuous
 62
     7
370
    30
100
AcDbCircle
 10
198.3670901741
 20
134.0916556291
 30
0.0
 40
0.3000000000000114
100
AcDbArc
 50
0.0
 51
90.0
  0
LINE
  5
20B
330
1F
100
AcDbEntity
  8
0
  6
Continuous
 62
     7
370
    30
100
AcDbLine
 10
198.667089727
 20
134.0916558556
 30
0.0
 11
198.667089727
 21
114.3916556766
 31
0.0
  0
LINE
  5
20C
330
1F
100
AcDbEntity
  8
0
  6
Continuous
 62
     7
370
    30
100
AcDbLine
 10
181.6670902002
 20
132.3916550182
 30
0.0
 11
181.6670902002
 21
131.3916548543
 31
0.0
  0
LINE
  5
20D
330
1F
100
AcDbEntity
  8
0
  6
Continuous
 62
     7
370
    30
100
AcDbLine
 10
178.6670901741
 20
131.3916548543
 30
0.0
 11
178.6670901741
 21
132.3916550182
 31
0.0
  0
LINE
  5
20E
330
1F
100
AcDbEntity
  8
0
  6
Continuous
 62
     7
370
    30
100
AcDbLine
 10
178.6670901741
 20
96.8916557185
 30
0.0
 11
178.6670901741
 21
99.391655197
 31
0.0
  0
LINE
  5
20F
330
1F
100
AcDbEntity
  8
0
  6
Continuous
 62
     7
370
    30
100
AcDbLine
 10
188.6670899506
 20
99.391655197
 30
0.0
 11
182.6670903641
 21
99.391655197
 31
0.0
  0
LINE
  5
210
330
1F
100
AcDbEntity
  8
0
  6
Continuous
 62
     7
370
    30
100
AcDbLine
 10
188.6670899506
 20
92.7117961846
 30
0.0
 11
182.6670903641
 21
92.7117961846
 31
0.0
  0
LINE
  5
211
330
1F
100
AcDbEntity
  8
0
  6
Continuous
 62
     7
370
    30
100
AcDbLine
 10
188.1125898029
 20
92.3916559123
 30
0.0
 11
183.2215900461
 21
92.3916559123
 31
0.0
  0
LINE
  5
212
330
1F
100
AcDbEntity
  8
0
  6
Continuous
 62
     7
370
    30
100
AcDbLine
 10
192.2180515642
 20
120.6490599007
 30
0.0
 11
192.2180515642
 21
130.1342520319
 31
0.0
  0
LINE
  5
213
330
1F
100
AcDbEntity
  8
0
  6
Continuous
 62
     7
370
    30
100
AcDbLine
 10
191.1528774465
 20
123.1416558303
 30
0.0
 11
191.1528774465
 21
124.2666553162
 31
0.0
  0
LINE
  5
214
330
1F
100
AcDbEntity
  8
0
  6
Continuous
 62
     7
370
    30
100
AcDbLine
 10
191.1528774465
 20
124.2666553162
 30
0.0
 11
191.1528774465
 21
126.5166552194
 31
0.0
  0
LINE
  5
215
330
1F
100
AcDbEntity
  8
0
  6
Continuous
 62
     7
370
    30
100
AcDbLine
 10
191.1528774465
 20
126.5166552194
 30
0.0
 11
191.1528774465
 21
127.6416556366
 31
0.0
  0
LINE
  5
216
330
1F
100
AcDbEntity
  8
0
  6
Continuous
 62
     8
370
     0
100
AcDbLine
 10
225.9170890714
 20
156.3916570895
 30
0.0
 11
225.9170890714
 21
158.3916574173
 31
0.0
  0
LINE
  5
217
330
1F
100
AcDbEntity
  8
0
  6
Continuous
 62
     8
370
     0
100
AcDbLine
 10
283.9170911278
 20
156.3916570895
 30
0.0
 11
283.9170911278
 21
158.3916574173
 31
0.0
  0
LINE
  5
218
330
1F
100
AcDbEntity
  8
0
  6
Continuous
 62
     8
370
     0
100
AcDbLine
 10
220.9170901145
 20
154.7328225725
 30
0.0
 11
220.9170901145
 21
154.8916540496
 31
0.0
  0
LINE
  5
219
330
1F
100
AcDbEntity
  8
0
  6
Continuous
 62
     8
370
     0
100
AcDbLine
 10
219.9170918132
 20
154.7328225725
 30
0.0
 11
220.9170901145
 21
154.7328225725
 31
0.0
  0
LINE
  5
21A
330
1F
100
AcDbEntity
  8
0
  6
Continuous
 62
     8
370
     0
100
AcDbLine
 10
220.9170901145
 20
152.3453920536
 30
0.0
 11
218.1588255729
 21
152.3453920536
 31
0.0
  0
LINE
  5
21B
330
1F
100
AcDbEntity
  8
0
  6
Continuous
 62
     8
370
     0
100
AcDbLine
 10
220.9170901145
 20
152.3453920536
 30
0.0
 11
220.9170901145
 21
154.7328225725
 31
0.0
  0
LINE
  5
21C
330
1F
100
AcDbEntity
  8
0
  6
Continuous
 62
     8
370
     0
100
AcDbLine
 10
220.9170901145
 20
151.7265915327
 30
0.0
 11
220.9170901145
 21
152.3453920536
 31
0.0
  0
LINE
  5
21D
330
1F
100
AcDbEntity
  8
0
  6
Continuous
 62
     8
370
     0
100
AcDbLine
 10
288.91709381
 20
151.7265915327
 30
0.0
 11
288.91709381
 21
152.3453920536
 31
0.0
  0
LINE
  5
21E
330
1F
100
AcDbEntity
  8
0
  6
Continuous
 62
     8
370
     0
100
AcDbLine
 10
291.675350901
 20
152.3453920536
 30
0.0
 11
288.91709381
 21
152.3453920536
 31
0.0
  0
LINE
  5
21F
330
1F
100
AcDbEntity
  8
0
  6
Continuous
 62
     8
370
     0
100
AcDbLine
 10
288.91709381
 20
154.7328225725
 30
0.0
 11
289.9170883859
 21
154.7328225725
 31
0.0
  0
LINE
  5
220
330
1F
100
AcDbEntity
  8
0
  6
Continuous
 62
     8
370
     0
100
AcDbLine
 10
288.91709381
 20
152.3453920536
 30
0.0
 11
288.91709381
 21
154.7328225725
 31
0.0
  0
LINE
  5
221
330
1F
100
AcDbEntity
  8
0
  6
Continuous
 62
     8
370
     0
100
AcDbLine
 10
288.91709381
 20
154.7328225725
 30
0.0
 11
288.91709381
 21
154.8916540496
 31
0.0
  0
LINE
  5
222
330
1F
100
AcDbEntity
  8
0
  6
Continuous
 62
     8
370
     0
100
AcDbLine
 10
220.9170901145
 20
154.7328225725
 30
0.0
 11
245.1670908297
 21
154.7328225725
 31
0.0
  0
LINE
  5
223
330
1F
100
AcDbEntity
  8
0
  6
Continuous
 62
     8
370
     0
100
AcDbLine
 10
264.6670930947
 20
154.7328225725
 30
0.0
 11
288.91709381
 21
154.7328225725
 31
0.0
  0
LINE
  5
224
330
1F
100
AcDbEntity
  8
0
  6
Continuous
 62
     8
370
     0
100
AcDbLine
 10
288.91709381
 20
152.3453920536
 30
0.0
 11
262.9170932735
 21
152.3453920536
 31
0.0
  0
LINE
  5
225
330
1F
100
AcDbEntity
  8
0
  6
Continuous
 62
     8
370
     0
100
AcDbLine
 10
246.9170906509
 20
152.3453920536
 30
0.0
 11
220.9170901145
 21
152.3453920536
 31
0.0
  0
SPLINE
  5
226
330
1F
100
AcDbEntity
  8
0
  6
Continuous
 62
     8
370
     0
100
AcDbSpline
210
0.0
220
0.0
230
1.0
 70
     8
 71
     3
 72
     9
 73
     5
 74
     0
 42
0.00000001
 43
0.00000001
 40
0.0
 40
0.0
 40
0.0
 40
0.0
 40
0.9999379505017205
 40
1.0
 40
1.0
 40
1.0
 40
1.0
 10
215.2899720634242
 20
149.3066057019053
 30
0.0
 10
215.2322778210726
 20
149.3018672328266
 30
0.0
 10
215.1745799986002
 20
149.2971284697101
 30
0.0
 10
215.0945296749978
 20
149.3771800847374
 30
0.0
 10
215.0945247079154
 20
149.3771850519
 30
0.0
  0
SPLINE
  5
227
330
1F
100
AcDbEntity
  8
0
  6
Continuous
 62
     8
370
     0
100
AcDbSpline
210
0.0
220
0.0
230
1.0
 70
     8
 71
     3
 72
    12
 73
     8
 74
     0
 42
0.00000001
 43
0.00000001
 40
0.0
 40
0.0
 40
0.0
 40
0.0
 40
0.1838632170150759
 40
0.3855718967859462
 40
0.5905405046996725
 40
0.7973724855641028
 40
1.0
 40
1.0
 40
1.0
 40
1.0
 10
218.2075225676318
 20
149.3066057019053
 30
0.0
 10
217.9453551904502
 20
149.3222246035441
 30
0.0
 10
217.3955748997735
 20
149.3549783518377
 30
0.0
 10
216.6381431980137
 20
149.372575168104
 30
0.0
 10
215.989750636254
 20
149.3735067171681
 30
0.0
 10
215.5060757405753
 20
149.3578405735617
 30
0.0
 10
215.3615118122917
 20
149.3235666805424
 30
0.0
 10
215.2899720634242
 20
149.3066057019053
 30
0.0
  0
SPLINE
  5
228
330
1F
100
AcDbEntity
  8
0
  6
Continuous
 62
     8
370
     0
100
AcDbSpline
210
0.0
220
0.0
230
1.0
 70
     8
 71
     3
 72
     9
 73
     5
 74
     0
 42
0.00000001
 43
0.00000001
 40
0.0
 40
0.0
 40
0.0
 40
0.0
 40
0.0000575397759723
 40
1.0
 40
1.0
 40
1.0
 40
1.0
 10
219.1472941006442
 20
149.3771850519
 30
0.0
 10
219.1472767159745
 20
149.3771800847423
 30
0.0
 10
218.8451436375993
 20
149.2908544498655
 30
0.0
 10
218.5263239302083
 20
149.2987303024728
 30
0.0
 10
218.2075225676318
 20
149.3066057019053
 30
0.0
  0
LINE
  5
229
330
1F
100
AcDbEntity
  8
0
  6
Continuous
 62
     8
370
     0
100
AcDbLine
 10
290.6868823732
 20
149.3771850519
 30
0.0
 11
262.9170932735
 21
149.3771850519
 31
0.0
  0
LINE
  5
22A
330
1F
100
AcDbEntity
  8
0
  6
Continuous
 62
     8
370
     0
100
AcDbLine
 10
246.9170906509
 20
149.3771850519
 30
0.0
 11
219.1472941006
 21
149.3771850519
 31
0.0
  0
SPLINE
  5
22B
330
1F
100
AcDbEntity
  8
0
  6
Continuous
 62
     8
370
     0
100
AcDbSpline
210
0.0
220
0.0
230
1.0
 70
     8
 71
     3
 72
     9
 73
     5
 74
     0
 42
0.00000001
 43
0.00000001
 40
0.0
 40
0.0
 40
0.0
 40
0.0
 40
0.999935117842383
 40
0.9999999999999999
 40
0.9999999999999999
 40
0.9999999999999999
 40
0.9999999999999999
 10
291.6266539062281
 20
149.3066057019053
 30
0.0
 10
291.3098982409442
 20
149.3036146289242
 30
0.0
 10
290.9931220225356
 20
149.3006233618632
 30
0.0
 10
290.6869022414158
 20
149.3771800847346
 30
0.0
 10
290.6868823732157
 20
149.3771850519
 30
0.0
  0
SPLINE
  5
22C
330
1F
100
AcDbEntity
  8
0
  6
Continuous
 62
     8
370
     0
100
AcDbSpline
210
0.0
220
0.0
230
1.0
 70
     8
 71
     3
 72
    12
 73
     8
 74
     0
 42
0.00000001
 43
0.00000001
 40
0.0
 40
0.0
 40
0.0
 40
0.0
 40
0.183863259249545
 40
0.3855724619121509
 40
0.5905408527136873
 40
0.7973718893079842
 40
1.0
 40
1.0
 40
1.0
 40
1.0
 10
294.5442118610163
 20
149.3066057019053
 30
0.0
 10
294.4809713792039
 20
149.3222246072395
 30
0.0
 10
294.3483522340607
 20
149.3549784037654
 30
0.0
 10
293.9046052478211
 20
149.3725751233044
 30
0.0
 10
293.2750465851261
 20
149.373506772921
 30
0.0
 10
292.4990232598981
 20
149.3578404164772
 30
0.0
 10
291.9154469690728
 20
149.3235666715713
 30
0.0
 10
291.6266539062281
 20
149.3066057019053
 30
0.0
  0
SPLINE
  5
22D
330
1F
100
AcDbEntity
  8
0
  6
Continuous
 62
     8
370
     0
100
AcDbSpline
210
0.0
220
0.0
230
1.0
 70
     8
 71
     3
 72
     9
 73
     5
 74
     0
 42
0.00000001
 43
0.00000001
 40
0.0
 40
0.0
 40
0.0
 40
0.0
 40
0.0000620495470483
 40
0.9999999999999999
 40
0.9999999999999999
 40
0.9999999999999999
 40
0.9999999999999999
 10
294.7396554912348
 20
149.3771850519
 30
0.0
 10
294.7396505241524
 20
149.3771800847374
 30
0.0
 10
294.6596002634503
 20
149.2971285326227
 30
0.0
 10
294.6019042722282
 20
149.3018672642821
 30
0.0
 10
294.5442118610163
 20
149.3066057019053
 30
0.0
  0
LWPOLYLINE
  5
22E
330
1F
100
AcDbEntity
  8
0
  6
Continuous
 62
     8
370
     0
100
AcDbPolyline
 90
        2
 70
   128
 43
0.0
 10
294.7396554912
 20
149.3771850519
 10
294.7396554912
 20
149.3771850519
  0
SPLINE
  5
22F
330
1F
100
AcDbEntity
  8
0
  6
Continuous
 62
     8
370
     0
100
AcDbSpline
210
0.0
220
0.0
230
1.0
 70
     8
 71
     3
 72
    18
 73
    14
 74
     0
 42
0.00000001
 43
0.00000001
 40
0.0
 40
0.0
 40
0.0
 40
0.0
 40
0.0000085200326163
 40
0.1700463867347004
 40
0.2896697816086148
 40
0.409328708539538
 40
0.5324348673865176
 40
0.6555365362032056
 40
0.7662773608051451
 40
0.877002953531634
 40
0.8982604796342717
 40
0.9999914303838461
 40
1.0
 40
1.0
 40
1.0
 40
1.0
 10
287.4701165522357
 20
146.398107653123
 30
0.0
 10
287.4701364204457
 20
146.3981076531053
 30
0.0
 10
287.8666744963587
 20
146.3981073005165
 30
0.0
 10
288.5519721440896
 20
146.4340675711648
 30
0.0
 10
289.4547602268036
 20
146.4347604273394
 30
0.0
 10
290.184785920325
 20
146.4368662691215
 30
0.0
 10
290.8188132380731
 20
146.4362005499188
 30
0.0
 10
291.3190245099574
 20
146.4370960417003
 30
0.0
 10
291.6657454172599
 20
146.4342130819425
 30
0.0
 10
291.8158371803124
 20
146.4266312393747
 30
0.0
 10
291.8949509244383
 20
146.4178260005023
 30
0.0
 10
291.929348087938
 20
146.398107195061
 30
0.0
 10
291.8998617298006
 20
146.3981076530844
 30
0.0
 10
291.8998592461367
 20
146.398107653123
 30
0.0
  0
SPLINE
  5
230
330
1F
100
AcDbEntity
  8
0
  6
Continuous
 62
     8
370
     0
100
AcDbSpline
210
0.0
220
0.0
230
1.0
 70
     8
 71
     3
 72
     9
 73
     5
 74
     0
 42
0.00000001
 43
0.00000001
 40
0.0
 40
0.0
 40
0.0
 40
0.0
 40
0.9998974758016465
 40
1.0
 40
1.0
 40
1.0
 40
1.0
 10
286.884508367898
 20
146.4275709740935
 30
0.0
 10
287.0803972730147
 20
146.4188963908271
 30
0.0
 10
287.2763062635437
 20
146.4102209181147
 30
0.0
 10
287.4700966840281
 20
146.3981088948985
 30
0.0
 10
287.4701165522357
 20
146.398107653123
 30
0.0
  0
LINE
  5
231
330
1F
100
AcDbEntity
  8
0
  6
Continuous
 62
     8
370
     0
100
AcDbLine
 10
222.9496718313
 20
146.4275709741
 30
0.0
 11
246.4008846248
 21
146.4275709741
 31
0.0
  0
LINE
  5
232
330
1F
100
AcDbEntity
  8
0
  6
Continuous
 62
     8
370
     0
100
AcDbLine
 10
263.4332992996
 20
146.4275709741
 30
0.0
 11
286.8845083679
 21
146.4275709741
 31
0.0
  0
SPLINE
  5
233
330
1F
100
AcDbEntity
  8
0
  6
Continuous
 62
     8
370
     0
100
AcDbSpline
210
0.0
220
0.0
230
1.0
 70
     8
 71
     3
 72
     9
 73
     5
 74
     0
 42
0.00000001
 43
0.00000001
 40
0.0
 40
0.0
 40
0.0
 40
0.0
 40
0.0001025241983536
 40
1.0
 40
1.0
 40
1.0
 40
1.0
 10
222.3640636469145
 20
146.398107653123
 30
0.0
 10
222.364083515122
 20
146.3981088948985
 30
0.0
 10
222.5578739355344
 20
146.4102209181351
 30
0.0
 10
222.7537829260994
 20
146.4188963908372
 30
0.0
 10
222.9496718312521
 20
146.4275709740935
 30
0.0
  0
SPLINE
  5
234
330
1F
100
AcDbEntity
  8
0
  6
Continuous
 62
     8
370
     0
100
AcDbSpline
210
0.0
220
0.0
230
1.0
 70
     8
 71
     3
 72
    18
 73
    14
 74
     0
 42
0.00000001
 43
0.00000001
 40
0.0
 40
0.0
 40
0.0
 40
0.0
 40
0.0000085034437585
 40
0.1700464348753528
 40
0.2896698752871458
 40
0.4093290279795361
 40
0.5324351996573126
 40
0.6555369153359784
 40
0.766277782094406
 40
0.8770030412189123
 40
0.898261021144992
 40
0.9999914799641405
 40
1.0
 40
1.0
 40
1.0
 40
1.0
 10
217.9343172277232
 20
146.398107653123
 30
0.0
 10
217.9343172276988
 20
146.3981076531054
 30
0.0
 10
217.9343167399779
 20
146.3981073012114
 30
0.0
 10
217.9841550359151
 20
146.4340675710886
 30
0.0
 10
218.3213274436305
 20
146.434760428782
 30
0.0
 10
218.7596796371323
 20
146.4368662667195
 30
0.0
 10
219.3414637131143
 20
146.4362005561399
 30
0.0
 10
220.0157640959032
 20
146.4370960207136
 30
0.0
 10
220.7468126694473
 20
146.4342131544991
 30
0.0
 10
221.2979647822106
 20
146.4266310785665
 30
0.0
 10
221.8377047975573
 20
146.4178261778654
 30
0.0
 10
222.1267946068227
 20
146.3981071977656
 30
0.0
 10
222.364043778704
 20
146.3981076530848
 30
0.0
 10
222.3640636469145
 20
146.398107653123
 30
0.0
  0
LWPOLYLINE
  5
235
330
1F
100
AcDbEntity
  8
0
  6
Continuous
 62
     8
370
     0
100
AcDbPolyline
 90
        2
 70
   128
 43
0.0
 10
215.0945247079
 20
149.3771850519
 10
215.0945247079
 20
149.3771850519
  0
ARC
  5
236
330
1F
100
AcDbEntity
  8
0
  6
Continuous
 62
     8
370
     0
100
AcDbCircle
 10
293.3689709961
 20
150.8369436946
 30
0.0
 40
1.929540220435041
100
AcDbArc
 50
307.5228799009
 51
355.3556767026
  0
ARC
  5
237
330
1F
100
AcDbEntity
  8
0
  6
Continuous
 62
     8
370
     0
100
AcDbCircle
 10
216.4651999417
 20
150.8369366256
 30
0.0
 40
1.929526704067157
100
AcDbArc
 50
184.6441453025
 51
232.477298094
  0
LINE
  5
238
330
1F
100
AcDbEntity
  8
0
  6
Continuous
 62
     8
370
     0
100
AcDbLine
 10
252.8203123177
 20
22.4916591697
 30
0.0
 11
252.8203123177
 21
22.3916574769
 31
0.0
  0
LINE
  5
239
330
1F
100
AcDbEntity
  8
0
  6
Continuous
 62
     8
370
     0
100
AcDbLine
 10
252.9206194843
 20
22.4916591697
 30
0.0
 11
252.9206194843
 21
22.3916574769
 31
0.0
  0
ARC
  5
23A
330
1F
100
AcDbEntity
  8
0
  6
Continuous
 62
     8
370
     0
100
AcDbCircle
 10
226.0370285178
 20
65.7840247307
 30
0.0
 40
22.52805913554252
100
AcDbArc
 50
264.2758838989
 51
275.7241161011
  0
ELLIPSE
  5
23B
330
1F
100
AcDbEntity
  8
0
  6
Continuous
 62
     8
370
     0
100
AcDbEllipse
 10
233.7764071209
 20
43.8916556291
 30
0.0
 11
0.0
 21
10.00000000000001
 31
0.0
210
0.0
220
0.0
230
1.0
 40
0.55
 41
1.623156204354726
 42
3.141592653589793
  0
LINE
  5
23C
330
1F
100
AcDbEntity
  8
0
  6
Continuous
 62
     8
370
     0
100
AcDbLine
 10
228.2839448119
 20
43.3682977609
 30
0.0
 11
238.8699271644
 21
43.3682977609
 31
0.0
  0
LINE
  5
23D
330
1F
100
AcDbEntity
  8
0
  6
Continuous
 62
     8
370
     0
100
AcDbLine
 10
270.9642493094
 20
43.3682977609
 30
0.0
 11
281.5502353872
 21
43.3682977609
 31
0.0
  0
ELLIPSE
  5
23E
330
1F
100
AcDbEntity
  8
0
  6
Continuous
 62
     8
370
     0
100
AcDbEllipse
 10
276.0577732272
 20
43.8916556291
 30
0.0
 11
0.0
 21
10.00000000000001
 31
0.0
210
0.0
220
0.0
230
1.0
 40
0.55
 41
3.141592653589793
 42
4.660029102824866
  0
ARC
  5
23F
330
1F
100
AcDbEntity
  8
0
  6
Continuous
 62
     8
370
     0
100
AcDbCircle
 10
283.7971516813
 20
64.0231896206
 30
0.0
 40
20.7767463902537
100
AcDbArc
 50
263.7915642697
 51
276.2084357303
  0
SPLINE
  5
240
330
1F
100
AcDbEntity
  8
0
  6
Continuous
 62
     8
370
     0
100
AcDbSpline
210
0.0
220
0.0
230
1.0
 70
     8
 71
     3
 72
    17
 73
    13
 74
     0
 42
0.00000001
 43
0.00000001
 40
0.0
 40
0.0
 40
0.0
 40
0.0
 40
0.074084431210635
 40
0.1495954813617433
 40
0.2554260364772268
 40
0.3643567438880941
 40
0.4701405133000524
 40
0.5790008758940455
 40
0.6826134700877529
 40
0.7891086506740894
 40
0.8931110627745869
 40
1.0
 40
1.0
 40
1.0
 40
1.0
 10
222.9496718312521
 20
145.1522774450598
 30
0.0
 10
222.7756205081168
 20
145.1427577837418
 30
0.0
 10
222.4241662141365
 20
145.1235351441938
 30
0.0
 10
221.8366465983418
 20
145.0493532035191
 30
0.0
 10
221.1876445327246
 20
145.0022550570706
 30
0.0
 10
220.5199337433631
 20
144.9695542668226
 30
0.0
 10
219.9148050625523
 20
144.9530900528424
 30
0.0
 10
219.4038873888136
 20
144.9585903609918
 30
0.0
 10
218.9896519458134
 20
144.9817885815463
 30
0.0
 10
218.6907317968709
 20
145.0199208198001
 30
0.0
 10
218.4951116602353
 20
145.0956910050659
 30
0.0
 10
218.4690489577938
 20
145.1332439659918
 30
0.0
 10
218.4558392430563
 20
145.1522774450598
 30
0.0
  0
LINE
  5
241
330
1F
100
AcDbEntity
  8
0
  6
Continuous
 62
     8
370
     0
100
AcDbLine
 10
222.9496718313
 20
145.1522774451
 30
0.0
 11
224.5879725481
 21
113.8916556529
 31
0.0
  0
LINE
  5
242
330
1F
100
AcDbEntity
  8
0
  6
Continuous
 62
     8
370
     0
100
AcDbLine
 10
227.6686311628
 20
55.1091834359
 30
0.0
 11
228.2839448119
 21
43.3682977609
 31
0.0
  0
LINE
  5
243
330
1F
100
AcDbEntity
  8
0
  6
Continuous
 62
     8
370
     0
100
AcDbLine
 10
281.5502353872
 20
43.3682977609
 30
0.0
 11
282.1655490364
 21
55.1091834359
 31
0.0
  0
LINE
  5
244
330
1F
100
AcDbEntity
  8
0
  6
Continuous
 62
     8
370
     0
100
AcDbLine
 10
285.246207651
 20
113.8916556529
 30
0.0
 11
286.8845083679
 21
145.1522774451
 31
0.0
  0
SPLINE
  5
245
330
1F
100
AcDbEntity
  8
0
  6
Continuous
 62
     8
370
     0
100
AcDbSpline
210
0.0
220
0.0
230
1.0
 70
     8
 71
     3
 72
    17
 73
    13
 74
     0
 42
0.00000001
 43
0.00000001
 40
0.0
 40
0.0
 40
0.0
 40
0.0
 40
0.074084422087227
 40
0.1495954629392409
 40
0.2554265045740177
 40
0.3643567328073994
 40
0.4701409074844465
 40
0.5790008976686056
 40
0.6826139201790625
 40
0.7891086057784037
 40
0.8931116468793313
 40
1.0
 40
1.0
 40
1.0
 40
1.0
 10
291.3783409560938
 20
145.1522774450598
 30
0.0
 10
291.3719475269649
 20
145.1427577879601
 30
0.0
 10
291.3590375525956
 20
145.12353515693
 30
0.0
 10
291.2465495874006
 20
145.0493529976136
 30
0.0
 10
291.0315395630462
 20
145.002255345472
 30
0.0
 10
290.6754889453408
 20
144.9695541046304
 30
0.0
 10
290.2092042244637
 20
144.9530900857104
 30
0.0
 10
289.6576594175511
 20
144.9585904593611
 30
0.0
 10
289.0288436093146
 20
144.9817883424517
 30
0.0
 10
288.3516041392451
 20
145.0199212569017
 30
0.0
 10
287.6302055002483
 20
145.09569051937
 30
0.0
 10
287.135330955147
 20
145.1332438743376
 30
0.0
 10
286.884508367898
 20
145.1522774450598
 30
0.0
  0
LINE
  5
246
330
1F
100
AcDbEntity
  8
0
  6
Continuous
 62
     8
370
     0
100
AcDbLine
 10
286.8845083679
 20
145.1522774451
 30
0.0
 11
263.4778314198
 21
145.1522774451
 31
0.0
  0
LINE
  5
247
330
1F
100
AcDbEntity
  8
0
  6
Continuous
 62
     8
370
     0
100
AcDbLine
 10
246.3563525046
 20
145.1522774451
 30
0.0
 11
222.9496718313
 21
145.1522774451
 31
0.0
  0
LINE
  5
248
330
1F
100
AcDbEntity
  8
0
  6
Continuous
 62
     8
370
     0
100
AcDbLine
 10
222.9496718313
 20
146.4275709741
 30
0.0
 11
222.9496718313
 21
145.1522774451
 31
0.0
  0
LINE
  5
249
330
1F
100
AcDbEntity
  8
0
  6
Continuous
 62
     8
370
     0
100
AcDbLine
 10
286.8845083679
 20
145.1522774451
 30
0.0
 11
286.8845083679
 21
146.4275709741
 31
0.0
  0
LINE
  5
24A
330
1F
100
AcDbEntity
  8
0
  6
Continuous
 62
     8
370
     0
100
AcDbLine
 10
291.9568934406
 20
158.9701130442
 30
0.0
 11
291.9140078987
 21
158.9701130442
 31
0.0
  0
LINE
  5
24B
330
1F
100
AcDbEntity
  8
0
  6
Continuous
 62
     8
370
     0
100
AcDbLine
 10
217.9201723005
 20
158.9701130442
 30
0.0
 11
217.8772867585
 21
158.9701130442
 31
0.0
  0
LINE
  5
24C
330
1F
100
AcDbEntity
  8
0
  6
Continuous
 62
     8
370
     0
100
AcDbLine
 10
291.3045057024
 20
150.6807088308
 30
0.0
 11
291.3868197168
 21
151.7265915327
 31
0.0
  0
LINE
  5
24D
330
1F
100
AcDbEntity
  8
0
  6
Continuous
 62
     8
370
     0
100
AcDbLine
 10
291.9170924391
 20
158.4643601827
 30
0.0
 11
291.9568934406
 21
158.9701130442
 31
0.0
  0
SPLINE
  5
24E
330
1F
100
AcDbEntity
  8
0
  6
Continuous
 62
     8
370
     0
100
AcDbSpline
210
0.0
220
0.0
230
1.0
 70
     8
 71
     3
 72
    12
 73
     8
 74
     0
 42
0.00000001
 43
0.00000001
 40
0.0
 40
0.0
 40
0.0
 40
0.0
 40
0.0607502457749451
 40
0.1221425856807082
 40
0.1835597801443873
 40
0.5002795211914121
 40
0.9999999999999999
 40
0.9999999999999999
 40
0.9999999999999999
 40
0.9999999999999999
 10
218.5296782220622
 20
150.6807088308154
 30
0.0
 10
219.1003647245148
 20
150.5971211312389
 30
0.0
 10
220.2477695478775
 20
150.4290622595892
 30
0.0
 10
221.9884552032481
 20
150.5465124373545
 30
0.0
 10
226.1439930827763
 20
150.6860054516405
 30
0.0
 10
234.4595893659589
 20
150.5466947618162
 30
0.0
 10
242.187221028465
 20
150.5799045758129
 30
0.0
 10
246.9170906509181
 20
150.6002313844977
 30
0.0
  0
SPLINE
  5
24F
330
1F
100
AcDbEntity
  8
0
  6
Continuous
 62
     8
370
     0
100
AcDbSpline
210
0.0
220
0.0
230
1.0
 70
     8
 71
     3
 72
    14
 73
    10
 74
     0
 42
0.00000001
 43
0.00000001
 40
0.0
 40
0.0
 40
0.0
 40
0.0
 40
0.2036310552504858
 40
0.6012525646726679
 40
0.6811287198887838
 40
0.7614253029278272
 40
0.8414865521708826
 40
0.9208823276338263
 40
1.0
 40
1.0
 40
1.0
 40
1.0
 10
262.9170932735224
 20
150.6002313844977
 30
0.0
 10
264.8460995078211
 20
150.5965492245834
 30
0.0
 10
270.5417923588698
 20
150.5856770710735
 30
0.0
 10
276.9947073803943
 20
150.6824598683468
 30
0.0
 10
282.2780842708015
 20
150.547133409658
 30
0.0
 10
284.5484483867307
 20
150.3806706667812
 30
0.0
 10
286.816189903088
 20
150.2749988613475
 30
0.0
 10
289.0834692327973
 20
150.2933223201482
 30
0.0
 10
290.5650266494276
 20
150.55173111525
 30
0.0
 10
291.3045057023783
 20
150.6807088308154
 30
0.0
  0
LINE
  5
250
330
1F
100
AcDbEntity
  8
0
  6
Continuous
 62
     8
370
     0
100
AcDbLine
 10
217.8772867585
 20
158.9701130442
 30
0.0
 11
217.9170914854
 21
158.4643601827
 31
0.0
  0
LINE
  5
251
330
1F
100
AcDbEntity
  8
0
  6
Continuous
 62
     8
370
     0
100
AcDbLine
 10
218.4473642076
 20
151.7265915327
 30
0.0
 11
218.5296782221
 21
150.6807088308
 31
0.0
  0
ARC
  5
252
330
1F
100
AcDbEntity
  8
0
  6
Continuous
 62
     8
370
     0
100
AcDbCircle
 10
145.081121649
 20
167.1757560333
 30
0.0
 40
75.27799841177126
100
AcDbArc
 50
346.2683098575
 51
347.3425452514
  0
ARC
  5
253
330
1F
100
AcDbEntity
  8
0
  6
Continuous
 62
     8
370
     0
100
AcDbCircle
 10
364.7445332403
 20
167.1733599632
 30
0.0
 40
75.26915162368057
100
AcDbArc
 50
192.6570977839
 51
193.7314581475
  0
ELLIPSE
  5
254
330
1F
100
AcDbEntity
  8
0
  6
Continuous
 62
     8
370
     0
100
AcDbEllipse
 10
217.9081606748
 20
158.8916556291
 30
0.0
 11
4.018548056375607
 21
-0.07860757890463788
 31
0.0
210
0.0
220
0.0
230
1.0
 40
0.019367171
 41
1.578858201674758
 42
3.143498659889094
  0
SPLINE
  5
255
330
1F
100
AcDbEntity
  8
0
  6
Continuous
 62
     8
370
     0
100
AcDbSpline
210
0.0
220
0.0
230
1.0
 70
     8
 71
     3
 72
    12
 73
     8
 74
     0
 42
0.00000001
 43
0.00000001
 40
0.0
 40
0.0
 40
0.0
 40
0.0
 40
0.2031706231293374
 40
0.4098776323003793
 40
0.6138369560009351
 40
0.8156323241487928
 40
1.0
 40
1.0
 40
1.0
 40
1.0
 10
214.542008277299
 20
150.6807088308154
 30
0.0
 10
214.5787794212352
 20
150.7067016114636
 30
0.0
 10
214.6529617473087
 20
150.7591396028667
 30
0.0
 10
215.2755382778557
 20
150.7802437079658
 30
0.0
 10
216.2054238783863
 20
150.7789319433549
 30
0.0
 10
217.3380405766388
 20
150.7551248893413
 30
0.0
 10
218.1445991097557
 20
150.7047564680049
 30
0.0
 10
218.5296782220622
 20
150.6807088308154
 30
0.0
  0
ELLIPSE
  5
256
330
1F
100
AcDbEntity
  8
0
  6
Continuous
 62
     8
370
     0
100
AcDbEllipse
 10
291.9260196733
 20
158.8916556291
 30
0.0
 11
4.018548056375607
 21
0.07860757890458103
 31
0.0
210
0.0
220
0.0
230
0.9999999999999999
 40
0.019367171
 41
6.281279300882444
 42
7.845919759094622
  0
SPLINE
  5
257
330
1F
100
AcDbEntity
  8
0
  6
Continuous
 62
     8
370
     0
100
AcDbSpline
210
0.0
220
0.0
230
1.0
 70
     8
 71
     3
 72
    12
 73
     8
 74
     0
 42
0.00000001
 43
0.00000001
 40
0.0
 40
0.0
 40
0.0
 40
0.0
 40
0.2031707748108594
 40
0.4098770430746598
 40
0.6138368407250681
 40
0.8156322691120823
 40
1.0
 40
1.0
 40
1.0
 40
1.0
 10
291.3045057023783
 20
150.6807088308154
 30
0.0
 10
291.729291292095
 20
150.706701605883
 30
0.0
 10
292.5862544139608
 20
150.759139471496
 30
0.0
 10
293.7454831029311
 20
150.7802437674892
 30
0.0
 10
294.6407378816477
 20
150.778931942276
 30
0.0
 10
295.199020557727
 20
150.7551248933151
 30
0.0
 10
295.2620724699917
 20
150.704756469289
 30
0.0
 10
295.2921756471415
 20
150.6807088308154
 30
0.0
  0
LINE
  5
258
330
1F
100
AcDbEntity
  8
0
  6
Continuous
 62
     8
370
     0
100
AcDbLine
 10
217.8772867585
 20
158.9701130442
 30
0.0
 11
217.8772867585
 21
159.8916567318
 31
0.0
  0
LINE
  5
259
330
1F
100
AcDbEntity
  8
0
  6
Continuous
 62
     8
370
     0
100
AcDbLine
 10
291.9568934406
 20
158.9701130442
 30
0.0
 11
291.9568934406
 21
159.8916567318
 31
0.0
  0
SPLINE
  5
25A
330
1F
100
AcDbEntity
  8
0
  6
Continuous
 62
     8
370
     0
100
AcDbSpline
210
0.0
220
0.0
230
1.0
 70
     8
 71
     3
 72
    10
 73
     6
 74
     0
 42
0.00000001
 43
0.00000001
 40
0.0
 40
0.0
 40
0.0
 40
0.0
 40
0.2664530260160528
 40
0.6045421213000883
 40
1.0
 40
1.0
 40
1.0
 40
1.0
 10
211.917559888484
 20
119.2432196267067
 30
0.0
 10
211.786280843375
 20
119.2407967570797
 30
0.0
 10
211.4884282965337
 20
119.2352996277514
 30
0.0
 10
211.2076914222822
 20
119.220319258629
 30
0.0
 10
211.1813108472622
 20
119.2078038786221
 30
0.0
 10
211.167088981988
 20
119.2010567911087
 30
0.0
  0
SPLINE
  5
25B
330
1F
100
AcDbEntity
  8
0
  6
Continuous
 62
     8
370
     0
100
AcDbSpline
210
0.0
220
0.0
230
1.0
 70
     8
 71
     3
 72
    12
 73
     8
 74
     0
 42
0.00000001
 43
0.00000001
 40
0.0
 40
0.0
 40
0.0
 40
0.0
 40
0.0000137640792795
 40
0.2917924323069239
 40
0.5938969589381353
 40
0.8960137075982582
 40
1.0
 40
1.0
 40
1.0
 40
1.0
 10
210.1670906807204
 20
120.9353838503478
 30
0.0
 10
210.1670906806952
 20
120.9353832294663
 30
0.0
 10
210.1670901472627
 20
120.9222208131543
 30
0.0
 10
210.236140598689
 20
120.8950123553281
 30
0.0
 10
210.5663548981322
 20
120.8650038336044
 30
0.0
 10
210.957493382187
 20
120.8460095603731
 30
0.0
 10
211.2838647940181
 20
120.8405567689579
 30
0.0
 10
211.3674350942393
 20
120.8391605332611
 30
0.0
  0
SPLINE
  5
25C
330
1F
100
AcDbEntity
  8
0
  6
Continuous
 62
     8
370
     0
100
AcDbSpline
210
0.0
220
0.0
230
1.0
 70
     8
 71
     3
 72
    10
 73
     6
 74
     0
 42
0.00000001
 43
0.00000001
 40
0.0
 40
0.0
 40
0.0
 40
0.0
 40
0.2467548392044664
 40
0.605663712734574
 40
0.9999999999999999
 40
0.9999999999999999
 40
0.9999999999999999
 40
0.9999999999999999
 10
298.46673392904
 20
120.8388536624728
 30
0.0
 10
298.602138369618
 20
120.8416811049095
 30
0.0
 10
298.9344907419794
 20
120.8486211077451
 30
0.0
 10
299.3266300555769
 20
120.8684003010326
 30
0.0
 10
299.4873705936013
 20
120.8882723992915
 30
0.0
 10
299.5715209211131
 20
120.8986757710694
 30
0.0
  0
SPLINE
  5
25D
330
1F
100
AcDbEntity
  8
0
  6
Continuous
 62
     8
370
     0
100
AcDbSpline
210
0.0
220
0.0
230
1.0
 70
     8
 71
     3
 72
    10
 73
     6
 74
     0
 42
0.00000001
 43
0.00000001
 40
0.0
 40
0.0
 40
0.0
 40
0.0
 40
0.6112403929945621
 40
0.999950821936701
 40
1.0
 40
1.0
 40
1.0
 40
1.0
 10
299.5715209211131
 20
120.8986757710694
 30
0.0
 10
299.6038493486528
 20
120.9055735543824
 30
0.0
 10
299.6567366219101
 20
120.9168578938542
 30
0.0
 10
299.6670896881175
 20
120.9304750871738
 30
0.0
 10
299.6670895184512
 20
120.9353832294682
 30
0.0
 10
299.6670895184298
 20
120.9353838503478
 30
0.0
  0
SPLINE
  5
25E
330
1F
100
AcDbEntity
  8
0
  6
Continuous
 62
     8
370
     0
100
AcDbSpline
210
0.0
220
0.0
230
1.0
 70
     8
 71
     3
 72
    10
 73
     6
 74
     0
 42
0.00000001
 43
0.00000001
 40
0.0
 40
0.0
 40
0.0
 40
0.0
 40
0.4556497223164053
 40
0.8616939714650304
 40
1.0
 40
1.0
 40
1.0
 40
1.0
 10
298.5796847308894
 20
119.2202057145654
 30
0.0
 10
298.5050795646262
 20
119.2249786885363
 30
0.0
 10
298.3639913144626
 20
119.2340050144513
 30
0.0
 10
298.0791018331372
 20
119.2417286414989
 30
0.0
 10
297.8586581116546
 20
119.2442550423036
 30
0.0
 10
297.802648779275
 20
119.2448969386636
 30
0.0
  0
SPLINE
  5
25F
330
1F
100
AcDbEntity
  8
0
  6
Continuous
 62
     8
370
     0
100
AcDbSpline
210
0.0
220
0.0
230
1.0
 70
     8
 71
     3
 72
     9
 73
     5
 74
     0
 42
0.00000001
 43
0.00000001
 40
0.0
 40
0.0
 40
0.0
 40
0.0
 40
0.5078072643995388
 40
1.0
 40
1.0
 40
1.0
 40
1.0
 10
298.6670874918719
 20
119.2010567911087
 30
0.0
 10
298.6671110320984
 20
119.2040799836699
 30
0.0
 10
298.6671573887145
 20
119.2100334088632
 30
0.0
 10
298.60853717449
 20
119.2168504275093
 30
0.0
 10
298.5796847308894
 20
119.2202057145654
 30
0.0
  0
ARC
  5
260
330
1F
100
AcDbEntity
  8
0
  6
Continuous
 62
     8
370
     0
100
AcDbCircle
 10
297.5626927689
 20
120.9534447445
 30
0.0
 40
2.009574628043708
100
AcDbArc
 50
300.4026229993
 51
358.4382666908
  0
LINE
  5
261
330
1F
100
AcDbEntity
  8
0
  6
Continuous
 62
     8
370
     0
100
AcDbLine
 10
200.1670909042
 20
134.391655346
 30
0.0
 11
200.6670900549
 21
134.391655346
 31
0.0
  0
LINE
  5
262
330
1F
100
AcDbEntity
  8
0
  6
Continuous
 62
     8
370
     0
100
AcDbLine
 10
200.6670900549
 20
134.391655346
 30
0.0
 11
200.6670900549
 21
116.3916556552
 31
0.0
  0
LINE
  5
263
330
1F
100
AcDbEntity
  8
0
  6
Continuous
 62
     8
370
     0
100
AcDbLine
 10
200.1670909042
 20
116.3916556552
 30
0.0
 11
200.6670900549
 21
116.3916556552
 31
0.0
  0
LINE
  5
264
330
1F
100
AcDbEntity
  8
0
  6
Continuous
 62
     8
370
     0
100
AcDbLine
 10
203.6670905466
 20
116.3916556552
 30
0.0
 11
203.6670905466
 21
134.391655346
 31
0.0
  0
LINE
  5
265
330
1F
100
AcDbEntity
  8
0
  6
Continuous
 62
     8
370
     0
100
AcDbLine
 10
203.6670905466
 20
116.3916556552
 30
0.0
 11
200.6670900549
 21
116.3916556552
 31
0.0
  0
LINE
  5
266
330
1F
100
AcDbEntity
  8
0
  6
Continuous
 62
     8
370
     0
100
AcDbLine
 10
203.6670905466
 20
134.391655346
 30
0.0
 11
200.6670900549
 21
134.391655346
 31
0.0
  0
LINE
  5
267
330
1F
100
AcDbEntity
  8
0
  6
Continuous
 62
     8
370
     0
100
AcDbLine
 10
200.6670900549
 20
136.3916556738
 30
0.0
 11
200.6670900549
 21
134.391655346
 31
0.0
  0
LINE
  5
268
330
1F
100
AcDbEntity
  8
0
  6
Continuous
 62
     8
370
     0
100
AcDbLine
 10
203.6670905466
 20
134.391655346
 30
0.0
 11
203.6670905466
 21
136.3916556738
 31
0.0
  0
LINE
  5
269
330
1F
100
AcDbEntity
  8
0
  6
Continuous
 62
     8
370
     0
100
AcDbLine
 10
203.6670905466
 20
134.391655346
 30
0.0
 11
204.1670896972
 21
134.391655346
 31
0.0
  0
LINE
  5
26A
330
1F
100
AcDbEntity
  8
0
  6
Continuous
 62
     8
370
     0
100
AcDbLine
 10
203.6670905466
 20
116.3916556552
 30
0.0
 11
204.1670896972
 21
116.3916556552
 31
0.0
  0
LINE
  5
26B
330
1F
100
AcDbEntity
  8
0
  6
Continuous
 62
     8
370
     0
100
AcDbLine
 10
200.6670900549
 20
116.3916556552
 30
0.0
 11
200.6670900549
 21
114.3916556766
 31
0.0
  0
LINE
  5
26C
330
1F
100
AcDbEntity
  8
0
  6
Continuous
 62
     8
370
     0
100
AcDbLine
 10
203.6670905466
 20
114.3916556766
 30
0.0
 11
203.6670905466
 21
116.3916556552
 31
0.0
  0
LINE
  5
26D
330
1F
100
AcDbEntity
  8
0
  6
Continuous
 62
     8
370
     0
100
AcDbLine
 10
204.1670896972
 20
114.8916556422
 30
0.0
 11
208.1670903529
 21
114.8916556422
 31
0.0
  0
LINE
  5
26E
330
1F
100
AcDbEntity
  8
0
  6
Continuous
 62
     8
370
     0
100
AcDbLine
 10
208.1670903529
 20
135.8916565232
 30
0.0
 11
204.1670896972
 21
135.8916565232
 31
0.0
  0
LINE
  5
26F
330
1F
100
AcDbEntity
  8
0
  6
Continuous
 62
     8
370
     0
100
AcDbLine
 10
208.1670903529
 20
114.8916556422
 30
0.0
 11
208.1670903529
 21
116.1916555293
 31
0.0
  0
LINE
  5
270
330
1F
100
AcDbEntity
  8
0
  6
Continuous
 62
     8
370
     0
100
AcDbLine
 10
208.1670903529
 20
114.8916556422
 30
0.0
 11
208.1670903529
 21
114.3916556766
 31
0.0
  0
LINE
  5
271
330
1F
100
AcDbEntity
  8
0
  6
Continuous
 62
     8
370
     0
100
AcDbLine
 10
297.6670929159
 20
114.8916556422
 30
0.0
 11
301.6670935715
 21
114.8916556422
 31
0.0
  0
LINE
  5
272
330
1F
100
AcDbEntity
  8
0
  6
Continuous
 62
     8
370
     0
100
AcDbLine
 10
297.6670929159
 20
114.8916556422
 30
0.0
 11
297.6670929159
 21
114.3916556766
 31
0.0
  0
LINE
  5
273
330
1F
100
AcDbEntity
  8
0
  6
Continuous
 62
     8
370
     0
100
AcDbLine
 10
297.6670929159
 20
114.8916556422
 30
0.0
 11
297.6670929159
 21
115.3916557241
 31
0.0
  0
LINE
  5
274
330
1F
100
AcDbEntity
  8
0
  6
Continuous
 62
     8
370
     0
100
AcDbLine
 10
208.1670903529
 20
114.8916556422
 30
0.0
 11
214.0481092895
 21
114.8916556422
 31
0.0
  0
LINE
  5
275
330
1F
100
AcDbEntity
  8
0
  6
Continuous
 62
     8
370
     0
100
AcDbLine
 10
295.7860671843
 20
114.8916556422
 30
0.0
 11
297.6670929159
 21
114.8916556422
 31
0.0
  0
LINE
  5
276
330
1F
100
AcDbEntity
  8
0
  6
Continuous
 62
     8
370
     0
100
AcDbLine
 10
193.6670898388
 20
130.2865512125
 30
0.0
 11
193.6670898388
 21
132.3916550182
 31
0.0
  0
LINE
  5
277
330
1F
100
AcDbEntity
  8
0
  6
Continuous
 62
     8
370
     0
100
AcDbLine
 10
191.1528774465
 20
125.3916557334
 30
0.0
 11
186.978062887
 21
125.3916557334
 31
0.0
  0
LINE
  5
278
330
1F
100
AcDbEntity
  8
0
  6
Continuous
 62
     8
370
     0
100
AcDbLine
 10
189.6670901145
 20
99.391655197
 30
0.0
 11
193.6670898388
 21
99.391655197
 31
0.0
  0
LINE
  5
279
330
1F
100
AcDbEntity
  8
0
  6
Continuous
 62
     8
370
     0
100
AcDbLine
 10
193.6670898388
 20
96.8916557185
 30
0.0
 11
193.6670898388
 21
99.391655197
 31
0.0
  0
LINE
  5
27A
330
1F
100
AcDbEntity
  8
0
  6
Continuous
 62
     8
370
     0
100
AcDbLine
 10
193.6670898388
 20
99.391655197
 30
0.0
 11
194.667090934
 21
99.391655197
 31
0.0
  0
LINE
  5
27B
330
1F
100
AcDbEntity
  8
0
  6
Continuous
 62
     8
370
     0
100
AcDbLine
 10
193.6670898388
 20
99.391655197
 30
0.0
 11
193.6670898388
 21
120.4967597887
 31
0.0
  0
HATCH
  5
27C
330
1F
100
AcDbEntity
  8
0
  6
Continuous
 62
     7
370
     0
100
AcDbHatch
 10
0.0
 20
0.0
 30
0.0
210
0.0
220
0.0
230
1.0
  2
ANSI31
 70
     0
 71
     0
 91
        1
 92
        0
 93
       24
 72
     1
 10
198.6670901740809
 20
114.3916556291399
 11
198.6670901740809
 21
134.09165562914
 72
     2
 10
198.3670901740809
 20
134.0916556291399
 40
0.3
 50
0.0000000000054281
 51
90.0
 73
     1
 72
     1
 10
198.3670901740809
 20
134.3916556291399
 11
178.9670901740809
 21
134.39165562914
 72
     2
 10
178.9670901740809
 20
134.09165562914
 40
0.3
 50
90.0
 51
180.0
 73
     1
 72
     1
 10
178.6670901740809
 20
134.09165562914
 11
178.6670901740809
 21
132.39165562914
 72
     1
 10
178.6670901740809
 20
132.39165562914
 11
181.6670901740809
 21
132.39165562914
 72
     1
 10
181.6670901740809
 20
132.39165562914
 11
184.6670901740809
 21
129.39165562914
 72
     1
 10
184.6670901740809
 20
129.39165562914
 11
186.6670901740809
 21
129.39165562914
 72
     1
 10
186.6670901740809
 20
129.39165562914
 11
189.6670901740809
 21
132.39165562914
 72
     1
 10
189.6670901740809
 20
132.39165562914
 11
193.6670901740809
 21
132.39165562914
 72
     2
 10
193.6670901740809
 20
131.39165562914
 40
1.0
 50
270.0000000000008
 51
360.0000000000008
 73
     0
 72
     1
 10
194.6670901740809
 20
131.39165562914
 11
194.6670901740808
 21
97.89165562913995
 72
     2
 10
193.6670901740808
 20
97.89165562913995
 40
1.0
 50
0.0
 51
90.0
 73
     0
 72
     1
 10
193.6670901740808
 20
96.89165562913995
 11
188.1670901740809
 21
96.89165562913996
 72
     1
 10
188.1670901740809
 20
96.89165562913996
 11
188.1670901740808
 21
93.39165562913995
 72
     1
 10
188.1670901740808
 20
93.39165562913995
 11
189.1670901740808
 21
92.39165562913995
 72
     1
 10
189.1670901740808
 20
92.39165562913995
 11
198.3670901740809
 21
92.39165562913993
 72
     2
 10
198.3670901740809
 20
92.69165562913993
 40
0.3
 50
270.0000000000008
 51
360.0000000000008
 73
     1
 72
     1
 10
198.6670901740808
 20
92.69165562913993
 11
198.6670901740809
 21
107.8916556291399
 72
     2
 10
201.6670901740809
 20
107.8916556291399
 40
3.0
 50
180.0
 51
270.0000000000008
 73
     0
 72
     1
 10
201.6670901740809
 20
110.8916556291399
 11
202.6670901740809
 21
110.8916556291399
 72
     1
 10
202.6670901740809
 20
110.8916556291399
 11
202.6670901740809
 21
113.8143053599503
 72
     1
 10
202.6670901740809
 20
113.8143053599503
 11
201.6670901740809
 21
114.3916556291399
 72
     1
 10
201.6670901740809
 20
114.3916556291399
 11
198.6670901740809
 21
114.3916556291399
 97
        0
 75
     0
 76
     1
 52
0.0
 41
1.0
 77
     0
 78
     1
 53
45.0
 43
0.0
 44
0.0
 45
-2.245064030267288
 46
2.245064030267288
 79
     0
 98
        1
 10
0.0
 20
0.0
  0
HATCH
  5
27D
330
1F
100
AcDbEntity
  8
0
  6
Continuous
 62
     7
370
     0
100
AcDbHatch
 10
0.0
 20
0.0
 30
0.0
210
0.0
220
0.0
230
1.0
  2
ANSI31
 70
     0
 71
     0
 91
        1
 92
        0
 93
        6
 72
     1
 10
178.6670901740809
 20
96.89165562913998
 11
178.6670901740809
 21
92.69165562913997
 72
     2
 10
178.9670901740809
 20
92.69165562913997
 40
0.3
 50
180.0
 51
270.0000000000008
 73
     1
 72
     1
 10
178.9670901740809
 20
92.39165562913996
 11
182.1670901740809
 21
92.39165562913995
 72
     1
 10
182.1670901740809
 20
92.39165562913995
 11
183.1670901740809
 21
93.39165562913996
 72
     1
 10
183.1670901740809
 20
93.39165562913996
 11
183.1670901740809
 21
96.89165562913996
 72
     1
 10
183.1670901740809
 20
96.89165562913996
 11
178.6670901740809
 21
96.89165562913998
 97
        0
 75
     0
 76
     1
 52
0.0
 41
1.0
 77
     0
 78
     1
 53
45.0
 43
0.0
 44
0.0
 45
-2.245064030267288
 46
2.245064030267288
 79
     0
 98
        1
 10
0.0
 20
0.0
  0
HATCH
  5
27E
330
1F
100
AcDbEntity
  8
0
  6
Continuous
 62
     7
370
     0
100
AcDbHatch
 10
0.0
 20
0.0
 30
0.0
210
0.0
220
0.0
230
1.0
  2
NET
 70
     0
 71
     0
 91
        1
 92
        0
 93
        4
 72
     1
 10
198.6670901740809
 20
114.3916556291399
 11
200.1670901740809
 21
114.3916556291399
 72
     1
 10
200.1670901740809
 20
114.3916556291399
 11
200.1670901740809
 21
134.3916556291399
 72
     1
 10
200.1670901740809
 20
134.3916556291399
 11
198.6670901740809
 21
134.3916556291399
 72
     1
 10
198.6670901740809
 20
134.3916556291399
 11
198.6670901740809
 21
114.3916556291399
 97
        0
 75
     0
 76
     1
 52
134.999991007
 41
1.0
 77
     0
 78
     2
 53
134.9999910069555
 43
0.0
 44
0.0
 45
-2.24506438264855
 46
-2.245063677885971
 79
     0
 53
224.9999910069555
 43
0.0
 44
0.0
 45
2.245063677885971
 46
-2.24506438264855
 79
     0
 98
        1
 10
0.0
 20
0.0
  0
HATCH
  5
27F
330
1F
100
AcDbEntity
  8
0
  6
Continuous
 62
     7
370
     0
100
AcDbHatch
 10
0.0
 20
0.0
 30
0.0
210
0.0
220
0.0
230
1.0
  2
ANSI33
 70
     0
 71
     0
 91
        1
 92
        0
 93
        8
 72
     1
 10
302.1670901740809
 20
114.3916556291396
 11
305.1670901740808
 21
114.3916556291396
 72
     2
 10
305.1670901740808
 20
114.8916556291396
 40
0.5
 50
270.0000000000008
 51
360.0000000000008
 73
     1
 72
     1
 10
305.6670901740809
 20
114.8916556291396
 11
305.6670901740809
 21
135.8916556291396
 72
     2
 10
305.1670901740809
 20
135.8916556291396
 40
0.5
 50
0.0
 51
90.0
 73
     1
 72
     1
 10
305.1670901740809
 20
136.3916556291396
 11
302.167090174081
 21
136.3916556291396
 72
     2
 10
302.167090174081
 20
135.8916556291396
 40
0.5
 50
90.0
 51
180.0
 73
     1
 72
     1
 10
301.667090174081
 20
135.8916556291396
 11
301.6670901740809
 21
114.8916556291396
 72
     2
 10
302.1670901740809
 20
114.8916556291396
 40
0.5
 50
180.0
 51
270.0000000000008
 73
     1
 97
        0
 75
     0
 76
     1
 52
0.0
 41
1.0
 77
     0
 78
     2
 53
45.0
 43
0.0
 44
0.0
 45
-4.490128060534576
 46
4.490128060534577
 79
     0
 53
45.0
 43
4.49013
 44
0.0
 45
-4.490128060534576
 46
4.490128060534577
 79
     2
 49
3.175
 49
-1.5875
 98
        1
 10
0.0
 20
0.0
  0
HATCH
  5
280
330
1F
100
AcDbEntity
  8
0
  6
Continuous
 62
     7
370
     0
100
AcDbHatch
 10
0.0
 20
0.0
 30
0.0
210
0.0
220
0.0
230
1.0
  2
ANSI31
 70
     0
 71
     0
 91
        1
 92
        0
 93
        8
 72
     1
 10
208.1670901740809
 20
116.1916556291398
 11
208.167090174081
 21
134.5916556291398
 72
     2
 10
207.867090174081
 20
134.5916556291398
 40
0.3
 50
0.0
 51
90.0
 73
     1
 72
     1
 10
207.867090174081
 20
134.8916556291398
 11
204.467090174081
 21
134.8916556291398
 72
     2
 10
204.467090174081
 20
134.5916556291398
 40
0.3
 50
90.0
 51
180.0
 73
     1
 72
     1
 10
204.167090174081
 20
134.5916556291398
 11
204.1670901740809
 21
116.1916556291398
 72
     2
 10
204.4670901740809
 20
116.1916556291398
 40
0.3
 50
180.0
 51
270.0000000000008
 73
     1
 72
     1
 10
204.4670901740809
 20
115.8916556291398
 11
207.8670901740809
 21
115.8916556291398
 72
     2
 10
207.8670901740809
 20
116.1916556291398
 40
0.3
 50
270.0000000000008
 51
360.0000000000008
 73
     1
 97
        0
 75
     0
 76
     1
 52
0.0
 41
1.0
 77
     0
 78
     1
 53
45.0
 43
0.0
 44
0.0
 45
-2.245064030267288
 46
2.245064030267288
 79
     0
 98
        1
 10
0.0
 20
0.0
  0
HATCH
  5
281
330
1F
100
AcDbEntity
  8
0
  6
Continuous
 62
     7
370
     0
100
AcDbHatch
 10
0.0
 20
0.0
 30
0.0
210
0.0
220
0.0
230
1.0
  2
NET
 70
     0
 71
     0
 91
        1
 92
        0
 93
       10
 72
     1
 10
208.1670901740809
 20
136.3916556291398
 11
208.1670901740808
 21
116.8916556291398
 72
     1
 10
208.1670901740808
 20
116.8916556291398
 11
208.5690139627275
 21
115.3916556291398
 72
     1
 10
208.5690139627275
 20
115.3916556291398
 11
212.1670901740809
 21
115.3916556291398
 72
     2
 10
212.1670901740809
 20
116.8916556291398
 40
1.499999999999999
 50
270.0000000000008
 51
420.000000000002
 73
     1
 72
     1
 10
212.9170901740808
 20
118.1906937348165
 11
211.1670901740809
 21
119.2010567058983
 72
     2
 10
212.1670901740809
 20
120.9331075134672
 40
2.0
 50
120.0000000000002
 51
180.0000000000013
 73
     0
 72
     1
 10
210.1670901740809
 20
120.9331075134672
 11
210.1670901740809
 21
138.3916556291398
 72
     1
 10
210.1670901740809
 20
138.3916556291398
 11
202.1670901740809
 21
138.3916556291398
 72
     1
 10
202.1670901740809
 20
138.3916556291398
 11
202.1670901740808
 21
136.3916556291398
 72
     1
 10
202.1670901740808
 20
136.3916556291398
 11
208.1670901740809
 21
136.3916556291398
 97
        0
 75
     0
 76
     1
 52
134.999991007
 41
1.0
 77
     0
 78
     2
 53
134.9999910069555
 43
0.0
 44
0.0
 45
-2.24506438264855
 46
-2.245063677885971
 79
     0
 53
224.9999910069555
 43
0.0
 44
0.0
 45
2.245063677885971
 46
-2.24506438264855
 79
     0
 98
        1
 10
0.0
 20
0.0
  0
HATCH
  5
282
330
1F
100
AcDbEntity
  8
0
  6
Continuous
 62
     7
370
     0
100
AcDbHatch
 10
0.0
 20
0.0
 30
0.0
210
0.0
220
0.0
230
1.0
  2
NET
 70
     0
 71
     0
 91
        1
 92
        0
 93
       10
 72
     1
 10
301.6670901740808
 20
116.8916556291397
 11
301.6670901740809
 21
136.3916556291396
 72
     1
 10
301.6670901740809
 20
136.3916556291396
 11
303.6670901740809
 21
136.3916556291396
 72
     1
 10
303.6670901740809
 20
136.3916556291396
 11
303.6670901740809
 21
138.3916556291396
 72
     1
 10
303.6670901740809
 20
138.3916556291396
 11
299.6670901740809
 21
138.3916556291396
 72
     1
 10
299.6670901740809
 20
138.3916556291396
 11
299.6670901740808
 21
120.933107513467
 72
     2
 10
297.6670901740808
 20
120.933107513467
 40
2.0
 50
0.0
 51
60.00000000000028
 73
     0
 72
     1
 10
298.6670901740808
 20
119.2010567058981
 11
296.9170901740808
 21
118.1906937348163
 72
     2
 10
297.6670901740808
 20
116.8916556291396
 40
1.499999999999999
 50
119.9999999999979
 51
270.0000000000008
 73
     1
 72
     1
 10
297.6670901740808
 20
115.3916556291397
 11
301.2651663854342
 21
115.3916556291396
 72
     1
 10
301.2651663854342
 20
115.3916556291396
 11
301.6670901740808
 21
116.8916556291397
 97
        0
 75
     0
 76
     1
 52
134.999991007
 41
1.0
 77
     0
 78
     2
 53
134.9999910069555
 43
0.0
 44
0.0
 45
-2.24506438264855
 46
-2.245063677885971
 79
     0
 53
224.9999910069555
 43
0.0
 44
0.0
 45
2.245063677885971
 46
-2.24506438264855
 79
     0
 98
        1
 10
0.0
 20
0.0
  0
HATCH
  5
283
330
1F
100
AcDbEntity
  8
0
  6
Continuous
 62
     7
370
     0
100
AcDbHatch
 10
0.0
 20
0.0
 30
0.0
210
0.0
220
0.0
230
1.0
  2
ANSI35
 70
     0
 71
     0
 91
        1
 92
        0
 93
       52
 72
     1
 10
253.820168376487
 20
22.39165562913988
 11
253.820168376487
 21
22.4916556291481
 72
     1
 10
253.820168376487
 20
22.4916556291481
 11
253.9493370800303
 21
22.49165562913986
 72
     1
 10
253.9493370800303
 20
22.49165562913986
 11
253.9493370800303
 21
22.39165562913986
 72
     1
 10
253.9493370800303
 20
22.39165562913986
 11
257.1089786828891
 21
22.39165562913985
 72
     1
 10
257.1089786828891
 20
22.39165562913985
 11
257.1089786828891
 21
22.49165562913737
 72
     1
 10
257.1089786828891
 20
22.49165562913737
 11
257.2396708192422
 21
22.49165562913986
 72
     1
 10
257.2396708192422
 20
22.49165562913986
 11
257.2396708192422
 21
22.39165562913986
 72
     1
 10
257.2396708192422
 20
22.39165562913986
 11
288.5659397254049
 21
22.39165562913981
 72
     2
 10
288.5659397254049
 20
24.89165562913981
 40
2.5
 50
270.0000000000008
 51
357.0000000000008
 73
     1
 72
     1
 10
291.0625135622913
 20
24.76081573853245
 11
295.8769103913995
 21
116.624979703707
 72
     2
 10
297.8741694609086
 20
116.520307791221
 40
2.0
 50
183.0000000000024
 51
225.0
 73
     0
 72
     1
 10
296.4599558985355
 20
117.9345213535941
 11
297.8742244496269
 21
119.3487899046854
 72
     2
 10
296.4600108872537
 20
120.7630034670585
 40
2.0
 50
315.0000000000028
 51
357.0000000000009
 73
     1
 72
     1
 10
298.4572699567628
 20
120.6583315545726
 11
300.4582507548765
 21
158.8393196728969
 72
     2
 10
299.4596212201219
 20
158.8916556291398
 40
1.0
 50
357.0000000000019
 51
450.0000000000008
 73
     1
 72
     1
 10
299.4596212201219
 20
159.8916556291398
 11
296.9414806657394
 21
159.8916556291398
 72
     2
 10
296.9414806657394
 20
158.8916556291398
 40
1.0
 50
90.0
 51
175.4999999999998
 73
     1
 72
     1
 10
295.9445633320063
 20
158.9701147248676
 11
295.285839307175
 21
150.6002324007233
 72
     2
 10
293.2920046397088
 20
150.7571505921791
 40
2.0
 50
4.500000000001247
 51
43.62878966893135
 73
     0
 72
     1
 10
294.7396551472841
 20
149.3771839230465
 11
291.9279495212172
 21
146.4275713216876
 72
     2
 10
293.3756000287926
 20
145.0476046525551
 40
2.0
 50
136.371210331071
 51
176.9998565639776
 73
     1
 72
     1
 10
291.3783412213223
 20
145.152281565041
 11
286.0440685747773
 21
43.36829606671034
 72
     2
 10
276.0577732272316
 20
43.89165562913983
 40
10.0
 50
3.000000000000252
 51
90.0
 73
     0
 72
     1
 10
276.0577732272316
 20
33.89165562913983
 11
275.5629129961436
 21
33.89165562913983
 72
     2
 10
275.5629129961436
 20
43.89165562913983
 40
10.0
 50
90.0
 51
122.4093867534147
 73
     0
 72
     2
 10
254.9170901740809
 20
11.37082229580654
 40
28.52083333333333
 50
57.59061324658531
 51
122.4093867534144
 73
     1
 72
     2
 10
234.2712673520184
 20
43.8916556291399
 40
10.0
 50
57.59061324658567
 51
90.00000000000016
 73
     0
 72
     1
 10
234.2712673520184
 20
33.8916556291399
 11
233.7764071209304
 21
33.8916556291399
 72
     2
 10
233.7764071209305
 20
43.8916556291399
 40
10.0
 50
90.00000000000016
 51
177.0
 73
     0
 72
     1
 10
223.7901117733847
 20
43.36829606671046
 11
218.4558391268401
 21
145.1522815650411
 72
     2
 10
216.4585803193698
 20
145.0476046525553
 40
2.0
 50
3.000143436021551
 51
43.62878966892848
 73
     1
 72
     1
 10
217.9062308269453
 20
146.4275713216878
 11
215.0945252008783
 21
149.3771839230467
 72
     2
 10
216.5421757084538
 20
150.7571505921792
 40
2.0
 50
136.3712103310709
 51
175.4999999999989
 73
     0
 72
     1
 10
214.5483410409875
 20
150.6002324007235
 11
213.8896170161562
 21
158.9701147248678
 72
     2
 10
212.892699682423
 20
158.8916556291399
 40
1.0
 50
4.500000000000307
 51
90.0
 73
     1
 72
     1
 10
212.892699682423
 20
159.8916556291399
 11
210.3745591280405
 21
159.89165562914
 72
     2
 10
210.3745591280405
 20
158.89165562914
 40
1.0
 50
90.0
 51
183.0000000000015
 73
     1
 72
     1
 10
209.375929593286
 20
158.839319672897
 11
211.3769103913994
 21
120.6583315545728
 72
     2
 10
213.3741694609086
 20
120.7630034670587
 40
2.0
 50
183.0000000000007
 51
225.0000000000005
 73
     1
 72
     1
 10
211.9599558985355
 20
119.3487899046856
 11
213.3742244496268
 21
117.9345213535943
 72
     2
 10
211.9600108872537
 20
116.5203077912212
 40
2.0
 50
315.0000000000014
 51
357.0000000000005
 73
     0
 72
     1
 10
213.9572699567629
 20
116.6249797037071
 11
218.7716667858707
 21
24.76081573853259
 72
     2
 10
221.2682406227571
 20
24.89165562913993
 40
2.5
 50
183.0000000000004
 51
270.0000000000008
 73
     1
 72
     1
 10
221.2682406227571
 20
22.39165562913993
 11
251.8849406255149
 21
22.39165562913988
 72
     1
 10
251.8849406255149
 20
22.39165562913988
 11
251.884940625515
 21
22.49165562913986
 72
     1
 10
251.884940625515
 20
22.49165562913986
 11
252.0139219179202
 21
22.49165562914042
 72
     1
 10
252.0139219179202
 20
22.49165562914042
 11
252.0139219179202
 21
22.39165562913985
 72
     1
 10
252.0139219179202
 20
22.39165562913985
 11
252.8147584426095
 21
22.39165562913988
 72
     1
 10
252.8147584426095
 20
22.39165562913988
 11
252.8147584409408
 21
22.49165562913986
 72
     1
 10
252.8147584409408
 20
22.49165562913986
 11
252.9471408234895
 21
22.49165562914438
 72
     1
 10
252.9471408234895
 20
22.49165562914438
 11
252.9471408234902
 21
22.39165562913986
 72
     1
 10
252.9471408234902
 20
22.39165562913986
 11
253.820168376487
 21
22.39165562913988
 97
        0
 75
     0
 76
     1
 52
0.0
 41
1.0
 77
     0
 78
     2
 53
45.0
 43
0.0
 44
0.0
 45
-4.490128060534576
 46
4.490128060534577
 79
     0
 53
45.0
 43
4.49013
 44
0.0
 45
-4.490128060534576
 46
4.490128060534577
 79
     4
 49
7.9375
 49
-1.5875
 49
0.0
 49
-1.5875
 98
        1
 10
0.0
 20
0.0
  0
HATCH
  5
284
330
1F
100
AcDbEntity
  8
0
  6
Continuous
 62
     7
370
     0
100
AcDbHatch
 10
0.0
 20
0.0
 30
0.0
210
0.0
220
0.0
230
1.0
  2
ANSI31
 70
     0
 71
     0
 91
        1
 92
        0
 93
        4
 72
     1
 10
285.8982058116728
 20
68.80977123136245
 11
287.4724999049809
 21
113.8916556291397
 72
     1
 10
287.4724999049809
 20
113.8916556291397
 11
222.3616804431808
 21
113.8916556291399
 72
     1
 10
222.3616804431808
 20
113.8916556291399
 11
223.9359745364888
 21
68.80977123136256
 72
     2
 10
254.9170901740808
 20
69.89165562913982
 40
31.0
 50
182.0000000000003
 51
358.0000000000011
 73
     1
 97
        0
 75
     0
 76
     1
 52
90.0
 41
1.0
 77
     0
 78
     1
 53
135.0000000000002
 43
0.0
 44
0.0
 45
-2.245064030267281
 46
-2.245064030267296
 79
     0
 98
        1
 10
0.0
 20
0.0
  0
HATCH
  5
285
330
1F
100
AcDbEntity
  8
0
  6
Continuous
 62
     7
370
     0
100
AcDbHatch
 10
0.0
 20
0.0
 30
0.0
210
0.0
220
0.0
230
1.0
  2
ANSI31
 70
     0
 71
     0
 91
        1
 92
        0
 93
       21
 72
     2
 10
254.9170901740808
 20
69.89165562913982
 40
13.49999999999999
 50
179.9999999999999
 51
360.0000000000007
 73
     1
 72
     1
 10
268.4170901740808
 20
69.89165562913979
 11
268.4170901740808
 21
124.3916556291398
 72
     1
 10
268.4170901740808
 20
124.3916556291398
 11
269.4170901740808
 21
124.3916556291398
 72
     1
 10
269.4170901740808
 20
124.3916556291398
 11
269.4170901740809
 21
126.8916556291398
 72
     1
 10
269.4170901740809
 20
126.8916556291398
 11
264.1155055639157
 21
126.8916556291398
 72
     1
 10
264.1155055639157
 20
126.8916556291398
 11
263.4170901740809
 21
146.8916556291398
 72
     1
 10
263.4170901740809
 20
146.8916556291398
 11
260.9170901740809
 21
146.8916556291398
 72
     1
 10
260.9170901740809
 20
146.8916556291398
 11
260.9170901740808
 21
131.8916556291398
 72
     1
 10
260.9170901740808
 20
131.8916556291398
 11
260.0170901740809
 21
131.8916556291398
 72
     1
 10
260.0170901740809
 20
131.8916556291398
 11
260.0170901740809
 21
126.8916556291398
 72
     1
 10
260.0170901740809
 20
126.8916556291398
 11
254.9170901740808
 21
123.8272664720993
 72
     1
 10
254.9170901740808
 20
123.8272664720993
 11
249.8170901740809
 21
126.8916556291398
 72
     1
 10
249.8170901740809
 20
126.8916556291398
 11
249.8170901740809
 21
131.8916556291398
 72
     1
 10
249.8170901740809
 20
131.8916556291398
 11
248.9170901740809
 21
131.8916556291398
 72
     1
 10
248.9170901740809
 20
131.8916556291398
 11
248.9170901740809
 21
146.8916556291398
 72
     1
 10
248.9170901740809
 20
146.8916556291398
 11
246.4170901740809
 21
146.8916556291398
 72
     1
 10
246.4170901740809
 20
146.8916556291398
 11
245.718674784246
 21
126.8916556291399
 72
     1
 10
245.718674784246
 20
126.8916556291399
 11
240.4170901740809
 21
126.8916556291398
 72
     1
 10
240.4170901740809
 20
126.8916556291398
 11
240.4170901740809
 21
124.3916556291398
 72
     1
 10
240.4170901740809
 20
124.3916556291398
 11
241.4170901740809
 21
124.3916556291398
 72
     1
 10
241.4170901740809
 20
124.3916556291398
 11
241.4170901740808
 21
69.89165562913983
 97
        0
 75
     0
 76
     1
 52
0.0
 41
1.0
 77
     0
 78
     1
 53
45.0
 43
0.0
 44
0.0
 45
-2.245064030267288
 46
2.245064030267288
 79
     0
 98
        1
 10
0.0
 20
0.0
  0
HATCH
  5
286
330
1F
100
AcDbEntity
  8
0
  6
Continuous
 62
     7
370
     0
100
AcDbHatch
 10
0.0
 20
0.0
 30
0.0
210
0.0
220
0.0
230
1.0
  2
ANSI33
 70
     0
 71
     0
 91
        1
 92
        0
 93
       10
 72
     1
 10
261.917090174081
 20
161.8916556291398
 11
247.9170901740809
 21
161.8916556291398
 72
     1
 10
247.9170901740809
 20
161.8916556291398
 11
247.9170901740809
 21
147.8916556291398
 72
     1
 10
247.9170901740809
 20
147.8916556291398
 11
248.9170901740809
 21
147.8916556291398
 72
     1
 10
248.9170901740809
 20
147.8916556291398
 11
248.9170901740809
 21
133.8916556291398
 72
     1
 10
248.9170901740809
 20
133.8916556291398
 11
250.9170901740809
 21
131.8916556291398
 72
     1
 10
250.9170901740809
 20
131.8916556291398
 11
258.9170901740808
 21
131.8916556291398
 72
     1
 10
258.9170901740808
 20
131.8916556291398
 11
260.9170901740808
 21
133.8916556291398
 72
     1
 10
260.9170901740808
 20
133.8916556291398
 11
260.9170901740809
 21
147.8916556291398
 72
     1
 10
260.9170901740809
 20
147.8916556291398
 11
261.9170901740809
 21
147.8916556291398
 72
     1
 10
261.9170901740809
 20
147.8916556291398
 11
261.917090174081
 21
161.8916556291398
 97
        0
 75
     0
 76
     1
 52
90.0
 41
1.0
 77
     0
 78
     2
 53
135.0000000000002
 43
0.0
 44
0.0
 45
-4.490128060534562
 46
-4.490128060534592
 79
     0
 53
135.0000000000002
 43
-0.0000000000000157
 44
4.49013
 45
-4.490128060534562
 46
-4.490128060534592
 79
     2
 49
3.175
 49
-1.5875
 98
        1
 10
0.0
 20
0.0
  0
HATCH
  5
287
330
1F
100
AcDbEntity
  8
0
  6
Continuous
 62
     7
370
     0
100
AcDbHatch
 10
0.0
 20
0.0
 30
0.0
210
0.0
220
0.0
230
1.0
  2
ANSI33
 70
     0
 71
     0
 91
        1
 92
        0
 93
        4
 72
     1
 10
246.9170901740814
 20
401.8916556291398
 11
246.9170901740809
 21
146.8916556291398
 72
     1
 10
246.9170901740809
 20
146.8916556291398
 11
247.9170901740809
 21
146.8916556291398
 72
     1
 10
247.9170901740809
 20
146.8916556291398
 11
247.9170901740813
 21
401.8916556291398
 72
     1
 10
247.9170901740813
 20
401.8916556291398
 11
246.9170901740814
 21
401.8916556291398
 97
        0
 75
     0
 76
     1
 52
0.0
 41
1.0
 77
     0
 78
     2
 53
45.0
 43
0.0
 44
0.0
 45
-4.490128060534576
 46
4.490128060534577
 79
     0
 53
45.0
 43
4.49013
 44
0.0
 45
-4.490128060534576
 46
4.490128060534577
 79
     2
 49
3.175
 49
-1.5875
 98
        1
 10
0.0
 20
0.0
  0
HATCH
  5
288
330
1F
100
AcDbEntity
  8
0
  6
Continuous
 62
     7
370
     0
100
AcDbHatch
 10
0.0
 20
0.0
 30
0.0
210
0.0
220
0.0
230
1.0
  2
ANSI33
 70
     0
 71
     0
 91
        1
 92
        0
 93
        4
 72
     1
 10
262.9170901740809
 20
146.8916556291398
 11
262.9170901740814
 21
401.8916556291397
 72
     1
 10
262.9170901740814
 20
401.8916556291397
 11
261.9170901740814
 21
401.8916556291397
 72
     1
 10
261.9170901740814
 20
401.8916556291397
 11
261.9170901740809
 21
146.8916556291398
 72
     1
 10
261.9170901740809
 20
146.8916556291398
 11
262.9170901740809
 21
146.8916556291398
 97
        0
 75
     0
 76
     1
 52
0.0
 41
1.0
 77
     0
 78
     2
 53
45.0
 43
0.0
 44
0.0
 45
-4.490128060534576
 46
4.490128060534577
 79
     0
 53
45.0
 43
4.49013
 44
0.0
 45
-4.490128060534576
 46
4.490128060534577
 79
     2
 49
3.175
 49
-1.5875
 98
        1
 10
0.0
 20
0.0
  0
HATCH
  5
289
330
1F
100
AcDbEntity
  8
0
  6
Continuous
 62
     7
370
     0
100
AcDbHatch
 10
0.0
 20
0.0
 30
0.0
210
0.0
220
0.0
230
1.0
  2
ANSI33
 70
     0
 71
     0
 91
        1
 92
        0
 93
       15
 72
     1
 10
247.9170901740814
 20
401.8916556291398
 11
247.9170901740814
 21
397.8916556291398
 72
     1
 10
247.9170901740814
 20
397.8916556291398
 11
248.7831155778658
 21
396.3916556291398
 72
     1
 10
248.7831155778658
 20
396.3916556291398
 11
249.9170901740814
 21
396.3916556291398
 72
     1
 10
249.9170901740814
 20
396.3916556291398
 11
249.9170901740814
 21
399.3916556291398
 72
     1
 10
249.9170901740814
 20
399.3916556291398
 11
254.9170901740814
 21
402.3959587242776
 72
     1
 10
254.9170901740814
 20
402.3959587242776
 11
259.9170901740813
 21
399.3916556291398
 72
     1
 10
259.9170901740813
 20
399.3916556291398
 11
259.9170901740814
 21
396.3916556291398
 72
     1
 10
259.9170901740814
 20
396.3916556291398
 11
261.0510647702969
 21
396.3916556291398
 72
     1
 10
261.0510647702969
 20
396.3916556291398
 11
261.9170901740813
 21
397.8916556291397
 72
     1
 10
261.9170901740813
 20
397.8916556291397
 11
261.9170901740813
 21
401.8916556291397
 72
     1
 10
261.9170901740813
 20
401.8916556291397
 11
263.9170901740814
 21
401.8916556291397
 72
     1
 10
263.9170901740814
 20
401.8916556291397
 11
263.9170901740814
 21
403.8916556291397
 72
     1
 10
263.9170901740814
 20
403.8916556291397
 11
245.9170901740814
 21
403.8916556291398
 72
     1
 10
245.9170901740814
 20
403.8916556291398
 11
245.9170901740814
 21
401.8916556291398
 72
     1
 10
245.9170901740814
 20
401.8916556291398
 11
247.9170901740814
 21
401.8916556291398
 97
        0
 75
     0
 76
     1
 52
0.0
 41
1.0
 77
     0
 78
     2
 53
45.0
 43
0.0
 44
0.0
 45
-4.490128060534576
 46
4.490128060534577
 79
     0
 53
45.0
 43
4.49013
 44
0.0
 45
-4.490128060534576
 46
4.490128060534577
 79
     2
 49
3.175
 49
-1.5875
 98
        1
 10
0.0
 20
0.0
  0
HATCH
  5
28A
330
1F
100
AcDbEntity
  8
0
  6
Continuous
 62
     7
370
     0
100
AcDbHatch
 10
0.0
 20
0.0
 30
0.0
210
0.0
220
0.0
230
1.0
  2
ANSI33
 70
     0
 71
     0
 91
        1
 92
        0
 93
        4
 72
     1
 10
289.9170901740809
 20
158.3916556291398
 11
289.9170901740809
 21
159.8916556291398
 72
     1
 10
289.9170901740809
 20
159.8916556291398
 11
264.6670901740809
 21
159.8916556291398
 72
     1
 10
264.6670901740809
 20
159.8916556291398
 11
264.6670901740809
 21
158.3916556291398
 72
     1
 10
264.6670901740809
 20
158.3916556291398
 11
289.9170901740809
 21
158.3916556291398
 97
        0
 75
     0
 76
     1
 52
0.0
 41
1.0
 77
     0
 78
     2
 53
45.0
 43
0.0
 44
0.0
 45
-4.490128060534576
 46
4.490128060534577
 79
     0
 53
45.0
 43
4.49013
 44
0.0
 45
-4.490128060534576
 46
4.490128060534577
 79
     2
 49
3.175
 49
-1.5875
 98
        1
 10
0.0
 20
0.0
  0
HATCH
  5
28B
330
1F
100
AcDbEntity
  8
0
  6
Continuous
 62
     7
370
     0
100
AcDbHatch
 10
0.0
 20
0.0
 30
0.0
210
0.0
220
0.0
230
1.0
  2
ANSI33
 70
     0
 71
     0
 91
        1
 92
        0
 93
        4
 72
     1
 10
219.9170901740809
 20
159.8916556291399
 11
219.9170901740809
 21
158.3916556291399
 72
     1
 10
219.9170901740809
 20
158.3916556291399
 11
245.1670901740809
 21
158.3916556291399
 72
     1
 10
245.1670901740809
 20
158.3916556291399
 11
245.1670901740809
 21
159.8916556291399
 72
     1
 10
245.1670901740809
 20
159.8916556291399
 11
219.9170901740809
 21
159.8916556291399
 97
        0
 75
     0
 76
     1
 52
0.0
 41
1.0
 77
     0
 78
     2
 53
45.0
 43
0.0
 44
0.0
 45
-4.490128060534576
 46
4.490128060534577
 79
     0
 53
45.0
 43
4.49013
 44
0.0
 45
-4.490128060534576
 46
4.490128060534577
 79
     2
 49
3.175
 49
-1.5875
 98
        1
 10
0.0
 20
0.0
  0
HATCH
  5
28C
330
1F
100
AcDbEntity
  8
0
  6
Continuous
 62
     7
370
     0
100
AcDbHatch
 10
0.0
 20
0.0
 30
0.0
210
0.0
220
0.0
230
1.0
  2
ANSI33
 70
     0
 71
     0
 91
        1
 92
        0
 93
        6
 72
     1
 10
264.9170901740811
 20
254.8916556291398
 11
263.9170901740811
 21
254.8916556291398
 72
     1
 10
263.9170901740811
 20
254.8916556291398
 11
263.9170901740809
 21
154.3916556291398
 72
     1
 10
263.9170901740809
 20
154.3916556291398
 11
264.6670901740809
 21
154.3916556291398
 72
     1
 10
264.6670901740809
 20
154.3916556291398
 11
264.6670901740809
 21
159.8916556291398
 72
     1
 10
264.6670901740809
 20
159.8916556291398
 11
264.917090174081
 21
159.8916556291398
 72
     1
 10
264.917090174081
 20
159.8916556291398
 11
264.9170901740811
 21
254.8916556291398
 97
        0
 75
     0
 76
     1
 52
90.0
 41
1.0
 77
     0
 78
     2
 53
135.0000000000002
 43
0.0
 44
0.0
 45
-4.490128060534562
 46
-4.490128060534592
 79
     0
 53
135.0000000000002
 43
-0.0000000000000157
 44
4.49013
 45
-4.490128060534562
 46
-4.490128060534592
 79
     2
 49
3.175
 49
-1.5875
 98
        1
 10
0.0
 20
0.0
  0
HATCH
  5
28D
330
1F
100
AcDbEntity
  8
0
  6
Continuous
 62
     7
370
     0
100
AcDbHatch
 10
0.0
 20
0.0
 30
0.0
210
0.0
220
0.0
230
1.0
  2
ANSI33
 70
     0
 71
     0
 91
        1
 92
        0
 93
        6
 72
     1
 10
245.9170901740811
 20
254.8916556291398
 11
244.9170901740811
 21
254.8916556291398
 72
     1
 10
244.9170901740811
 20
254.8916556291398
 11
244.9170901740809
 21
159.8916556291399
 72
     1
 10
244.9170901740809
 20
159.8916556291399
 11
245.1670901740809
 21
159.8916556291399
 72
     1
 10
245.1670901740809
 20
159.8916556291399
 11
245.1670901740809
 21
154.3916556291399
 72
     1
 10
245.1670901740809
 20
154.3916556291399
 11
245.9170901740809
 21
154.3916556291399
 72
     1
 10
245.9170901740809
 20
154.3916556291399
 11
245.9170901740811
 21
254.8916556291398
 97
        0
 75
     0
 76
     1
 52
90.0
 41
1.0
 77
     0
 78
     2
 53
135.0000000000002
 43
0.0
 44
0.0
 45
-4.490128060534562
 46
-4.490128060534592
 79
     0
 53
135.0000000000002
 43
-0.0000000000000157
 44
4.49013
 45
-4.490128060534562
 46
-4.490128060534592
 79
     2
 49
3.175
 49
-1.5875
 98
        1
 10
0.0
 20
0.0
  0
HATCH
  5
28E
330
1F
100
AcDbEntity
  8
0
  6
Continuous
 62
     7
370
     0
100
AcDbHatch
 10
0.0
 20
0.0
 30
0.0
210
0.0
220
0.0
230
1.0
  2
ANSI34
 70
     0
 71
     0
 91
        1
 92
        0
 93
       13
 72
     1
 10
291.9170901740809
 20
153.8916556291398
 11
291.9170901740809
 21
158.8916556291398
 72
     2
 10
290.9170901740809
 20
158.8916556291398
 40
1.0
 50
0.0
 51
90.0
 73
     1
 72
     1
 10
290.9170901740809
 20
159.8916556291398
 11
289.9170901740809
 21
159.8916556291398
 72
     1
 10
289.9170901740809
 20
159.8916556291398
 11
289.9170901740809
 21
158.3916556291398
 72
     1
 10
289.9170901740809
 20
158.3916556291398
 11
284.9170901740809
 21
158.3916556291398
 72
     1
 10
284.9170901740809
 20
158.3916556291398
 11
284.9170901740809
 21
156.3916556291398
 72
     1
 10
284.9170901740809
 20
156.3916556291398
 11
289.9170901740809
 21
156.3916556291398
 72
     1
 10
289.9170901740809
 20
156.3916556291398
 11
289.9170901740809
 21
154.7328230294794
 72
     2
 10
292.4170901740809
 20
154.7328230294794
 40
2.5
 50
179.9999999999994
 51
252.7408371750946
 73
     1
 72
     1
 10
291.6753544256559
 20
152.3453917572731
 11
293.6670901740809
 21
151.7265921196787
 72
     1
 10
293.6670901740809
 20
151.7265921196787
 11
293.9170901740809
 21
152.1596048215709
 72
     1
 10
293.9170901740809
 20
152.1596048215709
 11
292.4170901740809
 21
153.0256302253553
 72
     2
 10
292.9170901740809
 20
153.8916556291398
 40
0.9999999999999943
 50
119.9999999999997
 51
180.0
 73
     0
 97
        0
 75
     0
 76
     1
 52
90.0
 41
1.0
 77
     0
 78
     4
 53
135.0000000000002
 43
0.0
 44
0.0
 45
-13.47038418160369
 46
-13.47038418160378
 79
     0
 53
135.0000000000002
 43
-0.0000000000000157
 44
4.49013
 45
-13.47038418160369
 46
-13.47038418160378
 79
     0
 53
135.0000000000002
 43
-0.0000000000000314
 44
8.98026
 45
-13.47038418160369
 46
-13.47038418160378
 79
     0
 53
135.0000000000002
 43
-0.000000000000047
 44
13.4704
 45
-13.47038418160369
 46
-13.47038418160378
 79
     0
 98
        1
 10
0.0
 20
0.0
  0
HATCH
  5
28F
330
1F
100
AcDbEntity
  8
0
  6
Continuous
 62
     7
370
     0
100
AcDbHatch
 10
0.0
 20
0.0
 30
0.0
210
0.0
220
0.0
230
1.0
  2
ANSI34
 70
     0
 71
     0
 91
        1
 92
        0
 93
       13
 72
     1
 10
217.9170901740809
 20
158.8916556291399
 11
217.9170901740809
 21
153.8916556291399
 72
     2
 10
216.9170901740809
 20
153.8916556291399
 40
0.9999999999999943
 50
0.0
 51
60.00000000000028
 73
     0
 72
     1
 10
217.4170901740809
 20
153.0256302253555
 11
215.9170901740809
 21
152.159604821571
 72
     1
 10
215.9170901740809
 20
152.159604821571
 11
216.1670901740809
 21
151.7265921196788
 72
     1
 10
216.1670901740809
 20
151.7265921196788
 11
218.1588259225059
 21
152.3453917572732
 72
     2
 10
217.4170901740809
 20
154.7328230294795
 40
2.5
 50
287.259162824907
 51
360.0000000000008
 73
     1
 72
     1
 10
219.9170901740809
 20
154.7328230294795
 11
219.9170901740809
 21
156.3916556291399
 72
     1
 10
219.9170901740809
 20
156.3916556291399
 11
224.9170901740809
 21
156.3916556291399
 72
     1
 10
224.9170901740809
 20
156.3916556291399
 11
224.9170901740809
 21
158.3916556291399
 72
     1
 10
224.9170901740809
 20
158.3916556291399
 11
219.9170901740809
 21
158.3916556291399
 72
     1
 10
219.9170901740809
 20
158.3916556291399
 11
219.9170901740809
 21
159.8916556291399
 72
     1
 10
219.9170901740809
 20
159.8916556291399
 11
218.9170901740809
 21
159.8916556291399
 72
     2
 10
218.9170901740809
 20
158.8916556291399
 40
1.0
 50
90.0
 51
180.0
 73
     1
 97
        0
 75
     0
 76
     1
 52
90.0
 41
1.0
 77
     0
 78
     4
 53
135.0000000000002
 43
0.0
 44
0.0
 45
-13.47038418160369
 46
-13.47038418160378
 79
     0
 53
135.0000000000002
 43
-0.0000000000000157
 44
4.49013
 45
-13.47038418160369
 46
-13.47038418160378
 79
     0
 53
135.0000000000002
 43
-0.0000000000000314
 44
8.98026
 45
-13.47038418160369
 46
-13.47038418160378
 79
     0
 53
135.0000000000002
 43
-0.000000000000047
 44
13.4704
 45
-13.47038418160369
 46
-13.47038418160378
 79
     0
 98
        1
 10
0.0
 20
0.0
  0
HATCH
  5
290
330
1F
100
AcDbEntity
  8
0
  6
Continuous
 62
     7
370
     0
100
AcDbHatch
 10
0.0
 20
0.0
 30
0.0
210
0.0
220
0.0
230
1.0
  2
ANSI33
 70
     0
 71
     0
 91
        1
 92
        0
 93
        4
 72
     1
 10
289.9170901740809
 20
154.8916556291398
 11
289.9170901740809
 21
156.3916556291398
 72
     1
 10
289.9170901740809
 20
156.3916556291398
 11
264.6670901740808
 21
156.3916556291398
 72
     1
 10
264.6670901740808
 20
156.3916556291398
 11
264.6670901740808
 21
154.8916556291398
 72
     1
 10
264.6670901740808
 20
154.8916556291398
 11
289.9170901740809
 21
154.8916556291398
 97
        0
 75
     0
 76
     1
 52
0.0
 41
1.0
 77
     0
 78
     2
 53
45.0
 43
0.0
 44
0.0
 45
-4.490128060534576
 46
4.490128060534577
 79
     0
 53
45.0
 43
4.49013
 44
0.0
 45
-4.490128060534576
 46
4.490128060534577
 79
     2
 49
3.175
 49
-1.5875
 98
        1
 10
0.0
 20
0.0
  0
HATCH
  5
291
330
1F
100
AcDbEntity
  8
0
  6
Continuous
 62
     7
370
     0
100
AcDbHatch
 10
0.0
 20
0.0
 30
0.0
210
0.0
220
0.0
230
1.0
  2
ANSI33
 70
     0
 71
     0
 91
        1
 92
        0
 93
        4
 72
     1
 10
219.9170901740809
 20
156.3916556291399
 11
219.9170901740809
 21
154.8916556291399
 72
     1
 10
219.9170901740809
 20
154.8916556291399
 11
245.1670901740809
 21
154.8916556291398
 72
     1
 10
245.1670901740809
 20
154.8916556291398
 11
245.1670901740809
 21
156.3916556291398
 72
     1
 10
245.1670901740809
 20
156.3916556291398
 11
219.9170901740809
 21
156.3916556291399
 97
        0
 75
     0
 76
     1
 52
0.0
 41
1.0
 77
     0
 78
     2
 53
45.0
 43
0.0
 44
0.0
 45
-4.490128060534576
 46
4.490128060534577
 79
     0
 53
45.0
 43
4.49013
 44
0.0
 45
-4.490128060534576
 46
4.490128060534577
 79
     2
 49
3.175
 49
-1.5875
 98
        1
 10
0.0
 20
0.0
  0
HATCH
  5
292
330
1F
100
AcDbEntity
  8
0
  6
Continuous
 62
     7
370
     0
100
AcDbHatch
 10
0.0
 20
0.0
 30
0.0
210
0.0
220
0.0
230
1.0
  2
NET
 70
     0
 71
     0
 91
        1
 92
        0
 93
        4
 72
     1
 10
263.9170901740809
 20
154.3916556291398
 11
263.917090174081
 21
169.3916556291398
 72
     1
 10
263.917090174081
 20
169.3916556291398
 11
262.9670901740809
 21
169.3916556291398
 72
     1
 10
262.9670901740809
 20
169.3916556291398
 11
262.9670901740809
 21
154.3916556291398
 72
     1
 10
262.9670901740809
 20
154.3916556291398
 11
263.9170901740809
 21
154.3916556291398
 97
        0
 75
     0
 76
     1
 52
44.999991007
 41
1.0
 77
     0
 78
     2
 53
44.99999100695533
 43
0.0
 44
0.0
 45
-2.245063677885963
 46
2.245064382648558
 79
     0
 53
134.9999910069553
 43
0.0
 44
0.0
 45
-2.245064382648558
 46
-2.245063677885963
 79
     0
 98
        1
 10
0.0
 20
0.0
  0
HATCH
  5
293
330
1F
100
AcDbEntity
  8
0
  6
Continuous
 62
     7
370
     0
100
AcDbHatch
 10
0.0
 20
0.0
 30
0.0
210
0.0
220
0.0
230
1.0
  2
NET
 70
     0
 71
     0
 91
        1
 92
        0
 93
        4
 72
     1
 10
245.9170901740809
 20
169.3916556291398
 11
245.9170901740809
 21
154.3916556291399
 72
     1
 10
245.9170901740809
 20
154.3916556291399
 11
246.8670901740809
 21
154.3916556291399
 72
     1
 10
246.8670901740809
 20
154.3916556291399
 11
246.8670901740809
 21
169.3916556291398
 72
     1
 10
246.8670901740809
 20
169.3916556291398
 11
245.9170901740809
 21
169.3916556291398
 97
        0
 75
     0
 76
     1
 52
44.999991007
 41
1.0
 77
     0
 78
     2
 53
44.99999100695533
 43
0.0
 44
0.0
 45
-2.245063677885963
 46
2.245064382648558
 79
     0
 53
134.9999910069553
 43
0.0
 44
0.0
 45
-2.245064382648558
 46
-2.245063677885963
 79
     0
 98
        1
 10
0.0
 20
0.0
  0
HATCH
  5
294
330
1F
100
AcDbEntity
  8
0
  6
Continuous
 62
     7
370
     0
100
AcDbHatch
 10
0.0
 20
0.0
 30
0.0
210
0.0
220
0.0
230
1.0
  2
NET
 70
     0
 71
     0
 91
        1
 92
        0
 93
        4
 72
     1
 10
263.9170901740811
 20
239.8916556291398
 11
263.9170901740811
 21
254.8916556291398
 72
     1
 10
263.9170901740811
 20
254.8916556291398
 11
262.9670901740811
 21
254.8916556291398
 72
     1
 10
262.9670901740811
 20
254.8916556291398
 11
262.967090174081
 21
239.8916556291398
 72
     1
 10
262.967090174081
 20
239.8916556291398
 11
263.9170901740811
 21
239.8916556291398
 97
        0
 75
     0
 76
     1
 52
44.999991007
 41
1.0
 77
     0
 78
     2
 53
44.99999100695533
 43
0.0
 44
0.0
 45
-2.245063677885963
 46
2.245064382648558
 79
     0
 53
134.9999910069553
 43
0.0
 44
0.0
 45
-2.245064382648558
 46
-2.245063677885963
 79
     0
 98
        1
 10
0.0
 20
0.0
  0
HATCH
  5
295
330
1F
100
AcDbEntity
  8
0
  6
Continuous
 62
     7
370
     0
100
AcDbHatch
 10
0.0
 20
0.0
 30
0.0
210
0.0
220
0.0
230
1.0
  2
NET
 70
     0
 71
     0
 91
        1
 92
        0
 93
        4
 72
     1
 10
245.9170901740811
 20
254.8916556291398
 11
245.9170901740811
 21
239.8916556291398
 72
     1
 10
245.9170901740811
 20
239.8916556291398
 11
246.867090174081
 21
239.8916556291398
 72
     1
 10
246.867090174081
 20
239.8916556291398
 11
246.8670901740811
 21
254.8916556291398
 72
     1
 10
246.8670901740811
 20
254.8916556291398
 11
245.9170901740811
 21
254.8916556291398
 97
        0
 75
     0
 76
     1
 52
44.999991007
 41
1.0
 77
     0
 78
     2
 53
44.99999100695533
 43
0.0
 44
0.0
 45
-2.245063677885963
 46
2.245064382648558
 79
     0
 53
134.9999910069553
 43
0.0
 44
0.0
 45
-2.245064382648558
 46
-2.245063677885963
 79
     0
 98
        1
 10
0.0
 20
0.0
  0
HATCH
  5
296
330
1F
100
AcDbEntity
  8
0
  6
Continuous
 62
     7
370
     0
100
AcDbHatch
 10
0.0
 20
0.0
 30
0.0
210
0.0
220
0.0
230
1.0
  2
ANSI34
 70
     0
 71
     0
 91
        1
 92
        0
 93
        1
 72
     2
 10
262.8070901740813
 20
400.3916556291397
 40
0.8899999999999999
 50
0.0
 51
360.0
 73
     1
 97
        0
 75
     0
 76
     1
 52
90.0
 41
1.0
 77
     0
 78
     4
 53
135.0000000000002
 43
0.0
 44
0.0
 45
-13.47038418160369
 46
-13.47038418160378
 79
     0
 53
135.0000000000002
 43
-0.0000000000000157
 44
4.49013
 45
-13.47038418160369
 46
-13.47038418160378
 79
     0
 53
135.0000000000002
 43
-0.0000000000000314
 44
8.98026
 45
-13.47038418160369
 46
-13.47038418160378
 79
     0
 53
135.0000000000002
 43
-0.000000000000047
 44
13.4704
 45
-13.47038418160369
 46
-13.47038418160378
 79
     0
 98
        1
 10
0.0
 20
0.0
  0
HATCH
  5
297
330
1F
100
AcDbEntity
  8
0
  6
Continuous
 62
     7
370
     0
100
AcDbHatch
 10
0.0
 20
0.0
 30
0.0
210
0.0
220
0.0
230
1.0
  2
ANSI34
 70
     0
 71
     0
 91
        1
 92
        0
 93
        1
 72
     2
 10
247.0270901740813
 20
400.3916556291398
 40
0.8899999999999999
 50
0.0
 51
360.0
 73
     1
 97
        0
 75
     0
 76
     1
 52
90.0
 41
1.0
 77
     0
 78
     4
 53
135.0000000000002
 43
0.0
 44
0.0
 45
-13.47038418160369
 46
-13.47038418160378
 79
     0
 53
135.0000000000002
 43
-0.0000000000000157
 44
4.49013
 45
-13.47038418160369
 46
-13.47038418160378
 79
     0
 53
135.0000000000002
 43
-0.0000000000000314
 44
8.98026
 45
-13.47038418160369
 46
-13.47038418160378
 79
     0
 53
135.0000000000002
 43
-0.000000000000047
 44
13.4704
 45
-13.47038418160369
 46
-13.47038418160378
 79
     0
 98
        1
 10
0.0
 20
0.0
  0
HATCH
  5
298
330
1F
100
AcDbEntity
  8
0
  6
Continuous
 62
     7
370
     0
100
AcDbHatch
 10
0.0
 20
0.0
 30
0.0
210
0.0
220
0.0
230
1.0
  2
ANSI33
 70
     0
 71
     0
 91
        1
 92
        0
 93
       30
 72
     1
 10
185.6670901740809
 20
128.3916556291399
 11
183.6670901740809
 21
130.39165562914
 72
     1
 10
183.6670901740809
 20
130.39165562914
 11
181.1670901740809
 21
130.39165562914
 72
     1
 10
181.1670901740809
 20
130.39165562914
 11
181.1670901740809
 21
100.3916556291399
 72
     1
 10
181.1670901740809
 20
100.3916556291399
 11
183.6670901740808
 21
100.3916556291399
 72
     1
 10
183.6670901740808
 20
100.3916556291399
 11
185.6670901740809
 21
102.39165562914
 72
     1
 10
185.6670901740809
 20
102.39165562914
 11
187.6670901740809
 21
100.3916556291399
 72
     1
 10
187.6670901740809
 20
100.3916556291399
 11
189.6670901740809
 21
100.3916556291399
 72
     1
 10
189.6670901740809
 20
100.3916556291399
 11
189.6670901740809
 21
101.5987624103265
 72
     2
 10
187.1670901740809
 20
101.5987624103265
 40
2.5
 50
0.0000000000005089
 51
45.00000000000061
 73
     1
 72
     1
 10
188.9348571270473
 20
103.3665293632929
 11
187.2528766117078
 21
105.0485098786324
 72
     2
 10
188.6670901740809
 20
106.4627234410055
 40
2.0
 50
134.9999999999997
 51
180.0000000000013
 73
     0
 72
     1
 10
186.6670901740809
 20
106.4627234410055
 11
186.6670901740809
 21
108.4822282636156
 72
     1
 10
186.6670901740809
 20
108.4822282636156
 11
186.5670901740809
 21
108.4822282627865
 72
     1
 10
186.5670901740809
 20
108.4822282627865
 11
186.5670901740809
 21
108.6389765997288
 72
     1
 10
186.5670901740809
 20
108.6389765997288
 11
186.6670901740809
 21
108.6389765969931
 72
     1
 10
186.6670901740809
 20
108.6389765969931
 11
186.6670901740809
 21
109.2168251282202
 72
     1
 10
186.6670901740809
 20
109.2168251282202
 11
186.5670901740809
 21
109.2168251353148
 72
     1
 10
186.5670901740809
 20
109.2168251353148
 11
186.5670901740809
 21
109.3747385459813
 72
     1
 10
186.5670901740809
 20
109.3747385459813
 11
186.6670901740809
 21
109.3747385479836
 72
     1
 10
186.6670901740809
 20
109.3747385479836
 11
186.6670901740809
 21
110.080370413457
 72
     1
 10
186.6670901740809
 20
110.080370413457
 11
186.5670901740809
 21
110.0803704267526
 72
     1
 10
186.5670901740809
 20
110.0803704267526
 11
186.5670901740809
 21
110.2937151173591
 72
     1
 10
186.5670901740809
 20
110.2937151173591
 11
186.6670901740809
 21
110.293715111319
 72
     1
 10
186.6670901740809
 20
110.293715111319
 11
186.6670901740809
 21
124.3205878172745
 72
     2
 10
188.6670901740809
 20
124.3205878172745
 40
2.0
 50
180.0
 51
225.0000000000008
 73
     0
 72
     1
 10
187.2528766117078
 20
125.7348013796475
 11
188.9348571270473
 21
127.416781894987
 72
     2
 10
187.1670901740809
 20
129.1845488479534
 40
2.5
 50
315.0000000000006
 51
360.0000000000002
 73
     1
 72
     1
 10
189.6670901740809
 20
129.1845488479534
 11
189.6670901740809
 21
130.3916556291399
 72
     1
 10
189.6670901740809
 20
130.3916556291399
 11
187.667090174081
 21
130.3916556291399
 72
     1
 10
187.667090174081
 20
130.3916556291399
 11
185.6670901740809
 21
128.3916556291399
 97
        0
 75
     0
 76
     1
 52
90.0
 41
1.0
 77
     0
 78
     2
 53
135.0000000000002
 43
0.0
 44
0.0
 45
-4.490128060534562
 46
-4.490128060534592
 79
     0
 53
135.0000000000002
 43
-0.0000000000000157
 44
4.49013
 45
-4.490128060534562
 46
-4.490128060534592
 79
     2
 49
3.175
 49
-1.5875
 98
        1
 10
0.0
 20
0.0
  0
HATCH
  5
299
330
1F
100
AcDbEntity
  8
0
  6
Continuous
 62
     7
370
     0
100
AcDbHatch
 10
0.0
 20
0.0
 30
0.0
210
0.0
220
0.0
230
1.0
  2
ANSI37
 70
     0
 71
     0
 91
        1
 92
        0
 93
        4
 72
     1
 10
181.1670901740809
 20
99.39165562913996
 11
181.1670901740809
 21
131.39165562914
 72
     1
 10
181.1670901740809
 20
131.39165562914
 11
177.9670901740809
 21
131.39165562914
 72
     1
 10
177.9670901740809
 20
131.39165562914
 11
177.9670901740809
 21
99.39165562913999
 72
     1
 10
177.9670901740809
 20
99.39165562913999
 11
181.1670901740809
 21
99.39165562913996
 97
        0
 75
     0
 76
     1
 52
0.0
 41
1.0
 77
     0
 78
     2
 53
45.0
 43
0.0
 44
0.0
 45
-2.245064030267288
 46
2.245064030267288
 79
     0
 53
135.0
 43
0.0
 44
0.0
 45
-2.245064030267288
 46
-2.245064030267288
 79
     0
 98
        1
 10
0.0
 20
0.0
  0
MTEXT
  5
29A
330
1F
100
AcDbEntity
  8
0
  6
Continuous
 62
     7
370
     0
100
AcDbMText
 10
255.1436747927
 20
15.5924327571
 30
0.0
 40
5.0
 41
0.0
 71
     2
 72
     1
  1
A-A
  7
SLDTEXTSTYLE0
 73
     1
 44
1.0
  0
MTEXT
  5
29B
330
1F
100
AcDbEntity
  8
0
  6
Continuous
 62
     7
370
     0
100
AcDbMText
 10
346.0024062211
 20
378.3924037343
 30
0.0
 40
3.5
 41
0.0
 71
     1
 72
     1
  1
Ansicht "X"
  7
SLDTEXTSTYLE0
 73
     1
 44
1.0
  0
LINE
  5
29C
330
1F
100
AcDbEntity
  8
0
  6
CENTERX2
 62
     7
370
     0
100
AcDbLine
 10
185.6670901741
 20
90.3916556291
 30
0.0
 11
185.6670901741
 21
104.3916556291
 31
0.0
  0
LINE
  5
29D
330
1F
100
AcDbEntity
  8
0
  6
CENTERX2
 62
     7
370
     0
100
AcDbLine
 10
179.6670901741
 20
125.3916556291
 30
0.0
 11
209.3670901741
 21
125.3916556291
 31
0.0
  0
LINE
  5
29E
330
1F
100
AcDbEntity
  8
0
  6
CENTERX2
 62
     7
370
     0
100
AcDbLine
 10
175.9670901741
 20
115.3916556291
 30
0.0
 11
183.1670901741
 21
115.3916556291
 31
0.0
  0
LINE
  5
29F
330
1F
100
AcDbEntity
  8
0
  6
CENTERX2
 62
     7
370
     0
100
AcDbLine
 10
188.6670901741
 20
115.3916556291
 30
0.0
 11
183.1670901741
 21
115.3916556291
 31
0.0
  0
LINE
  5
2A0
330
1F
100
AcDbEntity
  8
0
  6
Continuous
 62
     7
370
    30
100
AcDbLine
 10
396.9201974667
 20
332.2105493897
 30
0.0
 11
319.8186911739
 21
332.2105493897
 31
0.0
  0
LINE
  5
2A1
330
1F
100
AcDbEntity
  8
0
  6
Continuous
 62
     7
370
    30
100
AcDbLine
 10
403.9119750358
 20
248.1172673905
 30
0.0
 11
403.9119750358
 21
325.2187736833
 31
0.0
  0
LINE
  5
2A2
330
1F
100
AcDbEntity
  8
0
  6
Continuous
 62
     7
370
    30
100
AcDbLine
 10
312.8269136048
 20
325.2187736833
 30
0.0
 11
312.8269136048
 21
248.1172673905
 31
0.0
  0
LINE
  5
2A3
330
1F
100
AcDbEntity
  8
0
  6
Continuous
 62
     7
370
    30
100
AcDbLine
 10
319.8186911739
 20
241.1254860961
 30
0.0
 11
396.9201974667
 21
241.1254860961
 31
0.0
  0
LINE
  5
2A4
330
1F
100
AcDbEntity
  8
0
  6
Continuous
 62
     7
370
    30
100
AcDbLine
 10
335.8694434262
 20
362.9180185997
 30
0.0
 11
335.8694434262
 21
363.6180185748
 31
0.0
  0
LINE
  5
2A5
330
1F
100
AcDbEntity
  8
0
  6
Continuous
 62
     7
370
    30
100
AcDbLine
 10
335.8694434262
 20
363.6180185748
 30
0.0
 11
342.8694445736
 21
363.6180185748
 31
0.0
  0
LINE
  5
2A6
330
1F
100
AcDbEntity
  8
0
  6
Continuous
 62
     7
370
    30
100
AcDbLine
 10
373.869444067
 20
363.6180185748
 30
0.0
 11
342.8694445736
 21
363.6180185748
 31
0.0
  0
LINE
  5
2A7
330
1F
100
AcDbEntity
  8
0
  6
Continuous
 62
     7
370
    30
100
AcDbLine
 10
380.8694452144
 20
363.6180185748
 30
0.0
 11
380.8694452144
 21
362.9180185997
 31
0.0
  0
LINE
  5
2A8
330
1F
100
AcDbEntity
  8
0
  6
Continuous
 62
     7
370
    30
100
AcDbLine
 10
373.869444067
 20
363.6180185748
 30
0.0
 11
380.8694452144
 21
363.6180185748
 31
0.0
  0
ARC
  5
2A9
330
1F
100
AcDbEntity
  8
0
  6
Continuous
 62
     7
370
    30
100
AcDbCircle
 10
324.3694443203
 20
252.6680185997
 30
0.0
 40
1.0
100
AcDbArc
 50
180.0
 51
270.0
  0
LINE
  5
2AA
330
1F
100
AcDbEntity
  8
0
  6
Continuous
 62
     7
370
    30
100
AcDbLine
 10
392.369446168
 20
251.6680203879
 30
0.0
 11
324.3694424726
 21
251.6680203879
 31
0.0
  0
ARC
  5
2AB
330
1F
100
AcDbEntity
  8
0
  6
Continuous
 62
     7
370
    30
100
AcDbCircle
 10
392.3694443203
 20
252.6680185997
 30
0.0
 40
1.0
100
AcDbArc
 50
270.0
 51
0.0
  0
LINE
  5
2AC
330
1F
100
AcDbEntity
  8
0
  6
Continuous
 62
     7
370
    30
100
AcDbLine
 10
393.3694444693
 20
320.6680186593
 30
0.0
 11
393.3694444693
 21
252.6680149638
 31
0.0
  0
ARC
  5
2AD
330
1F
100
AcDbEntity
  8
0
  6
Continuous
 62
     7
370
    30
100
AcDbCircle
 10
392.3694443203
 20
320.6680185997
 30
0.0
 40
1.0
100
AcDbArc
 50
0.0
 51
90.0
  0
LINE
  5
2AE
330
1F
100
AcDbEntity
  8
0
  6
Continuous
 62
     7
370
    30
100
AcDbLine
 10
324.3694424726
 20
321.6680169606
 30
0.0
 11
392.369446168
 21
321.6680169606
 31
0.0
  0
ARC
  5
2AF
330
1F
100
AcDbEntity
  8
0
  6
Continuous
 62
     7
370
    30
100
AcDbCircle
 10
324.3694443203
 20
320.6680185997
 30
0.0
 40
1.0
100
AcDbArc
 50
90.0
 51
180.0
  0
LINE
  5
2B0
330
1F
100
AcDbEntity
  8
0
  6
Continuous
 62
     7
370
    30
100
AcDbLine
 10
323.3694441713
 20
320.6680186593
 30
0.0
 11
323.3694441713
 21
252.6680149638
 31
0.0
  0
ARC
  5
2B1
330
1F
100
AcDbEntity
  8
0
  6
Continuous
 62
     7
370
    30
100
AcDbCircle
 10
392.3694443203
 20
320.6680185997
 30
0.0
 40
3.0
100
AcDbArc
 50
360.0
 51
90.0
  0
LINE
  5
2B2
330
1F
100
AcDbEntity
  8
0
  6
Continuous
 62
     7
370
    30
100
AcDbLine
 10
324.3694424726
 20
323.6680172884
 30
0.0
 11
392.369446168
 21
323.6680172884
 31
0.0
  0
LINE
  5
2B3
330
1F
100
AcDbEntity
  8
0
  6
Continuous
 62
     7
370
    30
100
AcDbLine
 10
395.3694447971
 20
320.6680186593
 30
0.0
 11
395.3694447971
 21
252.6680149638
 31
0.0
  0
ARC
  5
2B4
330
1F
100
AcDbEntity
  8
0
  6
Continuous
 62
     7
370
    30
100
AcDbCircle
 10
324.3694443203
 20
320.6680185997
 30
0.0
 40
3.0
100
AcDbArc
 50
90.0
 51
180.0
  0
LINE
  5
2B5
330
1F
100
AcDbEntity
  8
0
  6
Continuous
 62
     7
370
    30
100
AcDbLine
 10
321.3694438435
 20
252.6680149638
 30
0.0
 11
321.3694438435
 21
320.6680186593
 31
0.0
  0
ARC
  5
2B6
330
1F
100
AcDbEntity
  8
0
  6
Continuous
 62
     7
370
    30
100
AcDbCircle
 10
392.3694443203
 20
252.6680185997
 30
0.0
 40
3.0
100
AcDbArc
 50
270.0
 51
360.0
  0
LINE
  5
2B7
330
1F
100
AcDbEntity
  8
0
  6
Continuous
 62
     7
370
    30
100
AcDbLine
 10
392.369446168
 20
249.6680163348
 30
0.0
 11
324.3694424726
 21
249.6680163348
 31
0.0
  0
ARC
  5
2B8
330
1F
100
AcDbEntity
  8
0
  6
Continuous
 62
     7
370
    30
100
AcDbCircle
 10
324.3694443203
 20
252.6680185997
 30
0.0
 40
3.0
100
AcDbArc
 50
180.0
 51
270.0
  0
ARC
  5
2B9
330
1F
100
AcDbEntity
  8
0
  6
Continuous
 62
     7
370
    30
100
AcDbCircle
 10
392.3694443203
 20
320.6680185997
 30
0.0
 40
5.0
100
AcDbArc
 50
0.0
 51
90.0
  0
ARC
  5
2BA
330
1F
100
AcDbEntity
  8
0
  6
Continuous
 62
     7
370
    30
100
AcDbCircle
 10
324.3694443203
 20
320.6680185997
 30
0.0
 40
5.0
100
AcDbArc
 50
90.0
 51
180.0
  0
LINE
  5
2BB
330
1F
100
AcDbEntity
  8
0
  6
Continuous
 62
     7
370
    30
100
AcDbLine
 10
324.3694424726
 20
325.6680176163
 30
0.0
 11
392.369446168
 21
325.6680176163
 31
0.0
  0
LINE
  5
2BC
330
1F
100
AcDbEntity
  8
0
  6
Continuous
 62
     7
370
    30
100
AcDbLine
 10
319.3694435156
 20
320.6680186593
 30
0.0
 11
319.3694435156
 21
252.6680149638
 31
0.0
  0
LINE
  5
2BD
330
1F
100
AcDbEntity
  8
0
  6
Continuous
 62
     7
370
    30
100
AcDbLine
 10
397.369445125
 20
320.6680186593
 30
0.0
 11
397.369445125
 21
252.6680149638
 31
0.0
  0
ARC
  5
2BE
330
1F
100
AcDbEntity
  8
0
  6
Continuous
 62
     7
370
    30
100
AcDbCircle
 10
392.3694443203
 20
252.6680185997
 30
0.0
 40
5.0
100
AcDbArc
 50
270.0
 51
0.0
  0
ARC
  5
2BF
330
1F
100
AcDbEntity
  8
0
  6
Continuous
 62
     7
370
    30
100
AcDbCircle
 10
324.3694443203
 20
252.6680185997
 30
0.0
 40
5.0
100
AcDbArc
 50
180.0
 51
270.0
  0
LINE
  5
2C0
330
1F
100
AcDbEntity
  8
0
  6
Continuous
 62
     7
370
    30
100
AcDbLine
 10
392.369446168
 20
247.6680197322
 30
0.0
 11
324.3694424726
 21
247.6680197322
 31
0.0
  0
CIRCLE
  5
2C1
330
1F
100
AcDbEntity
  8
0
  6
Continuous
 62
     7
370
    30
100
AcDbCircle
 10
358.3694443203
 20
286.6680185997
 30
0.0
 40
10.0
  0
CIRCLE
  5
2C2
330
1F
100
AcDbEntity
  8
0
  6
Continuous
 62
     7
370
    30
100
AcDbCircle
 10
358.3694443203
 20
286.6680185997
 30
0.0
 40
8.999999999999982
  0
ELLIPSE
  5
2C3
330
1F
100
AcDbEntity
  8
0
  6
Continuous
 62
     7
370
    30
100
AcDbEllipse
 10
319.8351473503
 20
325.2023155698
 30
0.0
 11
4.959450084581648
 21
-4.95945008458142
 31
0.0
210
0.0
220
0.0
230
1.0
 40
0.9980436105
 41
2.357564018062717
 42
3.925621289116837
  0
ELLIPSE
  5
2C4
330
1F
100
AcDbEntity
  8
0
  6
Continuous
 62
     7
370
    30
100
AcDbEllipse
 10
396.9037412904
 20
325.2023155698
 30
0.0
 11
4.959450084581648
 21
4.959450084581477
 31
0.0
210
0.0
220
0.0
230
1.0
 40
0.9980436105
 41
5.499156671652561
 42
7.06721394270666
  0
ELLIPSE
  5
2C5
330
1F
100
AcDbEntity
  8
0
  6
Continuous
 62
     7
370
    30
100
AcDbEllipse
 10
396.9037412904
 20
248.1337216297
 30
0.0
 11
4.959450084581533
 21
-4.959450084581674
 31
0.0
210
0.0
220
0.0
230
1.0
 40
0.9980436105
 41
5.499156671652561
 42
7.067213942706658
  0
ELLIPSE
  5
2C6
330
1F
100
AcDbEntity
  8
0
  6
Continuous
 62
     7
370
    30
100
AcDbEllipse
 10
319.8351473503
 20
248.1337216297
 30
0.0
 11
4.95945008458142
 21
4.959450084581674
 31
0.0
210
0.0
220
0.0
230
1.0
 40
0.9980436105
 41
2.357564018062714
 42
3.925621289116834
  0
LINE
  5
2C7
330
1F
100
AcDbEntity
  8
0
  6
Continuous
 62
     7
370
    30
100
AcDbLine
 10
342.2155983842
 20
334.6487872803
 30
0.0
 11
342.2155983842
 21
334.4180185848
 31
0.0
  0
LINE
  5
2C8
330
1F
100
AcDbEntity
  8
0
  6
Continuous
 62
     7
370
    30
100
AcDbLine
 10
340.9984510488
 20
334.6487872803
 30
0.0
 11
342.2155983842
 21
334.6487872803
 31
0.0
  0
LINE
  5
2C9
330
1F
100
AcDbEntity
  8
0
  6
Continuous
 62
     7
370
    30
100
AcDbLine
 10
341.0958059229
 20
334.7773936146
 30
0.0
 11
340.9984510488
 21
334.6487872803
 31
0.0
  0
LINE
  5
2CA
330
1F
100
AcDbEntity
  8
0
  6
Continuous
 62
     7
370
    30
100
AcDbLine
 10
342.164316038
 20
336.1872502172
 30
0.0
 11
341.0958059229
 21
334.7773936146
 31
0.0
  0
LINE
  5
2CB
330
1F
100
AcDbEntity
  8
0
  6
Continuous
 62
     7
370
    30
100
AcDbLine
 10
342.164316038
 20
336.4180189127
 30
0.0
 11
342.164316038
 21
336.1872502172
 31
0.0
  0
LINE
  5
2CC
330
1F
100
AcDbEntity
  8
0
  6
Continuous
 62
     7
370
    30
100
AcDbLine
 10
340.7797001399
 20
336.4180189127
 30
0.0
 11
342.164316038
 21
336.4180189127
 31
0.0
  0
LINE
  5
2CD
330
1F
100
AcDbEntity
  8
0
  6
Continuous
 62
     7
370
    30
100
AcDbLine
 10
340.7797001399
 20
336.1872502172
 30
0.0
 11
340.7797001399
 21
336.4180189127
 31
0.0
  0
LINE
  5
2CE
330
1F
100
AcDbEntity
  8
0
  6
Continuous
 62
     7
370
    30
100
AcDbLine
 10
341.8105494327
 20
336.1872502172
 30
0.0
 11
340.7797001399
 21
336.1872502172
 31
0.0
  0
SPLINE
  5
2CF
330
1F
100
AcDbEntity
  8
0
  6
Continuous
 62
     7
370
    30
100
AcDbSpline
210
0.0
220
0.0
230
1.0
 70
     8
 71
     3
 72
     9
 73
     5
 74
     0
 42
0.00000001
 43
0.00000001
 40
0.0
 40
0.0
 40
0.0
 40
0.0
 40
0.5599982959961708
 40
1.0
 40
1.0
 40
1.0
 40
1.0
 10
341.6362710393514
 20
335.9576829278261
 30
0.0
 10
341.6687864069478
 20
336.0005478852277
 30
0.0
 10
341.7268497400489
 20
336.0770926849315
 30
0.0
 10
341.7849744578583
 20
336.1535908806911
 30
0.0
 10
341.8105494327392
 20
336.1872502171785
 30
0.0
  0
LINE
  5
2D0
330
1F
100
AcDbEntity
  8
0
  6
Continuous
 62
     7
370
    30
100
AcDbLine
 10
340.6514961369
 20
334.6584041172
 30
0.0
 11
341.6362710394
 21
335.9576829278
 31
0.0
  0
LINE
  5
2D1
330
1F
100
AcDbEntity
  8
0
  6
Continuous
 62
     7
370
    30
100
AcDbLine
 10
340.6514961369
 20
334.4180185848
 30
0.0
 11
340.6514961369
 21
334.6584041172
 31
0.0
  0
LINE
  5
2D2
330
1F
100
AcDbEntity
  8
0
  6
Continuous
 62
     7
370
    30
100
AcDbLine
 10
342.2155983842
 20
334.4180185848
 30
0.0
 11
340.6514961369
 21
334.4180185848
 31
0.0
  0
LINE
  5
2D3
330
1F
100
AcDbEntity
  8
0
  6
Continuous
 62
     7
370
    30
100
AcDbLine
 10
337.545727203
 20
335.0334030145
 30
0.0
 11
337.3181622572
 21
334.4180185848
 31
0.0
  0
LINE
  5
2D4
330
1F
100
AcDbEntity
  8
0
  6
Continuous
 62
     7
370
    30
100
AcDbLine
 10
338.3982896901
 20
335.0334030145
 30
0.0
 11
337.545727203
 21
335.0334030145
 31
0.0
  0
LINE
  5
2D5
330
1F
100
AcDbEntity
  8
0
  6
Continuous
 62
     7
370
    30
100
AcDbLine
 10
338.6258546359
 20
334.4180185848
 30
0.0
 11
338.3982896901
 21
335.0334030145
 31
0.0
  0
LINE
  5
2D6
330
1F
100
AcDbEntity
  8
0
  6
Continuous
 62
     7
370
    30
100
AcDbLine
 10
338.9251332826
 20
334.4180185848
 30
0.0
 11
338.6258546359
 21
334.4180185848
 31
0.0
  0
LINE
  5
2D7
330
1F
100
AcDbEntity
  8
0
  6
Continuous
 62
     7
370
    30
100
AcDbLine
 10
338.1310634411
 20
336.4180189127
 30
0.0
 11
338.9251332826
 21
334.4180185848
 31
0.0
  0
LINE
  5
2D8
330
1F
100
AcDbEntity
  8
0
  6
Continuous
 62
     7
370
    30
100
AcDbLine
 10
337.812953452
 20
336.4180189127
 30
0.0
 11
338.1310634411
 21
336.4180189127
 31
0.0
  0
LINE
  5
2D9
330
1F
100
AcDbEntity
  8
0
  6
Continuous
 62
     7
370
    30
100
AcDbLine
 10
337.0188836105
 20
334.4180185848
 30
0.0
 11
337.812953452
 21
336.4180189127
 31
0.0
  0
LINE
  5
2DA
330
1F
100
AcDbEntity
  8
0
  6
Continuous
 62
     7
370
    30
100
AcDbLine
 10
337.3181622572
 20
334.4180185848
 30
0.0
 11
337.0188836105
 21
334.4180185848
 31
0.0
  0
SPLINE
  5
2DB
330
1F
100
AcDbEntity
  8
0
  6
Continuous
 62
     7
370
    30
100
AcDbSpline
210
0.0
220
0.0
230
1.0
 70
     8
 71
     3
 72
    11
 73
     7
 74
     0
 42
0.00000001
 43
0.00000001
 40
0.0
 40
0.0
 40
0.0
 40
0.0
 40
0.2812193242611865
 40
0.5607107797488782
 40
0.7801359562047292
 40
1.0
 40
1.0
 40
1.0
 40
1.0
 10
333.472008640274
 20
335.4340449476034
 30
0.0
 10
333.47755391489
 20
335.3266360844925
 30
0.0
 10
333.4886103928259
 20
335.1124783001898
 30
0.0
 10
333.6052966304823
 20
334.8251464897614
 30
0.0
 10
333.8373016585284
 20
334.6525929184369
 30
0.0
 10
334.0061101255728
 20
334.6329682462048
 30
0.0
 10
334.090598682269
 20
334.623146107176
 30
0.0
  0
SPLINE
  5
2DC
330
1F
100
AcDbEntity
  8
0
  6
Continuous
 62
     7
370
    30
100
AcDbSpline
210
0.0
220
0.0
230
1.0
 70
     8
 71
     3
 72
    11
 73
     7
 74
     0
 42
0.00000001
 43
0.00000001
 40
0.0
 40
0.0
 40
0.0
 40
0.0
 40
0.1872001837670595
 40
0.3738839729007475
 40
0.5607572457176321
 40
1.0
 40
1.0
 40
1.0
 40
1.0
 10
334.0978089816417
 20
336.2128895276577
 30
0.0
 10
334.0271319730156
 20
336.2080052632195
 30
0.0
 10
333.8859729193965
 20
336.1982502076628
 30
0.0
 10
333.6968740788275
 20
336.091323506311
 30
0.0
 10
333.5029784084157
 20
335.845085964863
 30
0.0
 10
333.4847773398856
 20
335.603515356727
 30
0.0
 10
333.472008640274
 20
335.4340449476034
 30
0.0
  0
SPLINE
  5
2DD
330
1F
100
AcDbEntity
  8
0
  6
Continuous
 62
     7
370
    30
100
AcDbSpline
210
0.0
220
0.0
230
1.0
 70
     8
 71
     3
 72
    11
 73
     7
 74
     0
 42
0.00000001
 43
0.00000001
 40
0.0
 40
0.0
 40
0.0
 40
0.0
 40
0.2805697851087642
 40
0.5596942087111789
 40
0.7796345039228977
 40
0.9999999999999999
 40
0.9999999999999999
 40
0.9999999999999999
 40
0.9999999999999999
 10
334.6002128071632
 20
335.8018335455448
 30
0.0
 10
334.5781081034898
 20
335.8640519258055
 30
0.0
 10
334.5340125690171
 20
335.988168166953
 30
0.0
 10
334.410299495045
 20
336.1308497369183
 30
0.0
 10
334.2532197602483
 20
336.2035575072103
 30
0.0
 10
334.1496459147403
 20
336.2097768521796
 30
0.0
 10
334.0978089816417
 20
336.2128895276577
 30
0.0
  0
LINE
  5
2DE
330
1F
100
AcDbEntity
  8
0
  6
Continuous
 62
     7
370
    30
100
AcDbLine
 10
334.8822657115
 20
335.8623303973
 30
0.0
 11
334.6002128072
 21
335.8018335455
 31
0.0
  0
SPLINE
  5
2DF
330
1F
100
AcDbEntity
  8
0
  6
Continuous
 62
     7
370
    30
100
AcDbSpline
210
0.0
220
0.0
230
1.0
 70
     8
 71
     3
 72
    11
 73
     7
 74
     0
 42
0.00000001
 43
0.00000001
 40
0.0
 40
0.0
 40
0.0
 40
0.0
 40
0.2800585512061082
 40
0.5593793982360774
 40
0.7795542557428895
 40
1.0
 40
1.0
 40
1.0
 40
1.0
 10
334.1114323682632
 20
336.4436600857765
 30
0.0
 10
334.2094113287624
 20
336.4364201031847
 30
0.0
 10
334.4051111627
 20
336.4219592088895
 30
0.0
 10
334.6458383304956
 20
336.2778139861862
 30
0.0
 10
334.8059946298375
 20
336.0801945439932
 30
0.0
 10
334.8568315997046
 20
335.9349815378011
 30
0.0
 10
334.8822657115306
 20
335.8623303973467
 30
0.0
  0
SPLINE
  5
2E0
330
1F
100
AcDbEntity
  8
0
  6
Continuous
 62
     7
370
    30
100
AcDbSpline
210
0.0
220
0.0
230
1.0
 70
     8
 71
     3
 72
    11
 73
     7
 74
     0
 42
0.00000001
 43
0.00000001
 40
0.0
 40
0.0
 40
0.0
 40
0.0
 40
0.2805098017888547
 40
0.5595573088328968
 40
0.7796153082852637
 40
1.0
 40
1.0
 40
1.0
 40
1.0
 10
333.1899575985517
 20
335.432841678837
 30
0.0
 10
333.2006363907742
 20
335.5771610265324
 30
0.0
 10
333.2219383067838
 20
335.8650473866307
 30
0.0
 10
333.4453619351282
 20
336.218229690459
 30
0.0
 10
333.7722854958266
 20
336.4122318618525
 30
0.0
 10
333.9983275229373
 20
336.4331788320936
 30
0.0
 10
334.1114323682632
 20
336.4436600857765
 30
0.0
  0
SPLINE
  5
2E1
330
1F
100
AcDbEntity
  8
0
  6
Continuous
 62
     7
370
    30
100
AcDbSpline
210
0.0
220
0.0
230
1.0
 70
     8
 71
     3
 72
    11
 73
     7
 74
     0
 42
0.00000001
 43
0.00000001
 40
0.0
 40
0.0
 40
0.0
 40
0.0
 40
0.2799424979497007
 40
0.5580819735495576
 40
0.7789085723100272
 40
1.0
 40
1.0
 40
1.0
 40
1.0
 10
334.1170407928075
 20
334.3923774117023
 30
0.0
 10
333.9671670967606
 20
334.4033675234669
 30
0.0
 10
333.6683849944159
 20
334.4252769631124
 30
0.0
 10
333.3525214684973
 20
334.7291550063047
 30
0.0
 10
333.214571183536
 20
335.0854338216619
 30
0.0
 10
333.1981654040525
 20
335.3169928042034
 30
0.0
 10
333.1899575985517
 20
335.432841678837
 30
0.0
  0
SPLINE
  5
2E2
330
1F
100
AcDbEntity
  8
0
  6
Continuous
 62
     7
370
    30
100
AcDbSpline
210
0.0
220
0.0
230
1.0
 70
     8
 71
     3
 72
    11
 73
     7
 74
     0
 42
0.00000001
 43
0.00000001
 40
0.0
 40
0.0
 40
0.0
 40
0.0
 40
0.2802634294106546
 40
0.5595516263413863
 40
0.7795903859893303
 40
1.0
 40
1.0
 40
1.0
 40
1.0
 10
334.9335461951341
 20
335.05824325023
 30
0.0
 10
334.9004535495037
 20
334.9558200191635
 30
0.0
 10
334.834383410701
 20
334.7513299590834
 30
0.0
 10
334.6227554092748
 20
334.5285145270965
 30
0.0
 10
334.3697436032278
 20
334.4088256941434
 30
0.0
 10
334.2013223327804
 20
334.3978632492826
 30
0.0
 10
334.1170407928075
 20
334.3923774117023
 30
0.0
  0
LINE
  5
2E3
330
1F
100
AcDbEntity
  8
0
  6
Continuous
 62
     7
370
    30
100
AcDbLine
 10
334.6514951534
 20
335.1239480579
 30
0.0
 11
334.9335461951
 21
335.0582432502
 31
0.0
  0
SPLINE
  5
2E4
330
1F
100
AcDbEntity
  8
0
  6
Continuous
 62
     7
370
    30
100
AcDbSpline
210
0.0
220
0.0
230
1.0
 70
     8
 71
     3
 72
    10
 73
     6
 74
     0
 42
0.00000001
 43
0.00000001
 40
0.0
 40
0.0
 40
0.0
 40
0.0
 40
0.2807490547916146
 40
0.5609036408317885
 40
1.0
 40
1.0
 40
1.0
 40
1.0
 10
334.090598682269
 20
334.623146107176
 30
0.0
 10
334.167486265103
 20
334.6305875174072
 30
0.0
 10
334.3210986260722
 20
334.6454545811438
 30
0.0
 10
334.5548663347765
 20
334.815231059169
 30
0.0
 10
334.6148659297816
 20
335.0069222663554
 30
0.0
 10
334.6514951534118
 20
335.1239480578691
 30
0.0
  0
LINE
  5
2E5
330
1F
100
AcDbEntity
  8
0
  6
Continuous
 62
     7
370
    30
100
AcDbLine
 10
329.7284178532
 20
335.9104071313
 30
0.0
 11
329.7284178532
 21
334.4180185848
 31
0.0
  0
LINE
  5
2E6
330
1F
100
AcDbEntity
  8
0
  6
Continuous
 62
     7
370
    30
100
AcDbLine
 10
330.6867525078
 20
334.4180185848
 30
0.0
 11
329.7284178532
 21
335.9104071313
 31
0.0
  0
LINE
  5
2E7
330
1F
100
AcDbEntity
  8
0
  6
Continuous
 62
     7
370
    30
100
AcDbLine
 10
330.9848297484
 20
334.4180185848
 30
0.0
 11
330.6867525078
 21
334.4180185848
 31
0.0
  0
LINE
  5
2E8
330
1F
100
AcDbEntity
  8
0
  6
Continuous
 62
     7
370
    30
100
AcDbLine
 10
330.9848297484
 20
336.4180189127
 30
0.0
 11
330.9848297484
 21
334.4180185848
 31
0.0
  0
LINE
  5
2E9
330
1F
100
AcDbEntity
  8
0
  6
Continuous
 62
     7
370
    30
100
AcDbLine
 10
330.702776844
 20
336.4180189127
 30
0.0
 11
330.9848297484
 21
336.4180189127
 31
0.0
  0
LINE
  5
2EA
330
1F
100
AcDbEntity
  8
0
  6
Continuous
 62
     7
370
    30
100
AcDbLine
 10
330.702776844
 20
334.9256303662
 30
0.0
 11
330.702776844
 21
336.4180189127
 31
0.0
  0
LINE
  5
2EB
330
1F
100
AcDbEntity
  8
0
  6
Continuous
 62
     7
370
    30
100
AcDbLine
 10
329.7444440521
 20
336.4180189127
 30
0.0
 11
330.702776844
 21
334.9256303662
 31
0.0
  0
LINE
  5
2EC
330
1F
100
AcDbEntity
  8
0
  6
Continuous
 62
     7
370
    30
100
AcDbLine
 10
329.4463668115
 20
336.4180189127
 30
0.0
 11
329.7444440521
 21
336.4180189127
 31
0.0
  0
LINE
  5
2ED
330
1F
100
AcDbEntity
  8
0
  6
Continuous
 62
     7
370
    30
100
AcDbLine
 10
329.4463668115
 20
334.4180185848
 30
0.0
 11
329.4463668115
 21
336.4180189127
 31
0.0
  0
LINE
  5
2EE
330
1F
100
AcDbEntity
  8
0
  6
Continuous
 62
     7
370
    30
100
AcDbLine
 10
329.7284178532
 20
334.4180185848
 30
0.0
 11
329.4463668115
 21
334.4180185848
 31
0.0
  0
SPLINE
  5
2EF
330
1F
100
AcDbEntity
  8
0
  6
Continuous
 62
     7
370
    30
100
AcDbSpline
210
0.0
220
0.0
230
1.0
 70
     8
 71
     3
 72
    11
 73
     7
 74
     0
 42
0.00000001
 43
0.00000001
 40
0.0
 40
0.0
 40
0.0
 40
0.0
 40
0.2808292273313837
 40
0.5599570615775499
 40
0.7790658727012689
 40
0.9999999999999999
 40
0.9999999999999999
 40
0.9999999999999999
 40
0.9999999999999999
 10
327.2412389613237
 20
335.428835129121
 30
0.0
 10
327.2311406032024
 20
335.2827873464897
 30
0.0
 10
327.2110050674747
 20
334.9915766061075
 30
0.0
 10
327.0071711537415
 20
334.6156200820074
 30
0.0
 10
326.6620471358643
 20
334.431996374577
 30
0.0
 10
326.4320394585912
 20
334.4226907148297
 30
0.0
 10
326.3165585793104
 20
334.4180185848267
 30
0.0
  0
SPLINE
  5
2F0
330
1F
100
AcDbEntity
  8
0
  6
Continuous
 62
     7
370
    30
100
AcDbSpline
210
0.0
220
0.0
230
1.0
 70
     8
 71
     3
 72
    10
 73
     6
 74
     0
 42
0.00000001
 43
0.00000001
 40
0.0
 40
0.0
 40
0.0
 40
0.0
 40
0.2797691095950351
 40
0.5599164985188383
 40
0.9999999999999999
 40
0.9999999999999999
 40
0.9999999999999999
 40
0.9999999999999999
 10
326.9283369279947
 20
336.2461433315069
 30
0.0
 10
326.9871282540028
 20
336.1852364011103
 30
0.0
 10
327.1047903985098
 20
336.063340187291
 30
0.0
 10
327.2192347179228
 20
335.7780333097355
 30
0.0
 10
327.2328932021475
 20
335.5612788522277
 30
0.0
 10
327.2412389613237
 20
335.428835129121
 30
0.0
  0
SPLINE
  5
2F1
330
1F
100
AcDbEntity
  8
0
  6
Continuous
 62
     7
370
    30
100
AcDbSpline
210
0.0
220
0.0
230
1.0
 70
     8
 71
     3
 72
     9
 73
     5
 74
     0
 42
0.00000001
 43
0.00000001
 40
0.0
 40
0.0
 40
0.0
 40
0.0
 40
0.5598645559624622
 40
0.9999999999999999
 40
0.9999999999999999
 40
0.9999999999999999
 40
0.9999999999999999
 10
326.6374737120714
 20
336.3891721272261
 30
0.0
 10
326.6966772612013
 20
336.3721245007861
 30
0.0
 10
326.8024234608838
 20
336.341674946053
 30
0.0
 10
326.8898551449189
 20
336.275339786439
 30
0.0
 10
326.9283369279947
 20
336.2461433315069
 30
0.0
  0
SPLINE
  5
2F2
330
1F
100
AcDbEntity
  8
0
  6
Continuous
 62
     7
370
    30
100
AcDbSpline
210
0.0
220
0.0
230
1.0
 70
     8
 71
     3
 72
     9
 73
     5
 74
     0
 42
0.00000001
 43
0.00000001
 40
0.0
 40
0.0
 40
0.0
 40
0.0
 40
0.5601592088221826
 40
1.0
 40
1.0
 40
1.0
 40
1.0
 10
326.2841075755205
 20
336.4180189126522
 30
0.0
 10
326.3505382806955
 20
336.4177404777512
 30
0.0
 10
326.4691308239026
 20
336.4172434138868
 30
0.0
 10
326.5860485339718
 20
336.3977473092947
 30
0.0
 10
326.6374737120714
 20
336.3891721272261
 30
0.0
  0
LINE
  5
2F3
330
1F
100
AcDbEntity
  8
0
  6
Continuous
 62
     7
370
    30
100
AcDbLine
 10
325.6002150572
 20
336.4180189127
 30
0.0
 11
326.2841075755
 21
336.4180189127
 31
0.0
  0
LINE
  5
2F4
330
1F
100
AcDbEntity
  8
0
  6
Continuous
 62
     7
370
    30
100
AcDbLine
 10
325.6002150572
 20
334.4180185848
 30
0.0
 11
325.6002150572
 21
336.4180189127
 31
0.0
  0
LINE
  5
2F5
330
1F
100
AcDbEntity
  8
0
  6
Continuous
 62
     7
370
    30
100
AcDbLine
 10
326.3165585793
 20
334.4180185848
 30
0.0
 11
325.6002150572
 21
334.4180185848
 31
0.0
  0
SPLINE
  5
2F6
330
1F
100
AcDbEntity
  8
0
  6
Continuous
 62
     7
370
    30
100
AcDbSpline
210
0.0
220
0.0
230
1.0
 70
     8
 71
     3
 72
    11
 73
     7
 74
     0
 42
0.00000001
 43
0.00000001
 40
0.0
 40
0.0
 40
0.0
 40
0.0
 40
0.1871434091757007
 40
0.3743182225740512
 40
0.5607849701748296
 40
1.0
 40
1.0
 40
1.0
 40
1.0
 10
323.0873912669267
 20
334.9909347051174
 30
0.0
 10
323.0810800172175
 20
334.9249760121317
 30
0.0
 10
323.0684564587189
 20
334.7930475577423
 30
0.0
 10
322.9712290373945
 20
334.6145887581989
 30
0.0
 10
322.738451788235
 20
334.432939182441
 30
0.0
 10
322.5108116033774
 20
334.4241725620774
 30
0.0
 10
322.3510131336297
 20
334.4180185848267
 30
0.0
  0
SPLINE
  5
2F7
330
1F
100
AcDbEntity
  8
0
  6
Continuous
 62
     7
370
    30
100
AcDbSpline
210
0.0
220
0.0
230
1.0
 70
     8
 71
     3
 72
    11
 73
     7
 74
     0
 42
0.00000001
 43
0.00000001
 40
0.0
 40
0.0
 40
0.0
 40
0.0
 40
0.2802007103977421
 40
0.5596455575817071
 40
0.7797214202898806
 40
0.9999999999999999
 40
0.9999999999999999
 40
0.9999999999999999
 40
0.9999999999999999
 10
322.7103881634321
 20
335.4693010949881
 30
0.0
 10
322.7685013489273
 20
335.4481698118693
 30
0.0
 10
322.8845709550791
 20
335.4059642489118
 30
0.0
 10
323.0080850063021
 20
335.2807434753503
 30
0.0
 10
323.0774430753722
 20
335.136071132252
 30
0.0
 10
323.0840741855322
 20
335.0393283593287
 30
0.0
 10
323.0873912669267
 20
334.9909347051174
 30
0.0
  0
SPLINE
  5
2F8
330
1F
100
AcDbEntity
  8
0
  6
Continuous
 62
     7
370
    30
100
AcDbSpline
210
0.0
220
0.0
230
1.0
 70
     8
 71
     3
 72
    10
 73
     6
 74
     0
 42
0.00000001
 43
0.00000001
 40
0.0
 40
0.0
 40
0.0
 40
0.0
 40
0.2803064924259727
 40
0.5607837075166424
 40
1.0
 40
1.0
 40
1.0
 40
1.0
 10
323.0104714728441
 20
335.8995888882667
 30
0.0
 10
323.0048061223371
 20
335.8479675183692
 30
0.0
 10
322.9934719708011
 20
335.7446933382112
 30
0.0
 10
322.897280694456
 20
335.5793312323949
 30
0.0
 10
322.7812187358934
 20
335.511001518102
 30
0.0
 10
322.7103881634321
 20
335.4693010949881
 30
0.0
  0
SPLINE
  5
2F9
330
1F
100
AcDbEntity
  8
0
  6
Continuous
 62
     7
370
    30
100
AcDbSpline
210
0.0
220
0.0
230
1.0
 70
     8
 71
     3
 72
    11
 73
     7
 74
     0
 42
0.00000001
 43
0.00000001
 40
0.0
 40
0.0
 40
0.0
 40
0.0
 40
0.2811888227250277
 40
0.5600175753908341
 40
0.7800669042521875
 40
1.0
 40
1.0
 40
1.0
 40
1.0
 10
322.3490126527395
 20
336.4180189126522
 30
0.0
 10
322.4378016515174
 20
336.4151241650144
 30
0.0
 10
322.6146344265016
 20
336.4093589658937
 30
0.0
 10
322.8459182878998
 20
336.2995719575474
 30
0.0
 10
322.9827779962404
 20
336.1074408819685
 30
0.0
 10
323.0012419398909
 20
335.9688606829466
 30
0.0
 10
323.0104714728441
 20
335.8995888882667
 30
0.0
  0
LINE
  5
2FA
330
1F
100
AcDbEntity
  8
0
  6
Continuous
 62
     7
370
    30
100
AcDbLine
 10
321.6002144016
 20
336.4180189127
 30
0.0
 11
322.3490126527
 21
336.4180189127
 31
0.0
  0
LINE
  5
2FB
330
1F
100
AcDbEntity
  8
0
  6
Continuous
 62
     7
370
    30
100
AcDbLine
 10
321.6002144016
 20
334.4180185848
 30
0.0
 11
321.6002144016
 21
336.4180189127
 31
0.0
  0
LINE
  5
2FC
330
1F
100
AcDbEntity
  8
0
  6
Continuous
 62
     7
370
    30
100
AcDbLine
 10
322.3510131336
 20
334.4180185848
 30
0.0
 11
321.6002144016
 21
334.4180185848
 31
0.0
  0
LINE
  5
2FD
330
1F
100
AcDbEntity
  8
0
  6
Continuous
 62
     7
370
    30
100
AcDbLine
 10
318.1194447077
 20
237.9180185997
 30
0.0
 11
398.6194439329
 21
237.9180185997
 31
0.0
  0
ARC
  5
2FE
330
1F
100
AcDbEntity
  8
0
  6
Continuous
 62
     7
370
    30
100
AcDbCircle
 10
318.1194443203
 20
246.4180185997
 30
0.0
 40
8.500000000000028
100
AcDbArc
 50
180.0
 51
270.0
  0
LINE
  5
2FF
330
1F
100
AcDbEntity
  8
0
  6
Continuous
 62
     7
370
    30
100
AcDbLine
 10
309.6194461084
 20
330.9180170798
 30
0.0
 11
309.6194461084
 21
246.4180209243
 31
0.0
  0
ARC
  5
300
330
1F
100
AcDbEntity
  8
0
  6
Continuous
 62
     7
370
    30
100
AcDbCircle
 10
318.1194443203
 20
330.9180185997
 30
0.0
 40
8.5
100
AcDbArc
 50
90.0
 51
180.0
  0
LINE
  5
301
330
1F
100
AcDbEntity
  8
0
  6
Continuous
 62
     7
370
    30
100
AcDbLine
 10
398.6194439329
 20
339.4180194044
 30
0.0
 11
318.1194447077
 21
339.4180194044
 31
0.0
  0
ARC
  5
302
330
1F
100
AcDbEntity
  8
0
  6
Continuous
 62
     7
370
    30
100
AcDbCircle
 10
398.6194443203
 20
330.9180185997
 30
0.0
 40
8.5
100
AcDbArc
 50
0.0
 51
90.0
  0
LINE
  5
303
330
1F
100
AcDbEntity
  8
0
  6
Continuous
 62
     7
370
    30
100
AcDbLine
 10
407.1194425322
 20
246.4180209243
 30
0.0
 11
407.1194425322
 21
330.9180170798
 31
0.0
  0
ARC
  5
304
330
1F
100
AcDbEntity
  8
0
  6
Continuous
 62
     7
370
    30
100
AcDbCircle
 10
398.6194443203
 20
246.4180185997
 30
0.0
 40
8.500000000000028
100
AcDbArc
 50
270.0
 51
0.0
  0
SPLINE
  5
305
330
1F
100
AcDbEntity
  8
0
  6
Continuous
 62
     7
370
    30
100
AcDbSpline
210
0.0
220
0.0
230
1.0
 70
     8
 71
     3
 72
    11
 73
     7
 74
     0
 42
0.00000001
 43
0.00000001
 40
0.0
 40
0.0
 40
0.0
 40
0.0
 40
0.2803570291497608
 40
0.5595103200408374
 40
0.7796390102971117
 40
1.0
 40
1.0
 40
1.0
 40
1.0
 10
325.2412386334981
 20
335.4148131364376
 30
0.0
 10
325.2286037361734
 20
335.2682337530399
 30
0.0
 10
325.2033881905982
 20
334.9757043380829
 30
0.0
 10
324.970477279456
 20
334.6202844579381
 30
0.0
 10
324.6370278076429
 20
334.4260594918223
 30
0.0
 10
324.4073980878649
 20
334.4036087183367
 30
0.0
 10
324.2925226784791
 20
334.3923774117023
 30
0.0
  0
SPLINE
  5
306
330
1F
100
AcDbEntity
  8
0
  6
Continuous
 62
     7
370
    30
100
AcDbSpline
210
0.0
220
0.0
230
1.0
 70
     8
 71
     3
 72
    11
 73
     7
 74
     0
 42
0.00000001
 43
0.00000001
 40
0.0
 40
0.0
 40
0.0
 40
0.0
 40
0.2796152604673228
 40
0.5585716219014445
 40
0.7790775005589072
 40
1.0
 40
1.0
 40
1.0
 40
1.0
 10
324.2937222219552
 20
336.4436600857765
 30
0.0
 10
324.4410203920705
 20
336.4265423692487
 30
0.0
 10
324.7352696317108
 20
336.3923472732148
 30
0.0
 10
325.0588801984349
 20
336.1091276529006
 30
0.0
 10
325.2180240146315
 20
335.7610215733686
 30
0.0
 10
325.2334955598532
 20
335.5302885374796
 30
0.0
 10
325.2412386334981
 20
335.4148131364376
 30
0.0
  0
SPLINE
  5
307
330
1F
100
AcDbEntity
  8
0
  6
Continuous
 62
     7
370
    30
100
AcDbSpline
210
0.0
220
0.0
230
1.0
 70
     8
 71
     3
 72
    11
 73
     7
 74
     0
 42
0.00000001
 43
0.00000001
 40
0.0
 40
0.0
 40
0.0
 40
0.0
 40
0.2805804678559795
 40
0.5596080284911102
 40
0.7795790536746442
 40
1.0
 40
1.0
 40
1.0
 40
1.0
 10
323.3438029981698
 20
335.3915766382009
 30
0.0
 10
323.3534608099639
 20
335.5417258864044
 30
0.0
 10
323.372722981201
 20
335.8411933632696
 30
0.0
 10
323.6069133010153
 20
336.2045233528967
 30
0.0
 10
323.9405661485445
 20
336.4149884777831
 30
0.0
 10
324.1759233808599
 20
336.4340963759942
 30
0.0
 10
324.2937222219552
 20
336.4436600857765
 30
0.0
  0
SPLINE
  5
308
330
1F
100
AcDbEntity
  8
0
  6
Continuous
 62
     7
370
    30
100
AcDbSpline
210
0.0
220
0.0
230
1.0
 70
     8
 71
     3
 72
    11
 73
     7
 74
     0
 42
0.00000001
 43
0.00000001
 40
0.0
 40
0.0
 40
0.0
 40
0.0
 40
0.279587222119268
 40
0.5587734515874917
 40
0.7793006307614698
 40
0.9999999999999999
 40
0.9999999999999999
 40
0.9999999999999999
 40
0.9999999999999999
 10
324.2925226784791
 20
334.3923774117023
 30
0.0
 10
324.148065896823
 20
334.4090598161193
 30
0.0
 10
323.8593595179
 20
334.4424006985324
 30
0.0
 10
323.5395746665874
 20
334.7156822560665
 30
0.0
 10
323.3733652739729
 20
335.0524018049019
 30
0.0
 10
323.3536596534979
 20
335.2784889500253
 30
0.0
 10
323.3438029981698
 20
335.3915766382009
 30
0.0
  0
LINE
  5
309
330
1F
100
AcDbEntity
  8
0
  6
Continuous
 62
     7
370
    30
100
AcDbLine
 10
329.0617529399
 20
334.6487872803
 30
0.0
 11
329.0617529399
 21
334.4180185848
 31
0.0
  0
LINE
  5
30A
330
1F
100
AcDbEntity
  8
0
  6
Continuous
 62
     7
370
    30
100
AcDbLine
 10
327.8822645641
 20
334.6487872803
 30
0.0
 11
329.0617529399
 21
334.6487872803
 31
0.0
  0
LINE
  5
30B
330
1F
100
AcDbEntity
  8
0
  6
Continuous
 62
     7
370
    30
100
AcDbLine
 10
327.8822645641
 20
335.3410952294
 30
0.0
 11
327.8822645641
 21
334.6487872803
 31
0.0
  0
LINE
  5
30C
330
1F
100
AcDbEntity
  8
0
  6
Continuous
 62
     7
370
    30
100
AcDbLine
 10
328.9335470743
 20
335.3410952294
 30
0.0
 11
327.8822645641
 21
335.3410952294
 31
0.0
  0
LINE
  5
30D
330
1F
100
AcDbEntity
  8
0
  6
Continuous
 62
     7
370
    30
100
AcDbLine
 10
328.9335470743
 20
335.5718639248
 30
0.0
 11
328.9335470743
 21
335.3410952294
 31
0.0
  0
LINE
  5
30E
330
1F
100
AcDbEntity
  8
0
  6
Continuous
 62
     7
370
    30
100
AcDbLine
 10
327.8822645641
 20
335.5718639248
 30
0.0
 11
328.9335470743
 21
335.5718639248
 31
0.0
  0
LINE
  5
30F
330
1F
100
AcDbEntity
  8
0
  6
Continuous
 62
     7
370
    30
100
AcDbLine
 10
327.8822645641
 20
336.1872502172
 30
0.0
 11
327.8822645641
 21
335.5718639248
 31
0.0
  0
LINE
  5
310
330
1F
100
AcDbEntity
  8
0
  6
Continuous
 62
     7
370
    30
100
AcDbLine
 10
329.0104705937
 20
336.1872502172
 30
0.0
 11
327.8822645641
 21
336.1872502172
 31
0.0
  0
LINE
  5
311
330
1F
100
AcDbEntity
  8
0
  6
Continuous
 62
     7
370
    30
100
AcDbLine
 10
329.0104705937
 20
336.4180189127
 30
0.0
 11
329.0104705937
 21
336.1872502172
 31
0.0
  0
LINE
  5
312
330
1F
100
AcDbEntity
  8
0
  6
Continuous
 62
     7
370
    30
100
AcDbLine
 10
327.6002135224
 20
336.4180189127
 30
0.0
 11
329.0104705937
 21
336.4180189127
 31
0.0
  0
LINE
  5
313
330
1F
100
AcDbEntity
  8
0
  6
Continuous
 62
     7
370
    30
100
AcDbLine
 10
327.6002135224
 20
334.4180185848
 30
0.0
 11
327.6002135224
 21
336.4180189127
 31
0.0
  0
LINE
  5
314
330
1F
100
AcDbEntity
  8
0
  6
Continuous
 62
     7
370
    30
100
AcDbLine
 10
329.0617529399
 20
334.4180185848
 30
0.0
 11
327.6002135224
 21
334.4180185848
 31
0.0
  0
SPLINE
  5
315
330
1F
100
AcDbEntity
  8
0
  6
Continuous
 62
     7
370
    30
100
AcDbSpline
210
0.0
220
0.0
230
1.0
 70
     8
 71
     3
 72
    10
 73
     6
 74
     0
 42
0.00000001
 43
0.00000001
 40
0.0
 40
0.0
 40
0.0
 40
0.0
 40
0.2799414046248668
 40
0.5600942907266891
 40
1.0
 40
1.0
 40
1.0
 40
1.0
 10
332.9079065568294
 20
334.9857267492802
 30
0.0
 10
332.8918886949833
 20
334.8883196505795
 30
0.0
 10
332.8598408706122
 20
334.6934318670748
 30
0.0
 10
332.5886460335773
 20
334.4391841909163
 30
0.0
 10
332.335933589388
 20
334.4101284488045
 30
0.0
 10
332.1815438664999
 20
334.3923774117023
 30
0.0
  0
SPLINE
  5
316
330
1F
100
AcDbEntity
  8
0
  6
Continuous
 62
     7
370
    30
100
AcDbSpline
210
0.0
220
0.0
230
1.0
 70
     8
 71
     3
 72
    11
 73
     7
 74
     0
 42
0.00000001
 43
0.00000001
 40
0.0
 40
0.0
 40
0.0
 40
0.0
 40
0.2802410586222942
 40
0.559643054861511
 40
0.77978809514592
 40
1.0
 40
1.0
 40
1.0
 40
1.0
 10
332.5609516448822
 20
335.4693010949881
 30
0.0
 10
332.6137471493252
 20
335.4423060483965
 30
0.0
 10
332.7191800845799
 20
335.3883967803723
 30
0.0
 10
332.8348794329759
 20
335.2664416423505
 30
0.0
 10
332.8983646861468
 20
335.1253822830345
 30
0.0
 10
332.9047256113172
 20
335.0322833059689
 30
0.0
 10
332.9079065568294
 20
334.9857267492802
 30
0.0
  0
SPLINE
  5
317
330
1F
100
AcDbEntity
  8
0
  6
Continuous
 62
     7
370
    30
100
AcDbSpline
210
0.0
220
0.0
230
1.0
 70
     8
 71
     3
 72
    10
 73
     6
 74
     0
 42
0.00000001
 43
0.00000001
 40
0.0
 40
0.0
 40
0.0
 40
0.0
 40
0.2787305926567709
 40
0.5593568707509021
 40
0.9999999999999999
 40
0.9999999999999999
 40
0.9999999999999999
 40
0.9999999999999999
 10
331.7744925714578
 20
335.737730612734
 30
0.0
 10
331.8432575068472
 20
335.7012557768377
 30
0.0
 10
331.9812550574935
 20
335.6280580346249
 30
0.0
 10
332.2556866801962
 20
335.5737700961409
 30
0.0
 10
332.4451831123523
 20
335.5089198667353
 30
0.0
 10
332.5609516448822
 20
335.4693010949881
 30
0.0
  0
SPLINE
  5
318
330
1F
100
AcDbEntity
  8
0
  6
Continuous
 62
     7
370
    30
100
AcDbSpline
210
0.0
220
0.0
230
1.0
 70
     8
 71
     3
 72
     9
 73
     5
 74
     0
 42
0.00000001
 43
0.00000001
 40
0.0
 40
0.0
 40
0.0
 40
0.0
 40
0.559617240318578
 40
1.0
 40
1.0
 40
1.0
 40
1.0
 10
331.7027770079221
 20
335.9144136810095
 30
0.0
 10
331.706219944955
 20
335.8771279093453
 30
0.0
 10
331.7123722518976
 20
335.8105006345262
 30
0.0
 10
331.7554998991446
 20
335.7599793260039
 30
0.0
 10
331.7744925714578
 20
335.737730612734
 30
0.0
  0
SPLINE
  5
319
330
1F
100
AcDbEntity
  8
0
  6
Continuous
 62
     7
370
    30
100
AcDbSpline
210
0.0
220
0.0
230
1.0
 70
     8
 71
     3
 72
    11
 73
     7
 74
     0
 42
0.00000001
 43
0.00000001
 40
0.0
 40
0.0
 40
0.0
 40
0.0
 40
0.4988032967407511
 40
0.7486148294706613
 40
0.8742758356294292
 40
1.0
 40
1.0
 40
1.0
 40
1.0
 10
332.1262549705352
 20
336.2128895276577
 30
0.0
 10
332.0262118095943
 20
336.2077331370574
 30
0.0
 10
331.8760648591693
 20
336.1999943139679
 30
0.0
 10
331.7485894557618
 20
336.0765801716788
 30
0.0
 10
331.7083029825831
 20
335.9873080695675
 30
0.0
 10
331.7046193079722
 20
335.9387158799757
 30
0.0
 10
331.7027770079221
 20
335.9144136810095
 30
0.0
  0
SPLINE
  5
31A
330
1F
100
AcDbEntity
  8
0
  6
Continuous
 62
     7
370
    30
100
AcDbSpline
210
0.0
220
0.0
230
1.0
 70
     8
 71
     3
 72
    10
 73
     6
 74
     0
 42
0.00000001
 43
0.00000001
 40
0.0
 40
0.0
 40
0.0
 40
0.0
 40
0.2811259105669392
 40
0.5602798789517129
 40
1.0
 40
1.0
 40
1.0
 40
1.0
 10
332.5745731688585
 20
335.8539168292076
 30
0.0
 10
332.563787349169
 20
335.9136901108641
 30
0.0
 10
332.5422913663269
 20
336.0328173977921
 30
0.0
 10
332.3813545357789
 20
336.1968497581641
 30
0.0
 10
332.2230726576025
 20
336.2068019697194
 30
0.0
 10
332.1262549705352
 20
336.2128895276577
 30
0.0
  0
LINE
  5
31B
330
1F
100
AcDbEntity
  8
0
  6
Continuous
 62
     7
370
    30
100
AcDbLine
 10
332.8566242106
 20
335.8539168292
 30
0.0
 11
332.5745731689
 21
335.8539168292
 31
0.0
  0
SPLINE
  5
31C
330
1F
100
AcDbEntity
  8
0
  6
Continuous
 62
     7
370
    30
100
AcDbSpline
210
0.0
220
0.0
230
1.0
 70
     8
 71
     3
 72
    11
 73
     7
 74
     0
 42
0.00000001
 43
0.00000001
 40
0.0
 40
0.0
 40
0.0
 40
0.0
 40
0.2808396546014278
 40
0.560182677322386
 40
0.7798619719042981
 40
1.0
 40
1.0
 40
1.0
 40
1.0
 10
332.1150381214466
 20
336.4436600857765
 30
0.0
 10
332.2142098676533
 20
336.4375973527136
 30
0.0
 10
332.4120248606382
 20
336.4255041956987
 30
0.0
 10
332.6678913418045
 20
336.2993861996309
 30
0.0
 10
332.8241385794937
 20
336.0867258157318
 30
0.0
 10
332.8457881399881
 20
335.9315737663873
 30
0.0
 10
332.8566242105808
 20
335.8539168292076
 30
0.0
  0
SPLINE
  5
31D
330
1F
100
AcDbEntity
  8
0
  6
Continuous
 62
     7
370
    30
100
AcDbSpline
210
0.0
220
0.0
230
1.0
 70
     8
 71
     3
 72
    10
 73
     6
 74
     0
 42
0.00000001
 43
0.00000001
 40
0.0
 40
0.0
 40
0.0
 40
0.0
 40
0.2797773057692879
 40
0.5593807854834123
 40
1.0
 40
1.0
 40
1.0
 40
1.0
 10
331.4207259661998
 20
335.8959828072578
 30
0.0
 10
331.4354982133644
 20
335.9884837616112
 30
0.0
 10
331.4650335296745
 20
336.1734281993377
 30
0.0
 10
331.7291151171191
 20
336.4076900662993
 30
0.0
 10
331.9685538415896
 20
336.4300069934745
 30
0.0
 10
332.1150381214466
 20
336.4436600857765
 30
0.0
  0
SPLINE
  5
31E
330
1F
100
AcDbEntity
  8
0
  6
Continuous
 62
     7
370
    30
100
AcDbSpline
210
0.0
220
0.0
230
1.0
 70
     8
 71
     3
 72
    10
 73
     6
 74
     0
 42
0.00000001
 43
0.00000001
 40
0.0
 40
0.0
 40
0.0
 40
0.0
 40
0.281450584101833
 40
0.5623556425613875
 40
1.0
 40
1.0
 40
1.0
 40
1.0
 10
331.7159980631914
 20
335.4636908077986
 30
0.0
 10
331.6710420973677
 20
335.489130614557
 30
0.0
 10
331.5812173022676
 20
335.5399609190024
 30
0.0
 10
331.4534701154633
 20
335.6810643835984
 30
0.0
 10
331.4331203351151
 20
335.8146315341467
 30
0.0
 10
331.4207259661998
 20
335.8959828072578
 30
0.0
  0
SPLINE
  5
31F
330
1F
100
AcDbEntity
  8
0
  6
Continuous
 62
     7
370
    30
100
AcDbSpline
210
0.0
220
0.0
230
1.0
 70
     8
 71
     3
 72
    11
 73
     7
 74
     0
 42
0.00000001
 43
0.00000001
 40
0.0
 40
0.0
 40
0.0
 40
0.0
 40
0.3399495794711846
 40
0.5600315344734819
 40
0.7800860225391064
 40
1.0
 40
1.0
 40
1.0
 40
1.0
 10
332.4127130306806
 20
335.2421366178781
 30
0.0
 10
332.33377788104
 20
335.2676627024738
 30
0.0
 10
332.2037404412354
 20
335.3097142689074
 30
0.0
 10
332.0193043942033
 20
335.3563919253453
 30
0.0
 10
331.8640431774948
 20
335.4000739065705
 30
0.0
 10
331.7653359267398
 20
335.4424896894305
 30
0.0
 10
331.7159980631914
 20
335.4636908077986
 30
0.0
  0
SPLINE
  5
320
330
1F
100
AcDbEntity
  8
0
  6
Continuous
 62
     7
370
    30
100
AcDbSpline
210
0.0
220
0.0
230
1.0
 70
     8
 71
     3
 72
    10
 73
     6
 74
     0
 42
0.00000001
 43
0.00000001
 40
0.0
 40
0.0
 40
0.0
 40
0.0
 40
0.280158476475701
 40
0.5598324847907376
 40
1.0
 40
1.0
 40
1.0
 40
1.0
 10
332.625853652462
 20
334.9721052253038
 30
0.0
 10
332.6225033557297
 20
335.0065708589208
 30
0.0
 10
332.6158085558152
 20
335.0754425259515
 30
0.0
 10
332.5433212592046
 20
335.1811959955058
 30
0.0
 10
332.4622725578012
 20
335.2190125891601
 30
0.0
 10
332.4127130306806
 20
335.2421366178781
 30
0.0
  0
SPLINE
  5
321
330
1F
100
AcDbEntity
  8
0
  6
Continuous
 62
     7
370
    30
100
AcDbSpline
210
0.0
220
0.0
230
1.0
 70
     8
 71
     3
 72
    11
 73
     7
 74
     0
 42
0.00000001
 43
0.00000001
 40
0.0
 40
0.0
 40
0.0
 40
0.0
 40
0.2807864056945195
 40
0.5607440702842079
 40
0.7804611967589827
 40
1.0
 40
1.0
 40
1.0
 40
1.0
 10
332.1691237486448
 20
334.623146107176
 30
0.0
 10
332.2290379204965
 20
334.6270967751794
 30
0.0
 10
332.3486894275156
 20
334.634986450789
 30
0.0
 10
332.5035765607228
 20
334.7079107394429
 30
0.0
 10
332.6055670741109
 20
334.8311511293014
 30
0.0
 10
332.6190932900756
 20
334.9251332445028
 30
0.0
 10
332.625853652462
 20
334.9721052253038
 30
0.0
  0
SPLINE
  5
322
330
1F
100
AcDbEntity
  8
0
  6
Continuous
 62
     7
370
    30
100
AcDbSpline
210
0.0
220
0.0
230
1.0
 70
     8
 71
     3
 72
    11
 73
     7
 74
     0
 42
0.00000001
 43
0.00000001
 40
0.0
 40
0.0
 40
0.0
 40
0.0
 40
0.2805533488379853
 40
0.5586200046542574
 40
0.7791970834812436
 40
1.0
 40
1.0
 40
1.0
 40
1.0
 10
331.6258553511943
 20
335.1103265338928
 30
0.0
 10
331.6372998783064
 20
335.0340815818685
 30
0.0
 10
331.6600874936212
 20
334.8822674772388
 30
0.0
 10
331.8080876216681
 20
334.7158315773878
 30
0.0
 10
331.9895951071201
 20
334.6355689474682
 30
0.0
 10
332.1092604587032
 20
334.6272884662113
 30
0.0
 10
332.1691237486448
 20
334.623146107176
 30
0.0
  0
LINE
  5
323
330
1F
100
AcDbEntity
  8
0
  6
Continuous
 62
     7
370
    30
100
AcDbLine
 10
331.3438024468
 20
335.1103265339
 30
0.0
 11
331.6258553512
 21
335.1103265339
 31
0.0
  0
SPLINE
  5
324
330
1F
100
AcDbEntity
  8
0
  6
Continuous
 62
     7
370
    30
100
AcDbSpline
210
0.0
220
0.0
230
1.0
 70
     8
 71
     3
 72
    11
 73
     7
 74
     0
 42
0.00000001
 43
0.00000001
 40
0.0
 40
0.0
 40
0.0
 40
0.0
 40
0.2808097586912766
 40
0.5596260034159786
 40
0.7796539637156094
 40
1.0
 40
1.0
 40
1.0
 40
1.0
 10
332.1815438664999
 20
334.3923774117023
 30
0.0
 10
332.0649059949093
 20
334.398254039136
 30
0.0
 10
331.8324582828733
 20
334.4099655748732
 30
0.0
 10
331.5399653905231
 20
334.5775382397775
 30
0.0
 10
331.3751440863227
 20
334.8371419900392
 30
0.0
 10
331.3542546893653
 20
335.019221181523
 30
0.0
 10
331.3438024468269
 20
335.1103265338928
 30
0.0
  0
LINE
  5
325
330
1F
100
AcDbEntity
  8
0
  6
Continuous
 62
     7
370
    30
100
AcDbLine
 10
335.574571798
 20
335.3667364025
 30
0.0
 11
335.574571798
 21
334.4180185848
 31
0.0
  0
LINE
  5
326
330
1F
100
AcDbEntity
  8
0
  6
Continuous
 62
     7
370
    30
100
AcDbLine
 10
336.5489307887
 20
335.3667364025
 30
0.0
 11
335.574571798
 21
335.3667364025
 31
0.0
  0
LINE
  5
327
330
1F
100
AcDbEntity
  8
0
  6
Continuous
 62
     7
370
    30
100
AcDbLine
 10
336.5489307887
 20
334.4180185848
 30
0.0
 11
336.5489307887
 21
335.3667364025
 31
0.0
  0
LINE
  5
328
330
1F
100
AcDbEntity
  8
0
  6
Continuous
 62
     7
370
    30
100
AcDbLine
 10
336.8309836931
 20
334.4180185848
 30
0.0
 11
336.5489307887
 21
334.4180185848
 31
0.0
  0
LINE
  5
329
330
1F
100
AcDbEntity
  8
0
  6
Continuous
 62
     7
370
    30
100
AcDbLine
 10
336.8309836931
 20
336.4180189127
 30
0.0
 11
336.8309836931
 21
334.4180185848
 31
0.0
  0
LINE
  5
32A
330
1F
100
AcDbEntity
  8
0
  6
Continuous
 62
     7
370
    30
100
AcDbLine
 10
336.5489307887
 20
336.4180189127
 30
0.0
 11
336.8309836931
 21
336.4180189127
 31
0.0
  0
LINE
  5
32B
330
1F
100
AcDbEntity
  8
0
  6
Continuous
 62
     7
370
    30
100
AcDbLine
 10
336.5489307887
 20
335.597505098
 30
0.0
 11
336.5489307887
 21
336.4180189127
 31
0.0
  0
LINE
  5
32C
330
1F
100
AcDbEntity
  8
0
  6
Continuous
 62
     7
370
    30
100
AcDbLine
 10
335.574571798
 20
335.597505098
 30
0.0
 11
336.5489307887
 21
335.597505098
 31
0.0
  0
LINE
  5
32D
330
1F
100
AcDbEntity
  8
0
  6
Continuous
 62
     7
370
    30
100
AcDbLine
 10
335.574571798
 20
336.4180189127
 30
0.0
 11
335.574571798
 21
335.597505098
 31
0.0
  0
LINE
  5
32E
330
1F
100
AcDbEntity
  8
0
  6
Continuous
 62
     7
370
    30
100
AcDbLine
 10
335.2925207562
 20
336.4180189127
 30
0.0
 11
335.574571798
 21
336.4180189127
 31
0.0
  0
LINE
  5
32F
330
1F
100
AcDbEntity
  8
0
  6
Continuous
 62
     7
370
    30
100
AcDbLine
 10
335.2925207562
 20
334.4180185848
 30
0.0
 11
335.2925207562
 21
336.4180189127
 31
0.0
  0
LINE
  5
330
330
1F
100
AcDbEntity
  8
0
  6
Continuous
 62
     7
370
    30
100
AcDbLine
 10
335.574571798
 20
334.4180185848
 30
0.0
 11
335.2925207562
 21
334.4180185848
 31
0.0
  0
LINE
  5
331
330
1F
100
AcDbEntity
  8
0
  6
Continuous
 62
     7
370
    30
100
AcDbLine
 10
339.9079058416
 20
336.1872502172
 30
0.0
 11
339.9079058416
 21
334.4180185848
 31
0.0
  0
LINE
  5
332
330
1F
100
AcDbEntity
  8
0
  6
Continuous
 62
     7
370
    30
100
AcDbLine
 10
340.5489314444
 20
336.1872502172
 30
0.0
 11
339.9079058416
 21
336.1872502172
 31
0.0
  0
LINE
  5
333
330
1F
100
AcDbEntity
  8
0
  6
Continuous
 62
     7
370
    30
100
AcDbLine
 10
340.5489314444
 20
336.4180189127
 30
0.0
 11
340.5489314444
 21
336.1872502172
 31
0.0
  0
LINE
  5
334
330
1F
100
AcDbEntity
  8
0
  6
Continuous
 62
     7
370
    30
100
AcDbLine
 10
338.984829197
 20
336.4180189127
 30
0.0
 11
340.5489314444
 21
336.4180189127
 31
0.0
  0
LINE
  5
335
330
1F
100
AcDbEntity
  8
0
  6
Continuous
 62
     7
370
    30
100
AcDbLine
 10
338.984829197
 20
336.1872502172
 30
0.0
 11
338.984829197
 21
336.4180189127
 31
0.0
  0
LINE
  5
336
330
1F
100
AcDbEntity
  8
0
  6
Continuous
 62
     7
370
    30
100
AcDbLine
 10
339.6258547999
 20
336.1872502172
 30
0.0
 11
338.984829197
 21
336.1872502172
 31
0.0
  0
LINE
  5
337
330
1F
100
AcDbEntity
  8
0
  6
Continuous
 62
     7
370
    30
100
AcDbLine
 10
339.6258547999
 20
334.4180185848
 30
0.0
 11
339.6258547999
 21
336.1872502172
 31
0.0
  0
LINE
  5
338
330
1F
100
AcDbEntity
  8
0
  6
Continuous
 62
     7
370
    30
100
AcDbLine
 10
339.9079058416
 20
334.4180185848
 30
0.0
 11
339.6258547999
 21
334.4180185848
 31
0.0
  0
SPLINE
  5
339
330
1F
100
AcDbEntity
  8
0
  6
Continuous
 62
     7
370
    30
100
AcDbSpline
210
0.0
220
0.0
230
1.0
 70
     8
 71
     3
 72
    11
 73
     7
 74
     0
 42
0.00000001
 43
0.00000001
 40
0.0
 40
0.0
 40
0.0
 40
0.0
 40
0.2807844502654634
 40
0.5600942877331024
 40
0.7799485896950721
 40
1.0
 40
1.0
 40
1.0
 40
1.0
 10
324.959189454421
 20
335.4168173426182
 30
0.0
 10
324.9523240524355
 20
335.5259481616911
 30
0.0
 10
324.9386293039142
 20
335.7436366708682
 30
0.0
 10
324.789058295852
 20
336.0192545023225
 30
0.0
 10
324.5524562553937
 20
336.1862647793113
 30
0.0
 10
324.3810604154044
 20
336.2040119608852
 30
0.0
 10
324.2953240967836
 20
336.2128895276577
 30
0.0
  0
SPLINE
  5
33A
330
1F
100
AcDbEntity
  8
0
  6
Continuous
 62
     7
370
    30
100
AcDbSpline
210
0.0
220
0.0
230
1.0
 70
     8
 71
     3
 72
    11
 73
     7
 74
     0
 42
0.00000001
 43
0.00000001
 40
0.0
 40
0.0
 40
0.0
 40
0.0
 40
0.2790921950240059
 40
0.558168972488286
 40
0.7788102485034535
 40
1.0
 40
1.0
 40
1.0
 40
1.0
 10
324.2913194097127
 20
334.623146107176
 30
0.0
 10
324.4010074576332
 20
334.6371536024461
 30
0.0
 10
324.6203774941071
 20
334.6651678191868
 30
0.0
 10
324.847657828452
 20
334.8939820090705
 30
0.0
 10
324.947232127361
 20
335.1592264704766
 30
0.0
 10
324.9552003815522
 20
335.3308826889834
 30
0.0
 10
324.959189454421
 20
335.4168173426182
 30
0.0
  0
SPLINE
  5
33B
330
1F
100
AcDbEntity
  8
0
  6
Continuous
 62
     7
370
    30
100
AcDbSpline
210
0.0
220
0.0
230
1.0
 70
     8
 71
     3
 72
    11
 73
     7
 74
     0
 42
0.00000001
 43
0.00000001
 40
0.0
 40
0.0
 40
0.0
 40
0.0
 40
0.2806411854599442
 40
0.559885121756884
 40
0.7798537177985516
 40
1.0
 40
1.0
 40
1.0
 40
1.0
 10
323.6258559025373
 20
335.3883710258991
 30
0.0
 10
323.6326155369693
 20
335.2813245973643
 30
0.0
 10
323.6461011511382
 20
335.0677647003179
 30
0.0
 10
323.8078492947153
 20
334.8071483435405
 30
0.0
 10
324.0394918461161
 20
334.6469493522732
 30
0.0
 10
324.2073542983251
 20
334.6310826574783
 30
0.0
 10
324.2913194097127
 20
334.623146107176
 30
0.0
  0
SPLINE
  5
33C
330
1F
100
AcDbEntity
  8
0
  6
Continuous
 62
     7
370
    30
100
AcDbSpline
210
0.0
220
0.0
230
1.0
 70
     8
 71
     3
 72
    10
 73
     6
 74
     0
 42
0.00000001
 43
0.00000001
 40
0.0
 40
0.0
 40
0.0
 40
0.0
 40
0.2801548509667273
 40
0.5596718949332057
 40
1.0
 40
1.0
 40
1.0
 40
1.0
 10
324.2953240967836
 20
336.2128895276577
 30
0.0
 10
324.1829827579506
 20
336.1978353641146
 30
0.0
 10
323.9585558391698
 20
336.1677613096847
 30
0.0
 10
323.6506713802034
 20
335.8653241786079
 30
0.0
 10
323.635274282265
 20
335.5693921597649
 30
0.0
 10
323.6258559025373
 20
335.3883710258991
 30
0.0
  0
SPLINE
  5
33D
330
1F
100
AcDbEntity
  8
0
  6
Continuous
 62
     7
370
    30
100
AcDbSpline
210
0.0
220
0.0
230
1.0
 70
     8
 71
     3
 72
     9
 73
     5
 74
     0
 42
0.00000001
 43
0.00000001
 40
0.0
 40
0.0
 40
0.0
 40
0.0
 40
0.5599057468962076
 40
1.0
 40
1.0
 40
1.0
 40
1.0
 10
337.9720084465589
 20
336.1872502171785
 30
0.0
 10
337.9530020572328
 20
336.1158495172776
 30
0.0
 10
337.9190563629238
 20
335.9883268042197
 30
0.0
 10
337.860957839202
 20
335.8699533560314
 30
0.0
 10
337.8353890127983
 20
335.8178578817636
 30
0.0
  0
LINE
  5
33E
330
1F
100
AcDbEntity
  8
0
  6
Continuous
 62
     7
370
    30
100
AcDbLine
 10
338.313354934
 20
335.26417171
 30
0.0
 11
338.119043792
 21
335.7898138964
 31
0.0
  0
LINE
  5
33F
330
1F
100
AcDbEntity
  8
0
  6
Continuous
 62
     7
370
    30
100
AcDbLine
 10
337.6306619592
 20
335.26417171
 30
0.0
 11
338.313354934
 21
335.26417171
 31
0.0
  0
LINE
  5
340
330
1F
100
AcDbEntity
  8
0
  6
Continuous
 62
     7
370
    30
100
AcDbLine
 10
337.8353890128
 20
335.8178578818
 30
0.0
 11
337.6306619592
 21
335.26417171
 31
0.0
  0
SPLINE
  5
341
330
1F
100
AcDbEntity
  8
0
  6
Continuous
 62
     7
370
    30
100
AcDbSpline
210
0.0
220
0.0
230
1.0
 70
     8
 71
     3
 72
     9
 73
     5
 74
     0
 42
0.00000001
 43
0.00000001
 40
0.0
 40
0.0
 40
0.0
 40
0.0
 40
0.5600018010467851
 40
1.0
 40
1.0
 40
1.0
 40
1.0
 10
338.119043791994
 20
335.7898138963968
 30
0.0
 10
338.0915127605292
 20
335.86397105292
 30
0.0
 10
338.0423503624558
 20
335.9963941208181
 30
0.0
 10
337.9935017486533
 20
336.1289332423942
 30
0.0
 10
337.9720084465589
 20
336.1872502171785
 30
0.0
  0
LINE
  5
342
330
1F
100
AcDbEntity
  8
0
  6
Continuous
 62
     7
370
    30
100
AcDbLine
 10
326.2877136565
 20
336.1872502172
 30
0.0
 11
325.8822642363
 21
336.1872502172
 31
0.0
  0
SPLINE
  5
343
330
1F
100
AcDbEntity
  8
0
  6
Continuous
 62
     7
370
    30
100
AcDbSpline
210
0.0
220
0.0
230
1.0
 70
     8
 71
     3
 72
     9
 73
     5
 74
     0
 42
0.00000001
 43
0.00000001
 40
0.0
 40
0.0
 40
0.0
 40
0.0
 40
0.5592606480444801
 40
1.0
 40
1.0
 40
1.0
 40
1.0
 10
326.6182437635507
 20
336.1459833138973
 30
0.0
 10
326.5574502103477
 20
336.1608302461065
 30
0.0
 10
326.4487467758836
 20
336.187377674861
 30
0.0
 10
326.3369756084371
 20
336.1872892080039
 30
0.0
 10
326.2877136565294
 20
336.1872502171785
 30
0.0
  0
SPLINE
  5
344
330
1F
100
AcDbEntity
  8
0
  6
Continuous
 62
     7
370
    30
100
AcDbSpline
210
0.0
220
0.0
230
1.0
 70
     8
 71
     3
 72
     9
 73
     5
 74
     0
 42
0.00000001
 43
0.00000001
 40
0.0
 40
0.0
 40
0.0
 40
0.0
 40
0.5574377946955166
 40
0.9999999999999999
 40
0.9999999999999999
 40
0.9999999999999999
 40
0.9999999999999999
 10
326.766879121169
 20
334.7902142011911
 30
0.0
 10
326.8337665488804
 20
334.9010761366971
 30
0.0
 10
326.9537573861502
 20
335.0999538169709
 30
0.0
 10
326.9575206005101
 20
335.3309929564601
 30
0.0
 10
326.9591860569562
 20
335.4332421475441
 30
0.0
  0
SPLINE
  5
345
330
1F
100
AcDbEntity
  8
0
  6
Continuous
 62
     7
370
    30
100
AcDbSpline
210
0.0
220
0.0
230
1.0
 70
     8
 71
     3
 72
     9
 73
     5
 74
     0
 42
0.00000001
 43
0.00000001
 40
0.0
 40
0.0
 40
0.0
 40
0.0
 40
0.5617889501671394
 40
1.0
 40
1.0
 40
1.0
 40
1.0
 10
326.294523487195
 20
334.6487872803003
 30
0.0
 10
326.391575112738
 20
334.649031863692
 30
0.0
 10
326.564329713045
 20
334.6494672289507
 30
0.0
 10
326.7051639863928
 20
334.7473297591105
 30
0.0
 10
326.766879121169
 20
334.7902142011911
 30
0.0
  0
LINE
  5
346
330
1F
100
AcDbEntity
  8
0
  6
Continuous
 62
     7
370
    30
100
AcDbLine
 10
325.8822642363
 20
334.6487872803
 30
0.0
 11
326.2945234872
 21
334.6487872803
 31
0.0
  0
LINE
  5
347
330
1F
100
AcDbEntity
  8
0
  6
Continuous
 62
     7
370
    30
100
AcDbLine
 10
325.8822642363
 20
336.1872502172
 30
0.0
 11
325.8822642363
 21
334.6487872803
 31
0.0
  0
SPLINE
  5
348
330
1F
100
AcDbEntity
  8
0
  6
Continuous
 62
     7
370
    30
100
AcDbSpline
210
0.0
220
0.0
230
1.0
 70
     8
 71
     3
 72
    10
 73
     6
 74
     0
 42
0.00000001
 43
0.00000001
 40
0.0
 40
0.0
 40
0.0
 40
0.0
 40
0.5591889465174779
 40
0.7800637579723774
 40
0.9999999999999999
 40
0.9999999999999999
 40
0.9999999999999999
 40
0.9999999999999999
 10
326.9591860569562
 20
335.4332421475441
 30
0.0
 10
326.9503109924507
 20
335.591937781829
 30
0.0
 10
326.9379303540037
 20
335.8133168230725
 30
0.0
 10
326.7778645193493
 20
336.0519461730746
 30
0.0
 10
326.6713751035025
 20
336.1146821258272
 30
0.0
 10
326.6182437635507
 20
336.1459833138973
 30
0.0
  0
LINE
  5
349
330
1F
100
AcDbEntity
  8
0
  6
Continuous
 62
     7
370
    30
100
AcDbLine
 10
322.2632750965
 20
336.1872502172
 30
0.0
 11
321.8822635807
 21
336.1872502172
 31
0.0
  0
SPLINE
  5
34A
330
1F
100
AcDbEntity
  8
0
  6
Continuous
 62
     7
370
    30
100
AcDbSpline
210
0.0
220
0.0
230
1.0
 70
     8
 71
     3
 72
    10
 73
     6
 74
     0
 42
0.00000001
 43
0.00000001
 40
0.0
 40
0.0
 40
0.0
 40
0.0
 40
0.2808957412126562
 40
0.561012590781529
 40
1.0
 40
1.0
 40
1.0
 40
1.0
 10
322.534908363923
 20
335.595502754429
 30
0.0
 10
322.5668255243315
 20
335.6084007865086
 30
0.0
 10
322.6305713425269
 20
335.6341610859056
 30
0.0
 10
322.71437022641
 20
335.7310574696986
 30
0.0
 10
322.7230933896
 20
335.8202809261815
 30
0.0
 10
322.7284185684766
 20
335.8747486525566
 30
0.0
  0
LINE
  5
34B
330
1F
100
AcDbEntity
  8
0
  6
Continuous
 62
     7
370
    30
100
AcDbLine
 10
321.8822635807
 20
335.5718639248
 30
0.0
 11
322.2945228315
 21
335.5718639248
 31
0.0
  0
LINE
  5
34C
330
1F
100
AcDbEntity
  8
0
  6
Continuous
 62
     7
370
    30
100
AcDbLine
 10
321.8822635807
 20
336.1872502172
 30
0.0
 11
321.8822635807
 21
335.5718639248
 31
0.0
  0
SPLINE
  5
34D
330
1F
100
AcDbEntity
  8
0
  6
Continuous
 62
     7
370
    30
100
AcDbSpline
210
0.0
220
0.0
230
1.0
 70
     8
 71
     3
 72
    11
 73
     7
 74
     0
 42
0.00000001
 43
0.00000001
 40
0.0
 40
0.0
 40
0.0
 40
0.0
 40
0.249601399747163
 40
0.3750289938868783
 40
0.5002763532909303
 40
0.9999999999999999
 40
0.9999999999999999
 40
0.9999999999999999
 40
0.9999999999999999
 10
322.7284185684766
 20
335.8747486525566
 30
0.0
 10
322.7226395723328
 20
335.929170918795
 30
0.0
 10
322.7139565636971
 20
336.0109410041113
 30
0.0
 10
322.6523257384667
 20
336.102567893683
 30
0.0
 10
322.5165402132224
 20
336.1967042893704
 30
0.0
 10
322.3758056997245
 20
336.1914508448068
 30
0.0
 10
322.2632750965204
 20
336.1872502171785
 30
0.0
  0
SPLINE
  5
34E
330
1F
100
AcDbEntity
  8
0
  6
Continuous
 62
     7
370
    30
100
AcDbSpline
210
0.0
220
0.0
230
1.0
 70
     8
 71
     3
 72
     9
 73
     5
 74
     0
 42
0.00000001
 43
0.00000001
 40
0.0
 40
0.0
 40
0.0
 40
0.0
 40
0.5603964504117962
 40
1.0
 40
1.0
 40
1.0
 40
1.0
 10
322.2945228315439
 20
335.5718639248402
 30
0.0
 10
322.3398957120912
 20
335.5718807045955
 30
0.0
 10
322.4208613936439
 20
335.5719106472466
 30
0.0
 10
322.5000824891405
 20
335.588298566816
 30
0.0
 10
322.534908363923
 20
335.595502754429
 30
0.0
  0
LINE
  5
34F
330
1F
100
AcDbEntity
  8
0
  6
Continuous
 62
     7
370
    30
100
AcDbLine
 10
322.3229691483
 20
335.3410952294
 30
0.0
 11
321.8822635807
 21
335.3410952294
 31
0.0
  0
SPLINE
  5
350
330
1F
100
AcDbEntity
  8
0
  6
Continuous
 62
     7
370
    30
100
AcDbSpline
210
0.0
220
0.0
230
1.0
 70
     8
 71
     3
 72
    11
 73
     7
 74
     0
 42
0.00000001
 43
0.00000001
 40
0.0
 40
0.0
 40
0.0
 40
0.0
 40
0.2498565837651073
 40
0.3755144323179554
 40
0.501162516013336
 40
0.9999999999999999
 40
0.9999999999999999
 40
0.9999999999999999
 40
0.9999999999999999
 10
322.8053420878496
 20
334.9949412548334
 30
0.0
 10
322.7991866465312
 20
335.0520941812777
 30
0.0
 10
322.78993551127
 20
335.1379904518724
 30
0.0
 10
322.7247963890739
 20
335.2332321466994
 30
0.0
 10
322.5890311304087
 20
335.3395992551329
 30
0.0
 10
322.4411201018652
 20
335.3404309075388
 30
0.0
 10
322.3229691482629
 20
335.3410952293665
 30
0.0
  0
SPLINE
  5
351
330
1F
100
AcDbEntity
  8
0
  6
Continuous
 62
     7
370
    30
100
AcDbSpline
210
0.0
220
0.0
230
1.0
 70
     8
 71
     3
 72
     9
 73
     5
 74
     0
 42
0.00000001
 43
0.00000001
 40
0.0
 40
0.0
 40
0.0
 40
0.0
 40
0.5601258988100585
 40
1.0
 40
1.0
 40
1.0
 40
1.0
 10
322.3554201520528
 20
334.6487872803003
 30
0.0
 10
322.3874740812619
 20
334.6487405450537
 30
0.0
 10
322.4447003749883
 20
334.6486571080143
 30
0.0
 10
322.5015083163029
 20
334.6554264562396
 30
0.0
 10
322.5264966584291
 20
334.6584041172058
 30
0.0
  0
LINE
  5
352
330
1F
100
AcDbEntity
  8
0
  6
Continuous
 62
     7
370
    30
100
AcDbLine
 10
321.8822635807
 20
334.6487872803
 30
0.0
 11
322.3554201521
 21
334.6487872803
 31
0.0
  0
LINE
  5
353
330
1F
100
AcDbEntity
  8
0
  6
Continuous
 62
     7
370
    30
100
AcDbLine
 10
321.8822635807
 20
335.3410952294
 30
0.0
 11
321.8822635807
 21
334.6487872803
 31
0.0
  0
SPLINE
  5
354
330
1F
100
AcDbEntity
  8
0
  6
Continuous
 62
     7
370
    30
100
AcDbSpline
210
0.0
220
0.0
230
1.0
 70
     8
 71
     3
 72
    11
 73
     7
 74
     0
 42
0.00000001
 43
0.00000001
 40
0.0
 40
0.0
 40
0.0
 40
0.0
 40
0.2803231724338152
 40
0.5590778797910945
 40
0.7793949445660191
 40
1.0
 40
1.0
 40
1.0
 40
1.0
 10
322.5264966584291
 20
334.6584041172058
 30
0.0
 10
322.570581791657
 20
334.6691633928765
 30
0.0
 10
322.6585053928398
 20
334.6906217438855
 30
0.0
 10
322.7510821542906
 20
334.7821564694788
 30
0.0
 10
322.7984078045902
 20
334.8890056389017
 30
0.0
 10
322.8030296538345
 20
334.9596140101102
 30
0.0
 10
322.8053420878496
 20
334.9949412548334
 30
0.0
  0
LINE
  5
355
330
1F
100
AcDbEntity
  8
0
  6
Continuous
 62
     7
370
    30
100
AcDbLine
 10
361.3694443464
 20
341.4180178696
 30
0.0
 11
401.119445274
 21
341.4180178696
 31
0.0
  0
LINE
  5
356
330
1F
100
AcDbEntity
  8
0
  6
Continuous
 62
     7
370
    30
100
AcDbLine
 10
359.8694443333
 20
341.4180178696
 30
0.0
 11
361.3694443464
 21
341.4180178696
 31
0.0
  0
ARC
  5
357
330
1F
100
AcDbEntity
  8
0
  6
Continuous
 62
     7
370
    30
100
AcDbCircle
 10
359.8694443203
 20
340.9180185997
 30
0.0
 40
0.5
100
AcDbArc
 50
90.0
 51
180.0
  0
LINE
  5
358
330
1F
100
AcDbEntity
  8
0
  6
Continuous
 62
     7
370
    30
100
AcDbLine
 10
359.3694443678
 20
339.4180194044
 30
0.0
 11
359.3694443678
 21
340.9180187189
 31
0.0
  0
ARC
  5
359
330
1F
100
AcDbEntity
  8
0
  6
Continuous
 62
     7
370
    30
100
AcDbCircle
 10
401.1194443203
 20
333.4180185997
 30
0.0
 40
7.999999999999943
100
AcDbArc
 50
0.0
 51
90.0
  0
LINE
  5
35A
330
1F
100
AcDbEntity
  8
0
  6
Continuous
 62
     7
370
    30
100
AcDbLine
 10
409.11944286
 20
333.4180184209
 30
0.0
 11
409.11944286
 21
243.9180158579
 31
0.0
  0
ARC
  5
35B
330
1F
100
AcDbEntity
  8
0
  6
Continuous
 62
     7
370
    30
100
AcDbCircle
 10
315.6194443203
 20
333.4180185997
 30
0.0
 40
8.0
100
AcDbArc
 50
90.0
 51
180.0
  0
LINE
  5
35C
330
1F
100
AcDbEntity
  8
0
  6
Continuous
 62
     7
370
    30
100
AcDbLine
 10
357.3694442728
 20
339.4180194044
 30
0.0
 11
357.3694442728
 21
340.9180187189
 31
0.0
  0
LINE
  5
35D
330
1F
100
AcDbEntity
  8
0
  6
Continuous
 62
     7
370
    30
100
AcDbLine
 10
315.6194433666
 20
341.4180178696
 30
0.0
 11
355.3694442942
 21
341.4180178696
 31
0.0
  0
LINE
  5
35E
330
1F
100
AcDbEntity
  8
0
  6
Continuous
 62
     7
370
    30
100
AcDbLine
 10
355.3694442942
 20
341.4180178696
 30
0.0
 11
356.8694443073
 21
341.4180178696
 31
0.0
  0
ARC
  5
35F
330
1F
100
AcDbEntity
  8
0
  6
Continuous
 62
     7
370
    30
100
AcDbCircle
 10
356.8694443203
 20
340.9180185997
 30
0.0
 40
0.5
100
AcDbArc
 50
0.0
 51
90.0
  0
LINE
  5
360
330
1F
100
AcDbEntity
  8
0
  6
Continuous
 62
     7
370
    30
100
AcDbLine
 10
307.6194457806
 20
243.9180158579
 30
0.0
 11
307.6194457806
 21
333.4180184209
 31
0.0
  0
ARC
  5
361
330
1F
100
AcDbEntity
  8
0
  6
Continuous
 62
     7
370
    30
100
AcDbCircle
 10
401.1194443203
 20
243.9180185997
 30
0.0
 40
8.0
100
AcDbArc
 50
270.0
 51
0.0
  0
ARC
  5
362
330
1F
100
AcDbEntity
  8
0
  6
Continuous
 62
     7
370
    30
100
AcDbCircle
 10
315.6194443203
 20
243.9180185997
 30
0.0
 40
8.0
100
AcDbArc
 50
180.0
 51
270.0
  0
LINE
  5
363
330
1F
100
AcDbEntity
  8
0
  6
Continuous
 62
     7
370
    30
100
AcDbLine
 10
401.119445274
 20
235.9180145466
 30
0.0
 11
315.6194433666
 21
235.9180145466
 31
0.0
  0
LINE
  5
364
330
1F
100
AcDbEntity
  8
0
  6
Continuous
 62
     7
370
    30
100
AcDbLine
 10
384.0694435037
 20
342.9180190468
 30
0.0
 11
332.6694451369
 21
342.9180190468
 31
0.0
  0
LINE
  5
365
330
1F
100
AcDbEntity
  8
0
  6
Continuous
 62
     7
370
    30
100
AcDbLine
 10
359.8694443333
 20
341.4180178696
 30
0.0
 11
356.8694443073
 21
341.4180178696
 31
0.0
  0
LINE
  5
366
330
1F
100
AcDbEntity
  8
0
  6
Continuous
 62
     7
370
    30
100
AcDbLine
 10
384.0694435037
 20
342.9180190468
 30
0.0
 11
384.3694448567
 21
342.9180190468
 31
0.0
  0
LINE
  5
367
330
1F
100
AcDbEntity
  8
0
  6
Continuous
 62
     7
370
    30
100
AcDbLine
 10
384.3694448567
 20
342.9180190468
 30
0.0
 11
384.3694448567
 21
341.4180178696
 31
0.0
  0
LINE
  5
368
330
1F
100
AcDbEntity
  8
0
  6
Continuous
 62
     7
370
    30
100
AcDbLine
 10
332.3694437839
 20
341.4180178696
 30
0.0
 11
332.3694437839
 21
342.9180190468
 31
0.0
  0
LINE
  5
369
330
1F
100
AcDbEntity
  8
0
  6
Continuous
 62
     7
370
    30
100
AcDbLine
 10
332.3694437839
 20
342.9180190468
 30
0.0
 11
332.6694451369
 21
342.9180190468
 31
0.0
  0
LINE
  5
36A
330
1F
100
AcDbEntity
  8
0
  6
Continuous
 62
     7
370
    30
100
AcDbLine
 10
332.6694451369
 20
362.9180185997
 30
0.0
 11
384.0694435037
 21
362.9180185997
 31
0.0
  0
ARC
  5
36B
330
1F
100
AcDbEntity
  8
0
  6
Continuous
 62
     7
370
    30
100
AcDbCircle
 10
332.6694443203
 20
362.6180185997
 30
0.0
 40
0.3000000000000682
100
AcDbArc
 50
90.0
 51
180.0
  0
LINE
  5
36C
330
1F
100
AcDbEntity
  8
0
  6
Continuous
 62
     7
370
    30
100
AcDbLine
 10
332.3694437839
 20
343.2180185371
 30
0.0
 11
332.3694437839
 21
362.6180185855
 31
0.0
  0
ARC
  5
36D
330
1F
100
AcDbEntity
  8
0
  6
Continuous
 62
     7
370
    30
100
AcDbCircle
 10
384.0694443203
 20
362.6180185997
 30
0.0
 40
0.3000000000000114
100
AcDbArc
 50
0.0
 51
90.0
  0
LINE
  5
36E
330
1F
100
AcDbEntity
  8
0
  6
Continuous
 62
     7
370
    30
100
AcDbLine
 10
384.3694448567
 20
362.6180185855
 30
0.0
 11
384.3694448567
 21
343.2180185371
 31
0.0
  0
ARC
  5
36F
330
1F
100
AcDbEntity
  8
0
  6
Continuous
 62
     7
370
    30
100
AcDbCircle
 10
332.6694443203
 20
343.2180185997
 30
0.0
 40
0.3000000000000682
100
AcDbArc
 50
180.0
 51
270.0
  0
ARC
  5
370
330
1F
100
AcDbEntity
  8
0
  6
Continuous
 62
     7
370
    30
100
AcDbCircle
 10
384.0694443203
 20
343.2180185997
 30
0.0
 40
0.3000000000000114
100
AcDbArc
 50
270.0
 51
0.0
  0
LINE
  5
371
330
1F
100
AcDbEntity
  8
0
  6
Continuous
 62
     7
370
    30
100
AcDbLine
 10
332.3694437839
 20
342.9180190468
 30
0.0
 11
332.3694437839
 21
343.2180185371
 31
0.0
  0
LINE
  5
372
330
1F
100
AcDbEntity
  8
0
  6
Continuous
 62
     7
370
    30
100
AcDbLine
 10
384.3694448567
 20
343.2180185371
 30
0.0
 11
384.3694448567
 21
342.9180190468
 31
0.0
  0
LINE
  5
373
330
1F
100
AcDbEntity
  8
0
  6
Continuous
 62
     7
370
    30
100
AcDbLine
 10
357.3694442728
 20
339.918018555
 30
0.0
 11
359.3694443678
 21
339.918018555
 31
0.0
  0
LINE
  5
374
330
1F
100
AcDbEntity
  8
0
  6
Continuous
 62
     8
370
     0
100
AcDbLine
 10
342.8694445736
 20
363.6180185748
 30
0.0
 11
342.8694445736
 21
362.9180185997
 31
0.0
  0
LINE
  5
375
330
1F
100
AcDbEntity
  8
0
  6
Continuous
 62
     8
370
     0
100
AcDbLine
 10
373.869444067
 20
362.9180185997
 30
0.0
 11
373.869444067
 21
363.6180185748
 31
0.0
  0
ARC
  5
376
330
1F
100
AcDbEntity
  8
0
  6
Continuous
 62
     8
370
     0
100
AcDbCircle
 10
392.3694443203
 20
320.6680185997
 30
0.0
 40
2.0
100
AcDbArc
 50
0.0
 51
90.0
  0
LINE
  5
377
330
1F
100
AcDbEntity
  8
0
  6
Continuous
 62
     8
370
     0
100
AcDbLine
 10
394.3694427706
 20
252.6680149638
 30
0.0
 11
394.3694427706
 21
320.6680186593
 31
0.0
  0
ARC
  5
378
330
1F
100
AcDbEntity
  8
0
  6
Continuous
 62
     8
370
     0
100
AcDbCircle
 10
392.3694443203
 20
252.6680185997
 30
0.0
 40
2.0
100
AcDbArc
 50
270.0
 51
360.0
  0
LINE
  5
379
330
1F
100
AcDbEntity
  8
0
  6
Continuous
 62
     8
370
     0
100
AcDbLine
 10
324.3694424726
 20
250.6680183613
 30
0.0
 11
392.369446168
 21
250.6680183613
 31
0.0
  0
ARC
  5
37A
330
1F
100
AcDbEntity
  8
0
  6
Continuous
 62
     8
370
     0
100
AcDbCircle
 10
324.3694443203
 20
252.6680185997
 30
0.0
 40
2.000000000000057
100
AcDbArc
 50
180.0
 51
270.0
  0
LINE
  5
37B
330
1F
100
AcDbEntity
  8
0
  6
Continuous
 62
     8
370
     0
100
AcDbLine
 10
322.36944587
 20
320.6680186593
 30
0.0
 11
322.36944587
 21
252.6680149638
 31
0.0
  0
ARC
  5
37C
330
1F
100
AcDbEntity
  8
0
  6
Continuous
 62
     8
370
     0
100
AcDbCircle
 10
324.3694443203
 20
320.6680185997
 30
0.0
 40
2.0
100
AcDbArc
 50
90.0
 51
180.0
  0
LINE
  5
37D
330
1F
100
AcDbEntity
  8
0
  6
Continuous
 62
     8
370
     0
100
AcDbLine
 10
392.369446168
 20
322.6680189872
 30
0.0
 11
324.3694424726
 21
322.6680189872
 31
0.0
  0
LINE
  5
37E
330
1F
100
AcDbEntity
  8
0
  6
Continuous
 62
     8
370
     0
100
AcDbLine
 10
392.369446168
 20
322.6680189872
 30
0.0
 11
392.369446168
 21
323.6680172884
 31
0.0
  0
LINE
  5
37F
330
1F
100
AcDbEntity
  8
0
  6
Continuous
 62
     8
370
     0
100
AcDbLine
 10
394.3694427706
 20
320.6680186593
 30
0.0
 11
395.3694447971
 21
320.6680186593
 31
0.0
  0
LINE
  5
380
330
1F
100
AcDbEntity
  8
0
  6
Continuous
 62
     8
370
     0
100
AcDbLine
 10
324.3694424726
 20
322.6680189872
 30
0.0
 11
324.3694424726
 21
323.6680172884
 31
0.0
  0
LINE
  5
381
330
1F
100
AcDbEntity
  8
0
  6
Continuous
 62
     8
370
     0
100
AcDbLine
 10
394.3694427706
 20
252.6680149638
 30
0.0
 11
395.3694447971
 21
252.6680149638
 31
0.0
  0
LINE
  5
382
330
1F
100
AcDbEntity
  8
0
  6
Continuous
 62
     8
370
     0
100
AcDbLine
 10
321.3694438435
 20
320.6680186593
 30
0.0
 11
322.36944587
 21
320.6680186593
 31
0.0
  0
LINE
  5
383
330
1F
100
AcDbEntity
  8
0
  6
Continuous
 62
     8
370
     0
100
AcDbLine
 10
321.3694438435
 20
252.6680149638
 30
0.0
 11
322.36944587
 21
252.6680149638
 31
0.0
  0
LINE
  5
384
330
1F
100
AcDbEntity
  8
0
  6
Continuous
 62
     8
370
     0
100
AcDbLine
 10
392.369446168
 20
249.6680163348
 30
0.0
 11
392.369446168
 21
250.6680183613
 31
0.0
  0
LINE
  5
385
330
1F
100
AcDbEntity
  8
0
  6
Continuous
 62
     8
370
     0
100
AcDbLine
 10
324.3694424726
 20
249.6680163348
 30
0.0
 11
324.3694424726
 21
250.6680183613
 31
0.0
  0
ARC
  5
386
330
1F
100
AcDbEntity
  8
0
  6
Continuous
 62
     8
370
     0
100
AcDbCircle
 10
392.3694443203
 20
320.6680185997
 30
0.0
 40
3.5
100
AcDbArc
 50
360.0
 51
90.0
  0
LINE
  5
387
330
1F
100
AcDbEntity
  8
0
  6
Continuous
 62
     8
370
     0
100
AcDbLine
 10
395.3694447971
 20
320.6680186593
 30
0.0
 11
395.8694458104
 21
320.6680186593
 31
0.0
  0
LINE
  5
388
330
1F
100
AcDbEntity
  8
0
  6
Continuous
 62
     8
370
     0
100
AcDbLine
 10
392.369446168
 20
323.6680172884
 30
0.0
 11
392.369446168
 21
324.1680183017
 31
0.0
  0
ARC
  5
389
330
1F
100
AcDbEntity
  8
0
  6
Continuous
 62
     8
370
     0
100
AcDbCircle
 10
324.3694443203
 20
320.6680185997
 30
0.0
 40
3.5
100
AcDbArc
 50
90.0
 51
180.0
  0
LINE
  5
38A
330
1F
100
AcDbEntity
  8
0
  6
Continuous
 62
     8
370
     0
100
AcDbLine
 10
324.3694424726
 20
323.6680172884
 30
0.0
 11
324.3694424726
 21
324.1680183017
 31
0.0
  0
LINE
  5
38B
330
1F
100
AcDbEntity
  8
0
  6
Continuous
 62
     8
370
     0
100
AcDbLine
 10
321.3694438435
 20
320.6680186593
 30
0.0
 11
320.8694428302
 21
320.6680186593
 31
0.0
  0
LINE
  5
38C
330
1F
100
AcDbEntity
  8
0
  6
Continuous
 62
     8
370
     0
100
AcDbLine
 10
324.3694424726
 20
324.1680183017
 30
0.0
 11
392.369446168
 21
324.1680183017
 31
0.0
  0
LINE
  5
38D
330
1F
100
AcDbEntity
  8
0
  6
Continuous
 62
     8
370
     0
100
AcDbLine
 10
395.8694458104
 20
320.6680186593
 30
0.0
 11
395.8694458104
 21
252.6680149638
 31
0.0
  0
LINE
  5
38E
330
1F
100
AcDbEntity
  8
0
  6
Continuous
 62
     8
370
     0
100
AcDbLine
 10
395.3694447971
 20
252.6680149638
 30
0.0
 11
395.8694458104
 21
252.6680149638
 31
0.0
  0
LINE
  5
38F
330
1F
100
AcDbEntity
  8
0
  6
Continuous
 62
     8
370
     0
100
AcDbLine
 10
321.3694438435
 20
252.6680149638
 30
0.0
 11
320.8694428302
 21
252.6680149638
 31
0.0
  0
LINE
  5
390
330
1F
100
AcDbEntity
  8
0
  6
Continuous
 62
     8
370
     0
100
AcDbLine
 10
320.8694428302
 20
320.6680186593
 30
0.0
 11
320.8694428302
 21
252.6680149638
 31
0.0
  0
ARC
  5
391
330
1F
100
AcDbEntity
  8
0
  6
Continuous
 62
     8
370
     0
100
AcDbCircle
 10
324.3694443203
 20
252.6680185997
 30
0.0
 40
3.5
100
AcDbArc
 50
180.0
 51
270.0
  0
LINE
  5
392
330
1F
100
AcDbEntity
  8
0
  6
Continuous
 62
     8
370
     0
100
AcDbLine
 10
324.3694424726
 20
249.6680163348
 30
0.0
 11
324.3694424726
 21
249.1680153215
 31
0.0
  0
ARC
  5
393
330
1F
100
AcDbEntity
  8
0
  6
Continuous
 62
     8
370
     0
100
AcDbCircle
 10
392.3694443203
 20
252.6680185997
 30
0.0
 40
3.5
100
AcDbArc
 50
270.0
 51
360.0
  0
LINE
  5
394
330
1F
100
AcDbEntity
  8
0
  6
Continuous
 62
     8
370
     0
100
AcDbLine
 10
392.369446168
 20
249.6680163348
 30
0.0
 11
392.369446168
 21
249.1680153215
 31
0.0
  0
LINE
  5
395
330
1F
100
AcDbEntity
  8
0
  6
Continuous
 62
     8
370
     0
100
AcDbLine
 10
392.369446168
 20
249.1680153215
 30
0.0
 11
324.3694424726
 21
249.1680153215
 31
0.0
  0
LINE
  5
396
330
1F
100
AcDbEntity
  8
0
  6
Continuous
 62
     8
370
     0
100
AcDbLine
 10
395.8694458104
 20
320.6680186593
 30
0.0
 11
397.369445125
 21
320.6680186593
 31
0.0
  0
LINE
  5
397
330
1F
100
AcDbEntity
  8
0
  6
Continuous
 62
     8
370
     0
100
AcDbLine
 10
392.369446168
 20
324.1680183017
 30
0.0
 11
392.369446168
 21
325.6680176163
 31
0.0
  0
LINE
  5
398
330
1F
100
AcDbEntity
  8
0
  6
Continuous
 62
     8
370
     0
100
AcDbLine
 10
324.3694424726
 20
324.1680183017
 30
0.0
 11
324.3694424726
 21
325.6680176163
 31
0.0
  0
LINE
  5
399
330
1F
100
AcDbEntity
  8
0
  6
Continuous
 62
     8
370
     0
100
AcDbLine
 10
320.8694428302
 20
320.6680186593
 30
0.0
 11
319.3694435156
 21
320.6680186593
 31
0.0
  0
LINE
  5
39A
330
1F
100
AcDbEntity
  8
0
  6
Continuous
 62
     8
370
     0
100
AcDbLine
 10
320.8694428302
 20
252.6680149638
 30
0.0
 11
319.3694435156
 21
252.6680149638
 31
0.0
  0
LINE
  5
39B
330
1F
100
AcDbEntity
  8
0
  6
Continuous
 62
     8
370
     0
100
AcDbLine
 10
395.8694458104
 20
252.6680149638
 30
0.0
 11
397.369445125
 21
252.6680149638
 31
0.0
  0
LINE
  5
39C
330
1F
100
AcDbEntity
  8
0
  6
Continuous
 62
     8
370
     0
100
AcDbLine
 10
392.369446168
 20
249.1680153215
 30
0.0
 11
392.369446168
 21
247.6680197322
 31
0.0
  0
LINE
  5
39D
330
1F
100
AcDbEntity
  8
0
  6
Continuous
 62
     8
370
     0
100
AcDbLine
 10
324.3694424726
 20
249.1680153215
 30
0.0
 11
324.3694424726
 21
247.6680197322
 31
0.0
  0
ELLIPSE
  5
39E
330
1F
100
AcDbEntity
  8
0
  6
Continuous
 62
     8
370
     0
100
AcDbEllipse
 10
319.8351473503
 20
325.2023155698
 30
0.0
 11
4.254277460610354
 21
-4.25427746061041
 31
0.0
210
0.0
220
0.0
230
1.0
 40
0.9972646886
 41
2.357564018062749
 42
3.925621289116865
  0
LINE
  5
39F
330
1F
100
AcDbEntity
  8
0
  6
Continuous
 62
     8
370
     0
100
AcDbLine
 10
313.8269119061
 20
325.2187736833
 30
0.0
 11
312.8269136048
 21
325.2187736833
 31
0.0
  0
LINE
  5
3A0
330
1F
100
AcDbEntity
  8
0
  6
Continuous
 62
     8
370
     0
100
AcDbLine
 10
319.8186911739
 20
331.2105492258
 30
0.0
 11
319.8186911739
 21
332.2105493897
 31
0.0
  0
LINE
  5
3A1
330
1F
100
AcDbEntity
  8
0
  6
Continuous
 62
     8
370
     0
100
AcDbLine
 10
396.9201974667
 20
331.2105492258
 30
0.0
 11
319.8186911739
 21
331.2105492258
 31
0.0
  0
LINE
  5
3A2
330
1F
100
AcDbEntity
  8
0
  6
Continuous
 62
     8
370
     0
100
AcDbLine
 10
396.9201974667
 20
331.2105492258
 30
0.0
 11
396.9201974667
 21
332.2105493897
 31
0.0
  0
ELLIPSE
  5
3A3
330
1F
100
AcDbEntity
  8
0
  6
Continuous
 62
     8
370
     0
100
AcDbEllipse
 10
396.9037412904
 20
325.2023155698
 30
0.0
 11
-4.25427746061041
 21
-4.25427746061041
 31
0.0
210
0.0
220
0.0
230
0.9999999999999998
 40
0.9972646886
 41
2.357564018062735
 42
3.925621289116865
  0
LINE
  5
3A4
330
1F
100
AcDbEntity
  8
0
  6
Continuous
 62
     8
370
     0
100
AcDbLine
 10
403.9119750358
 20
325.2187736833
 30
0.0
 11
402.9119767345
 21
325.2187736833
 31
0.0
  0
ELLIPSE
  5
3A5
330
1F
100
AcDbEntity
  8
0
  6
Continuous
 62
     8
370
     0
100
AcDbEllipse
 10
321.3605148211
 20
249.6590891005
 30
0.0
 11
3.557365453032333
 21
3.557365453032333
 31
0.0
210
0.0
220
0.0
230
0.9999999999999998
 40
0.9938630013
 41
2.359272424483092
 42
3.923912882696503
  0
LINE
  5
3A6
330
1F
100
AcDbEntity
  8
0
  6
Continuous
 62
     8
370
     0
100
AcDbLine
 10
395.409249524
 20
244.6436279022
 30
0.0
 11
321.3296391166
 21
244.6436279022
 31
0.0
  0
ELLIPSE
  5
3A7
330
1F
100
AcDbEntity
  8
0
  6
Continuous
 62
     8
370
     0
100
AcDbEllipse
 10
395.3783738195
 20
249.6590891005
 30
0.0
 11
-3.557365453032333
 21
3.557365453032333
 31
0.0
210
0.0
220
0.0
230
0.9999999999999998
 40
0.9938630013
 41
2.3592724244831
 42
3.923912882696507
  0
LINE
  5
3A8
330
1F
100
AcDbEntity
  8
0
  6
Continuous
 62
     8
370
     0
100
AcDbLine
 10
400.3938332296
 20
323.7078220153
 30
0.0
 11
400.3938332296
 21
249.6282153332
 31
0.0
  0
ELLIPSE
  5
3A9
330
1F
100
AcDbEntity
  8
0
  6
Continuous
 62
     8
370
     0
100
AcDbEllipse
 10
395.3783738195
 20
323.676948099
 30
0.0
 11
-3.557365453032333
 21
-3.557365453032333
 31
0.0
210
0.0
220
0.0
230
0.9999999999999998
 40
0.9938630013
 41
2.359272424483096
 42
3.923912882696505
  0
LINE
  5
3AA
330
1F
100
AcDbEntity
  8
0
  6
Continuous
 62
     8
370
     0
100
AcDbLine
 10
321.3296391166
 20
328.6924094462
 30
0.0
 11
395.409249524
 21
328.6924094462
 31
0.0
  0
ELLIPSE
  5
3AB
330
1F
100
AcDbEntity
  8
0
  6
Continuous
 62
     8
370
     0
100
AcDbEllipse
 10
321.3605148211
 20
323.676948099
 30
0.0
 11
3.557365453032333
 21
-3.557365453032333
 31
0.0
210
0.0
220
0.0
230
0.9999999999999998
 40
0.9938630013
 41
2.3592724244831
 42
3.923912882696501
  0
LINE
  5
3AC
330
1F
100
AcDbEntity
  8
0
  6
Continuous
 62
     8
370
     0
100
AcDbLine
 10
316.345055411
 20
249.6282153332
 30
0.0
 11
316.345055411
 21
323.7078220153
 31
0.0
  0
LINE
  5
3AD
330
1F
100
AcDbEntity
  8
0
  6
Continuous
 62
     8
370
     0
100
AcDbLine
 10
402.9119767345
 20
248.1172673905
 30
0.0
 11
402.9119767345
 21
325.2187736833
 31
0.0
  0
ELLIPSE
  5
3AE
330
1F
100
AcDbEntity
  8
0
  6
Continuous
 62
     8
370
     0
100
AcDbEllipse
 10
396.9037412904
 20
248.1337216297
 30
0.0
 11
-4.254277460610354
 21
4.25427746061041
 31
0.0
210
0.0
220
0.0
230
1.0
 40
0.9972646886
 41
2.357564018062754
 42
3.925621289116864
  0
LINE
  5
3AF
330
1F
100
AcDbEntity
  8
0
  6
Continuous
 62
     8
370
     0
100
AcDbLine
 10
319.8186911739
 20
242.1254881227
 30
0.0
 11
396.9201974667
 21
242.1254881227
 31
0.0
  0
ELLIPSE
  5
3B0
330
1F
100
AcDbEntity
  8
0
  6
Continuous
 62
     8
370
     0
100
AcDbEllipse
 10
319.8351473503
 20
248.1337216297
 30
0.0
 11
4.254277460610353
 21
4.254277460610382
 31
0.0
210
0.0
220
0.0
230
1.0
 40
0.9972646886
 41
2.357564018062742
 42
3.925621289116852
  0
LINE
  5
3B1
330
1F
100
AcDbEntity
  8
0
  6
Continuous
 62
     8
370
     0
100
AcDbLine
 10
313.8269119061
 20
325.2187736833
 30
0.0
 11
313.8269119061
 21
248.1172673905
 31
0.0
  0
LINE
  5
3B2
330
1F
100
AcDbEntity
  8
0
  6
Continuous
 62
     8
370
     0
100
AcDbLine
 10
321.3296391166
 20
327.69549196
 30
0.0
 11
321.3296391166
 21
328.6924094462
 31
0.0
  0
ELLIPSE
  5
3B3
330
1F
100
AcDbEntity
  8
0
  6
Continuous
 62
     8
370
     0
100
AcDbEllipse
 10
321.3605148211
 20
323.676948099
 30
0.0
 11
2.854598185230486
 21
-2.854598185230486
 31
0.0
210
0.0
220
0.0
230
0.9999999999999998
 40
0.9908319635
 41
2.359272424483103
 42
3.923912882696498
  0
LINE
  5
3B4
330
1F
100
AcDbEntity
  8
0
  6
Continuous
 62
     8
370
     0
100
AcDbLine
 10
316.345055411
 20
323.7078220153
 30
0.0
 11
317.3419728972
 21
323.7078220153
 31
0.0
  0
LINE
  5
3B5
330
1F
100
AcDbEntity
  8
0
  6
Continuous
 62
     8
370
     0
100
AcDbLine
 10
395.409249524
 20
327.69549196
 30
0.0
 11
321.3296391166
 21
327.69549196
 31
0.0
  0
LINE
  5
3B6
330
1F
100
AcDbEntity
  8
0
  6
Continuous
 62
     8
370
     0
100
AcDbLine
 10
395.409249524
 20
327.69549196
 30
0.0
 11
395.409249524
 21
328.6924094462
 31
0.0
  0
ELLIPSE
  5
3B7
330
1F
100
AcDbEntity
  8
0
  6
Continuous
 62
     8
370
     0
100
AcDbEllipse
 10
395.3783738195
 20
323.676948099
 30
0.0
 11
2.854598185230486
 21
2.854598185230486
 31
0.0
210
0.0
220
0.0
230
0.9999999999999998
 40
0.9908319635
 41
5.500865078072904
 42
7.065505536286282
  0
LINE
  5
3B8
330
1F
100
AcDbEntity
  8
0
  6
Continuous
 62
     8
370
     0
100
AcDbLine
 10
399.3969157435
 20
323.7078220153
 30
0.0
 11
400.3938332296
 21
323.7078220153
 31
0.0
  0
LINE
  5
3B9
330
1F
100
AcDbEntity
  8
0
  6
Continuous
 62
     8
370
     0
100
AcDbLine
 10
403.9119750358
 20
248.1172673905
 30
0.0
 11
402.9119767345
 21
248.1172673905
 31
0.0
  0
LINE
  5
3BA
330
1F
100
AcDbEntity
  8
0
  6
Continuous
 62
     8
370
     0
100
AcDbLine
 10
313.8269119061
 20
248.1172673905
 30
0.0
 11
312.8269136048
 21
248.1172673905
 31
0.0
  0
LINE
  5
3BB
330
1F
100
AcDbEntity
  8
0
  6
Continuous
 62
     8
370
     0
100
AcDbLine
 10
399.3969157435
 20
249.6282153332
 30
0.0
 11
399.3969157435
 21
323.7078220153
 31
0.0
  0
LINE
  5
3BC
330
1F
100
AcDbEntity
  8
0
  6
Continuous
 62
     8
370
     0
100
AcDbLine
 10
399.3969157435
 20
249.6282153332
 30
0.0
 11
400.3938332296
 21
249.6282153332
 31
0.0
  0
LINE
  5
3BD
330
1F
100
AcDbEntity
  8
0
  6
Continuous
 62
     8
370
     0
100
AcDbLine
 10
317.3419728972
 20
323.7078220153
 30
0.0
 11
317.3419728972
 21
249.6282153332
 31
0.0
  0
LINE
  5
3BE
330
1F
100
AcDbEntity
  8
0
  6
Continuous
 62
     8
370
     0
100
AcDbLine
 10
316.345055411
 20
249.6282153332
 30
0.0
 11
317.3419728972
 21
249.6282153332
 31
0.0
  0
ELLIPSE
  5
3BF
330
1F
100
AcDbEntity
  8
0
  6
Continuous
 62
     8
370
     0
100
AcDbEllipse
 10
321.3605148211
 20
249.6590891005
 30
0.0
 11
2.854598185230543
 21
2.854598185230486
 31
0.0
210
0.0
220
0.0
230
1.0
 40
0.9908319635
 41
2.359272424483098
 42
3.923912882696515
  0
LINE
  5
3C0
330
1F
100
AcDbEntity
  8
0
  6
Continuous
 62
     8
370
     0
100
AcDbLine
 10
321.3296391166
 20
244.6436279022
 30
0.0
 11
321.3296391166
 21
245.6405453884
 31
0.0
  0
LINE
  5
3C1
330
1F
100
AcDbEntity
  8
0
  6
Continuous
 62
     8
370
     0
100
AcDbLine
 10
395.409249524
 20
244.6436279022
 30
0.0
 11
395.409249524
 21
245.6405453884
 31
0.0
  0
ELLIPSE
  5
3C2
330
1F
100
AcDbEntity
  8
0
  6
Continuous
 62
     8
370
     0
100
AcDbEllipse
 10
395.3783738195
 20
249.6590891005
 30
0.0
 11
2.854598185230486
 21
-2.854598185230486
 31
0.0
210
0.0
220
0.0
230
0.9999999999999998
 40
0.9908319635
 41
5.500865078072912
 42
7.065505536286281
  0
LINE
  5
3C3
330
1F
100
AcDbEntity
  8
0
  6
Continuous
 62
     8
370
     0
100
AcDbLine
 10
396.9201974667
 20
241.1254860961
 30
0.0
 11
396.9201974667
 21
242.1254881227
 31
0.0
  0
LINE
  5
3C4
330
1F
100
AcDbEntity
  8
0
  6
Continuous
 62
     8
370
     0
100
AcDbLine
 10
319.8186911739
 20
241.1254860961
 30
0.0
 11
319.8186911739
 21
242.1254881227
 31
0.0
  0
LINE
  5
3C5
330
1F
100
AcDbEntity
  8
0
  6
Continuous
 62
     8
370
     0
100
AcDbLine
 10
321.3296391166
 20
245.6405453884
 30
0.0
 11
395.409249524
 21
245.6405453884
 31
0.0
  0
LINE
  5
3C6
330
1F
100
AcDbEntity
  8
0
  6
Continuous
 62
     8
370
     0
100
AcDbLine
 10
399.3969157435
 20
323.7078220153
 30
0.0
 11
398.7445280052
 21
323.0554305517
 31
0.0
  0
SPLINE
  5
3C7
330
1F
100
AcDbEntity
  8
0
  6
Continuous
 62
     8
370
     0
100
AcDbSpline
210
0.0
220
0.0
230
1.0
 70
     8
 71
     3
 72
    12
 73
     8
 74
     0
 42
0.00000001
 43
0.00000001
 40
0.0
 40
0.0
 40
0.0
 40
0.0
 40
0.2031706231293374
 40
0.4098776323003793
 40
0.6138369560009351
 40
0.8156323241487928
 40
1.0
 40
1.0
 40
1.0
 40
1.0
 10
394.7568580604639
 20
327.0431004965097
 30
0.0
 10
395.1816436939571
 20
327.0063293525736
 30
0.0
 10
396.0386087758656
 20
326.9321470265
 30
0.0
 10
397.1978376085637
 20
326.309570495953
 30
0.0
 10
398.0930901036613
 20
325.3796848954224
 30
0.0
 10
398.6513730338075
 20
324.2470681971699
 30
0.0
 10
398.7144248662074
 20
323.440509664053
 30
0.0
 10
398.744528005227
 20
323.0554305517466
 30
0.0
  0
LINE
  5
3C8
330
1F
100
AcDbEntity
  8
0
  6
Continuous
 62
     8
370
     0
100
AcDbLine
 10
394.7568580605
 20
327.0431004965
 30
0.0
 11
395.409249524
 21
327.69549196
 31
0.0
  0
LINE
  5
3C9
330
1F
100
AcDbEntity
  8
0
  6
Continuous
 62
     8
370
     0
100
AcDbLine
 10
321.3296391166
 20
327.69549196
 30
0.0
 11
321.9820305801
 21
327.0431004965
 31
0.0
  0
SPLINE
  5
3CA
330
1F
100
AcDbEntity
  8
0
  6
Continuous
 62
     8
370
     0
100
AcDbSpline
210
0.0
220
0.0
230
1.0
 70
     8
 71
     3
 72
    12
 73
     8
 74
     0
 42
0.00000001
 43
0.00000001
 40
0.0
 40
0.0
 40
0.0
 40
0.0
 40
0.2031713270419943
 40
0.4098775592044769
 40
0.613836908168591
 40
0.8156323013119673
 40
1.0
 40
1.0
 40
1.0
 40
1.0
 10
317.9943606353845
 20
323.0554305517466
 30
0.0
 10
318.0311332543019
 20
323.4802173575388
 30
0.0
 10
318.1053182857572
 20
324.3371816825512
 30
0.0
 10
318.7278909393556
 20
325.4964116729944
 30
0.0
 10
319.6577764769915
 20
326.3916624898326
 30
0.0
 10
320.7903928808568
 20
326.9499455486314
 30
0.0
 10
321.5969514504339
 20
327.0129973650975
 30
0.0
 10
321.9820305801477
 20
327.0431004965097
 30
0.0
  0
LINE
  5
3CB
330
1F
100
AcDbEntity
  8
0
  6
Continuous
 62
     8
370
     0
100
AcDbLine
 10
317.9943606354
 20
323.0554305517
 30
0.0
 11
317.3419728972
 21
323.7078220153
 31
0.0
  0
LINE
  5
3CC
330
1F
100
AcDbEntity
  8
0
  6
Continuous
 62
     8
370
     0
100
AcDbLine
 10
395.409249524
 20
245.6405453884
 30
0.0
 11
394.7568580605
 21
246.2929331267
 31
0.0
  0
SPLINE
  5
3CD
330
1F
100
AcDbEntity
  8
0
  6
Continuous
 62
     8
370
     0
100
AcDbSpline
210
0.0
220
0.0
230
1.0
 70
     8
 71
     3
 72
    12
 73
     8
 74
     0
 42
0.00000001
 43
0.00000001
 40
0.0
 40
0.0
 40
0.0
 40
0.0
 40
0.2031707748108594
 40
0.4098770430746598
 40
0.6138368407250681
 40
0.8156322691120823
 40
1.0
 40
1.0
 40
1.0
 40
1.0
 10
398.744528005227
 20
250.2806030714304
 30
0.0
 10
398.7077552791258
 20
249.8558174817137
 30
0.0
 10
398.6335699232144
 20
248.9988543598479
 30
0.0
 10
398.0109965357429
 20
247.8396256708776
 30
0.0
 10
397.0811135701904
 20
246.9443708921611
 30
0.0
 10
395.9484956222907
 20
246.3860882160818
 30
0.0
 10
395.141937145756
 20
246.3230363038171
 30
0.0
 10
394.7568580604639
 20
246.2929331266673
 30
0.0
  0
LINE
  5
3CE
330
1F
100
AcDbEntity
  8
0
  6
Continuous
 62
     8
370
     0
100
AcDbLine
 10
398.7445280052
 20
250.2806030714
 30
0.0
 11
399.3969157435
 21
249.6282153332
 31
0.0
  0
LINE
  5
3CF
330
1F
100
AcDbEntity
  8
0
  6
Continuous
 62
     8
370
     0
100
AcDbLine
 10
317.3419728972
 20
249.6282153332
 30
0.0
 11
317.9943606354
 21
250.2806030714
 31
0.0
  0
SPLINE
  5
3D0
330
1F
100
AcDbEntity
  8
0
  6
Continuous
 62
     8
370
     0
100
AcDbSpline
210
0.0
220
0.0
230
1.0
 70
     8
 71
     3
 72
    12
 73
     8
 74
     0
 42
0.00000001
 43
0.00000001
 40
0.0
 40
0.0
 40
0.0
 40
0.0
 40
0.2031709214345294
 40
0.4098777749929607
 40
0.6138367863093904
 40
0.8156328076208872
 40
1.0
 40
1.0
 40
1.0
 40
1.0
 10
321.9820305801477
 20
246.2929331266672
 30
0.0
 10
321.5572451380434
 20
246.3297076141545
 30
0.0
 10
320.7002814021417
 20
246.4038966024277
 30
0.0
 10
319.5410515314638
 20
247.0264658497479
 30
0.0
 10
318.6457963447299
 20
247.9563499034205
 30
0.0
 10
318.0875169484671
 20
249.0889671982776
 30
0.0
 10
318.024464145579
 20
249.8955253298515
 30
0.0
 10
317.9943606353845
 20
250.2806030714304
 30
0.0
  0
LINE
  5
3D1
330
1F
100
AcDbEntity
  8
0
  6
Continuous
 62
     8
370
     0
100
AcDbLine
 10
321.9820305801
 20
246.2929331267
 30
0.0
 11
321.3296391166
 21
245.6405453884
 31
0.0
  0
SPLINE
  5
3D2
330
1F
100
AcDbEntity
  8
0
  6
Continuous
 62
     8
370
     0
100
AcDbSpline
210
0.0
220
0.0
230
1.0
 70
     8
 71
     3
 72
    18
 73
    14
 74
     0
 42
0.00000001
 43
0.00000001
 40
0.0
 40
0.0
 40
0.0
 40
0.0
 40
0.0236928150530381
 40
0.0476361003799604
 40
0.071589002119278
 40
0.1951108183459695
 40
0.6891980576736757
 40
0.8443793062449608
 40
0.8755529109315483
 40
0.9068905209974192
 40
0.938136388599553
 40
0.9691224881432292
 40
1.0
 40
1.0
 40
1.0
 40
1.0
 10
321.9820305801477
 20
327.0431004965097
 30
0.0
 10
322.5527172095696
 20
327.0365212841137
 30
0.0
 10
323.7001235225717
 20
327.0232933067113
 30
0.0
 10
325.4408078860583
 20
327.0325467375911
 30
0.0
 10
329.5963631309873
 20
327.0434645494025
 30
0.0
 10
345.1780631302452
 20
327.0257205368452
 30
0.0
 10
363.9289593128586
 20
327.0293111613937
 30
0.0
 10
380.4470735876091
 20
327.043116821525
 30
0.0
 10
385.7304374823012
 20
327.0325987821975
 30
0.0
 10
388.0008034864632
 20
327.0194842308591
 30
0.0
 10
390.2685446762767
 20
327.0111693807369
 30
0.0
 10
392.5358240962099
 20
327.0126157163776
 30
0.0
 10
394.0173802521637
 20
327.032950801025
 30
0.0
 10
394.7568580604639
 20
327.0431004965097
 30
0.0
  0
SPLINE
  5
3D3
330
1F
100
AcDbEntity
  8
0
  6
Continuous
 62
     8
370
     0
100
AcDbSpline
210
0.0
220
0.0
230
1.0
 70
     8
 71
     3
 72
    18
 73
    14
 74
     0
 42
0.00000001
 43
0.00000001
 40
0.0
 40
0.0
 40
0.0
 40
0.0
 40
0.0236928150544973
 40
0.0476360491368517
 40
0.071588976586475
 40
0.1951108183998336
 40
0.6891979810207906
 40
0.8443792807597522
 40
0.8755528598817683
 40
0.9068905210125852
 40
0.9381363375035408
 40
0.9691224369427454
 40
1.0
 40
1.0
 40
1.0
 40
1.0
 10
398.744528005227
 20
323.0554305517466
 30
0.0
 10
398.7379492907979
 20
322.4847439238675
 30
0.0
 10
398.7247223288232
 20
321.3373388483261
 30
0.0
 10
398.7339681541965
 20
319.5966550998833
 30
0.0
 10
398.7449017449869
 20
315.4410998877976
 30
0.0
 10
398.7271308808853
 20
299.8594004488381
 30
0.0
 10
398.7307410031451
 20
281.1085043252758
 30
0.0
 10
398.7445441375907
 20
264.5903912561025
 30
0.0
 10
398.7340263916859
 20
259.3070255224079
 30
0.0
 10
398.7209113255881
 20
257.0366601142331
 30
0.0
 10
398.7125984994566
 20
254.7689189427234
 30
0.0
 10
398.7140372572581
 20
252.5016395231468
 30
0.0
 10
398.7343763171568
 20
251.0200821184332
 30
0.0
 10
398.744528005227
 20
250.2806030714304
 30
0.0
  0
SPLINE
  5
3D4
330
1F
100
AcDbEntity
  8
0
  6
Continuous
 62
     8
370
     0
100
AcDbSpline
210
0.0
220
0.0
230
1.0
 70
     8
 71
     3
 72
    18
 73
    14
 74
     0
 42
0.00000001
 43
0.00000001
 40
0.0
 40
0.0
 40
0.0
 40
0.0
 40
0.0236928658804617
 40
0.0476360999430752
 40
0.0715890273729496
 40
0.1951108179263464
 40
0.6891980824561721
 40
0.8443793309090692
 40
0.8755529611383657
 40
0.9068905711803291
 40
0.9381363876455229
 40
0.9691225381993338
 40
1.0
 40
1.0
 40
1.0
 40
1.0
 10
317.9943606353845
 20
250.2806030714304
 30
0.0
 10
318.000939352006
 20
250.8512909422695
 30
0.0
 10
318.0141663041213
 20
251.998697279213
 30
0.0
 10
318.0049204901059
 20
253.7393822446473
 30
0.0
 10
317.993986892675
 20
257.8949362266388
 30
0.0
 10
318.0117577766553
 20
273.4766368874377
 30
0.0
 10
318.0081475908224
 20
292.2275330457454
 30
0.0
 10
317.9943445380528
 20
308.7456485601746
 30
0.0
 10
318.0048622299033
 20
314.0290130785414
 30
0.0
 10
318.01797733035
 20
316.2993784707731
 30
0.0
 10
318.0262901300916
 20
318.5671196311712
 30
0.0
 10
318.0248514318781
 20
320.834397910166
 30
0.0
 10
318.0045123228927
 20
322.3159539910836
 30
0.0
 10
317.9943606353845
 20
323.0554305517466
 30
0.0
  0
SPLINE
  5
3D5
330
1F
100
AcDbEntity
  8
0
  6
Continuous
 62
     8
370
     0
100
AcDbSpline
210
0.0
220
0.0
230
1.0
 70
     8
 71
     3
 72
    18
 73
    14
 74
     0
 42
0.00000001
 43
0.00000001
 40
0.0
 40
0.0
 40
0.0
 40
0.0
 40
0.0236928154614188
 40
0.0476361006475922
 40
0.0715890026457074
 40
0.1951108186912977
 40
0.6891980572945995
 40
0.844379305638366
 40
0.8755529104051377
 40
0.90689052018049
 40
0.9381363877368126
 40
0.9691224870223831
 40
1.0
 40
1.0
 40
1.0
 40
1.0
 10
394.7568580604639
 20
246.2929331266673
 30
0.0
 10
394.1861714352749
 20
246.2995133200899
 30
0.0
 10
393.0387651441146
 20
246.3127432697628
 30
0.0
 10
391.2980807336634
 20
246.3034975554934
 30
0.0
 10
387.1425255686109
 20
246.2925521296002
 30
0.0
 10
371.5608254148963
 20
246.3103419386267
 30
0.0
 10
352.8099293795082
 20
246.3067313925049
 30
0.0
 10
336.2918150208273
 20
246.2929078400717
 30
0.0
 10
331.0084511770274
 20
246.3034407453831
 30
0.0
 10
328.7380851379273
 20
246.3165486244384
 30
0.0
 10
326.4703439830678
 20
246.3248614335195
 30
0.0
 10
324.2030644827262
 20
246.3234297714522
 30
0.0
 10
322.72150837894
 20
246.3030867725571
 30
0.0
 10
321.9820305801477
 20
246.2929331266673
 30
0.0
  0
SPLINE
  5
3D6
330
1F
100
AcDbEntity
  8
0
  6
Continuous
 62
     8
370
     0
100
AcDbSpline
210
0.0
220
0.0
230
1.0
 70
     8
 71
     3
 72
     9
 73
     5
 74
     0
 42
0.00000001
 43
0.00000001
 40
0.0
 40
0.0
 40
0.0
 40
0.0
 40
0.0000575397759723
 40
1.0
 40
1.0
 40
1.0
 40
1.0
 10
398.1920078493204
 20
322.4378146731646
 30
0.0
 10
398.1920041240307
 20
322.4378320578342
 30
0.0
 10
398.1272612645868
 20
322.7399651362094
 30
0.0
 10
398.0619108617205
 20
323.0587848436005
 30
0.0
 10
397.9965642191019
 20
323.3775862061769
 30
0.0
  0
ARC
  5
3D7
330
1F
100
AcDbEntity
  8
0
  6
Continuous
 62
     8
370
     0
100
AcDbCircle
 10
397.9657993215
 20
322.2767889054
 30
0.0
 40
1.101227122974989
100
AcDbArc
 50
44.9967978873
 51
88.3991239183
  0
ARC
  5
3D8
330
1F
100
AcDbEntity
  8
0
  6
Continuous
 62
     8
370
     0
100
AcDbCircle
 10
397.9658099375
 20
251.0592455284
 30
0.0
 40
1.101220189077614
100
AcDbArc
 50
271.6003336032
 51
315.0027817425
  0
SPLINE
  5
3D9
330
1F
100
AcDbEntity
  8
0
  6
Continuous
 62
     8
370
     0
100
AcDbSpline
210
0.0
220
0.0
230
1.0
 70
     8
 71
     3
 72
     9
 73
     5
 74
     0
 42
0.00000001
 43
0.00000001
 40
0.0
 40
0.0
 40
0.0
 40
0.0
 40
0.999935117842383
 40
0.9999999999999999
 40
0.9999999999999999
 40
0.9999999999999999
 40
0.9999999999999999
 10
397.9965642191019
 20
249.9584548675807
 30
0.0
 10
398.0655739322028
 20
250.2752105328646
 30
0.0
 10
398.1345881230934
 20
250.5919867512731
 30
0.0
 10
398.1920041240463
 20
250.8982065323929
 30
0.0
 10
398.1920078493204
 20
250.898226400593
 30
0.0
  0
LINE
  5
3DA
330
1F
100
AcDbEntity
  8
0
  6
Continuous
 62
     8
370
     0
100
AcDbLine
 10
398.1920078493
 20
250.8982264006
 30
0.0
 11
398.1920078493
 21
322.4378146732
 31
0.0
  0
SPLINE
  5
3DB
330
1F
100
AcDbEntity
  8
0
  6
Continuous
 62
     8
370
     0
100
AcDbSpline
210
0.0
220
0.0
230
1.0
 70
     8
 71
     3
 72
     9
 73
     5
 74
     0
 42
0.00000001
 43
0.00000001
 40
0.0
 40
0.0
 40
0.0
 40
0.0
 40
0.9999388013155591
 40
1.0
 40
1.0
 40
1.0
 40
1.0
 10
318.7423244215097
 20
323.3775862061769
 30
0.0
 10
318.6750424950151
 20
323.0598995009024
 30
0.0
 10
318.6077564507032
 20
322.7421933524294
 30
0.0
 10
318.5468845165735
 20
322.4378332995994
 30
0.0
 10
318.5468807912912
 20
322.4378146731646
 30
0.0
  0
LINE
  5
3DC
330
1F
100
AcDbEntity
  8
0
  6
Continuous
 62
     8
370
     0
100
AcDbLine
 10
318.5468807913
 20
322.4378146732
 30
0.0
 11
318.5468807913
 21
250.8982264006
 31
0.0
  0
SPLINE
  5
3DD
330
1F
100
AcDbEntity
  8
0
  6
Continuous
 62
     8
370
     0
100
AcDbSpline
210
0.0
220
0.0
230
1.0
 70
     8
 71
     3
 72
     9
 73
     5
 74
     0
 42
0.00000001
 43
0.00000001
 40
0.0
 40
0.0
 40
0.0
 40
0.0
 40
0.0000648821576169
 40
0.9999999999999999
 40
0.9999999999999999
 40
0.9999999999999999
 40
0.9999999999999999
 10
318.5468807912912
 20
250.898226400593
 30
0.0
 10
318.5468845165652
 20
250.8982065323929
 30
0.0
 10
318.604300517548
 20
250.5919867512592
 30
0.0
 10
318.6733147084236
 20
250.2752105328576
 30
0.0
 10
318.7423244215097
 20
249.9584548675807
 30
0.0
  0
ARC
  5
3DE
330
1F
100
AcDbEntity
  8
0
  6
Continuous
 62
     8
370
     0
100
AcDbCircle
 10
318.7730787031
 20
251.0592455284
 30
0.0
 40
1.101220189077534
100
AcDbArc
 50
224.9972182575
 51
268.3996663968
  0
ARC
  5
3DF
330
1F
100
AcDbEntity
  8
0
  6
Continuous
 62
     8
370
     0
100
AcDbCircle
 10
318.7730893191
 20
322.2767889054
 30
0.0
 40
1.101227122974975
100
AcDbArc
 50
91.6008760817
 51
135.0032021127
  0
SPLINE
  5
3E0
330
1F
100
AcDbEntity
  8
0
  6
Continuous
 62
     8
370
     0
100
AcDbSpline
210
0.0
220
0.0
230
1.0
 70
     8
 71
     3
 72
     9
 73
     5
 74
     0
 42
0.00000001
 43
0.00000001
 40
0.0
 40
0.0
 40
0.0
 40
0.0
 40
0.9999379505017205
 40
1.0
 40
1.0
 40
1.0
 40
1.0
 10
395.0790099896039
 20
326.2951367103846
 30
0.0
 10
394.7592367450016
 20
326.3528309527361
 30
0.0
 10
394.4394436573986
 20
326.4105287752085
 30
0.0
 10
394.1392570830179
 20
326.4905790988109
 30
0.0
 10
394.1392384565916
 20
326.4905840658934
 30
0.0
  0
LINE
  5
3E1
330
1F
100
AcDbEntity
  8
0
  6
Continuous
 62
     8
370
     0
100
AcDbLine
 10
394.1392384566
 20
326.4905840659
 30
0.0
 11
322.599650184
 21
326.4905840659
 31
0.0
  0
SPLINE
  5
3E2
330
1F
100
AcDbEntity
  8
0
  6
Continuous
 62
     8
370
     0
100
AcDbSpline
210
0.0
220
0.0
230
1.0
 70
     8
 71
     3
 72
     9
 73
     5
 74
     0
 42
0.00000001
 43
0.00000001
 40
0.0
 40
0.0
 40
0.0
 40
0.0
 40
0.0000620494982796
 40
1.0
 40
1.0
 40
1.0
 40
1.0
 10
322.59965018402
 20
326.4905840658934
 30
0.0
 10
322.5996315575936
 20
326.4905790988109
 30
0.0
 10
322.2994449832095
 20
326.4105287751863
 30
0.0
 10
321.9796518956082
 20
326.352830952725
 30
0.0
 10
321.6598786510076
 20
326.2951367103846
 30
0.0
  0
ARC
  5
3E3
330
1F
100
AcDbEntity
  8
0
  6
Continuous
 62
     8
370
     0
100
AcDbCircle
 10
322.760677265
 20
326.2643751253
 30
0.0
 40
1.101228343070148
100
AcDbArc
 50
134.9971051226
 51
178.3992981064
  0
ARC
  5
3E4
330
1F
100
AcDbEntity
  8
0
  6
Continuous
 62
     8
370
     0
100
AcDbCircle
 10
393.9782113757
 20
326.2643751253
 30
0.0
 40
1.101228343070135
100
AcDbArc
 50
1.6007018936
 51
45.0028948773
  0
SPLINE
  5
3E5
330
1F
100
AcDbEntity
  8
0
  6
Continuous
 62
     8
370
     0
100
AcDbSpline
210
0.0
220
0.0
230
1.0
 70
     8
 71
     3
 72
     9
 73
     5
 74
     0
 42
0.00000001
 43
0.00000001
 40
0.0
 40
0.0
 40
0.0
 40
0.0
 40
0.9999379504529516
 40
0.9999999999999999
 40
0.9999999999999999
 40
0.9999999999999999
 40
0.9999999999999999
 10
321.6598786510076
 20
247.0408969127924
 30
0.0
 10
321.9796520136332
 20
246.9832045017643
 30
0.0
 10
322.2994452192825
 20
246.925508510726
 30
0.0
 10
322.5996315575936
 20
246.8454582496563
 30
0.0
 10
322.59965018402
 20
246.8454532825739
 30
0.0
  0
LINE
  5
3E6
330
1F
100
AcDbEntity
  8
0
  6
Continuous
 62
     8
370
     0
100
AcDbLine
 10
322.599650184
 20
246.8454532826
 30
0.0
 11
394.1392384566
 21
246.8454532826
 31
0.0
  0
SPLINE
  5
3E7
330
1F
100
AcDbEntity
  8
0
  6
Continuous
 62
     8
370
     0
100
AcDbSpline
210
0.0
220
0.0
230
1.0
 70
     8
 71
     3
 72
     9
 73
     5
 74
     0
 42
0.00000001
 43
0.00000001
 40
0.0
 40
0.0
 40
0.0
 40
0.0
 40
0.0000620495470483
 40
0.9999999999999999
 40
0.9999999999999999
 40
0.9999999999999999
 40
0.9999999999999999
 10
394.1392384565916
 20
246.8454532825739
 30
0.0
 10
394.1392570830179
 20
246.8454582496564
 30
0.0
 10
394.4394434214368
 20
246.9255085103584
 30
0.0
 10
394.7592366270322
 20
246.9832045015805
 30
0.0
 10
395.0790099896039
 20
247.0408969127924
 30
0.0
  0
ARC
  5
3E8
330
1F
100
AcDbEntity
  8
0
  6
Continuous
 62
     8
370
     0
100
AcDbCircle
 10
393.9782012359
 20
247.0716628652
 30
0.0
 40
1.101238600896633
100
AcDbArc
 50
314.997317519
 51
358.39908571
  0
ARC
  5
3E9
330
1F
100
AcDbEntity
  8
0
  6
Continuous
 62
     8
370
     0
100
AcDbCircle
 10
322.7606874047
 20
247.0716628652
 30
0.0
 40
1.10123860089669
100
AcDbArc
 50
181.60091429
 51
225.002682481
  0
SPLINE
  5
3EA
330
1F
100
AcDbEntity
  8
0
  6
Continuous
 62
     8
370
     0
100
AcDbSpline
210
0.0
220
0.0
230
1.0
 70
     8
 71
     3
 72
    12
 73
     8
 74
     0
 42
0.00000001
 43
0.00000001
 40
0.0
 40
0.0
 40
0.0
 40
0.0
 40
0.1838631747251166
 40
0.3855721238123185
 40
0.5905406845816825
 40
0.7973733430588738
 40
1.0
 40
1.0
 40
1.0
 40
1.0
 10
321.6598786510076
 20
326.2951367103846
 30
0.0
 10
321.3977115161766
 20
326.2318974903469
 30
0.0
 10
320.847931283557
 20
326.0992810465449
 30
0.0
 10
320.0904951275232
 20
325.6555377313043
 30
0.0
 10
319.4421019070511
 20
325.0259778263218
 30
0.0
 10
318.9584297531914
 20
324.2499514284829
 30
0.0
 10
318.8138645365968
 20
323.6663764359974
 30
0.0
 10
318.7423244215097
 20
323.3775862061769
 30
0.0
  0
SPLINE
  5
3EB
330
1F
100
AcDbEntity
  8
0
  6
Continuous
 62
     8
370
     0
100
AcDbSpline
210
0.0
220
0.0
230
1.0
 70
     8
 71
     3
 72
    12
 73
     8
 74
     0
 42
0.00000001
 43
0.00000001
 40
0.0
 40
0.0
 40
0.0
 40
0.0
 40
0.1838632170150759
 40
0.3855718967859462
 40
0.5905405046996725
 40
0.7973724855641028
 40
1.0
 40
1.0
 40
1.0
 40
1.0
 10
397.9965642191019
 20
323.3775862061769
 30
0.0
 10
397.9333254385546
 20
323.6397535833586
 30
0.0
 10
397.8007100249777
 20
324.1895338740352
 30
0.0
 10
397.3569596751011
 20
324.946965575795
 30
0.0
 10
396.7274024669453
 20
325.5953581375547
 30
0.0
 10
395.9513771972732
 20
326.0790330332334
 30
0.0
 10
395.3678016093471
 20
326.2235969615171
 30
0.0
 10
395.0790099896039
 20
326.2951367103846
 30
0.0
  0
SPLINE
  5
3EC
330
1F
100
AcDbEntity
  8
0
  6
Continuous
 62
     8
370
     0
100
AcDbSpline
210
0.0
220
0.0
230
1.0
 70
     8
 71
     3
 72
    12
 73
     8
 74
     0
 42
0.00000001
 43
0.00000001
 40
0.0
 40
0.0
 40
0.0
 40
0.0
 40
0.183863259249545
 40
0.3855724619121509
 40
0.5905408527136873
 40
0.7973718893079842
 40
1.0
 40
1.0
 40
1.0
 40
1.0
 10
395.0790099896039
 20
247.0408969127924
 30
0.0
 10
395.3411771779317
 20
247.1041373946049
 30
0.0
 10
395.8909577520863
 20
247.2367565397481
 30
0.0
 10
396.6483928311196
 20
247.6805035259876
 30
0.0
 10
397.2967842096429
 20
248.3100621886827
 30
0.0
 10
397.7804622820735
 20
249.0860855139107
 30
0.0
 10
397.9250248647922
 20
249.669661804736
 30
0.0
 10
397.9965642191019
 20
249.9584548675807
 30
0.0
  0
SPLINE
  5
3ED
330
1F
100
AcDbEntity
  8
0
  6
Continuous
 62
     8
370
     0
100
AcDbSpline
210
0.0
220
0.0
230
1.0
 70
     8
 71
     3
 72
    12
 73
     8
 74
     0
 42
0.00000001
 43
0.00000001
 40
0.0
 40
0.0
 40
0.0
 40
0.0
 40
0.1838638122508796
 40
0.3855729890403798
 40
0.5905407446956834
 40
0.7973724799439805
 40
1.0
 40
1.0
 40
1.0
 40
1.0
 10
318.7423244215097
 20
249.9584548675807
 30
0.0
 10
318.8055632715494
 20
249.6962863413182
 30
0.0
 10
318.9381787772041
 20
249.1465038633754
 30
0.0
 10
319.3819265925007
 20
248.3890687082282
 30
0.0
 10
320.0114876283197
 20
247.7406791635712
 30
0.0
 10
320.7875118612181
 20
247.2570049168928
 30
0.0
 10
321.3710870510091
 20
247.1124381234473
 30
0.0
 10
321.6598786510076
 20
247.0408969127924
 30
0.0
  0
LINE
  5
3EE
330
1F
100
AcDbEntity
  8
0
  6
Continuous
 62
     8
370
     0
100
AcDbLine
 10
401.119445274
 20
341.4180178696
 30
0.0
 11
401.119445274
 21
340.9180187189
 31
0.0
  0
LINE
  5
3EF
330
1F
100
AcDbEntity
  8
0
  6
Continuous
 62
     8
370
     0
100
AcDbLine
 10
401.119445274
 20
340.9180187189
 30
0.0
 11
361.3694443464
 21
340.9180187189
 31
0.0
  0
LINE
  5
3F0
330
1F
100
AcDbEntity
  8
0
  6
Continuous
 62
     8
370
     0
100
AcDbLine
 10
361.3694443464
 20
341.4180178696
 30
0.0
 11
361.3694443464
 21
340.9180187189
 31
0.0
  0
LINE
  5
3F1
330
1F
100
AcDbEntity
  8
0
  6
Continuous
 62
     8
370
     0
100
AcDbLine
 10
361.3694443464
 20
340.9180187189
 30
0.0
 11
359.3694443678
 21
340.9180187189
 31
0.0
  0
LINE
  5
3F2
330
1F
100
AcDbEntity
  8
0
  6
Continuous
 62
     8
370
     0
100
AcDbLine
 10
361.3694443464
 20
339.4180194044
 30
0.0
 11
361.3694443464
 21
340.9180187189
 31
0.0
  0
LINE
  5
3F3
330
1F
100
AcDbEntity
  8
0
  6
Continuous
 62
     8
370
     0
100
AcDbLine
 10
401.119445274
 20
339.0420575195
 30
0.0
 11
401.119445274
 21
340.9180187189
 31
0.0
  0
LINE
  5
3F4
330
1F
100
AcDbEntity
  8
0
  6
Continuous
 62
     8
370
     0
100
AcDbLine
 10
409.11944286
 20
333.4180184209
 30
0.0
 11
408.619445572
 21
333.4180184209
 31
0.0
  0
ARC
  5
3F5
330
1F
100
AcDbEntity
  8
0
  6
Continuous
 62
     8
370
     0
100
AcDbCircle
 10
401.1194443203
 20
333.4180185997
 30
0.0
 40
7.499999999999943
100
AcDbArc
 50
0.0
 51
90.0
  0
LINE
  5
3F6
330
1F
100
AcDbEntity
  8
0
  6
Continuous
 62
     8
370
     0
100
AcDbLine
 10
406.74348251
 20
333.4180184209
 30
0.0
 11
408.619445572
 21
333.4180184209
 31
0.0
  0
LINE
  5
3F7
330
1F
100
AcDbEntity
  8
0
  6
Continuous
 62
     8
370
     0
100
AcDbLine
 10
409.11944286
 20
243.9180158579
 30
0.0
 11
408.619445572
 21
243.9180158579
 31
0.0
  0
LINE
  5
3F8
330
1F
100
AcDbEntity
  8
0
  6
Continuous
 62
     8
370
     0
100
AcDbLine
 10
408.619445572
 20
243.9180158579
 30
0.0
 11
408.619445572
 21
333.4180184209
 31
0.0
  0
LINE
  5
3F9
330
1F
100
AcDbEntity
  8
0
  6
Continuous
 62
     8
370
     0
100
AcDbLine
 10
406.74348251
 20
243.9180158579
 30
0.0
 11
408.619445572
 21
243.9180158579
 31
0.0
  0
LINE
  5
3FA
330
1F
100
AcDbEntity
  8
0
  6
Continuous
 62
     8
370
     0
100
AcDbLine
 10
315.6194433666
 20
339.0420575195
 30
0.0
 11
315.6194433666
 21
340.9180187189
 31
0.0
  0
LINE
  5
3FB
330
1F
100
AcDbEntity
  8
0
  6
Continuous
 62
     8
370
     0
100
AcDbLine
 10
355.3694442942
 20
340.9180187189
 30
0.0
 11
315.6194433666
 21
340.9180187189
 31
0.0
  0
LINE
  5
3FC
330
1F
100
AcDbEntity
  8
0
  6
Continuous
 62
     8
370
     0
100
AcDbLine
 10
355.3694442942
 20
339.4180194044
 30
0.0
 11
355.3694442942
 21
340.9180187189
 31
0.0
  0
LINE
  5
3FD
330
1F
100
AcDbEntity
  8
0
  6
Continuous
 62
     8
370
     0
100
AcDbLine
 10
315.6194433666
 20
340.9180187189
 30
0.0
 11
315.6194433666
 21
341.4180178696
 31
0.0
  0
ARC
  5
3FE
330
1F
100
AcDbEntity
  8
0
  6
Continuous
 62
     8
370
     0
100
AcDbCircle
 10
315.6194443203
 20
333.4180185997
 30
0.0
 40
7.5
100
AcDbArc
 50
90.0
 51
180.0
  0
LINE
  5
3FF
330
1F
100
AcDbEntity
  8
0
  6
Continuous
 62
     8
370
     0
100
AcDbLine
 10
307.6194457806
 20
333.4180184209
 30
0.0
 11
308.1194430686
 21
333.4180184209
 31
0.0
  0
LINE
  5
400
330
1F
100
AcDbEntity
  8
0
  6
Continuous
 62
     8
370
     0
100
AcDbLine
 10
357.3694442728
 20
340.9180187189
 30
0.0
 11
355.3694442942
 21
340.9180187189
 31
0.0
  0
LINE
  5
401
330
1F
100
AcDbEntity
  8
0
  6
Continuous
 62
     8
370
     0
100
AcDbLine
 10
355.3694442942
 20
340.9180187189
 30
0.0
 11
355.3694442942
 21
341.4180178696
 31
0.0
  0
LINE
  5
402
330
1F
100
AcDbEntity
  8
0
  6
Continuous
 62
     8
370
     0
100
AcDbLine
 10
309.9954061307
 20
333.4180184209
 30
0.0
 11
308.1194430686
 21
333.4180184209
 31
0.0
  0
LINE
  5
403
330
1F
100
AcDbEntity
  8
0
  6
Continuous
 62
     8
370
     0
100
AcDbLine
 10
308.1194430686
 20
333.4180184209
 30
0.0
 11
308.1194430686
 21
243.9180158579
 31
0.0
  0
LINE
  5
404
330
1F
100
AcDbEntity
  8
0
  6
Continuous
 62
     8
370
     0
100
AcDbLine
 10
307.6194457806
 20
243.9180158579
 30
0.0
 11
308.1194430686
 21
243.9180158579
 31
0.0
  0
LINE
  5
405
330
1F
100
AcDbEntity
  8
0
  6
Continuous
 62
     8
370
     0
100
AcDbLine
 10
309.9954061307
 20
243.9180158579
 30
0.0
 11
308.1194430686
 21
243.9180158579
 31
0.0
  0
LINE
  5
406
330
1F
100
AcDbEntity
  8
0
  6
Continuous
 62
     8
370
     0
100
AcDbLine
 10
401.119445274
 20
235.9180145466
 30
0.0
 11
401.119445274
 21
236.4180230105
 31
0.0
  0
ARC
  5
407
330
1F
100
AcDbEntity
  8
0
  6
Continuous
 62
     8
370
     0
100
AcDbCircle
 10
401.1194443203
 20
243.9180185997
 30
0.0
 40
7.5
100
AcDbArc
 50
270.0
 51
0.0
  0
LINE
  5
408
330
1F
100
AcDbEntity
  8
0
  6
Continuous
 62
     8
370
     0
100
AcDbLine
 10
401.119445274
 20
238.2939823472
 30
0.0
 11
401.119445274
 21
236.4180230105
 31
0.0
  0
LINE
  5
409
330
1F
100
AcDbEntity
  8
0
  6
Continuous
 62
     8
370
     0
100
AcDbLine
 10
315.6194433666
 20
236.4180230105
 30
0.0
 11
401.119445274
 21
236.4180230105
 31
0.0
  0
LINE
  5
40A
330
1F
100
AcDbEntity
  8
0
  6
Continuous
 62
     8
370
     0
100
AcDbLine
 10
315.6194433666
 20
238.2939823472
 30
0.0
 11
315.6194433666
 21
236.4180230105
 31
0.0
  0
ARC
  5
40B
330
1F
100
AcDbEntity
  8
0
  6
Continuous
 62
     8
370
     0
100
AcDbCircle
 10
315.6194443203
 20
243.9180185997
 30
0.0
 40
7.5
100
AcDbArc
 50
180.0
 51
270.0
  0
LINE
  5
40C
330
1F
100
AcDbEntity
  8
0
  6
Continuous
 62
     8
370
     0
100
AcDbLine
 10
315.6194433666
 20
235.9180145466
 30
0.0
 11
315.6194433666
 21
236.4180230105
 31
0.0
  0
LINE
  5
40D
330
1F
100
AcDbEntity
  8
0
  6
Continuous
 62
     8
370
     0
100
AcDbLine
 10
332.6694451369
 20
342.9180190468
 30
0.0
 11
332.6694451369
 21
341.4180178696
 31
0.0
  0
LINE
  5
40E
330
1F
100
AcDbEntity
  8
0
  6
Continuous
 62
     8
370
     0
100
AcDbLine
 10
384.0694435037
 20
341.4180178696
 30
0.0
 11
384.0694435037
 21
342.9180190468
 31
0.0
  0
LINE
  5
40F
330
1F
100
AcDbEntity
  8
0
  6
Continuous
 62
     8
370
     0
100
AcDbLine
 10
384.0694435037
 20
362.6180185855
 30
0.0
 11
332.6694451369
 21
362.6180185855
 31
0.0
  0
LINE
  5
410
330
1F
100
AcDbEntity
  8
0
  6
Continuous
 62
     8
370
     0
100
AcDbLine
 10
332.6694451369
 20
362.6180185855
 30
0.0
 11
332.6694451369
 21
362.9180185997
 31
0.0
  0
LINE
  5
411
330
1F
100
AcDbEntity
  8
0
  6
Continuous
 62
     8
370
     0
100
AcDbLine
 10
384.0694435037
 20
362.6180185855
 30
0.0
 11
384.0694435037
 21
362.9180185997
 31
0.0
  0
LINE
  5
412
330
1F
100
AcDbEntity
  8
0
  6
Continuous
 62
     8
370
     0
100
AcDbLine
 10
332.6694451369
 20
362.6180185855
 30
0.0
 11
332.3694437839
 21
362.6180185855
 31
0.0
  0
LINE
  5
413
330
1F
100
AcDbEntity
  8
0
  6
Continuous
 62
     8
370
     0
100
AcDbLine
 10
332.6694451369
 20
362.6180185855
 30
0.0
 11
332.6694451369
 21
343.2180185371
 31
0.0
  0
LINE
  5
414
330
1F
100
AcDbEntity
  8
0
  6
Continuous
 62
     8
370
     0
100
AcDbLine
 10
332.6694451369
 20
343.2180185371
 30
0.0
 11
332.3694437839
 21
343.2180185371
 31
0.0
  0
LINE
  5
415
330
1F
100
AcDbEntity
  8
0
  6
Continuous
 62
     8
370
     0
100
AcDbLine
 10
384.3694448567
 20
362.6180185855
 30
0.0
 11
384.0694435037
 21
362.6180185855
 31
0.0
  0
LINE
  5
416
330
1F
100
AcDbEntity
  8
0
  6
Continuous
 62
     8
370
     0
100
AcDbLine
 10
384.3694448567
 20
343.2180185371
 30
0.0
 11
384.0694435037
 21
343.2180185371
 31
0.0
  0
LINE
  5
417
330
1F
100
AcDbEntity
  8
0
  6
Continuous
 62
     8
370
     0
100
AcDbLine
 10
384.0694435037
 20
343.2180185371
 30
0.0
 11
384.0694435037
 21
362.6180185855
 31
0.0
  0
LINE
  5
418
330
1F
100
AcDbEntity
  8
0
  6
Continuous
 62
     8
370
     0
100
AcDbLine
 10
332.6694451369
 20
343.2180185371
 30
0.0
 11
384.0694435037
 21
343.2180185371
 31
0.0
  0
LINE
  5
419
330
1F
100
AcDbEntity
  8
0
  6
Continuous
 62
     8
370
     0
100
AcDbLine
 10
332.6694451369
 20
342.9180190468
 30
0.0
 11
332.6694451369
 21
343.2180185371
 31
0.0
  0
LINE
  5
41A
330
1F
100
AcDbEntity
  8
0
  6
Continuous
 62
     8
370
     0
100
AcDbLine
 10
384.0694435037
 20
342.9180190468
 30
0.0
 11
384.0694435037
 21
343.2180185371
 31
0.0
  0
DIMENSION
  5
41B
330
1F
100
AcDbEntity
  8
0
  6
Continuous
 62
     7
370
     0
100
AcDbDimension
  2
*D2
 10
409.1194443203
 20
225.3383170276
 30
0.0
 11
357.842721869
 21
225.3383170276
 31
0.0
 70
   160
  1
(<>)
 71
     2
 42
-1.0
  3
SLDDIMSTYLE0
100
AcDbAlignedDimension
 13
307.6194443203
 23
243.9180185997
 33
0.0
 14
409.1194443203
 24
243.9180185997
 34
0.0
100
AcDbRotatedDimension
  0
DIMENSION
  5
427
330
1F
100
AcDbEntity
  8
0
  6
Continuous
 62
     7
370
     0
100
AcDbDimension
  2
*D3
 10
298.3448377489
 20
235.9180185997
 30
0.0
 11
298.3448377489
 21
286.966331175
 31
0.0
 70
   160
  1
(<>)
 71
     2
 42
-1.0
  3
SLDDIMSTYLE0
100
AcDbAlignedDimension
 13
332.6694443203
 23
362.9180185997
 33
0.0
 14
315.6194443203
 24
235.9180185997
 34
0.0
 50
90.0
100
AcDbRotatedDimension
  0
INSERT
  5
43E
330
1F
100
AcDbEntity
  8
0
  6
Continuous
 62
     7
370
     0
100
AcDbBlockReference
  2
SW_CENTERMARKSYMBOL_0
 10
358.3694443203
 20
286.6680185997
 30
0.0
  0
ENDSEC
  0
SECTION
  2
OBJECTS
  0
DICTIONARY
  5
C
330
0
100
AcDbDictionary
281
     1
  3
ACAD_GROUP
350
D
  3
ACAD_LAYOUT
350
1A
  3
ACAD_MLINESTYLE
350
17
  3
ACAD_PLOTSETTINGS
350
19
  3
ACAD_PLOTSTYLENAME
350
E
  0
DICTIONARY
  5
D
102
{ACAD_REACTORS
330
C
102
}
330
C
100
AcDbDictionary
281
     1
  0
DICTIONARY
  5
1A
102
{ACAD_REACTORS
330
C
102
}
330
C
100
AcDbDictionary
281
     1
  3
Layout1
350
1E
  3
Layout2
350
26
  3
Model
350
22
  0
DICTIONARY
  5
17
102
{ACAD_REACTORS
330
C
102
}
330
C
100
AcDbDictionary
281
     1
  3
Standard
350
18
  0
DICTIONARY
  5
19
102
{ACAD_REACTORS
330
C
102
}
330
C
100
AcDbDictionary
281
     1
  0
ACDBDICTIONARYWDFLT
  5
E
102
{ACAD_REACTORS
330
C
102
}
330
C
100
AcDbDictionary
281
     1
  3
Normal
350
F
100
AcDbDictionaryWithDefault
340
F
  0
LAYOUT
  5
1E
102
{ACAD_REACTORS
330
1A
102
}
330
1A
100
AcDbPlotSettings
  1

  2
none_device
  4

  6

 40
0.0
 41
0.0
 42
0.0
 43
0.0
 44
0.0
 45
0.0
 46
0.0
 47
0.0
 48
0.0
 49
0.0
140
0.0
141
0.0
142
1.0
143
1.0
 70
   688
 72
     0
 73
     0
 74
     5
  7

 75
    16
147
1.0
148
0.0
149
0.0
100
AcDbLayout
  1
Layout1
 70
     1
 71
     1
 10
0.0
 20
0.0
 11
420.0
 21
297.0
 12
0.0
 22
0.0
 32
0.0
 14
1.0000000000E+20
 24
1.0000000000E+20
 34
1.0000000000E+20
 15
-1.0000000000E+20
 25
-1.0000000000E+20
 35
-1.0000000000E+20
146
0.0
 13
0.0
 23
0.0
 33
0.0
 16
1.0
 26
0.0
 36
0.0
 17
0.0
 27
1.0
 37
0.0
 76
     0
330
1B
  0
LAYOUT
  5
26
102
{ACAD_REACTORS
330
1A
102
}
330
1A
100
AcDbPlotSettings
  1

  2
none_device
  4

  6

 40
0.0
 41
0.0
 42
0.0
 43
0.0
 44
0.0
 45
0.0
 46
0.0
 47
0.0
 48
0.0
 49
0.0
140
0.0
141
0.0
142
1.0
143
1.0
 70
   688
 72
     0
 73
     0
 74
     5
  7

 75
    16
147
1.0
148
0.0
149
0.0
100
AcDbLayout
  1
Layout2
 70
     1
 71
     2
 10
0.0
 20
0.0
 11
0.0
 21
0.0
 12
0.0
 22
0.0
 32
0.0
 14
0.0
 24
0.0
 34
0.0
 15
0.0
 25
0.0
 35
0.0
146
0.0
 13
0.0
 23
0.0
 33
0.0
 16
1.0
 26
0.0
 36
0.0
 17
0.0
 27
1.0
 37
0.0
 76
     0
330
23
  0
LAYOUT
  5
22
102
{ACAD_REACTORS
330
1A
102
}
330
1A
100
AcDbPlotSettings
  1

  2
none_device
  4

  6

 40
0.0
 41
0.0
 42
0.0
 43
0.0
 44
0.0
 45
0.0
 46
0.0
 47
0.0
 48
0.0
 49
0.0
140
0.0
141
0.0
142
1.0
143
1.0
 70
  1712
 72
     0
 73
     0
 74
     0
  7

 75
     0
147
1.0
148
0.0
149
0.0
100
AcDbLayout
  1
Model
 70
     1
 71
     0
 10
0.0
 20
0.0
 11
594.0
 21
420.0
 12
0.0
 22
0.0
 32
0.0
 14
0.0
 24
0.0
 34
0.0
 15
594.0
 25
420.0
 35
0.0
146
0.0
 13
0.0
 23
0.0
 33
0.0
 16
1.0
 26
0.0
 36
0.0
 17
0.0
 27
1.0
 37
0.0
 76
     0
330
1F
331
29
  0
MLINESTYLE
  5
18
102
{ACAD_REACTORS
330
17
102
}
330
17
100
AcDbMlineStyle
  2
Standard
 70
     0
  3

 62
   256
 51
90.0
 52
90.0
 71
     2
 49
0.5
 62
   256
  6
BYLAYER
 49
-0.5
 62
   256
  6
BYLAYER
  0
ACDBPLACEHOLDER
  5
F
102
{ACAD_REACTORS
330
E
102
}
330
E
  0
ENDSEC
  0
EOF
