  0
SECTION
  2
HEADER
  9
$ACADVER
  1
AC1032
  9
$ACADMAINTVER
 90
       55
  9
$DWGCODEPAGE
  3
ANSI_1252
  9
$LASTSAVEDBY
  1
z.reinhard
  9
$REQUIREDVERSIONS
160
                 0
  9
$INSBASE
 10
0.0
 20
0.0
 30
0.0
  9
$EXTMIN
 10
0.0
 20
0.0
 30
0.0
  9
$EXTMAX
 10
210.0
 20
297.0
 30
0.0
  9
$LIMMIN
 10
0.0
 20
0.0
  9
$LIMMAX
 10
210.0
 20
297.0
  9
$ORTHOMODE
 70
     0
  9
$REGENMODE
 70
     1
  9
$FILLMODE
 70
     1
  9
$QTEXTMODE
 70
     0
  9
$MIRRTEXT
 70
     1
  9
$LTSCALE
 40
1.0
  9
$ATTMODE
 70
     1
  9
$TEXTSIZE
 40
3.5
  9
$TRACEWID
 40
1.0
  9
$TEXTSTYLE
  7
STANDARD
  9
$CLAYER
  8
0
  9
$CELTYPE
  6
ByLayer
  9
$CECOLOR
 62
   256
  9
$CELTSCALE
 40
1.0
  9
$DISPSILH
 70
     0
  9
$DIMSCALE
 40
1.0
  9
$DIMASZ
 40
3.302
  9
$DIMEXO
 40
1.0
  9
$DIMDLI
 40
3.75
  9
$DIMRND
 40
0.0
  9
$DIMDLE
 40
0.0
  9
$DIMEXE
 40
1.0
  9
$DIMTP
 40
0.0
  9
$DIMTM
 40
0.0
  9
$DIMTXT
 40
3.5
  9
$DIMCEN
 40
2.5
  9
$DIMTSZ
 40
0.0
  9
$DIMTOL
 70
     0
  9
$DIMLIM
 70
     0
  9
$DIMTIH
 70
     1
  9
$DIMTOH
 70
     1
  9
$DIMSE1
 70
     0
  9
$DIMSE2
 70
     0
  9
$DIMTAD
 70
     1
  9
$DIMZIN
 70
     1
  9
$DIMBLK
  1

  9
$DIMASO
 70
     1
  9
$DIMSHO
 70
     1
  9
$DIMPOST
  1

  9
$DIMAPOST
  1

  9
$DIMALT
 70
     0
  9
$DIMALTD
 70
     3
  9
$DIMALTF
 40
0.0393700787
  9
$DIMLFAC
 40
1.0
  9
$DIMTOFL
 70
     1
  9
$DIMTVP
 40
0.0
  9
$DIMTIX
 70
     0
  9
$DIMSOXD
 70
     0
  9
$DIMSAH
 70
     0
  9
$DIMBLK1
  1

  9
$DIMBLK2
  1

  9
$DIMSTYLE
  2
ISO-25
  9
$DIMCLRD
 70
     0
  9
$DIMCLRE
 70
     0
  9
$DIMCLRT
 70
     0
  9
$DIMTFAC
 40
1.0
  9
$DIMGAP
 40
1.524
  9
$DIMJUST
 70
     0
  9
$DIMSD1
 70
     0
  9
$DIMSD2
 70
     0
  9
$DIMTOLJ
 70
     0
  9
$DIMTZIN
 70
     1
  9
$DIMALTZ
 70
     0
  9
$DIMALTTZ
 70
     0
  9
$DIMUPT
 70
     0
  9
$DIMDEC
 70
     2
  9
$DIMTDEC
 70
     2
  9
$DIMALTU
 70
     2
  9
$DIMALTTD
 70
     3
  9
$DIMTXSTY
  7
STANDARD
  9
$DIMAUNIT
 70
     0
  9
$DIMADEC
 70
     2
  9
$DIMALTRND
 40
0.0
  9
$DIMAZIN
 70
     0
  9
$DIMDSEP
 70
    44
  9
$DIMATFIT
 70
     3
  9
$DIMFRAC
 70
     0
  9
$DIMLDRBLK
  1

  9
$DIMLUNIT
 70
     2
  9
$DIMLWD
 70
    -2
  9
$DIMLWE
 70
    -2
  9
$DIMTMOVE
 70
     0
  9
$DIMFXL
 40
1.0
  9
$DIMFXLON
 70
     0
  9
$DIMJOGANG
 40
0.7853981634
  9
$DIMTFILL
 70
     0
  9
$DIMTFILLCLR
 70
     0
  9
$DIMARCSYM
 70
     0
  9
$DIMLTYPE
  6

  9
$DIMLTEX1
  6

  9
$DIMLTEX2
  6

  9
$DIMTXTDIRECTION
 70
     0
  9
$LUNITS
 70
     2
  9
$LUPREC
 70
     2
  9
$SKETCHINC
 40
1.0
  9
$FILLETRAD
 40
0.0
  9
$AUNITS
 70
     0
  9
$AUPREC
 70
     2
  9
$MENU
  1
.
  9
$ELEVATION
 40
0.0
  9
$PELEVATION
 40
0.0
  9
$THICKNESS
 40
0.0
  9
$LIMCHECK
 70
     0
  9
$CHAMFERA
 40
0.0
  9
$CHAMFERB
 40
0.0
  9
$CHAMFERC
 40
0.0
  9
$CHAMFERD
 40
0.0
  9
$SKPOLY
 70
     0
  9
$TDCREATE
 40
2460850.396827118
  9
$TDUCREATE
 40
2460850.313493785
  9
$TDUPDATE
 40
2460850.396829144
  9
$TDUUPDATE
 40
2460850.31349581
  9
$TDINDWG
 40
0.0000000116
  9
$TDUSRTIMER
 40
0.0000000116
  9
$USRTIMER
 70
     1
  9
$ANGBASE
 50
0.0
  9
$ANGDIR
 70
     0
  9
$PDMODE
 70
     0
  9
$PDSIZE
 40
-1.0
  9
$PLINEWID
 40
0.0
  9
$SPLFRAME
 70
     0
  9
$SPLINETYPE
 70
     6
  9
$SPLINESEGS
 70
     8
  9
$HANDSEED
  5
295
  9
$SURFTAB1
 70
     6
  9
$SURFTAB2
 70
     6
  9
$SURFTYPE
 70
     6
  9
$SURFU
 70
     6
  9
$SURFV
 70
     6
  9
$UCSBASE
  2

  9
$UCSNAME
  2

  9
$UCSORG
 10
0.0
 20
0.0
 30
0.0
  9
$UCSXDIR
 10
1.0
 20
0.0
 30
0.0
  9
$UCSYDIR
 10
0.0
 20
1.0
 30
0.0
  9
$UCSORTHOREF
  2

  9
$UCSORTHOVIEW
 70
     0
  9
$UCSORGTOP
 10
0.0
 20
0.0
 30
0.0
  9
$UCSORGBOTTOM
 10
0.0
 20
0.0
 30
0.0
  9
$UCSORGLEFT
 10
0.0
 20
0.0
 30
0.0
  9
$UCSORGRIGHT
 10
0.0
 20
0.0
 30
0.0
  9
$UCSORGFRONT
 10
0.0
 20
0.0
 30
0.0
  9
$UCSORGBACK
 10
0.0
 20
0.0
 30
0.0
  9
$PUCSBASE
  2

  9
$PUCSNAME
  2

  9
$PUCSORG
 10
0.0
 20
0.0
 30
0.0
  9
$PUCSXDIR
 10
1.0
 20
0.0
 30
0.0
  9
$PUCSYDIR
 10
0.0
 20
1.0
 30
0.0
  9
$PUCSORTHOREF
  2

  9
$PUCSORTHOVIEW
 70
     0
  9
$PUCSORGTOP
 10
0.0
 20
0.0
 30
0.0
  9
$PUCSORGBOTTOM
 10
0.0
 20
0.0
 30
0.0
  9
$PUCSORGLEFT
 10
0.0
 20
0.0
 30
0.0
  9
$PUCSORGRIGHT
 10
0.0
 20
0.0
 30
0.0
  9
$PUCSORGFRONT
 10
0.0
 20
0.0
 30
0.0
  9
$PUCSORGBACK
 10
0.0
 20
0.0
 30
0.0
  9
$USERI1
 70
     0
  9
$USERI2
 70
     0
  9
$USERI3
 70
     0
  9
$USERI4
 70
     0
  9
$USERI5
 70
     0
  9
$USERR1
 40
0.0
  9
$USERR2
 40
0.0
  9
$USERR3
 40
0.0
  9
$USERR4
 40
0.0
  9
$USERR5
 40
0.0
  9
$WORLDVIEW
 70
     1
  9
$SHADEDGE
 70
     3
  9
$SHADEDIF
 70
    70
  9
$TILEMODE
 70
     1
  9
$MAXACTVP
 70
    64
  9
$PINSBASE
 10
0.0
 20
0.0
 30
0.0
  9
$PLIMCHECK
 70
     0
  9
$PEXTMIN
 10
1.0000000000E+20
 20
1.0000000000E+20
 30
1.0000000000E+20
  9
$PEXTMAX
 10
-1.0000000000E+20
 20
-1.0000000000E+20
 30
-1.0000000000E+20
  9
$PLIMMIN
 10
0.0
 20
0.0
  9
$PLIMMAX
 10
420.0
 20
297.0
  9
$UNITMODE
 70
     0
  9
$VISRETAIN
 70
     1
  9
$PLINEGEN
 70
     0
  9
$PSLTSCALE
 70
     1
  9
$TREEDEPTH
 70
  3020
  9
$CMLSTYLE
  2
Standard
  9
$CMLJUST
 70
     0
  9
$CMLSCALE
 40
20.0
  9
$PROXYGRAPHICS
 70
     1
  9
$MEASUREMENT
 70
     1
  9
$CELWEIGHT
370
    -1
  9
$ENDCAPS
280
     0
  9
$JOINSTYLE
280
     0
  9
$LWDISPLAY
290
     1
  9
$INSUNITS
 70
     4
  9
$HYPERLINKBASE
  1

  9
$STYLESHEET
  1

  9
$XEDIT
290
     1
  9
$CEPSNTYPE
380
     0
  9
$PSTYLEMODE
290
     1
  9
$FINGERPRINTGUID
  2
{0e46aed8-c11d-4afc-aba3-198a6bd116bb}
  9
$VERSIONGUID
  2
{FAEB1C32-E019-11D5-929B-00C0DF256EC4}
  9
$EXTNAMES
290
     1
  9
$PSVPSCALE
 40
0.0
  9
$OLESTARTUP
290
     0
  9
$SORTENTS
280
   127
  9
$INDEXCTL
280
     0
  9
$HIDETEXT
280
     1
  9
$XCLIPFRAME
280
     2
  9
$HALOGAP
280
     0
  9
$OBSCOLOR
 70
   257
  9
$OBSLTYPE
280
     0
  9
$INTERSECTIONDISPLAY
280
     0
  9
$INTERSECTIONCOLOR
 70
   257
  9
$DIMASSOC
280
     2
  9
$PROJECTNAME
  1

  9
$CAMERADISPLAY
290
     0
  9
$LENSLENGTH
 40
50.0
  9
$CAMERAHEIGHT
 40
0.0
  9
$STEPSPERSEC
 40
2.0
  9
$STEPSIZE
 40
6.0
  9
$3DDWFPREC
 40
2.0
  9
$PSOLWIDTH
 40
5.0
  9
$PSOLHEIGHT
 40
80.0
  9
$LOFTANG1
 40
1.5707963268
  9
$LOFTANG2
 40
1.5707963268
  9
$LOFTMAG1
 40
0.0
  9
$LOFTMAG2
 40
0.0
  9
$LOFTPARAM
 70
     7
  9
$LOFTNORMALS
280
     1
  9
$LATITUDE
 40
37.795
  9
$LONGITUDE
 40
-122.394
  9
$NORTHDIRECTION
 40
0.0
  9
$TIMEZONE
 70
 -8000
  9
$LIGHTGLYPHDISPLAY
280
     1
  9
$TILEMODELIGHTSYNCH
280
     1
  9
$CMATERIAL
347
44
  9
$SOLIDHIST
280
     0
  9
$SHOWHIST
280
     1
  9
$DWFFRAME
280
     2
  9
$DGNFRAME
280
     2
  9
$REALWORLDSCALE
290
     1
  9
$INTERFERECOLOR
 62
   256
  9
$CSHADOW
280
     0
  9
$SHADOWPLANELOCATION
 40
0.0
  0
ENDSEC
  0
SECTION
  2
CLASSES
  0
CLASS
  1
ACDBDICTIONARYWDFLT
  2
AcDbDictionaryWithDefault
  3
ObjectDBX Classes
 90
        0
 91
        3
280
     0
281
     0
  0
CLASS
  1
VISUALSTYLE
  2
AcDbVisualStyle
  3
ObjectDBX Classes
 90
     4095
 91
        3
280
     0
281
     0
  0
CLASS
  1
MATERIAL
  2
AcDbMaterial
  3
ObjectDBX Classes
 90
     1153
 91
        3
280
     0
281
     0
  0
CLASS
  1
SCALE
  2
AcDbScale
  3
ObjectDBX Classes
 90
     1153
 91
        3
280
     0
281
     0
  0
CLASS
  1
TABLESTYLE
  2
AcDbTableStyle
  3
ObjectDBX Classes
 90
     4095
 91
        3
280
     0
281
     0
  0
CLASS
  1
MLEADERSTYLE
  2
AcDbMLeaderStyle
  3
ACDB_MLEADERSTYLE_CLASS
 90
     4095
 91
        3
280
     0
281
     0
  0
CLASS
  1
SUN
  2
AcDbSun
  3
SCENEOE
 90
     1153
 91
        3
280
     0
281
     0
  0
CLASS
  1
DICTIONARYVAR
  2
AcDbDictionaryVar
  3
ObjectDBX Classes
 90
        0
 91
        3
280
     0
281
     0
  0
CLASS
  1
CELLSTYLEMAP
  2
AcDbCellStyleMap
  3
ObjectDBX Classes
 90
     1152
 91
        3
280
     0
281
     0
  0
ENDSEC
  0
SECTION
  2
TABLES
  0
TABLE
  2
VPORT
  5
8
330
0
100
AcDbSymbolTable
 70
     1
  0
VPORT
  5
29
330
8
100
AcDbSymbolTableRecord
100
AcDbViewportTableRecord
  2
*Active
 70
     0
 10
0.0
 20
0.0
 11
1.0
 21
1.0
 12
105.0
 22
148.5
 13
0.0
 23
0.0
 14
10.0
 24
10.0
 15
10.0
 25
10.0
 16
0.0
 26
0.0
 36
1.0
 17
0.0
 27
0.0
 37
0.0
 40
297.0
 41
0.7070707071
 42
50.0
 43
0.0
 44
0.0
 50
0.0
 51
0.0
 71
     0
 72
  2000
 73
     1
 74
     3
 75
     0
 76
     0
 77
     0
 78
     0
281
     0
 65
     1
110
0.0
120
0.0
130
0.0
111
1.0
121
0.0
131
0.0
112
0.0
122
1.0
132
0.0
 79
     0
146
0.0
348
2F
 60
     3
 61
     5
292
     1
282
     1
141
0.0
142
0.0
 63
   250
361
5D
  0
ENDTAB
  0
TABLE
  2
LTYPE
  5
5
330
0
100
AcDbSymbolTable
 70
     8
  0
LTYPE
  5
14
330
5
100
AcDbSymbolTableRecord
100
AcDbLinetypeTableRecord
  2
ByBlock
 70
     0
  3

 72
    65
 73
     0
 40
0.0
  0
LTYPE
  5
15
330
5
100
AcDbSymbolTableRecord
100
AcDbLinetypeTableRecord
  2
ByLayer
 70
     0
  3

 72
    65
 73
     0
 40
0.0
  0
LTYPE
  5
16
330
5
100
AcDbSymbolTableRecord
100
AcDbLinetypeTableRecord
  2
Continuous
 70
     0
  3
Solid line
 72
    65
 73
     0
 40
0.0
  0
LTYPE
  5
5E
330
5
100
AcDbSymbolTableRecord
100
AcDbLinetypeTableRecord
  2
SLD-Durchgehend
 70
     0
  3
SolidWorks Line Style
 72
    65
 73
     0
 40
0.0
  0
LTYPE
  5
5F
330
5
100
AcDbSymbolTableRecord
100
AcDbLinetypeTableRecord
  2
SLD-Gestrichelt
 70
     0
  3
SolidWorks Line Style
 72
    65
 73
     2
 40
1.905
 49
1.27
 74
     0
 49
-0.635
 74
     0
  0
LTYPE
  5
60
330
5
100
AcDbSymbolTableRecord
100
AcDbLinetypeTableRecord
  2
SLD-Phantom
 70
     0
  3
SolidWorks Line Style
 72
    65
 73
     6
 40
12.7
 49
6.35
 74
     0
 49
-1.27
 74
     0
 49
1.27
 74
     0
 49
-1.27
 74
     0
 49
1.27
 74
     0
 49
-1.27
 74
     0
  0
LTYPE
  5
61
330
5
100
AcDbSymbolTableRecord
100
AcDbLinetypeTableRecord
  2
SLD-Kette
 70
     0
  3
SolidWorks Line Style
 72
    65
 73
     4
 40
10.16
 49
6.35
 74
     0
 49
-1.27
 74
     0
 49
1.27
 74
     0
 49
-1.27
 74
     0
  0
LTYPE
  5
62
330
5
100
AcDbSymbolTableRecord
100
AcDbLinetypeTableRecord
  2
SLD-Punktstrich
 70
     0
  3
SolidWorks Line Style
 72
    65
 73
     4
 40
19.05
 49
15.24
 74
     0
 49
-1.27
 74
     0
 49
1.27
 74
     0
 49
-1.27
 74
     0
  0
LTYPE
  5
63
330
5
100
AcDbSymbolTableRecord
100
AcDbLinetypeTableRecord
  2
SLD-Naht
 70
     0
  3
SolidWorks Line Style
 72
    65
 73
     2
 40
0.635
 49
0.0
 74
     0
 49
-0.635
 74
     0
  0
LTYPE
  5
64
330
5
100
AcDbSymbolTableRecord
100
AcDbLinetypeTableRecord
  2
SLD-Dicke-Dünne-Kette
 70
     0
  3
SolidWorks Line Style
 72
    65
 73
     4
 40
10.16
 49
6.35
 74
     0
 49
-1.27
 74
     0
 49
1.27
 74
     0
 49
-1.27
 74
     0
  0
ENDTAB
  0
TABLE
  2
LAYER
  5
2
330
0
100
AcDbSymbolTable
 70
     5
  0
LAYER
  5
10
330
2
100
AcDbSymbolTableRecord
100
AcDbLayerTableRecord
  2
0
 70
     0
 62
     7
  6
Continuous
370
    -3
390
F
347
46
348
0
  0
LAYER
  5
65
330
2
100
AcDbSymbolTableRecord
100
AcDbLayerTableRecord
  2
RAHMEN
 70
     0
 62
   179
  6
SLD-Durchgehend
370
    -3
390
F
347
46
348
0
  0
LAYER
  5
66
330
2
100
AcDbSymbolTableRecord
100
AcDbLayerTableRecord
  2
KOPF
 70
     0
 62
     7
  6
SLD-Durchgehend
370
    -3
390
F
347
46
348
0
  0
LAYER
  5
67
330
2
100
AcDbSymbolTableRecord
100
AcDbLayerTableRecord
  2
TEMP
 70
     0
 62
     7
  6
SLD-Durchgehend
370
    -3
390
F
347
46
348
0
  0
LAYER
  5
68
330
2
100
AcDbSymbolTableRecord
100
AcDbLayerTableRecord
  2
ZEICHNUNG
 70
     0
 62
     7
  6
SLD-Durchgehend
370
    -3
390
F
347
46
348
0
  0
ENDTAB
  0
TABLE
  2
STYLE
  5
3
330
0
100
AcDbSymbolTable
 70
     2
  0
STYLE
  5
11
330
3
100
AcDbSymbolTableRecord
100
AcDbTextStyleTableRecord
  2
STANDARD
 70
     0
 40
0.0
 41
1.0
 50
0.0
 71
     0
 42
3.5
  3
GOTHIC.TTF
  4

1001
ACAD
1000
CENTURY GOTHIC
1071
       34
  0
STYLE
  5
1F9
330
3
100
AcDbSymbolTableRecord
100
AcDbTextStyleTableRecord
  2
SLDTEXTSTYLE0
 70
     0
 40
0.0
 41
0.913
 50
0.0
 71
     0
 42
3.5
  3
GOTHIC.TTF
  4

1001
ACAD
1000
Century Gothic
1071
      290
  0
ENDTAB
  0
TABLE
  2
VIEW
  5
6
330
0
100
AcDbSymbolTable
 70
     0
  0
ENDTAB
  0
TABLE
  2
UCS
  5
7
330
0
100
AcDbSymbolTable
 70
     0
  0
ENDTAB
  0
TABLE
  2
APPID
  5
9
330
0
100
AcDbSymbolTable
 70
     1
  0
APPID
  5
12
330
9
100
AcDbSymbolTableRecord
100
AcDbRegAppTableRecord
  2
ACAD
 70
     0
  0
ENDTAB
  0
TABLE
  2
DIMSTYLE
  5
A
330
0
100
AcDbSymbolTable
 70
     5
100
AcDbDimStyleTable
  0
DIMSTYLE
105
27
330
A
100
AcDbSymbolTableRecord
100
AcDbDimStyleTableRecord
  2
ISO-25
 70
     0
 41
2.5
 42
0.625
 43
3.75
 44
1.25
 73
     0
 74
     0
 77
     1
 78
     8
140
2.5
141
2.5
143
0.0393700787
147
0.625
171
     3
172
     1
178
     0
271
     2
272
     2
274
     3
278
    44
283
     0
284
     8
340
11
  0
DIMSTYLE
105
1FA
102
{ACAD_REACTORS
330
1F8
102
}
330
A
100
AcDbSymbolTableRecord
100
AcDbDimStyleTableRecord
  2
SLDDIMSTYLE0
 70
     0
 41
3.302
 44
0.0
 45
0.000000001
 73
     0
 74
     0
 77
     1
 78
    12
 79
     3
140
3.5
141
0.0
147
0.875
172
     1
173
     1
178
     0
271
     0
272
     0
276
     2
284
    12
340
1F9
341
1FB
343
1FB
  0
DIMSTYLE
105
251
102
{ACAD_REACTORS
330
250
102
}
330
A
100
AcDbSymbolTableRecord
100
AcDbDimStyleTableRecord
  2
SLDDIMSTYLE1
 70
     0
 41
3.302
 44
0.0
 45
0.000000001
 73
     0
 74
     0
 77
     1
 78
    12
 79
     3
140
3.5
147
0.875
173
     1
178
     0
271
     0
272
     0
276
     2
284
    12
340
1F9
  0
DIMSTYLE
105
25C
102
{ACAD_REACTORS
330
25B
102
}
330
A
100
AcDbSymbolTableRecord
100
AcDbDimStyleTableRecord
  2
SLDDIMSTYLE2
 70
     0
 41
3.302
 44
0.0
 45
0.000000001
 73
     0
 74
     0
 77
     1
 78
    12
 79
     3
140
3.5
141
0.0
147
0.875
173
     1
178
     0
271
     0
272
     0
276
     2
284
    12
340
1F9
  0
DIMSTYLE
105
265
102
{ACAD_REACTORS
330
264
330
271
330
27E
102
}
330
A
100
AcDbSymbolTableRecord
100
AcDbDimStyleTableRecord
  2
SLDDIMSTYLE3
 70
     0
 41
3.302
 44
0.0
 45
0.000000001
 73
     0
 74
     0
 77
     1
 78
    12
 79
     3
140
3.5
147
0.875
172
     1
173
     1
178
     0
271
     0
272
     0
276
     2
284
    12
289
     0
340
1F9
  0
ENDTAB
  0
TABLE
  2
BLOCK_RECORD
  5
1
330
0
100
AcDbSymbolTable
 70
    10
  0
BLOCK_RECORD
  5
1F
330
1
100
AcDbSymbolTableRecord
100
AcDbBlockTableRecord
  2
*Model_Space
340
22
 70
     0
280
     1
281
     0
  0
BLOCK_RECORD
  5
1B
330
1
100
AcDbSymbolTableRecord
100
AcDbBlockTableRecord
  2
*Paper_Space
340
1E
 70
     0
280
     1
281
     0
  0
BLOCK_RECORD
  5
23
330
1
100
AcDbSymbolTableRecord
100
AcDbBlockTableRecord
  2
*Paper_Space0
340
26
 70
     0
280
     1
281
     0
  0
BLOCK_RECORD
  5
69
330
1
100
AcDbSymbolTableRecord
100
AcDbBlockTableRecord
  2
Block4
340
0
 70
     0
280
     1
281
     0
  0
BLOCK_RECORD
  5
129
330
1
100
AcDbSymbolTableRecord
100
AcDbBlockTableRecord
  2
Block4_1
340
0
 70
     0
280
     1
281
     0
  0
BLOCK_RECORD
  5
1FB
330
1
100
AcDbSymbolTableRecord
100
AcDbBlockTableRecord
  2
_None
340
0
 70
     0
280
     1
281
     0
  0
BLOCK_RECORD
  5
1FE
330
1
100
AcDbSymbolTableRecord
100
AcDbBlockTableRecord
  2
_D
340
0
 70
     0
280
     1
281
     0
  0
BLOCK_RECORD
  5
252
330
1
100
AcDbSymbolTableRecord
100
AcDbBlockTableRecord
  2
_D_1
340
0
 70
     0
280
     1
281
     0
  0
BLOCK_RECORD
  5
25D
330
1
100
AcDbSymbolTableRecord
100
AcDbBlockTableRecord
  2
_D_2
340
0
 70
     0
280
     1
281
     0
  0
BLOCK_RECORD
  5
266
330
1
100
AcDbSymbolTableRecord
100
AcDbBlockTableRecord
  2
_D_3
340
0
 70
     0
280
     1
281
     0
  0
BLOCK_RECORD
  5
272
330
1
100
AcDbSymbolTableRecord
100
AcDbBlockTableRecord
  2
_D_4
340
0
 70
     0
280
     1
281
     0
  0
BLOCK_RECORD
  5
27F
330
1
100
AcDbSymbolTableRecord
100
AcDbBlockTableRecord
  2
_D_5
340
0
 70
     0
280
     1
281
     0
  0
ENDTAB
  0
ENDSEC
  0
SECTION
  2
BLOCKS
  0
BLOCK
  5
20
330
1F
100
AcDbEntity
  8
0
100
AcDbBlockBegin
  2
*Model_Space
 70
     0
 10
0.0
 20
0.0
 30
0.0
  3
*Model_Space
  1

  0
ENDBLK
  5
21
330
1F
100
AcDbEntity
  8
0
100
AcDbBlockEnd
  0
BLOCK
  5
1C
330
1B
100
AcDbEntity
 67
     1
  8
0
100
AcDbBlockBegin
  2
*Paper_Space
 70
     0
 10
0.0
 20
0.0
 30
0.0
  3
*Paper_Space
  1

  0
ENDBLK
  5
1D
330
1B
100
AcDbEntity
 67
     1
  8
0
100
AcDbBlockEnd
  0
BLOCK
  5
24
330
23
100
AcDbEntity
  8
0
100
AcDbBlockBegin
  2
*Paper_Space0
 70
     0
 10
0.0
 20
0.0
 30
0.0
  3
*Paper_Space0
  1

  0
ENDBLK
  5
25
330
23
100
AcDbEntity
  8
0
100
AcDbBlockEnd
  0
BLOCK
  5
6A
330
69
100
AcDbEntity
  8
0
100
AcDbBlockBegin
  2
Block4
 70
     0
 10
0.0
 20
0.0
 30
0.0
  3
Block4
  1

  0
LINE
  5
6C
330
69
100
AcDbEntity
  8
0
  6
SLD-Durchgehend
 62
     7
370
    50
100
AcDbLine
 10
6.8143755
 20
0.0100965
 30
0.0
 11
6.8165091
 21
0.0100965
 31
0.0
  0
LINE
  5
6D
330
69
100
AcDbEntity
  8
0
  6
SLD-Durchgehend
 62
     7
370
    50
100
AcDbLine
 10
30.7692933
 20
3.7012626
 30
0.0
 11
30.7850286
 21
3.6666297
 31
0.0
  0
LINE
  5
6E
330
69
100
AcDbEntity
  8
0
  6
SLD-Durchgehend
 62
     7
370
    50
100
AcDbLine
 10
30.7850286
 20
3.6666297
 30
0.0
 11
31.5281691
 21
3.6616386
 31
0.0
  0
LINE
  5
6F
330
69
100
AcDbEntity
  8
0
  6
SLD-Durchgehend
 62
     7
370
    50
100
AcDbLine
 10
31.5281691
 20
3.6616386
 30
0.0
 11
31.4910597
 21
3.7464111
 31
0.0
  0
LINE
  5
70
330
69
100
AcDbEntity
  8
0
  6
SLD-Durchgehend
 62
     7
370
    50
100
AcDbLine
 10
29.6000805
 20
0.0100965
 30
0.0
 11
29.612844
 21
0.0100965
 31
0.0
  0
LINE
  5
71
330
69
100
AcDbEntity
  8
0
  6
SLD-Durchgehend
 62
     7
370
    50
100
AcDbLine
 10
31.56204
 20
1.3113258
 30
0.0
 11
31.594425
 21
1.3932789
 31
0.0
  0
LINE
  5
72
330
69
100
AcDbEntity
  8
0
  6
SLD-Durchgehend
 62
     7
370
    50
100
AcDbLine
 10
31.594425
 20
1.3932789
 30
0.0
 11
30.8433597
 21
1.3935456
 31
0.0
  0
LINE
  5
73
330
69
100
AcDbEntity
  8
0
  6
SLD-Durchgehend
 62
     7
370
    50
100
AcDbLine
 10
30.8433597
 20
1.3935456
 30
0.0
 11
30.8276244
 21
1.359408
 31
0.0
  0
LINE
  5
74
330
69
100
AcDbEntity
  8
0
  6
SLD-Durchgehend
 62
     7
370
    50
100
AcDbLine
 10
11.5404519
 20
0.0100965
 30
0.0
 11
11.5478433
 21
0.0100965
 31
0.0
  0
LINE
  5
75
330
69
100
AcDbEntity
  8
0
  6
SLD-Durchgehend
 62
     7
370
    50
100
AcDbLine
 10
13.644753
 20
2.3703153
 30
0.0
 11
13.6460865
 21
2.3703153
 31
0.0
  0
LINE
  5
76
330
69
100
AcDbEntity
  8
0
  6
SLD-Durchgehend
 62
     7
370
    50
100
AcDbLine
 10
13.6460865
 20
2.3703153
 30
0.0
 11
13.6460865
 21
5.9976639
 31
0.0
  0
LINE
  5
77
330
69
100
AcDbEntity
  8
0
  6
SLD-Durchgehend
 62
     7
370
    50
100
AcDbLine
 10
13.6460865
 20
5.9976639
 30
0.0
 11
12.9646299
 21
5.9976639
 31
0.0
  0
LINE
  5
78
330
69
100
AcDbEntity
  8
0
  6
SLD-Durchgehend
 62
     7
370
    50
100
AcDbLine
 10
12.9646299
 20
5.9976639
 30
0.0
 11
12.9646299
 21
4.2490644
 31
0.0
  0
LINE
  5
79
330
69
100
AcDbEntity
  8
0
  6
SLD-Durchgehend
 62
     7
370
    50
100
AcDbLine
 10
26.1839583
 20
3.7729287
 30
0.0
 11
26.2014462
 21
3.7435536
 31
0.0
  0
LINE
  5
7A
330
69
100
AcDbEntity
  8
0
  6
SLD-Durchgehend
 62
     7
370
    50
100
AcDbLine
 10
26.2014462
 20
3.7435536
 30
0.0
 11
26.8831695
 21
3.7435536
 31
0.0
  0
LINE
  5
7B
330
69
100
AcDbEntity
  8
0
  6
SLD-Durchgehend
 62
     7
370
    50
100
AcDbLine
 10
26.8831695
 20
3.7435536
 30
0.0
 11
26.8459077
 21
3.827526
 31
0.0
  0
LINE
  5
7C
330
69
100
AcDbEntity
  8
0
  6
SLD-Durchgehend
 62
     7
370
    50
100
AcDbLine
 10
25.2545088
 20
4.8678084
 30
0.0
 11
25.1957967
 21
4.867275
 31
0.0
  0
LINE
  5
7D
330
69
100
AcDbEntity
  8
0
  6
SLD-Durchgehend
 62
     7
370
    50
100
AcDbLine
 10
25.1957967
 20
4.867275
 30
0.0
 11
25.1957967
 21
4.8659415
 31
0.0
  0
LINE
  5
7E
330
69
100
AcDbEntity
  8
0
  6
SLD-Durchgehend
 62
     7
370
    50
100
AcDbLine
 10
24.191214
 20
1.3709904
 30
0.0
 11
24.1792506
 21
1.4148054
 31
0.0
  0
LINE
  5
7F
330
69
100
AcDbEntity
  8
0
  6
SLD-Durchgehend
 62
     7
370
    50
100
AcDbLine
 10
24.1792506
 20
1.4148054
 30
0.0
 11
23.4820968
 21
1.4148054
 31
0.0
  0
LINE
  5
80
330
69
100
AcDbEntity
  8
0
  6
SLD-Durchgehend
 62
     7
370
    50
100
AcDbLine
 10
23.4820968
 20
1.4148054
 30
0.0
 11
23.5064046
 21
1.3371195
 31
0.0
  0
LINE
  5
81
330
69
100
AcDbEntity
  8
0
  6
SLD-Durchgehend
 62
     7
370
    50
100
AcDbLine
 10
25.2792738
 20
0.0
 30
0.0
 11
25.3310136
 21
0.0005715
 31
0.0
  0
LINE
  5
82
330
69
100
AcDbEntity
  8
0
  6
SLD-Durchgehend
 62
     7
370
    50
100
AcDbLine
 10
32.9807316
 20
4.2326052
 30
0.0
 11
32.9807316
 21
5.9976639
 31
0.0
  0
LINE
  5
83
330
69
100
AcDbEntity
  8
0
  6
SLD-Durchgehend
 62
     7
370
    50
100
AcDbLine
 10
32.9807316
 20
5.9976639
 30
0.0
 11
32.2952364
 21
5.9976639
 31
0.0
  0
LINE
  5
84
330
69
100
AcDbEntity
  8
0
  6
SLD-Durchgehend
 62
     7
370
    50
100
AcDbLine
 10
32.2952364
 20
5.9976639
 30
0.0
 11
32.2952364
 21
0.1233678
 31
0.0
  0
LINE
  5
85
330
69
100
AcDbEntity
  8
0
  6
SLD-Durchgehend
 62
     7
370
    50
100
AcDbLine
 10
32.2952364
 20
0.1233678
 30
0.0
 11
32.9807316
 21
0.1233678
 31
0.0
  0
LINE
  5
86
330
69
100
AcDbEntity
  8
0
  6
SLD-Durchgehend
 62
     7
370
    50
100
AcDbLine
 10
32.9807316
 20
0.1233678
 30
0.0
 11
32.9807316
 21
2.8234005
 31
0.0
  0
LINE
  5
87
330
69
100
AcDbEntity
  8
0
  6
SLD-Durchgehend
 62
     7
370
    50
100
AcDbLine
 10
35.2545015
 20
3.0777942
 30
0.0
 11
35.2545015
 21
0.1233678
 31
0.0
  0
LINE
  5
88
330
69
100
AcDbEntity
  8
0
  6
SLD-Durchgehend
 62
     7
370
    50
100
AcDbLine
 10
35.2545015
 20
0.1233678
 30
0.0
 11
35.9412159
 21
0.1233678
 31
0.0
  0
LINE
  5
89
330
69
100
AcDbEntity
  8
0
  6
SLD-Durchgehend
 62
     7
370
    50
100
AcDbLine
 10
35.9412159
 20
0.1233678
 30
0.0
 11
35.9412159
 21
3.2473773
 31
0.0
  0
LINE
  5
8A
330
69
100
AcDbEntity
  8
0
  6
SLD-Durchgehend
 62
     7
370
    50
100
AcDbLine
 10
19.91487
 20
4.2401109
 30
0.0
 11
19.91487
 21
4.7685579
 31
0.0
  0
LINE
  5
8B
330
69
100
AcDbEntity
  8
0
  6
SLD-Durchgehend
 62
     7
370
    50
100
AcDbLine
 10
19.91487
 20
4.7685579
 30
0.0
 11
19.2292605
 21
4.7685579
 31
0.0
  0
LINE
  5
8C
330
69
100
AcDbEntity
  8
0
  6
SLD-Durchgehend
 62
     7
370
    50
100
AcDbLine
 10
19.2292605
 20
4.7685579
 30
0.0
 11
19.2292605
 21
0.1233678
 31
0.0
  0
LINE
  5
8D
330
69
100
AcDbEntity
  8
0
  6
SLD-Durchgehend
 62
     7
370
    50
100
AcDbLine
 10
19.2292605
 20
0.1233678
 30
0.0
 11
19.91487
 21
0.1233678
 31
0.0
  0
LINE
  5
8E
330
69
100
AcDbEntity
  8
0
  6
SLD-Durchgehend
 62
     7
370
    50
100
AcDbLine
 10
19.91487
 20
0.1233678
 30
0.0
 11
19.91487
 21
2.8229052
 31
0.0
  0
LINE
  5
8F
330
69
100
AcDbEntity
  8
0
  6
SLD-Durchgehend
 62
     7
370
    50
100
AcDbLine
 10
22.1893257
 20
3.0775275
 30
0.0
 11
22.1893257
 21
0.1233678
 31
0.0
  0
LINE
  5
90
330
69
100
AcDbEntity
  8
0
  6
SLD-Durchgehend
 62
     7
370
    50
100
AcDbLine
 10
22.1893257
 20
0.1233678
 30
0.0
 11
22.8750876
 21
0.1233678
 31
0.0
  0
LINE
  5
91
330
69
100
AcDbEntity
  8
0
  6
SLD-Durchgehend
 62
     7
370
    50
100
AcDbLine
 10
22.8750876
 20
0.1233678
 30
0.0
 11
22.8750876
 21
3.2473773
 31
0.0
  0
LINE
  5
92
330
69
100
AcDbEntity
  8
0
  6
SLD-Durchgehend
 62
     7
370
    50
100
AcDbLine
 10
16.4193474
 20
0.0100965
 30
0.0
 11
16.4241861
 21
0.0100965
 31
0.0
  0
LINE
  5
93
330
69
100
AcDbEntity
  8
0
  6
SLD-Durchgehend
 62
     7
370
    50
100
AcDbLine
 10
18.3883935
 20
1.4943582
 30
0.0
 11
18.4123203
 21
1.5715107
 31
0.0
  0
LINE
  5
94
330
69
100
AcDbEntity
  8
0
  6
SLD-Durchgehend
 62
     7
370
    50
100
AcDbLine
 10
18.4123203
 20
1.5715107
 30
0.0
 11
17.6541303
 21
1.5715107
 31
0.0
  0
LINE
  5
95
330
69
100
AcDbEntity
  8
0
  6
SLD-Durchgehend
 62
     7
370
    50
100
AcDbLine
 10
17.6541303
 20
1.5715107
 30
0.0
 11
17.6403
 21
1.5318867
 31
0.0
  0
LINE
  5
96
330
69
100
AcDbEntity
  8
0
  6
SLD-Durchgehend
 62
     7
370
    50
100
AcDbLine
 10
16.395954
 20
0.6582156
 30
0.0
 11
16.3825047
 21
0.658749
 31
0.0
  0
LINE
  5
97
330
69
100
AcDbEntity
  8
0
  6
SLD-Durchgehend
 62
     7
370
    50
100
AcDbLine
 10
15.0027894
 20
2.3422356
 30
0.0
 11
15.0025227
 21
2.4047196
 31
0.0
  0
LINE
  5
98
330
69
100
AcDbEntity
  8
0
  6
SLD-Durchgehend
 62
     7
370
    50
100
AcDbLine
 10
15.0025227
 20
2.4047196
 30
0.0
 11
18.4548018
 21
2.4047196
 31
0.0
  0
LINE
  5
99
330
69
100
AcDbEntity
  8
0
  6
SLD-Durchgehend
 62
     7
370
    50
100
AcDbLine
 10
18.4548018
 20
2.4047196
 30
0.0
 11
18.4526682
 21
2.4671655
 31
0.0
  0
LINE
  5
9A
330
69
100
AcDbEntity
  8
0
  6
SLD-Durchgehend
 62
     7
370
    50
100
AcDbLine
 10
17.6779428
 20
2.9964126
 30
0.0
 11
15.0119334
 21
2.9964126
 31
0.0
  0
LINE
  5
9B
330
69
100
AcDbEntity
  8
0
  6
SLD-Durchgehend
 62
     7
370
    50
100
AcDbLine
 10
2.1056346
 20
0.0090297
 30
0.0
 11
2.0981289
 21
0.0090297
 31
0.0
  0
LINE
  5
9C
330
69
100
AcDbEntity
  8
0
  6
SLD-Durchgehend
 62
     7
370
    50
100
AcDbLine
 10
0.0013335
 20
2.3692485
 30
0.0
 11
0.0
 21
2.3692485
 31
0.0
  0
LINE
  5
9D
330
69
100
AcDbEntity
  8
0
  6
SLD-Durchgehend
 62
     7
370
    50
100
AcDbLine
 10
0.0
 20
2.3692485
 30
0.0
 11
0.0
 21
5.9964447
 31
0.0
  0
LINE
  5
9E
330
69
100
AcDbEntity
  8
0
  6
SLD-Durchgehend
 62
     7
370
    50
100
AcDbLine
 10
0.0
 20
5.9964447
 30
0.0
 11
0.6813042
 21
5.9964447
 31
0.0
  0
LINE
  5
9F
330
69
100
AcDbEntity
  8
0
  6
SLD-Durchgehend
 62
     7
370
    50
100
AcDbLine
 10
0.6813042
 20
5.9964447
 30
0.0
 11
0.6813042
 21
4.2478452
 31
0.0
  0
LINE
  5
A0
330
69
100
AcDbEntity
  8
0
  6
SLD-Durchgehend
 62
     7
370
    50
100
AcDbLine
 10
37.4033034
 20
2.4363807
 30
0.0
 11
37.4030367
 21
2.4363807
 31
0.0
  0
LINE
  5
A1
330
69
100
AcDbEntity
  8
0
  6
SLD-Durchgehend
 62
     7
370
    50
100
AcDbLine
 10
40.9371546
 20
4.7588424
 30
0.0
 11
40.2286851
 21
4.7588424
 31
0.0
  0
LINE
  5
A2
330
69
100
AcDbEntity
  8
0
  6
SLD-Durchgehend
 62
     7
370
    50
100
AcDbLine
 10
40.2286851
 20
4.7588424
 30
0.0
 11
40.2286851
 21
4.3272837
 31
0.0
  0
LINE
  5
A3
330
69
100
AcDbEntity
  8
0
  6
SLD-Durchgehend
 62
     7
370
    50
100
AcDbLine
 10
38.8233285
 20
0.0001524
 30
0.0
 11
38.8242429
 21
0.0001524
 31
0.0
  0
LINE
  5
A4
330
69
100
AcDbEntity
  8
0
  6
SLD-Durchgehend
 62
     7
370
    50
100
AcDbLine
 10
40.2673947
 20
0.582168
 30
0.0
 11
40.3571964
 21
0.1136142
 31
0.0
  0
LINE
  5
A5
330
69
100
AcDbEntity
  8
0
  6
SLD-Durchgehend
 62
     7
370
    50
100
AcDbLine
 10
40.3571964
 20
0.1136142
 30
0.0
 11
40.9288107
 21
0.1136142
 31
0.0
  0
LINE
  5
A6
330
69
100
AcDbEntity
  8
0
  6
SLD-Durchgehend
 62
     7
370
    50
100
AcDbLine
 10
40.9288107
 20
0.1136142
 30
0.0
 11
40.9288107
 21
4.1671494
 31
0.0
  0
LINE
  5
A7
330
69
100
AcDbEntity
  8
0
  6
SLD-Durchgehend
 62
     7
370
    50
100
AcDbLine
 10
40.9288107
 20
4.1671494
 30
0.0
 11
40.9371546
 21
4.1671494
 31
0.0
  0
LINE
  5
A8
330
69
100
AcDbEntity
  8
0
  6
SLD-Durchgehend
 62
     7
370
    50
100
AcDbLine
 10
40.9371546
 20
4.1671494
 30
0.0
 11
40.9371546
 21
4.7588424
 31
0.0
  0
LINE
  5
A9
330
69
100
AcDbEntity
  8
0
  6
SLD-Durchgehend
 62
     7
370
    50
100
AcDbLine
 10
43.7019192
 20
4.1769411
 30
0.0
 11
43.7019192
 21
4.7686722
 31
0.0
  0
LINE
  5
AA
330
69
100
AcDbEntity
  8
0
  6
SLD-Durchgehend
 62
     7
370
    50
100
AcDbLine
 10
43.7019192
 20
4.7686722
 30
0.0
 11
42.9511206
 21
4.7686722
 31
0.0
  0
LINE
  5
AB
330
69
100
AcDbEntity
  8
0
  6
SLD-Durchgehend
 62
     7
370
    50
100
AcDbLine
 10
42.9511206
 20
4.7686722
 30
0.0
 11
42.9511206
 21
5.9977782
 31
0.0
  0
LINE
  5
AC
330
69
100
AcDbEntity
  8
0
  6
SLD-Durchgehend
 62
     7
370
    50
100
AcDbLine
 10
42.9511206
 20
5.9977782
 30
0.0
 11
42.2655111
 21
5.9977782
 31
0.0
  0
LINE
  5
AD
330
69
100
AcDbEntity
  8
0
  6
SLD-Durchgehend
 62
     7
370
    50
100
AcDbLine
 10
42.2655111
 20
5.9977782
 30
0.0
 11
42.2655111
 21
4.7686722
 31
0.0
  0
LINE
  5
AE
330
69
100
AcDbEntity
  8
0
  6
SLD-Durchgehend
 62
     7
370
    50
100
AcDbLine
 10
42.2655111
 20
4.7686722
 30
0.0
 11
41.714166
 21
4.7686722
 31
0.0
  0
LINE
  5
AF
330
69
100
AcDbEntity
  8
0
  6
SLD-Durchgehend
 62
     7
370
    50
100
AcDbLine
 10
41.714166
 20
4.7686722
 30
0.0
 11
41.714166
 21
4.1769411
 31
0.0
  0
LINE
  5
B0
330
69
100
AcDbEntity
  8
0
  6
SLD-Durchgehend
 62
     7
370
    50
100
AcDbLine
 10
41.714166
 20
4.1769411
 30
0.0
 11
42.2655111
 21
4.1769411
 31
0.0
  0
LINE
  5
B1
330
69
100
AcDbEntity
  8
0
  6
SLD-Durchgehend
 62
     7
370
    50
100
AcDbLine
 10
42.2655111
 20
4.1769411
 30
0.0
 11
42.2655111
 21
0.8719185
 31
0.0
  0
LINE
  5
B2
330
69
100
AcDbEntity
  8
0
  6
SLD-Durchgehend
 62
     7
370
    50
100
AcDbLine
 10
43.7019192
 20
0.1016508
 30
0.0
 11
43.7019192
 21
0.6854952
 31
0.0
  0
LINE
  5
B3
330
69
100
AcDbEntity
  8
0
  6
SLD-Durchgehend
 62
     7
370
    50
100
AcDbLine
 10
43.7019192
 20
0.6854952
 30
0.0
 11
43.2214401
 21
0.6854952
 31
0.0
  0
LINE
  5
B4
330
69
100
AcDbEntity
  8
0
  6
SLD-Durchgehend
 62
     7
370
    50
100
AcDbLine
 10
42.9511206
 20
1.2490704
 30
0.0
 11
42.9511206
 21
4.1769411
 31
0.0
  0
LINE
  5
B5
330
69
100
AcDbEntity
  8
0
  6
SLD-Durchgehend
 62
     7
370
    50
100
AcDbLine
 10
42.9511206
 20
4.1769411
 30
0.0
 11
43.7019192
 21
4.1769411
 31
0.0
  0
LINE
  5
B6
330
69
100
AcDbEntity
  8
0
  6
SLD-Durchgehend
 62
     7
370
    50
100
AcDbLine
 10
45.4409175
 20
0.7226046
 30
0.0
 11
47.9055684
 21
4.3866054
 31
0.0
  0
LINE
  5
B7
330
69
100
AcDbEntity
  8
0
  6
SLD-Durchgehend
 62
     7
370
    50
100
AcDbLine
 10
47.9055684
 20
4.3866054
 30
0.0
 11
47.9055684
 21
4.7761779
 31
0.0
  0
LINE
  5
B8
330
69
100
AcDbEntity
  8
0
  6
SLD-Durchgehend
 62
     7
370
    50
100
AcDbLine
 10
47.9055684
 20
4.7761779
 30
0.0
 11
44.5238505
 21
4.7761779
 31
0.0
  0
LINE
  5
B9
330
69
100
AcDbEntity
  8
0
  6
SLD-Durchgehend
 62
     7
370
    50
100
AcDbLine
 10
44.5238505
 20
4.7761779
 30
0.0
 11
44.5238505
 21
4.1845611
 31
0.0
  0
LINE
  5
BA
330
69
100
AcDbEntity
  8
0
  6
SLD-Durchgehend
 62
     7
370
    50
100
AcDbLine
 10
44.5238505
 20
4.1845611
 30
0.0
 11
46.9404954
 21
4.1849802
 31
0.0
  0
LINE
  5
BB
330
69
100
AcDbEntity
  8
0
  6
SLD-Durchgehend
 62
     7
370
    50
100
AcDbLine
 10
46.9404954
 20
4.1849802
 30
0.0
 11
44.5238505
 21
0.5978652
 31
0.0
  0
LINE
  5
BC
330
69
100
AcDbEntity
  8
0
  6
SLD-Durchgehend
 62
     7
370
    50
100
AcDbLine
 10
44.5238505
 20
0.5978652
 30
0.0
 11
44.5238505
 21
0.1309497
 31
0.0
  0
LINE
  5
BD
330
69
100
AcDbEntity
  8
0
  6
SLD-Durchgehend
 62
     7
370
    50
100
AcDbLine
 10
44.5238505
 20
0.1309497
 30
0.0
 11
47.9426397
 21
0.1309497
 31
0.0
  0
LINE
  5
BE
330
69
100
AcDbEntity
  8
0
  6
SLD-Durchgehend
 62
     7
370
    50
100
AcDbLine
 10
47.9426397
 20
0.1309497
 30
0.0
 11
47.9426397
 21
0.7226046
 31
0.0
  0
LINE
  5
BF
330
69
100
AcDbEntity
  8
0
  6
SLD-Durchgehend
 62
     7
370
    50
100
AcDbLine
 10
47.9426397
 20
0.7226046
 30
0.0
 11
45.4409175
 21
0.7226046
 31
0.0
  0
SPLINE
  5
C0
330
69
100
AcDbEntity
  8
0
  6
Continuous
 62
     8
420
  8421504
370
    50
100
AcDbSpline
210
0.0
220
0.0
230
1.0
 70
     8
 71
     3
 72
     8
 73
     4
 74
     0
 42
0.00000001
 43
0.00000001
 40
0.0
 40
0.0
 40
0.0
 40
0.0
 40
0.1
 40
0.1
 40
0.1
 40
0.1
 10
6.814375499999999
 20
4.881448199999999
 30
0.0
 10
6.234531599999998
 20
4.881943499999997
 30
0.0
 10
5.705093999999997
 20
4.668545400000001
 30
0.0
 10
5.323103399999995
 20
4.2542841
 30
0.0
  0
SPLINE
  5
C1
330
69
100
AcDbEntity
  8
0
  6
Continuous
 62
     8
420
  8421504
370
    50
100
AcDbSpline
210
0.0
220
0.0
230
1.0
 70
     8
 71
     3
 72
     8
 73
     4
 74
     0
 42
0.00000001
 43
0.00000001
 40
0.1
 40
0.1
 40
0.1
 40
0.1
 40
0.2
 40
0.2
 40
0.2
 40
0.2
 10
5.323103399999995
 20
4.2542841
 30
0.0
 10
4.9413795
 20
3.8409372
 30
0.0
 10
4.708740899999999
 20
3.230308499999998
 30
0.0
 10
4.708740899999999
 20
2.446172400000005
 30
0.0
  0
SPLINE
  5
C2
330
69
100
AcDbEntity
  8
0
  6
Continuous
 62
     8
420
  8421504
370
    50
100
AcDbSpline
210
0.0
220
0.0
230
1.0
 70
     8
 71
     3
 72
     8
 73
     4
 74
     0
 42
0.00000001
 43
0.00000001
 40
0.2
 40
0.2
 40
0.2
 40
0.2
 40
0.3
 40
0.3
 40
0.3
 40
0.3
 10
4.708740899999999
 20
2.446172400000005
 30
0.0
 10
4.708740899999999
 20
1.661312400000001
 30
0.0
 10
4.9413795
 20
1.051217100000001
 30
0.0
 10
5.323103399999995
 20
0.6374892000000021
 30
0.0
  0
SPLINE
  5
C3
330
69
100
AcDbEntity
  8
0
  6
Continuous
 62
     8
420
  8421504
370
    50
100
AcDbSpline
210
0.0
220
0.0
230
1.0
 70
     8
 71
     3
 72
     8
 73
     4
 74
     0
 42
0.00000001
 43
0.00000001
 40
0.3
 40
0.3
 40
0.3
 40
0.3
 40
0.4
 40
0.4
 40
0.4
 40
0.4
 10
5.323103399999995
 20
0.6374892000000021
 30
0.0
 10
5.705093999999997
 20
0.2245233000000013
 30
0.0
 10
6.234531599999998
 20
0.0100964999999981
 30
0.0
 10
6.814375499999999
 20
0.0100964999999981
 30
0.0
  0
SPLINE
  5
C4
330
69
100
AcDbEntity
  8
0
  6
Continuous
 62
     8
420
  8421504
370
    50
100
AcDbSpline
210
0.0
220
0.0
230
1.0
 70
     8
 71
     3
 72
     8
 73
     4
 74
     0
 42
0.00000001
 43
0.00000001
 40
0.5
 40
0.5
 40
0.5
 40
0.5
 40
0.6
 40
0.6
 40
0.6
 40
0.6
 10
6.816509099999999
 20
0.0100964999999981
 30
0.0
 10
7.395705299999992
 20
0.0100964999999981
 30
0.0
 10
7.924037999999996
 20
0.2245233000000013
 30
0.0
 10
8.305761899999997
 20
0.6374892000000021
 30
0.0
  0
SPLINE
  5
C5
330
69
100
AcDbEntity
  8
0
  6
Continuous
 62
     8
420
  8421504
370
    50
100
AcDbSpline
210
0.0
220
0.0
230
1.0
 70
     8
 71
     3
 72
     8
 73
     4
 74
     0
 42
0.00000001
 43
0.00000001
 40
0.6
 40
0.6
 40
0.6
 40
0.6
 40
0.7
 40
0.7
 40
0.7
 40
0.7
 10
8.305761899999997
 20
0.6374892000000021
 30
0.0
 10
8.687752499999998
 20
1.051217100000001
 30
0.0
 10
8.920543499999997
 20
1.661312400000001
 30
0.0
 10
8.920543499999997
 20
2.446172400000005
 30
0.0
  0
SPLINE
  5
C6
330
69
100
AcDbEntity
  8
0
  6
Continuous
 62
     8
420
  8421504
370
    50
100
AcDbSpline
210
0.0
220
0.0
230
1.0
 70
     8
 71
     3
 72
     8
 73
     4
 74
     0
 42
0.00000001
 43
0.00000001
 40
0.7
 40
0.7
 40
0.7
 40
0.7
 40
0.8
 40
0.8
 40
0.8
 40
0.8
 10
8.920543499999997
 20
2.446172400000005
 30
0.0
 10
8.920543499999997
 20
3.230308499999998
 30
0.0
 10
8.687752499999998
 20
3.8409372
 30
0.0
 10
8.305761899999997
 20
4.2542841
 30
0.0
  0
SPLINE
  5
C7
330
69
100
AcDbEntity
  8
0
  6
Continuous
 62
     8
420
  8421504
370
    50
100
AcDbSpline
210
0.0
220
0.0
230
1.0
 70
     8
 71
     3
 72
     8
 73
     4
 74
     0
 42
0.00000001
 43
0.00000001
 40
0.8
 40
0.8
 40
0.8
 40
0.8
 40
1.0
 40
1.0
 40
1.0
 40
1.0
 10
8.305761899999997
 20
4.2542841
 30
0.0
 10
7.924037999999996
 20
4.668545400000001
 30
0.0
 10
7.394867099999997
 20
4.881943499999997
 30
0.0
 10
6.814375499999999
 20
4.881448199999999
 30
0.0
  0
SPLINE
  5
C8
330
69
100
AcDbEntity
  8
0
  6
Continuous
 62
     8
420
  8421504
370
    50
100
AcDbSpline
210
0.0
220
0.0
230
1.0
 70
     8
 71
     3
 72
     8
 73
     4
 74
     0
 42
0.00000001
 43
0.00000001
 40
0.0
 40
0.0
 40
0.0
 40
0.0
 40
0.2
 40
0.2
 40
0.2
 40
0.2
 10
6.814375499999999
 20
0.6582156000000006
 30
0.0
 10
6.012484799999998
 20
0.6605015999999964
 30
0.0
 10
5.398655700000001
 20
1.2982575
 30
0.0
 10
5.394502799999997
 20
2.446172400000005
 30
0.0
  0
SPLINE
  5
C9
330
69
100
AcDbEntity
  8
0
  6
Continuous
 62
     8
420
  8421504
370
    50
100
AcDbSpline
210
0.0
220
0.0
230
1.0
 70
     8
 71
     3
 72
     8
 73
     4
 74
     0
 42
0.00000001
 43
0.00000001
 40
0.2
 40
0.2
 40
0.2
 40
0.2
 40
0.4
 40
0.4
 40
0.4
 40
0.4
 10
5.394502799999997
 20
2.446172400000005
 30
0.0
 10
5.398122299999999
 20
3.584981399999998
 30
0.0
 10
6.013018199999998
 20
4.2318051
 30
0.0
 10
6.814375499999999
 20
4.233405299999998
 30
0.0
  0
SPLINE
  5
CA
330
69
100
AcDbEntity
  8
0
  6
Continuous
 62
     8
420
  8421504
370
    50
100
AcDbSpline
210
0.0
220
0.0
230
1.0
 70
     8
 71
     3
 72
     8
 73
     4
 74
     0
 42
0.00000001
 43
0.00000001
 40
0.4
 40
0.4
 40
0.4
 40
0.4
 40
0.6
 40
0.6
 40
0.6
 40
0.6
 10
6.814375499999999
 20
4.233405299999998
 30
0.0
 10
7.616380499999997
 20
4.2318051
 30
0.0
 10
8.2307811
 20
3.584981399999998
 30
0.0
 10
8.234400599999997
 20
2.446172400000005
 30
0.0
  0
SPLINE
  5
CB
330
69
100
AcDbEntity
  8
0
  6
Continuous
 62
     8
420
  8421504
370
    50
100
AcDbSpline
210
0.0
220
0.0
230
1.0
 70
     8
 71
     3
 72
     8
 73
     4
 74
     0
 42
0.00000001
 43
0.00000001
 40
0.6
 40
0.6
 40
0.6
 40
0.6
 40
1.0
 40
1.0
 40
1.0
 40
1.0
 10
8.234400599999997
 20
2.446172400000005
 30
0.0
 10
8.2307811
 20
1.2982575
 30
0.0
 10
7.616913899999999
 20
0.6605015999999964
 30
0.0
 10
6.814375499999999
 20
0.6582156000000006
 30
0.0
  0
SPLINE
  5
CC
330
69
100
AcDbEntity
  8
0
  6
Continuous
 62
     8
420
  8421504
370
    50
100
AcDbSpline
210
0.0
220
0.0
230
1.0
 70
     8
 71
     3
 72
     8
 73
     4
 74
     0
 42
0.00000001
 43
0.00000001
 40
0.0
 40
0.0
 40
0.0
 40
0.0
 40
0.0625
 40
0.0625
 40
0.0625
 40
0.0625
 10
30.8276244
 20
1.359408000000004
 30
0.0
 10
30.6352956
 20
0.9622154999999939
 30
0.0
 10
30.2848899
 20
0.6605015999999964
 30
0.0
 10
29.6000805
 20
0.6582156000000006
 30
0.0
  0
SPLINE
  5
CD
330
69
100
AcDbEntity
  8
0
  6
Continuous
 62
     8
420
  8421504
370
    50
100
AcDbSpline
210
0.0
220
0.0
230
1.0
 70
     8
 71
     3
 72
     8
 73
     4
 74
     0
 42
0.00000001
 43
0.00000001
 40
0.0625
 40
0.0625
 40
0.0625
 40
0.0625
 40
0.125
 40
0.125
 40
0.125
 40
0.125
 10
29.6000805
 20
0.6582156000000006
 30
0.0
 10
28.9179762
 20
0.6601205999999971
 30
0.0
 10
28.1824938
 20
1.227048600000002
 30
0.0
 10
28.18032209999999
 20
2.446172400000005
 30
0.0
  0
SPLINE
  5
CE
330
69
100
AcDbEntity
  8
0
  6
Continuous
 62
     8
420
  8421504
370
    50
100
AcDbSpline
210
0.0
220
0.0
230
1.0
 70
     8
 71
     3
 72
     8
 73
     4
 74
     0
 42
0.00000001
 43
0.00000001
 40
0.125
 40
0.125
 40
0.125
 40
0.125
 40
0.1875
 40
0.1875
 40
0.1875
 40
0.1875
 10
28.18032209999999
 20
2.446172400000005
 30
0.0
 10
28.18302719999999
 20
3.6645342
 30
0.0
 10
28.9156902
 20
4.230509699999999
 30
0.0
 10
29.6565447
 20
4.233405299999998
 30
0.0
  0
SPLINE
  5
CF
330
69
100
AcDbEntity
  8
0
  6
Continuous
 62
     8
420
  8421504
370
    50
100
AcDbSpline
210
0.0
220
0.0
230
1.0
 70
     8
 71
     3
 72
     8
 73
     4
 74
     0
 42
0.00000001
 43
0.00000001
 40
0.1875
 40
0.1875
 40
0.1875
 40
0.1875
 40
0.25
 40
0.25
 40
0.25
 40
0.25
 10
29.6565447
 20
4.233405299999998
 30
0.0
 10
30.1868967
 20
4.2318051
 30
0.0
 10
30.5905281
 20
4.075899900000002
 30
0.0
 10
30.7692933
 20
3.701262600000002
 30
0.0
  0
SPLINE
  5
D0
330
69
100
AcDbEntity
  8
0
  6
Continuous
 62
     8
420
  8421504
370
    50
100
AcDbSpline
210
0.0
220
0.0
230
1.0
 70
     8
 71
     3
 72
     8
 73
     4
 74
     0
 42
0.00000001
 43
0.00000001
 40
0.4375
 40
0.4375
 40
0.4375
 40
0.4375
 40
0.5
 40
0.5
 40
0.5
 40
0.5
 10
31.4910597
 20
3.746411100000003
 30
0.0
 10
31.0765698
 20
4.699520700000001
 30
0.0
 10
30.3072165
 20
4.884839099999996
 30
0.0
 10
29.7316779
 20
4.881448199999999
 30
0.0
  0
SPLINE
  5
D1
330
69
100
AcDbEntity
  8
0
  6
Continuous
 62
     8
420
  8421504
370
    50
100
AcDbSpline
210
0.0
220
0.0
230
1.0
 70
     8
 71
     3
 72
     8
 73
     4
 74
     0
 42
0.00000001
 43
0.00000001
 40
0.5
 40
0.5
 40
0.5
 40
0.5
 40
0.5625
 40
0.5625
 40
0.5625
 40
0.5625
 10
29.7316779
 20
4.881448199999999
 30
0.0
 10
28.3977969
 20
4.884839099999996
 30
0.0
 10
27.5088096
 20
3.8931723
 30
0.0
 10
27.49429349999999
 20
2.446439099999998
 30
0.0
  0
SPLINE
  5
D2
330
69
100
AcDbEntity
  8
0
  6
Continuous
 62
     8
420
  8421504
370
    50
100
AcDbSpline
210
0.0
220
0.0
230
1.0
 70
     8
 71
     3
 72
     8
 73
     4
 74
     0
 42
0.00000001
 43
0.00000001
 40
0.5625
 40
0.5625
 40
0.5625
 40
0.5625
 40
0.625
 40
0.625
 40
0.625
 40
0.625
 10
27.49429349999999
 20
2.446439099999998
 30
0.0
 10
27.5105622
 20
0.9973436999999976
 30
0.0
 10
28.4315535
 20
0.0090297000000017
 30
0.0
 10
29.6000805
 20
0.0100964999999981
 30
0.0
  0
SPLINE
  5
D3
330
69
100
AcDbEntity
  8
0
  6
Continuous
 62
     8
420
  8421504
370
    50
100
AcDbSpline
210
0.0
220
0.0
230
1.0
 70
     8
 71
     3
 72
     8
 73
     4
 74
     0
 42
0.00000001
 43
0.00000001
 40
0.6875
 40
0.6875
 40
0.6875
 40
0.6875
 40
0.75
 40
0.75
 40
0.75
 40
0.75
 10
29.612844
 20
0.0100964999999981
 30
0.0
 10
30.60089129999999
 20
0.0100964999999981
 30
0.0
 10
31.22801729999999
 20
0.450837300000001
 30
0.0
 10
31.56204
 20
1.311325799999999
 30
0.0
  0
SPLINE
  5
D4
330
69
100
AcDbEntity
  8
0
  6
Continuous
 62
     8
420
  8421504
370
    50
100
AcDbSpline
210
0.0
220
0.0
230
1.0
 70
     8
 71
     3
 72
     8
 73
     4
 74
     0
 42
0.00000001
 43
0.00000001
 40
0.0
 40
0.0
 40
0.0
 40
0.0
 40
0.0769230769230769
 40
0.0769230769230769
 40
0.0769230769230769
 40
0.0769230769230769
 10
12.9646299
 20
4.2490644
 30
0.0
 10
12.63289319999999
 20
4.652810099999999
 30
0.0
 10
12.08840609999999
 20
4.881943499999997
 30
0.0
 10
11.5404519
 20
4.881943499999997
 30
0.0
  0
SPLINE
  5
D5
330
69
100
AcDbEntity
  8
0
  6
Continuous
 62
     8
420
  8421504
370
    50
100
AcDbSpline
210
0.0
220
0.0
230
1.0
 70
     8
 71
     3
 72
     8
 73
     4
 74
     0
 42
0.00000001
 43
0.00000001
 40
0.0769230769230769
 40
0.0769230769230769
 40
0.0769230769230769
 40
0.0769230769230769
 40
0.1538461538461539
 40
0.1538461538461539
 40
0.1538461538461539
 40
0.1538461538461539
 10
11.5404519
 20
4.881943499999997
 30
0.0
 10
10.9600746
 20
4.881943499999997
 30
0.0
 10
10.43090369999999
 20
4.668545400000001
 30
0.0
 10
10.0491798
 20
4.2542841
 30
0.0
  0
SPLINE
  5
D6
330
69
100
AcDbEntity
  8
0
  6
Continuous
 62
     8
420
  8421504
370
    50
100
AcDbSpline
210
0.0
220
0.0
230
1.0
 70
     8
 71
     3
 72
     8
 73
     4
 74
     0
 42
0.00000001
 43
0.00000001
 40
0.1538461538461539
 40
0.1538461538461539
 40
0.1538461538461539
 40
0.1538461538461539
 40
0.2307692307692308
 40
0.2307692307692308
 40
0.2307692307692308
 40
0.2307692307692308
 10
10.0491798
 20
4.2542841
 30
0.0
 10
9.667074899999996
 20
3.8409372
 30
0.0
 10
9.434398199999999
 20
3.230308499999998
 30
0.0
 10
9.434398199999999
 20
2.446172400000005
 30
0.0
  0
SPLINE
  5
D7
330
69
100
AcDbEntity
  8
0
  6
Continuous
 62
     8
420
  8421504
370
    50
100
AcDbSpline
210
0.0
220
0.0
230
1.0
 70
     8
 71
     3
 72
     8
 73
     4
 74
     0
 42
0.00000001
 43
0.00000001
 40
0.2307692307692308
 40
0.2307692307692308
 40
0.2307692307692308
 40
0.2307692307692308
 40
0.3076923076923077
 40
0.3076923076923077
 40
0.3076923076923077
 40
0.3076923076923077
 10
9.434398199999999
 20
2.446172400000005
 30
0.0
 10
9.434398199999999
 20
1.661312400000001
 30
0.0
 10
9.667074899999996
 20
1.051217100000001
 30
0.0
 10
10.0491798
 20
0.6374892000000021
 30
0.0
  0
SPLINE
  5
D8
330
69
100
AcDbEntity
  8
0
  6
Continuous
 62
     8
420
  8421504
370
    50
100
AcDbSpline
210
0.0
220
0.0
230
1.0
 70
     8
 71
     3
 72
     8
 73
     4
 74
     0
 42
0.00000001
 43
0.00000001
 40
0.3076923076923077
 40
0.3076923076923077
 40
0.3076923076923077
 40
0.3076923076923077
 40
0.3846153846153846
 40
0.3846153846153846
 40
0.3846153846153846
 40
0.3846153846153846
 10
10.0491798
 20
0.6374892000000021
 30
0.0
 10
10.43090369999999
 20
0.2245233000000013
 30
0.0
 10
10.9600746
 20
0.0100964999999981
 30
0.0
 10
11.5404519
 20
0.0100964999999981
 30
0.0
  0
SPLINE
  5
D9
330
69
100
AcDbEntity
  8
0
  6
Continuous
 62
     8
420
  8421504
370
    50
100
AcDbSpline
210
0.0
220
0.0
230
1.0
 70
     8
 71
     3
 72
     8
 73
     4
 74
     0
 42
0.00000001
 43
0.00000001
 40
0.4615384615384616
 40
0.4615384615384616
 40
0.4615384615384616
 40
0.4615384615384616
 40
0.5384615384615384
 40
0.5384615384615384
 40
0.5384615384615384
 40
0.5384615384615384
 10
11.5478433
 20
0.0100964999999981
 30
0.0
 10
12.5283468
 20
0.0100964999999981
 30
0.0
 10
13.3689471
 20
0.5975984999999989
 30
0.0
 10
13.5869553
 20
1.757362499999995
 30
0.0
  0
SPLINE
  5
DA
330
69
100
AcDbEntity
  8
0
  6
Continuous
 62
     8
420
  8421504
370
    50
100
AcDbSpline
210
0.0
220
0.0
230
1.0
 70
     8
 71
     3
 72
     8
 73
     4
 74
     0
 42
0.00000001
 43
0.00000001
 40
0.5384615384615384
 40
0.5384615384615384
 40
0.5384615384615384
 40
0.5384615384615384
 40
0.6153846153846154
 40
0.6153846153846154
 40
0.6153846153846154
 40
0.6153846153846154
 10
13.5869553
 20
1.757362499999995
 30
0.0
 10
13.6296654
 20
1.984400399999998
 30
0.0
 10
13.644753
 20
2.240127599999994
 30
0.0
 10
13.644753
 20
2.370315299999998
 30
0.0
  0
SPLINE
  5
DB
330
69
100
AcDbEntity
  8
0
  6
Continuous
 62
     8
420
  8421504
370
    50
100
AcDbSpline
210
0.0
220
0.0
230
1.0
 70
     8
 71
     3
 72
     8
 73
     4
 74
     0
 42
0.00000001
 43
0.00000001
 40
0.0
 40
0.0
 40
0.0
 40
0.0
 40
0.2
 40
0.2
 40
0.2
 40
0.2
 10
11.5404519
 20
0.6582156000000006
 30
0.0
 10
10.7377611
 20
0.6605015999999964
 30
0.0
 10
10.12419869999999
 20
1.2982575
 30
0.0
 10
10.1202744
 20
2.446172400000005
 30
0.0
  0
SPLINE
  5
DC
330
69
100
AcDbEntity
  8
0
  6
Continuous
 62
     8
420
  8421504
370
    50
100
AcDbSpline
210
0.0
220
0.0
230
1.0
 70
     8
 71
     3
 72
     8
 73
     4
 74
     0
 42
0.00000001
 43
0.00000001
 40
0.2
 40
0.2
 40
0.2
 40
0.2
 40
0.4
 40
0.4
 40
0.4
 40
0.4
 10
10.1202744
 20
2.446172400000005
 30
0.0
 10
10.12419869999999
 20
3.584981399999998
 30
0.0
 10
10.7382945
 20
4.2318051
 30
0.0
 10
11.5404519
 20
4.233405299999998
 30
0.0
  0
SPLINE
  5
DD
330
69
100
AcDbEntity
  8
0
  6
Continuous
 62
     8
420
  8421504
370
    50
100
AcDbSpline
210
0.0
220
0.0
230
1.0
 70
     8
 71
     3
 72
     8
 73
     4
 74
     0
 42
0.00000001
 43
0.00000001
 40
0.4
 40
0.4
 40
0.4
 40
0.4
 40
0.6
 40
0.6
 40
0.6
 40
0.6
 10
11.5404519
 20
4.233405299999998
 30
0.0
 10
12.3420378
 20
4.2318051
 30
0.0
 10
12.9602103
 20
3.6555807
 30
0.0
 10
12.9602103
 20
2.446172400000005
 30
0.0
  0
SPLINE
  5
DE
330
69
100
AcDbEntity
  8
0
  6
Continuous
 62
     8
420
  8421504
370
    50
100
AcDbSpline
210
0.0
220
0.0
230
1.0
 70
     8
 71
     3
 72
     8
 73
     4
 74
     0
 42
0.00000001
 43
0.00000001
 40
0.6
 40
0.6
 40
0.6
 40
0.6
 40
1.0
 40
1.0
 40
1.0
 40
1.0
 10
12.9602103
 20
2.446172400000005
 30
0.0
 10
12.967335
 20
1.196644800000002
 30
0.0
 10
12.3424569
 20
0.6605015999999964
 30
0.0
 10
11.5404519
 20
0.6582156000000006
 30
0.0
  0
SPLINE
  5
DF
330
69
100
AcDbEntity
  8
0
  6
Continuous
 62
     8
420
  8421504
370
    50
100
AcDbSpline
210
0.0
220
0.0
230
1.0
 70
     8
 71
     3
 72
     8
 73
     4
 74
     0
 42
0.00000001
 43
0.00000001
 40
0.0
 40
0.0
 40
0.0
 40
0.0
 40
0.04
 40
0.04
 40
0.04
 40
0.04
 10
25.6488819
 20
2.791396499999999
 30
0.0
 10
25.312878
 20
2.868548999999998
 30
0.0
 10
24.9795411
 20
2.926080000000001
 30
0.0
 10
24.73962539999999
 20
3.032645699999998
 30
0.0
  0
SPLINE
  5
E0
330
69
100
AcDbEntity
  8
0
  6
Continuous
 62
     8
420
  8421504
370
    50
100
AcDbSpline
210
0.0
220
0.0
230
1.0
 70
     8
 71
     3
 72
     8
 73
     4
 74
     0
 42
0.00000001
 43
0.00000001
 40
0.04
 40
0.04
 40
0.04
 40
0.04
 40
0.08
 40
0.08
 40
0.08
 40
0.08
 10
24.73962539999999
 20
3.032645699999998
 30
0.0
 10
24.4982238
 20
3.142107000000002
 30
0.0
 10
24.3593493
 20
3.278619299999999
 30
0.0
 10
24.3570633
 20
3.544824000000002
 30
0.0
  0
SPLINE
  5
E1
330
69
100
AcDbEntity
  8
0
  6
Continuous
 62
     8
420
  8421504
370
    50
100
AcDbSpline
210
0.0
220
0.0
230
1.0
 70
     8
 71
     3
 72
     8
 73
     4
 74
     0
 42
0.00000001
 43
0.00000001
 40
0.08
 40
0.08
 40
0.08
 40
0.08
 40
0.12
 40
0.12
 40
0.12
 40
0.12
 10
24.3570633
 20
3.544824000000002
 30
0.0
 10
24.366474
 20
3.956456399999997
 30
0.0
 10
24.5171595
 20
4.237062899999997
 30
0.0
 10
25.2667389
 20
4.273181700000003
 30
0.0
  0
SPLINE
  5
E2
330
69
100
AcDbEntity
  8
0
  6
Continuous
 62
     8
420
  8421504
370
    50
100
AcDbSpline
210
0.0
220
0.0
230
1.0
 70
     8
 71
     3
 72
     8
 73
     4
 74
     0
 42
0.00000001
 43
0.00000001
 40
0.12
 40
0.12
 40
0.12
 40
0.12
 40
0.16
 40
0.16
 40
0.16
 40
0.16
 10
25.2667389
 20
4.273181700000003
 30
0.0
 10
25.7064129
 20
4.269790799999998
 30
0.0
 10
25.99833509999999
 20
4.084548599999996
 30
0.0
 10
26.1839583
 20
3.7729287
 30
0.0
  0
SPLINE
  5
E3
330
69
100
AcDbEntity
  8
0
  6
Continuous
 62
     8
420
  8421504
370
    50
100
AcDbSpline
210
0.0
220
0.0
230
1.0
 70
     8
 71
     3
 72
     8
 73
     4
 74
     0
 42
0.00000001
 43
0.00000001
 40
0.28
 40
0.28
 40
0.28
 40
0.28
 40
0.32
 40
0.32
 40
0.32
 40
0.32
 10
26.8459077
 20
3.827525999999998
 30
0.0
 10
26.5467465
 20
4.5057822
 30
0.0
 10
25.962864
 20
4.870132500000002
 30
0.0
 10
25.2976761
 20
4.869103800000002
 30
0.0
  0
SPLINE
  5
E4
330
69
100
AcDbEntity
  8
0
  6
Continuous
 62
     8
420
  8421504
370
    50
100
AcDbSpline
210
0.0
220
0.0
230
1.0
 70
     8
 71
     3
 72
     8
 73
     4
 74
     0
 42
0.00000001
 43
0.00000001
 40
0.32
 40
0.32
 40
0.32
 40
0.32
 40
0.36
 40
0.36
 40
0.36
 40
0.36
 10
25.2976761
 20
4.869103800000002
 30
0.0
 10
25.28072159999999
 20
4.869103800000002
 30
0.0
 10
25.2667389
 20
4.867808400000001
 30
0.0
 10
25.2545088
 20
4.867808400000001
 30
0.0
  0
SPLINE
  5
E5
330
69
100
AcDbEntity
  8
0
  6
Continuous
 62
     8
420
  8421504
370
    50
100
AcDbSpline
210
0.0
220
0.0
230
1.0
 70
     8
 71
     3
 72
     8
 73
     4
 74
     0
 42
0.00000001
 43
0.00000001
 40
0.44
 40
0.44
 40
0.44
 40
0.44
 40
0.48
 40
0.48
 40
0.48
 40
0.48
 10
25.1957967
 20
4.865941500000002
 30
0.0
 10
24.21502649999999
 20
4.8373284
 30
0.0
 10
23.6691678
 20
4.231309800000003
 30
0.0
 10
23.67133949999999
 20
3.563721599999997
 30
0.0
  0
SPLINE
  5
E6
330
69
100
AcDbEntity
  8
0
  6
Continuous
 62
     8
420
  8421504
370
    50
100
AcDbSpline
210
0.0
220
0.0
230
1.0
 70
     8
 71
     3
 72
     8
 73
     4
 74
     0
 42
0.00000001
 43
0.00000001
 40
0.48
 40
0.48
 40
0.48
 40
0.48
 40
0.52
 40
0.52
 40
0.52
 40
0.52
 10
23.67133949999999
 20
3.563721599999997
 30
0.0
 10
23.6689011
 20
2.621013300000002
 30
0.0
 10
24.39268679999999
 20
2.407081799999997
 30
0.0
 10
25.0581414
 20
2.279484900000003
 30
0.0
  0
SPLINE
  5
E7
330
69
100
AcDbEntity
  8
0
  6
Continuous
 62
     8
420
  8421504
370
    50
100
AcDbSpline
210
0.0
220
0.0
230
1.0
 70
     8
 71
     3
 72
     8
 73
     4
 74
     0
 42
0.00000001
 43
0.00000001
 40
0.52
 40
0.52
 40
0.52
 40
0.52
 40
0.56
 40
0.56
 40
0.56
 40
0.56
 10
25.0581414
 20
2.279484900000003
 30
0.0
 10
25.3939167
 20
2.211743099999997
 30
0.0
 10
25.7260344
 20
2.158212599999996
 30
0.0
 10
25.9643499
 20
2.043226800000001
 30
0.0
  0
SPLINE
  5
E8
330
69
100
AcDbEntity
  8
0
  6
Continuous
 62
     8
420
  8421504
370
    50
100
AcDbSpline
210
0.0
220
0.0
230
1.0
 70
     8
 71
     3
 72
     8
 73
     4
 74
     0
 42
0.00000001
 43
0.00000001
 40
0.56
 40
0.56
 40
0.56
 40
0.56
 40
0.6
 40
0.6
 40
0.6
 40
0.6
 10
25.9643499
 20
2.043226800000001
 30
0.0
 10
26.2027797
 20
1.925345399999998
 30
0.0
 10
26.345388
 20
1.767039899999998
 30
0.0
 10
26.3484741
 20
1.452029100000005
 30
0.0
  0
SPLINE
  5
E9
330
69
100
AcDbEntity
  8
0
  6
Continuous
 62
     8
420
  8421504
370
    50
100
AcDbSpline
210
0.0
220
0.0
230
1.0
 70
     8
 71
     3
 72
     8
 73
     4
 74
     0
 42
0.00000001
 43
0.00000001
 40
0.6
 40
0.6
 40
0.6
 40
0.6
 40
0.64
 40
0.64
 40
0.64
 40
0.64
 10
26.3484741
 20
1.452029100000005
 30
0.0
 10
26.3482074
 20
0.7650861000000038
 30
0.0
 10
25.7924427
 20
0.6081141000000012
 30
0.0
 10
25.3281942
 20
0.5886069000000023
 30
0.0
  0
SPLINE
  5
EA
330
69
100
AcDbEntity
  8
0
  6
Continuous
 62
     8
420
  8421504
370
    50
100
AcDbSpline
210
0.0
220
0.0
230
1.0
 70
     8
 71
     3
 72
     8
 73
     4
 74
     0
 42
0.00000001
 43
0.00000001
 40
0.64
 40
0.64
 40
0.64
 40
0.64
 40
0.68
 40
0.68
 40
0.68
 40
0.68
 10
25.3281942
 20
0.5886069000000023
 30
0.0
 10
24.9371739
 20
0.5970650999999966
 30
0.0
 10
24.3777897
 20
0.7282052999999984
 30
0.0
 10
24.191214
 20
1.370990400000002
 30
0.0
  0
SPLINE
  5
EB
330
69
100
AcDbEntity
  8
0
  6
Continuous
 62
     8
420
  8421504
370
    50
100
AcDbSpline
210
0.0
220
0.0
230
1.0
 70
     8
 71
     3
 72
     8
 73
     4
 74
     0
 42
0.00000001
 43
0.00000001
 40
0.8
 40
0.8
 40
0.8
 40
0.8
 40
0.84
 40
0.84
 40
0.84
 40
0.84
 10
23.5064046
 20
1.337119500000003
 30
0.0
 10
23.7683802
 20
0.4924805999999976
 30
0.0
 10
24.54161969999999
 20
0.0244601999999983
 30
0.0
 10
25.2792738
 20
0.0
 30
0.0
  0
SPLINE
  5
EC
330
69
100
AcDbEntity
  8
0
  6
Continuous
 62
     8
420
  8421504
370
    50
100
AcDbSpline
210
0.0
220
0.0
230
1.0
 70
     8
 71
     3
 72
     8
 73
     4
 74
     0
 42
0.00000001
 43
0.00000001
 40
0.88
 40
0.88
 40
0.88
 40
0.88
 40
0.92
 40
0.92
 40
0.92
 40
0.92
 10
25.3310136
 20
0.0005714999999989
 30
0.0
 10
26.4144633
 20
0.0376427999999998
 30
0.0
 10
27.036522
 20
0.6775703999999966
 30
0.0
 10
27.034617
 20
1.433093399999996
 30
0.0
  0
SPLINE
  5
ED
330
69
100
AcDbEntity
  8
0
  6
Continuous
 62
     8
420
  8421504
370
    50
100
AcDbSpline
210
0.0
220
0.0
230
1.0
 70
     8
 71
     3
 72
     8
 73
     4
 74
     0
 42
0.00000001
 43
0.00000001
 40
0.92
 40
0.92
 40
0.92
 40
0.92
 40
1.0
 40
1.0
 40
1.0
 40
1.0
 10
27.034617
 20
1.433093399999996
 30
0.0
 10
27.0370554
 20
2.382926399999996
 30
0.0
 10
26.3174226
 20
2.642273099999995
 30
0.0
 10
25.6488819
 20
2.791396499999999
 30
0.0
  0
SPLINE
  5
EE
330
69
100
AcDbEntity
  8
0
  6
Continuous
 62
     8
420
  8421504
370
    50
100
AcDbSpline
210
0.0
220
0.0
230
1.0
 70
     8
 71
     3
 72
     8
 73
     4
 74
     0
 42
0.00000001
 43
0.00000001
 40
0.0
 40
0.0
 40
0.0
 40
0.0
 40
0.0714285714285714
 40
0.0714285714285714
 40
0.0714285714285714
 40
0.0714285714285714
 10
34.28771399999999
 20
4.881943499999997
 30
0.0
 10
33.79938629999999
 20
4.8827436
 30
0.0
 10
33.2912085
 20
4.7060739
 30
0.0
 10
32.9807316
 20
4.232605200000003
 30
0.0
  0
SPLINE
  5
EF
330
69
100
AcDbEntity
  8
0
  6
Continuous
 62
     8
420
  8421504
370
    50
100
AcDbSpline
210
0.0
220
0.0
230
1.0
 70
     8
 71
     3
 72
     8
 73
     4
 74
     0
 42
0.00000001
 43
0.00000001
 40
0.4285714285714285
 40
0.4285714285714285
 40
0.4285714285714285
 40
0.4285714285714285
 40
0.5
 40
0.5
 40
0.5
 40
0.5
 10
32.9807316
 20
2.823400499999998
 30
0.0
 10
32.98541789999999
 20
3.814952999999996
 30
0.0
 10
33.5612232
 20
4.228680899999996
 30
0.0
 10
34.21242839999999
 20
4.233405299999998
 30
0.0
  0
SPLINE
  5
F0
330
69
100
AcDbEntity
  8
0
  6
Continuous
 62
     8
420
  8421504
370
    50
100
AcDbSpline
210
0.0
220
0.0
230
1.0
 70
     8
 71
     3
 72
     8
 73
     4
 74
     0
 42
0.00000001
 43
0.00000001
 40
0.5
 40
0.5
 40
0.5
 40
0.5
 40
0.5714285714285714
 40
0.5714285714285714
 40
0.5714285714285714
 40
0.5714285714285714
 10
34.21242839999999
 20
4.233405299999998
 30
0.0
 10
34.909887
 20
4.221860999999997
 30
0.0
 10
35.2432239
 20
3.974553899999997
 30
0.0
 10
35.2545015
 20
3.077794199999997
 30
0.0
  0
SPLINE
  5
F1
330
69
100
AcDbEntity
  8
0
  6
Continuous
 62
     8
420
  8421504
370
    50
100
AcDbSpline
210
0.0
220
0.0
230
1.0
 70
     8
 71
     3
 72
     8
 73
     4
 74
     0
 42
0.00000001
 43
0.00000001
 40
0.7857142857142857
 40
0.7857142857142857
 40
0.7857142857142857
 40
0.7857142857142857
 40
0.8571428571428571
 40
0.8571428571428571
 40
0.8571428571428571
 40
0.8571428571428571
 10
35.9412159
 20
3.247377299999998
 30
0.0
 10
35.9412159
 20
3.723322499999998
 30
0.0
 10
35.8182291
 20
4.134154799999997
 30
0.0
 10
35.5453569
 20
4.425200699999999
 30
0.0
  0
SPLINE
  5
F2
330
69
100
AcDbEntity
  8
0
  6
Continuous
 62
     8
420
  8421504
370
    50
100
AcDbSpline
210
0.0
220
0.0
230
1.0
 70
     8
 71
     3
 72
     8
 73
     4
 74
     0
 42
0.00000001
 43
0.00000001
 40
0.8571428571428571
 40
0.8571428571428571
 40
0.8571428571428571
 40
0.8571428571428571
 40
1.0
 40
1.0
 40
1.0
 40
1.0
 10
35.5453569
 20
4.425200699999999
 30
0.0
 10
35.2723704
 20
4.716856200000003
 30
0.0
 10
34.854642
 20
4.881943499999997
 30
0.0
 10
34.28771399999999
 20
4.881943499999997
 30
0.0
  0
SPLINE
  5
F3
330
69
100
AcDbEntity
  8
0
  6
Continuous
 62
     8
420
  8421504
370
    50
100
AcDbSpline
210
0.0
220
0.0
230
1.0
 70
     8
 71
     3
 72
     8
 73
     4
 74
     0
 42
0.00000001
 43
0.00000001
 40
0.0
 40
0.0
 40
0.0
 40
0.0
 40
0.0714285714285714
 40
0.0714285714285714
 40
0.0714285714285714
 40
0.0714285714285714
 10
21.2217381
 20
4.881448199999999
 30
0.0
 10
20.7334485
 20
4.8827436
 30
0.0
 10
20.2260327
 20
4.706607300000002
 30
0.0
 10
19.91487
 20
4.2401109
 30
0.0
  0
SPLINE
  5
F4
330
69
100
AcDbEntity
  8
0
  6
Continuous
 62
     8
420
  8421504
370
    50
100
AcDbSpline
210
0.0
220
0.0
230
1.0
 70
     8
 71
     3
 72
     8
 73
     4
 74
     0
 42
0.00000001
 43
0.00000001
 40
0.4285714285714285
 40
0.4285714285714285
 40
0.4285714285714285
 40
0.4285714285714285
 40
0.5
 40
0.5
 40
0.5
 40
0.5
 10
19.91487
 20
2.822905200000001
 30
0.0
 10
19.9197087
 20
3.814952999999996
 30
0.0
 10
20.4953997
 20
4.228680899999996
 30
0.0
 10
21.1464525
 20
4.233405299999998
 30
0.0
  0
SPLINE
  5
F5
330
69
100
AcDbEntity
  8
0
  6
Continuous
 62
     8
420
  8421504
370
    50
100
AcDbSpline
210
0.0
220
0.0
230
1.0
 70
     8
 71
     3
 72
     8
 73
     4
 74
     0
 42
0.00000001
 43
0.00000001
 40
0.5
 40
0.5
 40
0.5
 40
0.5
 40
0.5714285714285714
 40
0.5714285714285714
 40
0.5714285714285714
 40
0.5714285714285714
 10
21.1464525
 20
4.233405299999998
 30
0.0
 10
21.8441778
 20
4.222127699999998
 30
0.0
 10
22.1777814
 20
3.974553899999997
 30
0.0
 10
22.1893257
 20
3.077527499999996
 30
0.0
  0
SPLINE
  5
F6
330
69
100
AcDbEntity
  8
0
  6
Continuous
 62
     8
420
  8421504
370
    50
100
AcDbSpline
210
0.0
220
0.0
230
1.0
 70
     8
 71
     3
 72
     8
 73
     4
 74
     0
 42
0.00000001
 43
0.00000001
 40
0.7857142857142857
 40
0.7857142857142857
 40
0.7857142857142857
 40
0.7857142857142857
 40
0.8571428571428571
 40
0.8571428571428571
 40
0.8571428571428571
 40
0.8571428571428571
 10
22.8750876
 20
3.247377299999998
 30
0.0
 10
22.8750876
 20
3.723322499999998
 30
0.0
 10
22.7522532
 20
4.134154799999997
 30
0.0
 10
22.4795334
 20
4.425200699999999
 30
0.0
  0
SPLINE
  5
F7
330
69
100
AcDbEntity
  8
0
  6
Continuous
 62
     8
420
  8421504
370
    50
100
AcDbSpline
210
0.0
220
0.0
230
1.0
 70
     8
 71
     3
 72
     8
 73
     4
 74
     0
 42
0.00000001
 43
0.00000001
 40
0.8571428571428571
 40
0.8571428571428571
 40
0.8571428571428571
 40
0.8571428571428571
 40
1.0
 40
1.0
 40
1.0
 40
1.0
 10
22.4795334
 20
4.425200699999999
 30
0.0
 10
22.206966
 20
4.7173515
 30
0.0
 10
21.7885518
 20
4.882248299999995
 30
0.0
 10
21.2217381
 20
4.881448199999999
 30
0.0
  0
SPLINE
  5
F8
330
69
100
AcDbEntity
  8
0
  6
Continuous
 62
     8
420
  8421504
370
    50
100
AcDbSpline
210
0.0
220
0.0
230
1.0
 70
     8
 71
     3
 72
     8
 73
     4
 74
     0
 42
0.00000001
 43
0.00000001
 40
0.0
 40
0.0
 40
0.0
 40
0.0
 40
0.0526315789473684
 40
0.0526315789473684
 40
0.0526315789473684
 40
0.0526315789473684
 10
18.4526682
 20
2.467165499999996
 30
0.0
 10
18.4101867
 20
3.820477499999995
 30
0.0
 10
17.7229389
 20
4.8843438
 30
0.0
 10
16.3466145
 20
4.881943499999997
 30
0.0
  0
SPLINE
  5
F9
330
69
100
AcDbEntity
  8
0
  6
Continuous
 62
     8
420
  8421504
370
    50
100
AcDbSpline
210
0.0
220
0.0
230
1.0
 70
     8
 71
     3
 72
     8
 73
     4
 74
     0
 42
0.00000001
 43
0.00000001
 40
0.0526315789473684
 40
0.0526315789473684
 40
0.0526315789473684
 40
0.0526315789473684
 40
0.1052631578947368
 40
0.1052631578947368
 40
0.1052631578947368
 40
0.1052631578947368
 10
16.3466145
 20
4.881943499999997
 30
0.0
 10
15.7666563
 20
4.881943499999997
 30
0.0
 10
15.2375997
 20
4.668545400000001
 30
0.0
 10
14.8557615
 20
4.2542841
 30
0.0
  0
SPLINE
  5
FA
330
69
100
AcDbEntity
  8
0
  6
Continuous
 62
     8
420
  8421504
370
    50
100
AcDbSpline
210
0.0
220
0.0
230
1.0
 70
     8
 71
     3
 72
     8
 73
     4
 74
     0
 42
0.00000001
 43
0.00000001
 40
0.1052631578947368
 40
0.1052631578947368
 40
0.1052631578947368
 40
0.1052631578947368
 40
0.1578947368421053
 40
0.1578947368421053
 40
0.1578947368421053
 40
0.1578947368421053
 10
14.8557615
 20
4.2542841
 30
0.0
 10
14.4740376
 20
3.8409372
 30
0.0
 10
14.2407132
 20
3.230308499999998
 30
0.0
 10
14.2412466
 20
2.445677099999999
 30
0.0
  0
SPLINE
  5
FB
330
69
100
AcDbEntity
  8
0
  6
Continuous
 62
     8
420
  8421504
370
    50
100
AcDbSpline
210
0.0
220
0.0
230
1.0
 70
     8
 71
     3
 72
     8
 73
     4
 74
     0
 42
0.00000001
 43
0.00000001
 40
0.1578947368421053
 40
0.1578947368421053
 40
0.1578947368421053
 40
0.1578947368421053
 40
0.2105263157894737
 40
0.2105263157894737
 40
0.2105263157894737
 40
0.2105263157894737
 10
14.2412466
 20
2.445677099999999
 30
0.0
 10
14.2407132
 20
1.661312400000001
 30
0.0
 10
14.4740376
 20
1.051217100000001
 30
0.0
 10
14.8557615
 20
0.6374892000000021
 30
0.0
  0
SPLINE
  5
FC
330
69
100
AcDbEntity
  8
0
  6
Continuous
 62
     8
420
  8421504
370
    50
100
AcDbSpline
210
0.0
220
0.0
230
1.0
 70
     8
 71
     3
 72
     8
 73
     4
 74
     0
 42
0.00000001
 43
0.00000001
 40
0.2105263157894737
 40
0.2105263157894737
 40
0.2105263157894737
 40
0.2105263157894737
 40
0.2631578947368421
 40
0.2631578947368421
 40
0.2631578947368421
 40
0.2631578947368421
 10
14.8557615
 20
0.6374892000000021
 30
0.0
 10
15.2374854
 20
0.2245233000000013
 30
0.0
 10
15.7666563
 20
0.0100964999999981
 30
0.0
 10
16.3466145
 20
0.0100964999999981
 30
0.0
  0
SPLINE
  5
FD
330
69
100
AcDbEntity
  8
0
  6
Continuous
 62
     8
420
  8421504
370
    50
100
AcDbSpline
210
0.0
220
0.0
230
1.0
 70
     8
 71
     3
 72
     8
 73
     4
 74
     0
 42
0.00000001
 43
0.00000001
 40
0.2631578947368421
 40
0.2631578947368421
 40
0.2631578947368421
 40
0.2631578947368421
 40
0.3157894736842105
 40
0.3157894736842105
 40
0.3157894736842105
 40
0.3157894736842105
 10
16.3466145
 20
0.0100964999999981
 30
0.0
 10
16.3620831
 20
0.0100964999999981
 30
0.0
 10
16.3733607
 20
0.0112776000000009
 30
0.0
 10
16.3823523
 20
0.0112776000000009
 30
0.0
  0
SPLINE
  5
FE
330
69
100
AcDbEntity
  8
0
  6
Continuous
 62
     8
420
  8421504
370
    50
100
AcDbSpline
210
0.0
220
0.0
230
1.0
 70
     8
 71
     3
 72
     8
 73
     4
 74
     0
 42
0.00000001
 43
0.00000001
 40
0.3157894736842105
 40
0.3157894736842105
 40
0.3157894736842105
 40
0.3157894736842105
 40
0.3684210526315789
 40
0.3684210526315789
 40
0.3684210526315789
 40
0.3684210526315789
 10
16.3823523
 20
0.0112776000000009
 30
0.0
 10
16.391763
 20
0.0112776000000009
 30
0.0
 10
16.4044122
 20
0.0100964999999981
 30
0.0
 10
16.4193474
 20
0.0100964999999981
 30
0.0
  0
SPLINE
  5
FF
330
69
100
AcDbEntity
  8
0
  6
Continuous
 62
     8
420
  8421504
370
    50
100
AcDbSpline
210
0.0
220
0.0
230
1.0
 70
     8
 71
     3
 72
     8
 73
     4
 74
     0
 42
0.00000001
 43
0.00000001
 40
0.4210526315789473
 40
0.4210526315789473
 40
0.4210526315789473
 40
0.4210526315789473
 40
0.4736842105263158
 40
0.4736842105263158
 40
0.4736842105263158
 40
0.4736842105263158
 10
16.4241861
 20
0.0100964999999981
 30
0.0
 10
17.3213268
 20
0.0100964999999981
 30
0.0
 10
18.0916326
 20
0.5309234999999968
 30
0.0
 10
18.3883935
 20
1.494358199999998
 30
0.0
  0
SPLINE
  5
100
330
69
100
AcDbEntity
  8
0
  6
Continuous
 62
     8
420
  8421504
370
    50
100
AcDbSpline
210
0.0
220
0.0
230
1.0
 70
     8
 71
     3
 72
     8
 73
     4
 74
     0
 42
0.00000001
 43
0.00000001
 40
0.631578947368421
 40
0.631578947368421
 40
0.631578947368421
 40
0.631578947368421
 40
0.6842105263157895
 40
0.6842105263157895
 40
0.6842105263157895
 40
0.6842105263157895
 10
17.6403
 20
1.531886700000004
 30
0.0
 10
17.4510573
 20
1.000810800000004
 30
0.0
 10
17.0622087
 20
0.669531299999998
 30
0.0
 10
16.395954
 20
0.6582156000000006
 30
0.0
  0
SPLINE
  5
101
330
69
100
AcDbEntity
  8
0
  6
Continuous
 62
     8
420
  8421504
370
    50
100
AcDbSpline
210
0.0
220
0.0
230
1.0
 70
     8
 71
     3
 72
     8
 73
     4
 74
     0
 42
0.00000001
 43
0.00000001
 40
0.7368421052631579
 40
0.7368421052631579
 40
0.7368421052631579
 40
0.7368421052631579
 40
0.7894736842105263
 40
0.7894736842105263
 40
0.7894736842105263
 40
0.7894736842105263
 10
16.3825047
 20
0.6587489999999946
 30
0.0
 10
15.4196034
 20
0.668693099999998
 30
0.0
 10
15.0089997
 20
1.351749899999996
 30
0.0
 10
15.0027894
 20
2.342235599999998
 30
0.0
  0
SPLINE
  5
102
330
69
100
AcDbEntity
  8
0
  6
Continuous
 62
     8
420
  8421504
370
    50
100
AcDbSpline
210
0.0
220
0.0
230
1.0
 70
     8
 71
     3
 72
     8
 73
     4
 74
     0
 42
0.00000001
 43
0.00000001
 40
0.0
 40
0.0
 40
0.0
 40
0.0
 40
0.25
 40
0.25
 40
0.25
 40
0.25
 10
15.0119334
 20
2.996412600000001
 30
0.0
 10
15.126462
 20
3.696538199999999
 30
0.0
 10
15.6033216
 20
4.232605200000003
 30
0.0
 10
16.3466145
 20
4.233405299999998
 30
0.0
  0
SPLINE
  5
103
330
69
100
AcDbEntity
  8
0
  6
Continuous
 62
     8
420
  8421504
370
    50
100
AcDbSpline
210
0.0
220
0.0
230
1.0
 70
     8
 71
     3
 72
     8
 73
     4
 74
     0
 42
0.00000001
 43
0.00000001
 40
0.25
 40
0.25
 40
0.25
 40
0.25
 40
0.5
 40
0.5
 40
0.5
 40
0.5
 10
16.3466145
 20
4.233405299999998
 30
0.0
 10
17.2194474
 20
4.2318051
 30
0.0
 10
17.5432593
 20
3.623843400000002
 30
0.0
 10
17.6779428
 20
2.996412600000001
 30
0.0
  0
SPLINE
  5
104
330
69
100
AcDbEntity
  8
0
  6
Continuous
 62
     8
420
  8421504
370
    50
100
AcDbSpline
210
0.0
220
0.0
230
1.0
 70
     8
 71
     3
 72
     8
 73
     4
 74
     0
 42
0.00000001
 43
0.00000001
 40
0.0
 40
0.0
 40
0.0
 40
0.0
 40
0.0769230769230769
 40
0.0769230769230769
 40
0.0769230769230769
 40
0.0769230769230769
 10
0.6813041999999964
 20
4.2478452
 30
0.0
 10
1.013040899999999
 20
4.6515909
 30
0.0
 10
1.557527999999997
 20
4.881029100000004
 30
0.0
 10
2.105634599999996
 20
4.881029100000004
 30
0.0
  0
SPLINE
  5
105
330
69
100
AcDbEntity
  8
0
  6
Continuous
 62
     8
420
  8421504
370
    50
100
AcDbSpline
210
0.0
220
0.0
230
1.0
 70
     8
 71
     3
 72
     8
 73
     4
 74
     0
 42
0.00000001
 43
0.00000001
 40
0.0769230769230769
 40
0.0769230769230769
 40
0.0769230769230769
 40
0.0769230769230769
 40
0.1538461538461539
 40
0.1538461538461539
 40
0.1538461538461539
 40
0.1538461538461539
 10
2.105634599999996
 20
4.881029100000004
 30
0.0
 10
2.686164299999999
 20
4.881029100000004
 30
0.0
 10
3.215068499999997
 20
4.667326200000002
 30
0.0
 10
3.597059099999998
 20
4.253064900000001
 30
0.0
  0
SPLINE
  5
106
330
69
100
AcDbEntity
  8
0
  6
Continuous
 62
     8
420
  8421504
370
    50
100
AcDbSpline
210
0.0
220
0.0
230
1.0
 70
     8
 71
     3
 72
     8
 73
     4
 74
     0
 42
0.00000001
 43
0.00000001
 40
0.1538461538461539
 40
0.1538461538461539
 40
0.1538461538461539
 40
0.1538461538461539
 40
0.2307692307692308
 40
0.2307692307692308
 40
0.2307692307692308
 40
0.2307692307692308
 10
3.597059099999998
 20
4.253064900000001
 30
0.0
 10
3.9790497
 20
3.839870400000004
 30
0.0
 10
4.211840699999996
 20
3.229279799999998
 30
0.0
 10
4.211840699999996
 20
2.445143700000005
 30
0.0
  0
SPLINE
  5
107
330
69
100
AcDbEntity
  8
0
  6
Continuous
 62
     8
420
  8421504
370
    50
100
AcDbSpline
210
0.0
220
0.0
230
1.0
 70
     8
 71
     3
 72
     8
 73
     4
 74
     0
 42
0.00000001
 43
0.00000001
 40
0.2307692307692308
 40
0.2307692307692308
 40
0.2307692307692308
 40
0.2307692307692308
 40
0.3076923076923077
 40
0.3076923076923077
 40
0.3076923076923077
 40
0.3076923076923077
 10
4.211840699999996
 20
2.445143700000005
 30
0.0
 10
4.211840699999996
 20
1.660207499999999
 30
0.0
 10
3.9790497
 20
1.050150299999997
 30
0.0
 10
3.597059099999998
 20
0.6364605000000024
 30
0.0
  0
SPLINE
  5
108
330
69
100
AcDbEntity
  8
0
  6
Continuous
 62
     8
420
  8421504
370
    50
100
AcDbSpline
210
0.0
220
0.0
230
1.0
 70
     8
 71
     3
 72
     8
 73
     4
 74
     0
 42
0.00000001
 43
0.00000001
 40
0.3076923076923077
 40
0.3076923076923077
 40
0.3076923076923077
 40
0.3076923076923077
 40
0.3846153846153846
 40
0.3846153846153846
 40
0.3846153846153846
 40
0.3846153846153846
 10
3.597059099999998
 20
0.6364605000000024
 30
0.0
 10
3.215068499999997
 20
0.2234184
 30
0.0
 10
2.686164299999999
 20
0.0090297000000017
 30
0.0
 10
2.105634599999996
 20
0.0090297000000017
 30
0.0
  0
SPLINE
  5
109
330
69
100
AcDbEntity
  8
0
  6
Continuous
 62
     8
420
  8421504
370
    50
100
AcDbSpline
210
0.0
220
0.0
230
1.0
 70
     8
 71
     3
 72
     8
 73
     4
 74
     0
 42
0.00000001
 43
0.00000001
 40
0.4615384615384616
 40
0.4615384615384616
 40
0.4615384615384616
 40
0.4615384615384616
 40
0.5384615384615384
 40
0.5384615384615384
 40
0.5384615384615384
 40
0.5384615384615384
 10
2.098128899999996
 20
0.0090297000000017
 30
0.0
 10
1.117892099999995
 20
0.0090297000000017
 30
0.0
 10
0.2772917999999958
 20
0.5965316999999942
 30
0.0
 10
0.0591311999999969
 20
1.756295699999999
 30
0.0
  0
SPLINE
  5
10A
330
69
100
AcDbEntity
  8
0
  6
Continuous
 62
     8
420
  8421504
370
    50
100
AcDbSpline
210
0.0
220
0.0
230
1.0
 70
     8
 71
     3
 72
     8
 73
     4
 74
     0
 42
0.00000001
 43
0.00000001
 40
0.5384615384615384
 40
0.5384615384615384
 40
0.5384615384615384
 40
0.5384615384615384
 40
0.6153846153846154
 40
0.6153846153846154
 40
0.6153846153846154
 40
0.6153846153846154
 10
0.0591311999999969
 20
1.756295699999999
 30
0.0
 10
0.0165353999999979
 20
1.983371699999998
 30
0.0
 10
0.0013334999999975
 20
2.239060799999998
 30
0.0
 10
0.0013334999999975
 20
2.369248500000002
 30
0.0
  0
SPLINE
  5
10B
330
69
100
AcDbEntity
  8
0
  6
Continuous
 62
     8
420
  8421504
370
    50
100
AcDbSpline
210
0.0
220
0.0
230
1.0
 70
     8
 71
     3
 72
     8
 73
     4
 74
     0
 42
0.00000001
 43
0.00000001
 40
0.0
 40
0.0
 40
0.0
 40
0.0
 40
0.2
 40
0.2
 40
0.2
 40
0.2
 10
2.105634599999996
 20
0.6571487999999959
 30
0.0
 10
2.908211099999997
 20
0.6595490999999981
 30
0.0
 10
3.5216211
 20
1.297190700000003
 30
0.0
 10
3.525659699999998
 20
2.445143700000005
 30
0.0
  0
SPLINE
  5
10C
330
69
100
AcDbEntity
  8
0
  6
Continuous
 62
     8
420
  8421504
370
    50
100
AcDbSpline
210
0.0
220
0.0
230
1.0
 70
     8
 71
     3
 72
     8
 73
     4
 74
     0
 42
0.00000001
 43
0.00000001
 40
0.2
 40
0.2
 40
0.2
 40
0.2
 40
0.4
 40
0.4
 40
0.4
 40
0.4
 10
3.525659699999998
 20
2.445143700000005
 30
0.0
 10
3.5216211
 20
3.583914600000002
 30
0.0
 10
2.907944399999996
 20
4.230776400000001
 30
0.0
 10
2.105634599999996
 20
4.232338500000002
 30
0.0
  0
SPLINE
  5
10D
330
69
100
AcDbEntity
  8
0
  6
Continuous
 62
     8
420
  8421504
370
    50
100
AcDbSpline
210
0.0
220
0.0
230
1.0
 70
     8
 71
     3
 72
     8
 73
     4
 74
     0
 42
0.00000001
 43
0.00000001
 40
0.4
 40
0.4
 40
0.4
 40
0.4
 40
0.6
 40
0.6
 40
0.6
 40
0.6
 10
2.105634599999996
 20
4.232338500000002
 30
0.0
 10
1.303896299999996
 20
4.230776400000001
 30
0.0
 10
0.6857618999999981
 20
3.654552
 30
0.0
 10
0.6857618999999981
 20
2.445143700000005
 30
0.0
  0
SPLINE
  5
10E
330
69
100
AcDbEntity
  8
0
  6
Continuous
 62
     8
420
  8421504
370
    50
100
AcDbSpline
210
0.0
220
0.0
230
1.0
 70
     8
 71
     3
 72
     8
 73
     4
 74
     0
 42
0.00000001
 43
0.00000001
 40
0.6
 40
0.6
 40
0.6
 40
0.6
 40
1.0
 40
1.0
 40
1.0
 40
1.0
 10
0.6857618999999981
 20
2.445143700000005
 30
0.0
 10
0.6786371999999972
 20
1.195616100000002
 30
0.0
 10
1.303515299999997
 20
0.6595490999999981
 30
0.0
 10
2.105634599999996
 20
0.6571487999999959
 30
0.0
  0
SPLINE
  5
10F
330
69
100
AcDbEntity
  8
0
  6
Continuous
 62
     8
420
  8421504
370
    50
100
AcDbSpline
210
0.0
220
0.0
230
1.0
 70
     8
 71
     3
 72
     8
 73
     4
 74
     0
 42
0.00000001
 43
0.00000001
 40
0.0
 40
0.0
 40
0.0
 40
0.0
 40
0.1666666666666667
 40
0.1666666666666667
 40
0.1666666666666667
 40
0.1666666666666667
 10
38.8233285
 20
0.6484239000000003
 30
0.0
 10
38.02075199999999
 20
0.6506717999999996
 30
0.0
 10
37.4067705
 20
1.288313400000005
 30
0.0
 10
37.4033034
 20
2.436380699999996
 30
0.0
  0
SPLINE
  5
110
330
69
100
AcDbEntity
  8
0
  6
Continuous
 62
     8
420
  8421504
370
    50
100
AcDbSpline
210
0.0
220
0.0
230
1.0
 70
     8
 71
     3
 72
     8
 73
     4
 74
     0
 42
0.00000001
 43
0.00000001
 40
0.3333333333333333
 40
0.3333333333333333
 40
0.3333333333333333
 40
0.3333333333333333
 40
0.5
 40
0.5
 40
0.5
 40
0.5
 10
37.40303669999999
 20
2.436380699999996
 30
0.0
 10
37.4067705
 20
3.575151600000002
 30
0.0
 10
38.0218569
 20
4.2220134
 30
0.0
 10
38.8233285
 20
4.223575500000002
 30
0.0
  0
SPLINE
  5
111
330
69
100
AcDbEntity
  8
0
  6
Continuous
 62
     8
420
  8421504
370
    50
100
AcDbSpline
210
0.0
220
0.0
230
1.0
 70
     8
 71
     3
 72
     8
 73
     4
 74
     0
 42
0.00000001
 43
0.00000001
 40
0.5
 40
0.5
 40
0.5
 40
0.5
 40
0.6666666666666666
 40
0.6666666666666666
 40
0.6666666666666666
 40
0.6666666666666666
 10
38.8233285
 20
4.223575500000002
 30
0.0
 10
39.6246477
 20
4.2220134
 30
0.0
 10
40.2391626
 20
3.575151600000002
 30
0.0
 10
40.24335360000001
 20
2.436380699999996
 30
0.0
  0
SPLINE
  5
112
330
69
100
AcDbEntity
  8
0
  6
Continuous
 62
     8
420
  8421504
370
    50
100
AcDbSpline
210
0.0
220
0.0
230
1.0
 70
     8
 71
     3
 72
     8
 73
     4
 74
     0
 42
0.00000001
 43
0.00000001
 40
0.6666666666666666
 40
0.6666666666666666
 40
0.6666666666666666
 40
0.6666666666666666
 40
1.0
 40
1.0
 40
1.0
 40
1.0
 10
40.24335360000001
 20
2.436380699999996
 30
0.0
 10
40.2391626
 20
1.288313400000005
 30
0.0
 10
39.6250668
 20
0.6506717999999996
 30
0.0
 10
38.8233285
 20
0.6484239000000003
 30
0.0
  0
SPLINE
  5
113
330
69
100
AcDbEntity
  8
0
  6
Continuous
 62
     8
420
  8421504
370
    50
100
AcDbSpline
210
0.0
220
0.0
230
1.0
 70
     8
 71
     3
 72
     8
 73
     4
 74
     0
 42
0.00000001
 43
0.00000001
 40
0.1333333333333333
 40
0.1333333333333333
 40
0.1333333333333333
 40
0.1333333333333333
 40
0.2
 40
0.2
 40
0.2
 40
0.2
 10
40.2286851
 20
4.327283700000003
 30
0.0
 10
39.85515269999999
 20
4.6850808
 30
0.0
 10
39.3620244
 20
4.872266100000004
 30
0.0
 10
38.8233285
 20
4.871732700000001
 30
0.0
  0
SPLINE
  5
114
330
69
100
AcDbEntity
  8
0
  6
Continuous
 62
     8
420
  8421504
370
    50
100
AcDbSpline
210
0.0
220
0.0
230
1.0
 70
     8
 71
     3
 72
     8
 73
     4
 74
     0
 42
0.00000001
 43
0.00000001
 40
0.2
 40
0.2
 40
0.2
 40
0.2
 40
0.2666666666666667
 40
0.2666666666666667
 40
0.2666666666666667
 40
0.2666666666666667
 10
38.8233285
 20
4.871732700000001
 30
0.0
 10
38.2430655
 20
4.872266100000004
 30
0.0
 10
37.71362790000001
 20
4.658563200000002
 30
0.0
 10
37.3317897
 20
4.244301900000001
 30
0.0
  0
SPLINE
  5
115
330
69
100
AcDbEntity
  8
0
  6
Continuous
 62
     8
420
  8421504
370
    50
100
AcDbSpline
210
0.0
220
0.0
230
1.0
 70
     8
 71
     3
 72
     8
 73
     4
 74
     0
 42
0.00000001
 43
0.00000001
 40
0.2666666666666667
 40
0.2666666666666667
 40
0.2666666666666667
 40
0.2666666666666667
 40
0.3333333333333333
 40
0.3333333333333333
 40
0.3333333333333333
 40
0.3333333333333333
 10
37.3317897
 20
4.244301900000001
 30
0.0
 10
36.9504849
 20
3.831107400000003
 30
0.0
 10
36.7172748
 20
3.220516799999998
 30
0.0
 10
36.7172748
 20
2.436380699999996
 30
0.0
  0
SPLINE
  5
116
330
69
100
AcDbEntity
  8
0
  6
Continuous
 62
     8
420
  8421504
370
    50
100
AcDbSpline
210
0.0
220
0.0
230
1.0
 70
     8
 71
     3
 72
     8
 73
     4
 74
     0
 42
0.00000001
 43
0.00000001
 40
0.3333333333333333
 40
0.3333333333333333
 40
0.3333333333333333
 40
0.3333333333333333
 40
0.4
 40
0.4
 40
0.4
 40
0.4
 10
36.7172748
 20
2.436380699999996
 30
0.0
 10
36.7172748
 20
1.651482599999996
 30
0.0
 10
36.9504849
 20
1.041311099999995
 30
0.0
 10
37.3317897
 20
0.6275831999999955
 30
0.0
  0
SPLINE
  5
117
330
69
100
AcDbEntity
  8
0
  6
Continuous
 62
     8
420
  8421504
370
    50
100
AcDbSpline
210
0.0
220
0.0
230
1.0
 70
     8
 71
     3
 72
     8
 73
     4
 74
     0
 42
0.00000001
 43
0.00000001
 40
0.4
 40
0.4
 40
0.4
 40
0.4
 40
0.4666666666666667
 40
0.4666666666666667
 40
0.4666666666666667
 40
0.4666666666666667
 10
37.3317897
 20
0.6275831999999955
 30
0.0
 10
37.71362790000001
 20
0.2146935000000002
 30
0.0
 10
38.2430655
 20
0.0001523999999989
 30
0.0
 10
38.8233285
 20
0.0001523999999989
 30
0.0
  0
SPLINE
  5
118
330
69
100
AcDbEntity
  8
0
  6
Continuous
 62
     8
420
  8421504
370
    50
100
AcDbSpline
210
0.0
220
0.0
230
1.0
 70
     8
 71
     3
 72
     8
 73
     4
 74
     0
 42
0.00000001
 43
0.00000001
 40
0.5333333333333333
 40
0.5333333333333333
 40
0.5333333333333333
 40
0.5333333333333333
 40
0.6
 40
0.6
 40
0.6
 40
0.6
 10
38.8242429
 20
0.0001523999999989
 30
0.0
 10
39.3812268
 20
0.0001523999999989
 30
0.0
 10
39.8895951
 20
0.2000249999999981
 30
0.0
 10
40.2673947
 20
0.5821680000000024
 30
0.0
  0
SPLINE
  5
119
330
69
100
AcDbEntity
  8
0
  6
Continuous
 62
     8
420
  8421504
370
    50
100
AcDbSpline
210
0.0
220
0.0
230
1.0
 70
     8
 71
     3
 72
     8
 73
     4
 74
     0
 42
0.00000001
 43
0.00000001
 40
0.4736842105263158
 40
0.4736842105263158
 40
0.4736842105263158
 40
0.4736842105263158
 40
0.5263157894736842
 40
0.5263157894736842
 40
0.5263157894736842
 40
0.5263157894736842
 10
42.2655111
 20
0.8719185000000018
 30
0.0
 10
42.26402519999999
 20
0.5637275999999998
 30
0.0
 10
42.36377099999999
 20
0.3610736999999989
 30
0.0
 10
42.5247816
 20
0.2458974000000003
 30
0.0
  0
SPLINE
  5
11A
330
69
100
AcDbEntity
  8
0
  6
Continuous
 62
     8
420
  8421504
370
    50
100
AcDbSpline
210
0.0
220
0.0
230
1.0
 70
     8
 71
     3
 72
     8
 73
     4
 74
     0
 42
0.00000001
 43
0.00000001
 40
0.5263157894736842
 40
0.5263157894736842
 40
0.5263157894736842
 40
0.5263157894736842
 40
0.5789473684210527
 40
0.5789473684210527
 40
0.5789473684210527
 40
0.5789473684210527
 10
42.5247816
 20
0.2458974000000003
 30
0.0
 10
42.68514449999999
 20
0.1302639000000008
 30
0.0
 10
42.8903892
 20
0.1021841999999967
 30
0.0
 10
43.0985676
 20
0.1021841999999967
 30
0.0
  0
SPLINE
  5
11B
330
69
100
AcDbEntity
  8
0
  6
Continuous
 62
     8
420
  8421504
370
    50
100
AcDbSpline
210
0.0
220
0.0
230
1.0
 70
     8
 71
     3
 72
     8
 73
     4
 74
     0
 42
0.00000001
 43
0.00000001
 40
0.5789473684210527
 40
0.5789473684210527
 40
0.5789473684210527
 40
0.5789473684210527
 40
0.631578947368421
 40
0.631578947368421
 40
0.631578947368421
 40
0.631578947368421
 10
43.0985676
 20
0.1021841999999967
 30
0.0
 10
43.136058
 20
0.1021841999999967
 30
0.0
 10
43.6856886
 20
0.1016507999999985
 30
0.0
 10
43.7019192
 20
0.1016507999999985
 30
0.0
  0
SPLINE
  5
11C
330
69
100
AcDbEntity
  8
0
  6
Continuous
 62
     8
420
  8421504
370
    50
100
AcDbSpline
210
0.0
220
0.0
230
1.0
 70
     8
 71
     3
 72
     8
 73
     4
 74
     0
 42
0.00000001
 43
0.00000001
 40
0.7368421052631579
 40
0.7368421052631579
 40
0.7368421052631579
 40
0.7368421052631579
 40
0.7894736842105263
 40
0.7894736842105263
 40
0.7894736842105263
 40
0.7894736842105263
 10
43.2214401
 20
0.685495199999997
 30
0.0
 10
43.0789461
 20
0.6894194999999964
 30
0.0
 10
43.032045
 20
0.7359015000000025
 30
0.0
 10
42.9925353
 20
0.8309228999999972
 30
0.0
  0
SPLINE
  5
11D
330
69
100
AcDbEntity
  8
0
  6
Continuous
 62
     8
420
  8421504
370
    50
100
AcDbSpline
210
0.0
220
0.0
230
1.0
 70
     8
 71
     3
 72
     8
 73
     4
 74
     0
 42
0.00000001
 43
0.00000001
 40
0.7894736842105263
 40
0.7894736842105263
 40
0.7894736842105263
 40
0.7894736842105263
 40
0.8421052631578947
 40
0.8421052631578947
 40
0.8421052631578947
 40
0.8421052631578947
 10
42.9925353
 20
0.8309228999999972
 30
0.0
 10
42.9551592
 20
0.9283826999999996
 30
0.0
 10
42.9508539
 20
1.0802493
 30
0.0
 10
42.9511206
 20
1.249070400000002
 30
0.0
  0
HATCH
  5
11E
330
69
100
AcDbEntity
  8
0
  6
Continuous
 62
     7
100
AcDbHatch
 10
0.0
 20
0.0
 30
0.0
210
0.0
220
0.0
230
1.0
  2
SOLID
 70
     1
 71
     0
 91
        2
 92
        0
 93
       12
 72
     4
 94
        3
 73
     1
 74
     0
 95
        8
 96
        4
 40
0.5384615384615384
 40
0.5384615384615384
 40
0.5384615384615384
 40
0.5384615384615384
 40
0.6153846153846154
 40
0.6153846153846154
 40
0.6153846153846154
 40
0.6153846153846154
 10
0.0013334999999975
 20
2.369248500000002
 42
1.0
 10
0.0013334999999975
 20
2.239060799999998
 42
1.0
 10
0.0165353999999979
 20
1.983371699999998
 42
1.0
 10
0.0591311999999969
 20
1.756295699999999
 42
1.0
 97
        0
 72
     4
 94
        3
 73
     1
 74
     0
 95
        8
 96
        4
 40
0.4615384615384616
 40
0.4615384615384616
 40
0.4615384615384616
 40
0.4615384615384616
 40
0.5384615384615384
 40
0.5384615384615384
 40
0.5384615384615384
 40
0.5384615384615384
 10
0.0591311999999969
 20
1.756295699999999
 42
1.0
 10
0.2772917999999958
 20
0.5965316999999942
 42
1.0
 10
1.117892099999995
 20
0.0090297000000017
 42
1.0
 10
2.098128899999996
 20
0.0090297000000017
 42
1.0
 97
        0
 72
     1
 10
2.098128899999996
 20
0.0090297000000017
 11
2.105634599999996
 21
0.0090297000000017
 72
     4
 94
        3
 73
     1
 74
     0
 95
        8
 96
        4
 40
0.3076923076923077
 40
0.3076923076923077
 40
0.3076923076923077
 40
0.3076923076923077
 40
0.3846153846153846
 40
0.3846153846153846
 40
0.3846153846153846
 40
0.3846153846153846
 10
2.105634599999996
 20
0.0090297000000017
 42
1.0
 10
2.686164299999999
 20
0.0090297000000017
 42
1.0
 10
3.215068499999997
 20
0.2234184
 42
1.0
 10
3.597059099999998
 20
0.6364605000000024
 42
1.0
 97
        0
 72
     4
 94
        3
 73
     1
 74
     0
 95
        8
 96
        4
 40
0.2307692307692308
 40
0.2307692307692308
 40
0.2307692307692308
 40
0.2307692307692308
 40
0.3076923076923077
 40
0.3076923076923077
 40
0.3076923076923077
 40
0.3076923076923077
 10
3.597059099999998
 20
0.6364605000000024
 42
1.0
 10
3.9790497
 20
1.050150299999997
 42
1.0
 10
4.211840699999996
 20
1.660207499999999
 42
1.0
 10
4.211840699999996
 20
2.445143700000005
 42
1.0
 97
        0
 72
     4
 94
        3
 73
     1
 74
     0
 95
        8
 96
        4
 40
0.1538461538461539
 40
0.1538461538461539
 40
0.1538461538461539
 40
0.1538461538461539
 40
0.2307692307692308
 40
0.2307692307692308
 40
0.2307692307692308
 40
0.2307692307692308
 10
4.211840699999996
 20
2.445143700000005
 42
1.0
 10
4.211840699999996
 20
3.229279799999998
 42
1.0
 10
3.9790497
 20
3.839870400000004
 42
1.0
 10
3.597059099999998
 20
4.253064900000001
 42
1.0
 97
        0
 72
     4
 94
        3
 73
     1
 74
     0
 95
        8
 96
        4
 40
0.0769230769230769
 40
0.0769230769230769
 40
0.0769230769230769
 40
0.0769230769230769
 40
0.1538461538461539
 40
0.1538461538461539
 40
0.1538461538461539
 40
0.1538461538461539
 10
3.597059099999998
 20
4.253064900000001
 42
1.0
 10
3.215068499999997
 20
4.667326200000002
 42
1.0
 10
2.686164299999999
 20
4.881029100000004
 42
1.0
 10
2.105634599999996
 20
4.881029100000004
 42
1.0
 97
        0
 72
     4
 94
        3
 73
     1
 74
     0
 95
        8
 96
        4
 40
0.0
 40
0.0
 40
0.0
 40
0.0
 40
0.0769230769230769
 40
0.0769230769230769
 40
0.0769230769230769
 40
0.0769230769230769
 10
2.105634599999996
 20
4.881029100000004
 42
1.0
 10
1.557527999999997
 20
4.881029100000004
 42
1.0
 10
1.013040899999999
 20
4.6515909
 42
1.0
 10
0.6813041999999964
 20
4.2478452
 42
1.0
 97
        0
 72
     1
 10
0.6813041999999964
 20
4.2478452
 11
0.6813041999999964
 21
5.996444699999995
 72
     1
 10
0.6813041999999964
 20
5.996444699999995
 11
0.0
 21
5.996444699999995
 72
     1
 10
0.0
 20
5.996444699999995
 11
0.0
 21
2.369248500000002
 72
     1
 10
0.0
 20
2.369248500000002
 11
0.0013334999999975
 21
2.369248500000002
 97
        0
 92
        0
 93
        4
 72
     4
 94
        3
 73
     1
 74
     0
 95
        8
 96
        4
 40
0.6
 40
0.6
 40
0.6
 40
0.6
 40
1.0
 40
1.0
 40
1.0
 40
1.0
 10
2.105634599999996
 20
0.6571487999999959
 42
1.0
 10
1.303515299999997
 20
0.6595490999999981
 42
1.0
 10
0.6786371999999972
 20
1.195616100000002
 42
1.0
 10
0.6857618999999981
 20
2.445143700000005
 42
1.0
 97
        0
 72
     4
 94
        3
 73
     1
 74
     0
 95
        8
 96
        4
 40
0.4
 40
0.4
 40
0.4
 40
0.4
 40
0.6
 40
0.6
 40
0.6
 40
0.6
 10
0.6857618999999981
 20
2.445143700000005
 42
1.0
 10
0.6857618999999981
 20
3.654552
 42
1.0
 10
1.303896299999996
 20
4.230776400000001
 42
1.0
 10
2.105634599999996
 20
4.232338500000002
 42
1.0
 97
        0
 72
     4
 94
        3
 73
     1
 74
     0
 95
        8
 96
        4
 40
0.2
 40
0.2
 40
0.2
 40
0.2
 40
0.4
 40
0.4
 40
0.4
 40
0.4
 10
2.105634599999996
 20
4.232338500000002
 42
1.0
 10
2.907944399999996
 20
4.230776400000001
 42
1.0
 10
3.5216211
 20
3.583914600000002
 42
1.0
 10
3.525659699999998
 20
2.445143700000005
 42
1.0
 97
        0
 72
     4
 94
        3
 73
     1
 74
     0
 95
        8
 96
        4
 40
0.0
 40
0.0
 40
0.0
 40
0.0
 40
0.2
 40
0.2
 40
0.2
 40
0.2
 10
3.525659699999998
 20
2.445143700000005
 42
1.0
 10
3.5216211
 20
1.297190700000003
 42
1.0
 10
2.908211099999997
 20
0.6595490999999981
 42
1.0
 10
2.105634599999996
 20
0.6571487999999959
 42
1.0
 97
        0
 97
        0
 75
     0
 76
     1
 98
        1
 10
0.0
 20
0.0
  0
HATCH
  5
11F
330
69
100
AcDbEntity
  8
0
  6
Continuous
 62
     7
100
AcDbHatch
 10
0.0
 20
0.0
 30
0.0
210
0.0
220
0.0
230
1.0
  2
SOLID
 70
     1
 71
     0
 91
        2
 92
        0
 93
        9
 72
     4
 94
        3
 73
     1
 74
     0
 95
        8
 96
        4
 40
0.7
 40
0.7
 40
0.7
 40
0.7
 40
0.8
 40
0.8
 40
0.8
 40
0.8
 10
8.920543499999997
 20
2.446172400000005
 42
1.0
 10
8.920543499999997
 20
3.230308499999998
 42
1.0
 10
8.687752499999998
 20
3.8409372
 42
1.0
 10
8.305761899999997
 20
4.2542841
 42
1.0
 97
        0
 72
     4
 94
        3
 73
     1
 74
     0
 95
        8
 96
        4
 40
0.8
 40
0.8
 40
0.8
 40
0.8
 40
1.0
 40
1.0
 40
1.0
 40
1.0
 10
8.305761899999997
 20
4.2542841
 42
1.0
 10
7.924037999999996
 20
4.668545400000001
 42
1.0
 10
7.394867099999997
 20
4.881943499999997
 42
1.0
 10
6.814375499999999
 20
4.881448199999999
 42
1.0
 97
        0
 72
     4
 94
        3
 73
     1
 74
     0
 95
        8
 96
        4
 40
0.0
 40
0.0
 40
0.0
 40
0.0
 40
0.1
 40
0.1
 40
0.1
 40
0.1
 10
6.814375499999999
 20
4.881448199999999
 42
1.0
 10
6.234531599999998
 20
4.881943499999997
 42
1.0
 10
5.705093999999997
 20
4.668545400000001
 42
1.0
 10
5.323103399999995
 20
4.2542841
 42
1.0
 97
        0
 72
     4
 94
        3
 73
     1
 74
     0
 95
        8
 96
        4
 40
0.1
 40
0.1
 40
0.1
 40
0.1
 40
0.2
 40
0.2
 40
0.2
 40
0.2
 10
5.323103399999995
 20
4.2542841
 42
1.0
 10
4.9413795
 20
3.8409372
 42
1.0
 10
4.708740899999999
 20
3.230308499999998
 42
1.0
 10
4.708740899999999
 20
2.446172400000005
 42
1.0
 97
        0
 72
     4
 94
        3
 73
     1
 74
     0
 95
        8
 96
        4
 40
0.2
 40
0.2
 40
0.2
 40
0.2
 40
0.3
 40
0.3
 40
0.3
 40
0.3
 10
4.708740899999999
 20
2.446172400000005
 42
1.0
 10
4.708740899999999
 20
1.661312400000001
 42
1.0
 10
4.9413795
 20
1.051217100000001
 42
1.0
 10
5.323103399999995
 20
0.6374892000000021
 42
1.0
 97
        0
 72
     4
 94
        3
 73
     1
 74
     0
 95
        8
 96
        4
 40
0.3
 40
0.3
 40
0.3
 40
0.3
 40
0.4
 40
0.4
 40
0.4
 40
0.4
 10
5.323103399999995
 20
0.6374892000000021
 42
1.0
 10
5.705093999999997
 20
0.2245233000000013
 42
1.0
 10
6.234531599999998
 20
0.0100964999999981
 42
1.0
 10
6.814375499999999
 20
0.0100964999999981
 42
1.0
 97
        0
 72
     1
 10
6.814375499999999
 20
0.0100964999999981
 11
6.816509099999999
 21
0.0100964999999981
 72
     4
 94
        3
 73
     1
 74
     0
 95
        8
 96
        4
 40
0.5
 40
0.5
 40
0.5
 40
0.5
 40
0.6
 40
0.6
 40
0.6
 40
0.6
 10
6.816509099999999
 20
0.0100964999999981
 42
1.0
 10
7.395705299999992
 20
0.0100964999999981
 42
1.0
 10
7.924037999999996
 20
0.2245233000000013
 42
1.0
 10
8.305761899999997
 20
0.6374892000000021
 42
1.0
 97
        0
 72
     4
 94
        3
 73
     1
 74
     0
 95
        8
 96
        4
 40
0.6
 40
0.6
 40
0.6
 40
0.6
 40
0.7
 40
0.7
 40
0.7
 40
0.7
 10
8.305761899999997
 20
0.6374892000000021
 42
1.0
 10
8.687752499999998
 20
1.051217100000001
 42
1.0
 10
8.920543499999997
 20
1.661312400000001
 42
1.0
 10
8.920543499999997
 20
2.446172400000005
 42
1.0
 97
        0
 97
        0
 92
        0
 93
        4
 72
     4
 94
        3
 73
     1
 74
     0
 95
        8
 96
        4
 40
0.4
 40
0.4
 40
0.4
 40
0.4
 40
0.6
 40
0.6
 40
0.6
 40
0.6
 10
6.814375499999999
 20
4.233405299999998
 42
1.0
 10
7.616380499999997
 20
4.2318051
 42
1.0
 10
8.2307811
 20
3.584981399999998
 42
1.0
 10
8.234400599999997
 20
2.446172400000005
 42
1.0
 97
        0
 72
     4
 94
        3
 73
     1
 74
     0
 95
        8
 96
        4
 40
0.6
 40
0.6
 40
0.6
 40
0.6
 40
1.0
 40
1.0
 40
1.0
 40
1.0
 10
8.234400599999997
 20
2.446172400000005
 42
1.0
 10
8.2307811
 20
1.2982575
 42
1.0
 10
7.616913899999999
 20
0.6605015999999964
 42
1.0
 10
6.814375499999999
 20
0.6582156000000006
 42
1.0
 97
        0
 72
     4
 94
        3
 73
     1
 74
     0
 95
        8
 96
        4
 40
0.0
 40
0.0
 40
0.0
 40
0.0
 40
0.2
 40
0.2
 40
0.2
 40
0.2
 10
6.814375499999999
 20
0.6582156000000006
 42
1.0
 10
6.012484799999998
 20
0.6605015999999964
 42
1.0
 10
5.398655700000001
 20
1.2982575
 42
1.0
 10
5.394502799999997
 20
2.446172400000005
 42
1.0
 97
        0
 72
     4
 94
        3
 73
     1
 74
     0
 95
        8
 96
        4
 40
0.2
 40
0.2
 40
0.2
 40
0.2
 40
0.4
 40
0.4
 40
0.4
 40
0.4
 10
5.394502799999997
 20
2.446172400000005
 42
1.0
 10
5.398122299999999
 20
3.584981399999998
 42
1.0
 10
6.013018199999998
 20
4.2318051
 42
1.0
 10
6.814375499999999
 20
4.233405299999998
 42
1.0
 97
        0
 97
        0
 75
     0
 76
     1
 98
        1
 10
0.0
 20
0.0
  0
HATCH
  5
120
330
69
100
AcDbEntity
  8
0
  6
Continuous
 62
     7
100
AcDbHatch
 10
0.0
 20
0.0
 30
0.0
210
0.0
220
0.0
230
1.0
  2
SOLID
 70
     1
 71
     0
 91
        2
 92
        0
 93
       18
 72
     1
 10
16.395954
 20
0.6582156000000008
 11
16.3825047
 21
0.6587489999999948
 72
     4
 94
        3
 73
     1
 74
     0
 95
        8
 96
        4
 40
0.7368421052631579
 40
0.7368421052631579
 40
0.7368421052631579
 40
0.7368421052631579
 40
0.7894736842105263
 40
0.7894736842105263
 40
0.7894736842105263
 40
0.7894736842105263
 10
16.3825047
 20
0.6587489999999946
 42
1.0
 10
15.4196034
 20
0.668693099999998
 42
1.0
 10
15.0089997
 20
1.351749899999996
 42
1.0
 10
15.0027894
 20
2.342235599999998
 42
1.0
 97
        0
 72
     1
 10
15.0027894
 20
2.342235599999998
 11
15.0025227
 21
2.4047196
 72
     1
 10
15.0025227
 20
2.4047196
 11
18.45480179999999
 21
2.4047196
 72
     1
 10
18.45480179999999
 20
2.4047196
 11
18.4526682
 21
2.467165499999997
 72
     4
 94
        3
 73
     1
 74
     0
 95
        8
 96
        4
 40
0.0
 40
0.0
 40
0.0
 40
0.0
 40
0.0526315789473684
 40
0.0526315789473684
 40
0.0526315789473684
 40
0.0526315789473684
 10
18.4526682
 20
2.467165499999996
 42
1.0
 10
18.4101867
 20
3.820477499999995
 42
1.0
 10
17.7229389
 20
4.8843438
 42
1.0
 10
16.3466145
 20
4.881943499999997
 42
1.0
 97
        0
 72
     4
 94
        3
 73
     1
 74
     0
 95
        8
 96
        4
 40
0.0526315789473684
 40
0.0526315789473684
 40
0.0526315789473684
 40
0.0526315789473684
 40
0.1052631578947368
 40
0.1052631578947368
 40
0.1052631578947368
 40
0.1052631578947368
 10
16.3466145
 20
4.881943499999997
 42
1.0
 10
15.7666563
 20
4.881943499999997
 42
1.0
 10
15.2375997
 20
4.668545400000001
 42
1.0
 10
14.8557615
 20
4.2542841
 42
1.0
 97
        0
 72
     4
 94
        3
 73
     1
 74
     0
 95
        8
 96
        4
 40
0.1052631578947368
 40
0.1052631578947368
 40
0.1052631578947368
 40
0.1052631578947368
 40
0.1578947368421053
 40
0.1578947368421053
 40
0.1578947368421053
 40
0.1578947368421053
 10
14.8557615
 20
4.2542841
 42
1.0
 10
14.4740376
 20
3.8409372
 42
1.0
 10
14.2407132
 20
3.230308499999998
 42
1.0
 10
14.2412466
 20
2.445677099999999
 42
1.0
 97
        0
 72
     4
 94
        3
 73
     1
 74
     0
 95
        8
 96
        4
 40
0.1578947368421053
 40
0.1578947368421053
 40
0.1578947368421053
 40
0.1578947368421053
 40
0.2105263157894737
 40
0.2105263157894737
 40
0.2105263157894737
 40
0.2105263157894737
 10
14.2412466
 20
2.445677099999999
 42
1.0
 10
14.2407132
 20
1.661312400000001
 42
1.0
 10
14.4740376
 20
1.051217100000001
 42
1.0
 10
14.8557615
 20
0.6374892000000021
 42
1.0
 97
        0
 72
     4
 94
        3
 73
     1
 74
     0
 95
        8
 96
        4
 40
0.2105263157894737
 40
0.2105263157894737
 40
0.2105263157894737
 40
0.2105263157894737
 40
0.2631578947368421
 40
0.2631578947368421
 40
0.2631578947368421
 40
0.2631578947368421
 10
14.8557615
 20
0.6374892000000021
 42
1.0
 10
15.2374854
 20
0.2245233000000013
 42
1.0
 10
15.7666563
 20
0.0100964999999981
 42
1.0
 10
16.3466145
 20
0.0100964999999981
 42
1.0
 97
        0
 72
     4
 94
        3
 73
     1
 74
     0
 95
        8
 96
        4
 40
0.2631578947368421
 40
0.2631578947368421
 40
0.2631578947368421
 40
0.2631578947368421
 40
0.3157894736842105
 40
0.3157894736842105
 40
0.3157894736842105
 40
0.3157894736842105
 10
16.3466145
 20
0.0100964999999981
 42
1.0
 10
16.3620831
 20
0.0100964999999981
 42
1.0
 10
16.3733607
 20
0.0112776000000009
 42
1.0
 10
16.3823523
 20
0.0112776000000009
 42
1.0
 97
        0
 72
     4
 94
        3
 73
     1
 74
     0
 95
        8
 96
        4
 40
0.3157894736842105
 40
0.3157894736842105
 40
0.3157894736842105
 40
0.3157894736842105
 40
0.3684210526315789
 40
0.3684210526315789
 40
0.3684210526315789
 40
0.3684210526315789
 10
16.3823523
 20
0.0112776000000009
 42
1.0
 10
16.391763
 20
0.0112776000000009
 42
1.0
 10
16.4044122
 20
0.0100964999999981
 42
1.0
 10
16.4193474
 20
0.0100964999999981
 42
1.0
 97
        0
 72
     1
 10
16.4193474
 20
0.0100964999999981
 11
16.4241861
 21
0.0100964999999981
 72
     4
 94
        3
 73
     1
 74
     0
 95
        8
 96
        4
 40
0.4210526315789473
 40
0.4210526315789473
 40
0.4210526315789473
 40
0.4210526315789473
 40
0.4736842105263158
 40
0.4736842105263158
 40
0.4736842105263158
 40
0.4736842105263158
 10
16.4241861
 20
0.0100964999999981
 42
1.0
 10
17.3213268
 20
0.0100964999999981
 42
1.0
 10
18.0916326
 20
0.5309234999999968
 42
1.0
 10
18.3883935
 20
1.494358199999998
 42
1.0
 97
        0
 72
     1
 10
18.3883935
 20
1.494358199999998
 11
18.4123203
 21
1.571510699999997
 72
     1
 10
18.4123203
 20
1.571510699999997
 11
17.6541303
 21
1.571510699999998
 72
     1
 10
17.6541303
 20
1.571510699999998
 11
17.6403
 21
1.531886700000004
 72
     4
 94
        3
 73
     1
 74
     0
 95
        8
 96
        4
 40
0.631578947368421
 40
0.631578947368421
 40
0.631578947368421
 40
0.631578947368421
 40
0.6842105263157895
 40
0.6842105263157895
 40
0.6842105263157895
 40
0.6842105263157895
 10
17.6403
 20
1.531886700000004
 42
1.0
 10
17.4510573
 20
1.000810800000004
 42
1.0
 10
17.0622087
 20
0.669531299999998
 42
1.0
 10
16.395954
 20
0.6582156000000006
 42
1.0
 97
        0
 97
        0
 92
        0
 93
        3
 72
     4
 94
        3
 73
     1
 74
     0
 95
        8
 96
        4
 40
0.0
 40
0.0
 40
0.0
 40
0.0
 40
0.25
 40
0.25
 40
0.25
 40
0.25
 10
15.0119334
 20
2.996412600000001
 42
1.0
 10
15.126462
 20
3.696538199999999
 42
1.0
 10
15.6033216
 20
4.232605200000003
 42
1.0
 10
16.3466145
 20
4.233405299999998
 42
1.0
 97
        0
 72
     4
 94
        3
 73
     1
 74
     0
 95
        8
 96
        4
 40
0.25
 40
0.25
 40
0.25
 40
0.25
 40
0.5
 40
0.5
 40
0.5
 40
0.5
 10
16.3466145
 20
4.233405299999998
 42
1.0
 10
17.2194474
 20
4.2318051
 42
1.0
 10
17.5432593
 20
3.623843400000002
 42
1.0
 10
17.6779428
 20
2.996412600000001
 42
1.0
 97
        0
 72
     1
 10
17.6779428
 20
2.996412600000001
 11
15.0119334
 21
2.996412600000001
 97
        0
 75
     0
 76
     1
 98
        1
 10
0.0
 20
0.0
  0
HATCH
  5
121
330
69
100
AcDbEntity
  8
0
  6
Continuous
 62
     7
100
AcDbHatch
 10
0.0
 20
0.0
 30
0.0
210
0.0
220
0.0
230
1.0
  2
SOLID
 70
     1
 71
     0
 91
        2
 92
        0
 93
       14
 72
     1
 10
38.8233285
 20
0.0001523999999989
 11
38.8242429
 21
0.0001523999999989
 72
     4
 94
        3
 73
     1
 74
     0
 95
        8
 96
        4
 40
0.5333333333333333
 40
0.5333333333333333
 40
0.5333333333333333
 40
0.5333333333333333
 40
0.6
 40
0.6
 40
0.6
 40
0.6
 10
38.8242429
 20
0.0001523999999989
 42
1.0
 10
39.3812268
 20
0.0001523999999989
 42
1.0
 10
39.8895951
 20
0.2000249999999981
 42
1.0
 10
40.2673947
 20
0.5821680000000024
 42
1.0
 97
        0
 72
     1
 10
40.26739469999999
 20
0.5821680000000027
 11
40.35719639999999
 21
0.1136142000000007
 72
     1
 10
40.35719639999999
 20
0.1136142000000007
 11
40.9288107
 21
0.1136142000000007
 72
     1
 10
40.9288107
 20
0.1136142000000007
 11
40.9288107
 21
4.1671494
 72
     1
 10
40.9288107
 20
4.1671494
 11
40.9371546
 21
4.1671494
 72
     1
 10
40.9371546
 20
4.1671494
 11
40.9371546
 21
4.758842400000002
 72
     1
 10
40.9371546
 20
4.758842400000002
 11
40.2286851
 21
4.758842400000002
 72
     1
 10
40.2286851
 20
4.758842400000002
 11
40.2286851
 21
4.327283700000003
 72
     4
 94
        3
 73
     1
 74
     0
 95
        8
 96
        4
 40
0.1333333333333333
 40
0.1333333333333333
 40
0.1333333333333333
 40
0.1333333333333333
 40
0.2
 40
0.2
 40
0.2
 40
0.2
 10
40.2286851
 20
4.327283700000003
 42
1.0
 10
39.85515269999999
 20
4.6850808
 42
1.0
 10
39.3620244
 20
4.872266100000004
 42
1.0
 10
38.8233285
 20
4.871732700000001
 42
1.0
 97
        0
 72
     4
 94
        3
 73
     1
 74
     0
 95
        8
 96
        4
 40
0.2
 40
0.2
 40
0.2
 40
0.2
 40
0.2666666666666667
 40
0.2666666666666667
 40
0.2666666666666667
 40
0.2666666666666667
 10
38.8233285
 20
4.871732700000001
 42
1.0
 10
38.2430655
 20
4.872266100000004
 42
1.0
 10
37.71362790000001
 20
4.658563200000002
 42
1.0
 10
37.3317897
 20
4.244301900000001
 42
1.0
 97
        0
 72
     4
 94
        3
 73
     1
 74
     0
 95
        8
 96
        4
 40
0.2666666666666667
 40
0.2666666666666667
 40
0.2666666666666667
 40
0.2666666666666667
 40
0.3333333333333333
 40
0.3333333333333333
 40
0.3333333333333333
 40
0.3333333333333333
 10
37.3317897
 20
4.244301900000001
 42
1.0
 10
36.9504849
 20
3.831107400000003
 42
1.0
 10
36.7172748
 20
3.220516799999998
 42
1.0
 10
36.7172748
 20
2.436380699999996
 42
1.0
 97
        0
 72
     4
 94
        3
 73
     1
 74
     0
 95
        8
 96
        4
 40
0.3333333333333333
 40
0.3333333333333333
 40
0.3333333333333333
 40
0.3333333333333333
 40
0.4
 40
0.4
 40
0.4
 40
0.4
 10
36.7172748
 20
2.436380699999996
 42
1.0
 10
36.7172748
 20
1.651482599999996
 42
1.0
 10
36.9504849
 20
1.041311099999995
 42
1.0
 10
37.3317897
 20
0.6275831999999955
 42
1.0
 97
        0
 72
     4
 94
        3
 73
     1
 74
     0
 95
        8
 96
        4
 40
0.4
 40
0.4
 40
0.4
 40
0.4
 40
0.4666666666666667
 40
0.4666666666666667
 40
0.4666666666666667
 40
0.4666666666666667
 10
37.3317897
 20
0.6275831999999955
 42
1.0
 10
37.71362790000001
 20
0.2146935000000002
 42
1.0
 10
38.2430655
 20
0.0001523999999989
 42
1.0
 10
38.8233285
 20
0.0001523999999989
 42
1.0
 97
        0
 97
        0
 92
        0
 93
        5
 72
     4
 94
        3
 73
     1
 74
     0
 95
        8
 96
        4
 40
0.5
 40
0.5
 40
0.5
 40
0.5
 40
0.6666666666666666
 40
0.6666666666666666
 40
0.6666666666666666
 40
0.6666666666666666
 10
38.8233285
 20
4.223575500000002
 42
1.0
 10
39.6246477
 20
4.2220134
 42
1.0
 10
40.2391626
 20
3.575151600000002
 42
1.0
 10
40.24335360000001
 20
2.436380699999996
 42
1.0
 97
        0
 72
     4
 94
        3
 73
     1
 74
     0
 95
        8
 96
        4
 40
0.6666666666666666
 40
0.6666666666666666
 40
0.6666666666666666
 40
0.6666666666666666
 40
1.0
 40
1.0
 40
1.0
 40
1.0
 10
40.24335360000001
 20
2.436380699999996
 42
1.0
 10
40.2391626
 20
1.288313400000005
 42
1.0
 10
39.6250668
 20
0.6506717999999996
 42
1.0
 10
38.8233285
 20
0.6484239000000003
 42
1.0
 97
        0
 72
     4
 94
        3
 73
     1
 74
     0
 95
        8
 96
        4
 40
0.0
 40
0.0
 40
0.0
 40
0.0
 40
0.1666666666666667
 40
0.1666666666666667
 40
0.1666666666666667
 40
0.1666666666666667
 10
38.8233285
 20
0.6484239000000003
 42
1.0
 10
38.02075199999999
 20
0.6506717999999996
 42
1.0
 10
37.4067705
 20
1.288313400000005
 42
1.0
 10
37.4033034
 20
2.436380699999996
 42
1.0
 97
        0
 72
     1
 10
37.4033034
 20
2.436380699999996
 11
37.40303669999999
 21
2.436380699999996
 72
     4
 94
        3
 73
     1
 74
     0
 95
        8
 96
        4
 40
0.3333333333333333
 40
0.3333333333333333
 40
0.3333333333333333
 40
0.3333333333333333
 40
0.5
 40
0.5
 40
0.5
 40
0.5
 10
37.40303669999999
 20
2.436380699999996
 42
1.0
 10
37.4067705
 20
3.575151600000002
 42
1.0
 10
38.0218569
 20
4.2220134
 42
1.0
 10
38.8233285
 20
4.223575500000002
 42
1.0
 97
        0
 97
        0
 75
     0
 76
     1
 98
        1
 10
0.0
 20
0.0
  0
HATCH
  5
122
330
69
100
AcDbEntity
  8
0
  6
Continuous
 62
     7
100
AcDbHatch
 10
0.0
 20
0.0
 30
0.0
210
0.0
220
0.0
230
1.0
  2
SOLID
 70
     1
 71
     0
 91
        1
 92
        0
 93
       18
 72
     4
 94
        3
 73
     1
 74
     0
 95
        8
 96
        4
 40
0.7368421052631579
 40
0.7368421052631579
 40
0.7368421052631579
 40
0.7368421052631579
 40
0.7894736842105263
 40
0.7894736842105263
 40
0.7894736842105263
 40
0.7894736842105263
 10
43.2214401
 20
0.685495199999997
 42
1.0
 10
43.0789461
 20
0.6894194999999964
 42
1.0
 10
43.032045
 20
0.7359015000000025
 42
1.0
 10
42.9925353
 20
0.8309228999999972
 42
1.0
 97
        0
 72
     4
 94
        3
 73
     1
 74
     0
 95
        8
 96
        4
 40
0.7894736842105263
 40
0.7894736842105263
 40
0.7894736842105263
 40
0.7894736842105263
 40
0.8421052631578947
 40
0.8421052631578947
 40
0.8421052631578947
 40
0.8421052631578947
 10
42.9925353
 20
0.8309228999999972
 42
1.0
 10
42.9551592
 20
0.9283826999999996
 42
1.0
 10
42.9508539
 20
1.0802493
 42
1.0
 10
42.9511206
 20
1.249070400000002
 42
1.0
 97
        0
 72
     1
 10
42.9511206
 20
1.249070400000002
 11
42.9511206
 21
4.176941100000001
 72
     1
 10
42.9511206
 20
4.176941100000001
 11
43.7019192
 21
4.176941100000001
 72
     1
 10
43.7019192
 20
4.176941100000001
 11
43.7019192
 21
4.768672199999999
 72
     1
 10
43.7019192
 20
4.768672199999999
 11
42.9511206
 21
4.768672199999999
 72
     1
 10
42.9511206
 20
4.768672199999999
 11
42.9511206
 21
5.997778200000002
 72
     1
 10
42.9511206
 20
5.997778200000002
 11
42.2655111
 21
5.997778200000002
 72
     1
 10
42.2655111
 20
5.997778200000002
 11
42.2655111
 21
4.768672199999999
 72
     1
 10
42.2655111
 20
4.768672199999999
 11
41.714166
 21
4.768672199999999
 72
     1
 10
41.714166
 20
4.768672199999999
 11
41.714166
 21
4.176941100000001
 72
     1
 10
41.714166
 20
4.176941100000001
 11
42.2655111
 21
4.176941100000001
 72
     1
 10
42.2655111
 20
4.176941100000001
 11
42.2655111
 21
0.8719185000000018
 72
     4
 94
        3
 73
     1
 74
     0
 95
        8
 96
        4
 40
0.4736842105263158
 40
0.4736842105263158
 40
0.4736842105263158
 40
0.4736842105263158
 40
0.5263157894736842
 40
0.5263157894736842
 40
0.5263157894736842
 40
0.5263157894736842
 10
42.2655111
 20
0.8719185000000018
 42
1.0
 10
42.26402519999999
 20
0.5637275999999998
 42
1.0
 10
42.36377099999999
 20
0.3610736999999989
 42
1.0
 10
42.5247816
 20
0.2458974000000003
 42
1.0
 97
        0
 72
     4
 94
        3
 73
     1
 74
     0
 95
        8
 96
        4
 40
0.5263157894736842
 40
0.5263157894736842
 40
0.5263157894736842
 40
0.5263157894736842
 40
0.5789473684210527
 40
0.5789473684210527
 40
0.5789473684210527
 40
0.5789473684210527
 10
42.5247816
 20
0.2458974000000003
 42
1.0
 10
42.68514449999999
 20
0.1302639000000008
 42
1.0
 10
42.8903892
 20
0.1021841999999967
 42
1.0
 10
43.0985676
 20
0.1021841999999967
 42
1.0
 97
        0
 72
     4
 94
        3
 73
     1
 74
     0
 95
        8
 96
        4
 40
0.5789473684210527
 40
0.5789473684210527
 40
0.5789473684210527
 40
0.5789473684210527
 40
0.631578947368421
 40
0.631578947368421
 40
0.631578947368421
 40
0.631578947368421
 10
43.0985676
 20
0.1021841999999967
 42
1.0
 10
43.136058
 20
0.1021841999999967
 42
1.0
 10
43.6856886
 20
0.1016507999999985
 42
1.0
 10
43.7019192
 20
0.1016507999999985
 42
1.0
 97
        0
 72
     1
 10
43.7019192
 20
0.1016507999999985
 11
43.7019192
 21
0.685495199999997
 72
     1
 10
43.7019192
 20
0.685495199999997
 11
43.2214401
 21
0.685495199999997
 97
        0
 75
     0
 76
     1
 98
        1
 10
0.0
 20
0.0
  0
HATCH
  5
123
330
69
100
AcDbEntity
  8
0
  6
Continuous
 62
     7
100
AcDbHatch
 10
0.0
 20
0.0
 30
0.0
210
0.0
220
0.0
230
1.0
  2
SOLID
 70
     1
 71
     0
 91
        1
 92
        0
 93
       10
 72
     1
 10
47.94263970000001
 20
0.7226045999999986
 11
45.4409175
 21
0.7226045999999986
 72
     1
 10
45.4409175
 20
0.7226045999999986
 11
47.9055684
 21
4.386605399999997
 72
     1
 10
47.9055684
 20
4.386605399999997
 11
47.9055684
 21
4.776177900000004
 72
     1
 10
47.9055684
 20
4.776177900000004
 11
44.5238505
 21
4.776177900000004
 72
     1
 10
44.5238505
 20
4.776177900000004
 11
44.5238505
 21
4.184561100000003
 72
     1
 10
44.5238505
 20
4.184561100000003
 11
46.9404954
 21
4.1849802
 72
     1
 10
46.9404954
 20
4.1849802
 11
44.5238505
 21
0.5978652000000002
 72
     1
 10
44.5238505
 20
0.5978652000000001
 11
44.5238505
 21
0.1309497000000021
 72
     1
 10
44.5238505
 20
0.1309497000000021
 11
47.94263970000001
 21
0.1309497000000021
 72
     1
 10
47.94263970000001
 20
0.1309497000000021
 11
47.94263970000001
 21
0.7226045999999986
 97
        0
 75
     0
 76
     1
 98
        1
 10
0.0
 20
0.0
  0
HATCH
  5
124
330
69
100
AcDbEntity
  8
0
  6
Continuous
 62
     7
100
AcDbHatch
 10
0.0
 20
0.0
 30
0.0
210
0.0
220
0.0
230
1.0
  2
SOLID
 70
     1
 71
     0
 91
        1
 92
        0
 93
       13
 72
     1
 10
32.29523639999999
 20
5.997663900000002
 11
32.29523639999999
 21
0.123367799999996
 72
     1
 10
32.29523639999999
 20
0.123367799999996
 11
32.9807316
 21
0.123367799999996
 72
     1
 10
32.9807316
 20
0.123367799999996
 11
32.9807316
 21
2.823400499999998
 72
     4
 94
        3
 73
     1
 74
     0
 95
        8
 96
        4
 40
0.4285714285714285
 40
0.4285714285714285
 40
0.4285714285714285
 40
0.4285714285714285
 40
0.5
 40
0.5
 40
0.5
 40
0.5
 10
32.9807316
 20
2.823400499999998
 42
1.0
 10
32.98541789999999
 20
3.814952999999996
 42
1.0
 10
33.5612232
 20
4.228680899999996
 42
1.0
 10
34.21242839999999
 20
4.233405299999998
 42
1.0
 97
        0
 72
     4
 94
        3
 73
     1
 74
     0
 95
        8
 96
        4
 40
0.5
 40
0.5
 40
0.5
 40
0.5
 40
0.5714285714285714
 40
0.5714285714285714
 40
0.5714285714285714
 40
0.5714285714285714
 10
34.21242839999999
 20
4.233405299999998
 42
1.0
 10
34.909887
 20
4.221860999999997
 42
1.0
 10
35.2432239
 20
3.974553899999997
 42
1.0
 10
35.2545015
 20
3.077794199999997
 42
1.0
 97
        0
 72
     1
 10
35.2545015
 20
3.077794199999997
 11
35.2545015
 21
0.123367799999996
 72
     1
 10
35.2545015
 20
0.123367799999996
 11
35.9412159
 21
0.123367799999996
 72
     1
 10
35.9412159
 20
0.123367799999996
 11
35.9412159
 21
3.247377299999998
 72
     4
 94
        3
 73
     1
 74
     0
 95
        8
 96
        4
 40
0.7857142857142857
 40
0.7857142857142857
 40
0.7857142857142857
 40
0.7857142857142857
 40
0.8571428571428571
 40
0.8571428571428571
 40
0.8571428571428571
 40
0.8571428571428571
 10
35.9412159
 20
3.247377299999998
 42
1.0
 10
35.9412159
 20
3.723322499999998
 42
1.0
 10
35.8182291
 20
4.134154799999997
 42
1.0
 10
35.5453569
 20
4.425200699999999
 42
1.0
 97
        0
 72
     4
 94
        3
 73
     1
 74
     0
 95
        8
 96
        4
 40
0.8571428571428571
 40
0.8571428571428571
 40
0.8571428571428571
 40
0.8571428571428571
 40
1.0
 40
1.0
 40
1.0
 40
1.0
 10
35.5453569
 20
4.425200699999999
 42
1.0
 10
35.2723704
 20
4.716856200000003
 42
1.0
 10
34.854642
 20
4.881943499999997
 42
1.0
 10
34.28771399999999
 20
4.881943499999997
 42
1.0
 97
        0
 72
     4
 94
        3
 73
     1
 74
     0
 95
        8
 96
        4
 40
0.0
 40
0.0
 40
0.0
 40
0.0
 40
0.0714285714285714
 40
0.0714285714285714
 40
0.0714285714285714
 40
0.0714285714285714
 10
34.28771399999999
 20
4.881943499999997
 42
1.0
 10
33.79938629999999
 20
4.8827436
 42
1.0
 10
33.2912085
 20
4.7060739
 42
1.0
 10
32.9807316
 20
4.232605200000003
 42
1.0
 97
        0
 72
     1
 10
32.9807316
 20
4.232605200000003
 11
32.9807316
 21
5.997663900000002
 72
     1
 10
32.9807316
 20
5.997663900000002
 11
32.29523639999999
 21
5.997663900000002
 97
        0
 75
     0
 76
     1
 98
        1
 10
0.0
 20
0.0
  0
HATCH
  5
125
330
69
100
AcDbEntity
  8
0
  6
Continuous
 62
     7
100
AcDbHatch
 10
0.0
 20
0.0
 30
0.0
210
0.0
220
0.0
230
1.0
  2
SOLID
 70
     1
 71
     0
 91
        2
 92
        0
 93
       12
 72
     4
 94
        3
 73
     1
 74
     0
 95
        8
 96
        4
 40
0.5384615384615384
 40
0.5384615384615384
 40
0.5384615384615384
 40
0.5384615384615384
 40
0.6153846153846154
 40
0.6153846153846154
 40
0.6153846153846154
 40
0.6153846153846154
 10
13.5869553
 20
1.757362499999995
 42
1.0
 10
13.6296654
 20
1.984400399999998
 42
1.0
 10
13.644753
 20
2.240127599999994
 42
1.0
 10
13.644753
 20
2.370315299999998
 42
1.0
 97
        0
 72
     1
 10
13.644753
 20
2.370315299999998
 11
13.64608649999999
 21
2.370315299999998
 72
     1
 10
13.64608649999999
 20
2.370315299999998
 11
13.64608649999999
 21
5.997663900000002
 72
     1
 10
13.64608649999999
 20
5.997663900000002
 11
12.9646299
 21
5.997663900000002
 72
     1
 10
12.9646299
 20
5.997663900000002
 11
12.9646299
 21
4.2490644
 72
     4
 94
        3
 73
     1
 74
     0
 95
        8
 96
        4
 40
0.0
 40
0.0
 40
0.0
 40
0.0
 40
0.0769230769230769
 40
0.0769230769230769
 40
0.0769230769230769
 40
0.0769230769230769
 10
12.9646299
 20
4.2490644
 42
1.0
 10
12.63289319999999
 20
4.652810099999999
 42
1.0
 10
12.08840609999999
 20
4.881943499999997
 42
1.0
 10
11.5404519
 20
4.881943499999997
 42
1.0
 97
        0
 72
     4
 94
        3
 73
     1
 74
     0
 95
        8
 96
        4
 40
0.0769230769230769
 40
0.0769230769230769
 40
0.0769230769230769
 40
0.0769230769230769
 40
0.1538461538461539
 40
0.1538461538461539
 40
0.1538461538461539
 40
0.1538461538461539
 10
11.5404519
 20
4.881943499999997
 42
1.0
 10
10.9600746
 20
4.881943499999997
 42
1.0
 10
10.43090369999999
 20
4.668545400000001
 42
1.0
 10
10.0491798
 20
4.2542841
 42
1.0
 97
        0
 72
     4
 94
        3
 73
     1
 74
     0
 95
        8
 96
        4
 40
0.1538461538461539
 40
0.1538461538461539
 40
0.1538461538461539
 40
0.1538461538461539
 40
0.2307692307692308
 40
0.2307692307692308
 40
0.2307692307692308
 40
0.2307692307692308
 10
10.0491798
 20
4.2542841
 42
1.0
 10
9.667074899999996
 20
3.8409372
 42
1.0
 10
9.434398199999999
 20
3.230308499999998
 42
1.0
 10
9.434398199999999
 20
2.446172400000005
 42
1.0
 97
        0
 72
     4
 94
        3
 73
     1
 74
     0
 95
        8
 96
        4
 40
0.2307692307692308
 40
0.2307692307692308
 40
0.2307692307692308
 40
0.2307692307692308
 40
0.3076923076923077
 40
0.3076923076923077
 40
0.3076923076923077
 40
0.3076923076923077
 10
9.434398199999999
 20
2.446172400000005
 42
1.0
 10
9.434398199999999
 20
1.661312400000001
 42
1.0
 10
9.667074899999996
 20
1.051217100000001
 42
1.0
 10
10.0491798
 20
0.6374892000000021
 42
1.0
 97
        0
 72
     4
 94
        3
 73
     1
 74
     0
 95
        8
 96
        4
 40
0.3076923076923077
 40
0.3076923076923077
 40
0.3076923076923077
 40
0.3076923076923077
 40
0.3846153846153846
 40
0.3846153846153846
 40
0.3846153846153846
 40
0.3846153846153846
 10
10.0491798
 20
0.6374892000000021
 42
1.0
 10
10.43090369999999
 20
0.2245233000000013
 42
1.0
 10
10.9600746
 20
0.0100964999999981
 42
1.0
 10
11.5404519
 20
0.0100964999999981
 42
1.0
 97
        0
 72
     1
 10
11.5404519
 20
0.0100964999999981
 11
11.5478433
 21
0.0100964999999981
 72
     4
 94
        3
 73
     1
 74
     0
 95
        8
 96
        4
 40
0.4615384615384616
 40
0.4615384615384616
 40
0.4615384615384616
 40
0.4615384615384616
 40
0.5384615384615384
 40
0.5384615384615384
 40
0.5384615384615384
 40
0.5384615384615384
 10
11.5478433
 20
0.0100964999999981
 42
1.0
 10
12.5283468
 20
0.0100964999999981
 42
1.0
 10
13.3689471
 20
0.5975984999999989
 42
1.0
 10
13.5869553
 20
1.757362499999995
 42
1.0
 97
        0
 97
        0
 92
        0
 93
        4
 72
     4
 94
        3
 73
     1
 74
     0
 95
        8
 96
        4
 40
0.4
 40
0.4
 40
0.4
 40
0.4
 40
0.6
 40
0.6
 40
0.6
 40
0.6
 10
11.5404519
 20
4.233405299999998
 42
1.0
 10
12.3420378
 20
4.2318051
 42
1.0
 10
12.9602103
 20
3.6555807
 42
1.0
 10
12.9602103
 20
2.446172400000005
 42
1.0
 97
        0
 72
     4
 94
        3
 73
     1
 74
     0
 95
        8
 96
        4
 40
0.6
 40
0.6
 40
0.6
 40
0.6
 40
1.0
 40
1.0
 40
1.0
 40
1.0
 10
12.9602103
 20
2.446172400000005
 42
1.0
 10
12.967335
 20
1.196644800000002
 42
1.0
 10
12.3424569
 20
0.6605015999999964
 42
1.0
 10
11.5404519
 20
0.6582156000000006
 42
1.0
 97
        0
 72
     4
 94
        3
 73
     1
 74
     0
 95
        8
 96
        4
 40
0.0
 40
0.0
 40
0.0
 40
0.0
 40
0.2
 40
0.2
 40
0.2
 40
0.2
 10
11.5404519
 20
0.6582156000000006
 42
1.0
 10
10.7377611
 20
0.6605015999999964
 42
1.0
 10
10.12419869999999
 20
1.2982575
 42
1.0
 10
10.1202744
 20
2.446172400000005
 42
1.0
 97
        0
 72
     4
 94
        3
 73
     1
 74
     0
 95
        8
 96
        4
 40
0.2
 40
0.2
 40
0.2
 40
0.2
 40
0.4
 40
0.4
 40
0.4
 40
0.4
 10
10.1202744
 20
2.446172400000005
 42
1.0
 10
10.12419869999999
 20
3.584981399999998
 42
1.0
 10
10.7382945
 20
4.2318051
 42
1.0
 10
11.5404519
 20
4.233405299999998
 42
1.0
 97
        0
 97
        0
 75
     0
 76
     1
 98
        1
 10
0.0
 20
0.0
  0
HATCH
  5
126
330
69
100
AcDbEntity
  8
0
  6
Continuous
 62
     7
100
AcDbHatch
 10
0.0
 20
0.0
 30
0.0
210
0.0
220
0.0
230
1.0
  2
SOLID
 70
     1
 71
     0
 91
        1
 92
        0
 93
       13
 72
     4
 94
        3
 73
     1
 74
     0
 95
        8
 96
        4
 40
0.8571428571428571
 40
0.8571428571428571
 40
0.8571428571428571
 40
0.8571428571428571
 40
1.0
 40
1.0
 40
1.0
 40
1.0
 10
22.4795334
 20
4.425200699999999
 42
1.0
 10
22.206966
 20
4.7173515
 42
1.0
 10
21.7885518
 20
4.882248299999995
 42
1.0
 10
21.2217381
 20
4.881448199999999
 42
1.0
 97
        0
 72
     4
 94
        3
 73
     1
 74
     0
 95
        8
 96
        4
 40
0.0
 40
0.0
 40
0.0
 40
0.0
 40
0.0714285714285714
 40
0.0714285714285714
 40
0.0714285714285714
 40
0.0714285714285714
 10
21.2217381
 20
4.881448199999999
 42
1.0
 10
20.7334485
 20
4.8827436
 42
1.0
 10
20.2260327
 20
4.706607300000002
 42
1.0
 10
19.91487
 20
4.2401109
 42
1.0
 97
        0
 72
     1
 10
19.91487
 20
4.2401109
 11
19.91487
 21
4.768557900000001
 72
     1
 10
19.91487
 20
4.768557900000001
 11
19.2292605
 21
4.768557900000001
 72
     1
 10
19.2292605
 20
4.768557900000001
 11
19.2292605
 21
0.123367799999996
 72
     1
 10
19.2292605
 20
0.123367799999996
 11
19.91487
 21
0.123367799999996
 72
     1
 10
19.91487
 20
0.123367799999996
 11
19.91487
 21
2.822905200000001
 72
     4
 94
        3
 73
     1
 74
     0
 95
        8
 96
        4
 40
0.4285714285714285
 40
0.4285714285714285
 40
0.4285714285714285
 40
0.4285714285714285
 40
0.5
 40
0.5
 40
0.5
 40
0.5
 10
19.91487
 20
2.822905200000001
 42
1.0
 10
19.9197087
 20
3.814952999999996
 42
1.0
 10
20.4953997
 20
4.228680899999996
 42
1.0
 10
21.1464525
 20
4.233405299999998
 42
1.0
 97
        0
 72
     4
 94
        3
 73
     1
 74
     0
 95
        8
 96
        4
 40
0.5
 40
0.5
 40
0.5
 40
0.5
 40
0.5714285714285714
 40
0.5714285714285714
 40
0.5714285714285714
 40
0.5714285714285714
 10
21.1464525
 20
4.233405299999998
 42
1.0
 10
21.8441778
 20
4.222127699999998
 42
1.0
 10
22.1777814
 20
3.974553899999997
 42
1.0
 10
22.1893257
 20
3.077527499999996
 42
1.0
 97
        0
 72
     1
 10
22.1893257
 20
3.077527499999996
 11
22.1893257
 21
0.123367799999996
 72
     1
 10
22.1893257
 20
0.123367799999996
 11
22.8750876
 21
0.123367799999996
 72
     1
 10
22.8750876
 20
0.123367799999996
 11
22.8750876
 21
3.247377299999998
 72
     4
 94
        3
 73
     1
 74
     0
 95
        8
 96
        4
 40
0.7857142857142857
 40
0.7857142857142857
 40
0.7857142857142857
 40
0.7857142857142857
 40
0.8571428571428571
 40
0.8571428571428571
 40
0.8571428571428571
 40
0.8571428571428571
 10
22.8750876
 20
3.247377299999998
 42
1.0
 10
22.8750876
 20
3.723322499999998
 42
1.0
 10
22.7522532
 20
4.134154799999997
 42
1.0
 10
22.4795334
 20
4.425200699999999
 42
1.0
 97
        0
 97
        0
 75
     0
 76
     1
 98
        1
 10
0.0
 20
0.0
  0
HATCH
  5
127
330
69
100
AcDbEntity
  8
0
  6
Continuous
 62
     7
100
AcDbHatch
 10
0.0
 20
0.0
 30
0.0
210
0.0
220
0.0
230
1.0
  2
SOLID
 70
     1
 71
     0
 91
        1
 92
        0
 93
       24
 72
     4
 94
        3
 73
     1
 74
     0
 95
        8
 96
        4
 40
0.92
 40
0.92
 40
0.92
 40
0.92
 40
1.0
 40
1.0
 40
1.0
 40
1.0
 10
27.034617
 20
1.433093399999996
 42
1.0
 10
27.0370554
 20
2.382926399999996
 42
1.0
 10
26.3174226
 20
2.642273099999995
 42
1.0
 10
25.6488819
 20
2.791396499999999
 42
1.0
 97
        0
 72
     4
 94
        3
 73
     1
 74
     0
 95
        8
 96
        4
 40
0.0
 40
0.0
 40
0.0
 40
0.0
 40
0.04
 40
0.04
 40
0.04
 40
0.04
 10
25.6488819
 20
2.791396499999999
 42
1.0
 10
25.312878
 20
2.868548999999998
 42
1.0
 10
24.9795411
 20
2.926080000000001
 42
1.0
 10
24.73962539999999
 20
3.032645699999998
 42
1.0
 97
        0
 72
     4
 94
        3
 73
     1
 74
     0
 95
        8
 96
        4
 40
0.04
 40
0.04
 40
0.04
 40
0.04
 40
0.08
 40
0.08
 40
0.08
 40
0.08
 10
24.73962539999999
 20
3.032645699999998
 42
1.0
 10
24.4982238
 20
3.142107000000002
 42
1.0
 10
24.3593493
 20
3.278619299999999
 42
1.0
 10
24.3570633
 20
3.544824000000002
 42
1.0
 97
        0
 72
     4
 94
        3
 73
     1
 74
     0
 95
        8
 96
        4
 40
0.08
 40
0.08
 40
0.08
 40
0.08
 40
0.12
 40
0.12
 40
0.12
 40
0.12
 10
24.3570633
 20
3.544824000000002
 42
1.0
 10
24.366474
 20
3.956456399999997
 42
1.0
 10
24.5171595
 20
4.237062899999997
 42
1.0
 10
25.2667389
 20
4.273181700000003
 42
1.0
 97
        0
 72
     4
 94
        3
 73
     1
 74
     0
 95
        8
 96
        4
 40
0.12
 40
0.12
 40
0.12
 40
0.12
 40
0.16
 40
0.16
 40
0.16
 40
0.16
 10
25.2667389
 20
4.273181700000003
 42
1.0
 10
25.7064129
 20
4.269790799999998
 42
1.0
 10
25.99833509999999
 20
4.084548599999996
 42
1.0
 10
26.1839583
 20
3.7729287
 42
1.0
 97
        0
 72
     1
 10
26.1839583
 20
3.7729287
 11
26.2014462
 21
3.743553599999999
 72
     1
 10
26.2014462
 20
3.743553599999999
 11
26.8831695
 21
3.743553599999999
 72
     1
 10
26.8831695
 20
3.743553599999999
 11
26.8459077
 21
3.827525999999998
 72
     4
 94
        3
 73
     1
 74
     0
 95
        8
 96
        4
 40
0.28
 40
0.28
 40
0.28
 40
0.28
 40
0.32
 40
0.32
 40
0.32
 40
0.32
 10
26.8459077
 20
3.827525999999998
 42
1.0
 10
26.5467465
 20
4.5057822
 42
1.0
 10
25.962864
 20
4.870132500000002
 42
1.0
 10
25.2976761
 20
4.869103800000002
 42
1.0
 97
        0
 72
     4
 94
        3
 73
     1
 74
     0
 95
        8
 96
        4
 40
0.32
 40
0.32
 40
0.32
 40
0.32
 40
0.36
 40
0.36
 40
0.36
 40
0.36
 10
25.2976761
 20
4.869103800000002
 42
1.0
 10
25.28072159999999
 20
4.869103800000002
 42
1.0
 10
25.2667389
 20
4.867808400000001
 42
1.0
 10
25.2545088
 20
4.867808400000001
 42
1.0
 97
        0
 72
     1
 10
25.2545088
 20
4.867808400000001
 11
25.1957967
 21
4.867274999999999
 72
     1
 10
25.1957967
 20
4.867274999999999
 11
25.1957967
 21
4.865941500000002
 72
     4
 94
        3
 73
     1
 74
     0
 95
        8
 96
        4
 40
0.44
 40
0.44
 40
0.44
 40
0.44
 40
0.48
 40
0.48
 40
0.48
 40
0.48
 10
25.1957967
 20
4.865941500000002
 42
1.0
 10
24.21502649999999
 20
4.8373284
 42
1.0
 10
23.6691678
 20
4.231309800000003
 42
1.0
 10
23.67133949999999
 20
3.563721599999997
 42
1.0
 97
        0
 72
     4
 94
        3
 73
     1
 74
     0
 95
        8
 96
        4
 40
0.48
 40
0.48
 40
0.48
 40
0.48
 40
0.52
 40
0.52
 40
0.52
 40
0.52
 10
23.67133949999999
 20
3.563721599999997
 42
1.0
 10
23.6689011
 20
2.621013300000002
 42
1.0
 10
24.39268679999999
 20
2.407081799999997
 42
1.0
 10
25.0581414
 20
2.279484900000003
 42
1.0
 97
        0
 72
     4
 94
        3
 73
     1
 74
     0
 95
        8
 96
        4
 40
0.52
 40
0.52
 40
0.52
 40
0.52
 40
0.56
 40
0.56
 40
0.56
 40
0.56
 10
25.0581414
 20
2.279484900000003
 42
1.0
 10
25.3939167
 20
2.211743099999997
 42
1.0
 10
25.7260344
 20
2.158212599999996
 42
1.0
 10
25.9643499
 20
2.043226800000001
 42
1.0
 97
        0
 72
     4
 94
        3
 73
     1
 74
     0
 95
        8
 96
        4
 40
0.56
 40
0.56
 40
0.56
 40
0.56
 40
0.6
 40
0.6
 40
0.6
 40
0.6
 10
25.9643499
 20
2.043226800000001
 42
1.0
 10
26.2027797
 20
1.925345399999998
 42
1.0
 10
26.345388
 20
1.767039899999998
 42
1.0
 10
26.3484741
 20
1.452029100000005
 42
1.0
 97
        0
 72
     4
 94
        3
 73
     1
 74
     0
 95
        8
 96
        4
 40
0.6
 40
0.6
 40
0.6
 40
0.6
 40
0.64
 40
0.64
 40
0.64
 40
0.64
 10
26.3484741
 20
1.452029100000005
 42
1.0
 10
26.3482074
 20
0.7650861000000038
 42
1.0
 10
25.7924427
 20
0.6081141000000012
 42
1.0
 10
25.3281942
 20
0.5886069000000023
 42
1.0
 97
        0
 72
     4
 94
        3
 73
     1
 74
     0
 95
        8
 96
        4
 40
0.64
 40
0.64
 40
0.64
 40
0.64
 40
0.68
 40
0.68
 40
0.68
 40
0.68
 10
25.3281942
 20
0.5886069000000023
 42
1.0
 10
24.9371739
 20
0.5970650999999966
 42
1.0
 10
24.3777897
 20
0.7282052999999984
 42
1.0
 10
24.191214
 20
1.370990400000002
 42
1.0
 97
        0
 72
     1
 10
24.191214
 20
1.370990400000002
 11
24.17925059999999
 21
1.414805399999997
 72
     1
 10
24.17925059999999
 20
1.414805399999997
 11
23.4820968
 21
1.414805399999997
 72
     1
 10
23.4820968
 20
1.414805399999997
 11
23.5064046
 21
1.337119500000003
 72
     4
 94
        3
 73
     1
 74
     0
 95
        8
 96
        4
 40
0.8
 40
0.8
 40
0.8
 40
0.8
 40
0.84
 40
0.84
 40
0.84
 40
0.84
 10
23.5064046
 20
1.337119500000003
 42
1.0
 10
23.7683802
 20
0.4924805999999976
 42
1.0
 10
24.54161969999999
 20
0.0244601999999983
 42
1.0
 10
25.2792738
 20
0.0
 42
1.0
 97
        0
 72
     1
 10
25.2792738
 20
0.0
 11
25.3310136
 21
0.0005714999999989
 72
     4
 94
        3
 73
     1
 74
     0
 95
        8
 96
        4
 40
0.88
 40
0.88
 40
0.88
 40
0.88
 40
0.92
 40
0.92
 40
0.92
 40
0.92
 10
25.3310136
 20
0.0005714999999989
 42
1.0
 10
26.4144633
 20
0.0376427999999998
 42
1.0
 10
27.036522
 20
0.6775703999999966
 42
1.0
 10
27.034617
 20
1.433093399999996
 42
1.0
 97
        0
 97
        0
 75
     0
 76
     1
 98
        1
 10
0.0
 20
0.0
  0
HATCH
  5
128
330
69
100
AcDbEntity
  8
0
  6
Continuous
 62
     7
100
AcDbHatch
 10
0.0
 20
0.0
 30
0.0
210
0.0
220
0.0
230
1.0
  2
SOLID
 70
     1
 71
     0
 91
        1
 92
        0
 93
       15
 72
     4
 94
        3
 73
     1
 74
     0
 95
        8
 96
        4
 40
0.6875
 40
0.6875
 40
0.6875
 40
0.6875
 40
0.75
 40
0.75
 40
0.75
 40
0.75
 10
29.612844
 20
0.0100964999999981
 42
1.0
 10
30.60089129999999
 20
0.0100964999999981
 42
1.0
 10
31.22801729999999
 20
0.450837300000001
 42
1.0
 10
31.56204
 20
1.311325799999999
 42
1.0
 97
        0
 72
     1
 10
31.56204
 20
1.311325799999999
 11
31.59442499999999
 21
1.393278900000003
 72
     1
 10
31.59442499999999
 20
1.393278900000003
 11
30.8433597
 21
1.393545600000004
 72
     1
 10
30.8433597
 20
1.393545600000004
 11
30.8276244
 21
1.359408000000004
 72
     4
 94
        3
 73
     1
 74
     0
 95
        8
 96
        4
 40
0.0
 40
0.0
 40
0.0
 40
0.0
 40
0.0625
 40
0.0625
 40
0.0625
 40
0.0625
 10
30.8276244
 20
1.359408000000004
 42
1.0
 10
30.6352956
 20
0.9622154999999939
 42
1.0
 10
30.2848899
 20
0.6605015999999964
 42
1.0
 10
29.6000805
 20
0.6582156000000006
 42
1.0
 97
        0
 72
     4
 94
        3
 73
     1
 74
     0
 95
        8
 96
        4
 40
0.0625
 40
0.0625
 40
0.0625
 40
0.0625
 40
0.125
 40
0.125
 40
0.125
 40
0.125
 10
29.6000805
 20
0.6582156000000006
 42
1.0
 10
28.9179762
 20
0.6601205999999971
 42
1.0
 10
28.1824938
 20
1.227048600000002
 42
1.0
 10
28.18032209999999
 20
2.446172400000005
 42
1.0
 97
        0
 72
     4
 94
        3
 73
     1
 74
     0
 95
        8
 96
        4
 40
0.125
 40
0.125
 40
0.125
 40
0.125
 40
0.1875
 40
0.1875
 40
0.1875
 40
0.1875
 10
28.18032209999999
 20
2.446172400000005
 42
1.0
 10
28.18302719999999
 20
3.6645342
 42
1.0
 10
28.9156902
 20
4.230509699999999
 42
1.0
 10
29.6565447
 20
4.233405299999998
 42
1.0
 97
        0
 72
     4
 94
        3
 73
     1
 74
     0
 95
        8
 96
        4
 40
0.1875
 40
0.1875
 40
0.1875
 40
0.1875
 40
0.25
 40
0.25
 40
0.25
 40
0.25
 10
29.6565447
 20
4.233405299999998
 42
1.0
 10
30.1868967
 20
4.2318051
 42
1.0
 10
30.5905281
 20
4.075899900000002
 42
1.0
 10
30.7692933
 20
3.701262600000002
 42
1.0
 97
        0
 72
     1
 10
30.7692933
 20
3.701262600000002
 11
30.7850286
 21
3.666629700000005
 72
     1
 10
30.7850286
 20
3.666629700000005
 11
31.5281691
 21
3.6616386
 72
     1
 10
31.5281691
 20
3.6616386
 11
31.4910597
 21
3.746411100000003
 72
     4
 94
        3
 73
     1
 74
     0
 95
        8
 96
        4
 40
0.4375
 40
0.4375
 40
0.4375
 40
0.4375
 40
0.5
 40
0.5
 40
0.5
 40
0.5
 10
31.4910597
 20
3.746411100000003
 42
1.0
 10
31.0765698
 20
4.699520700000001
 42
1.0
 10
30.3072165
 20
4.884839099999996
 42
1.0
 10
29.7316779
 20
4.881448199999999
 42
1.0
 97
        0
 72
     4
 94
        3
 73
     1
 74
     0
 95
        8
 96
        4
 40
0.5
 40
0.5
 40
0.5
 40
0.5
 40
0.5625
 40
0.5625
 40
0.5625
 40
0.5625
 10
29.7316779
 20
4.881448199999999
 42
1.0
 10
28.3977969
 20
4.884839099999996
 42
1.0
 10
27.5088096
 20
3.8931723
 42
1.0
 10
27.49429349999999
 20
2.446439099999998
 42
1.0
 97
        0
 72
     4
 94
        3
 73
     1
 74
     0
 95
        8
 96
        4
 40
0.5625
 40
0.5625
 40
0.5625
 40
0.5625
 40
0.625
 40
0.625
 40
0.625
 40
0.625
 10
27.49429349999999
 20
2.446439099999998
 42
1.0
 10
27.5105622
 20
0.9973436999999976
 42
1.0
 10
28.4315535
 20
0.0090297000000017
 42
1.0
 10
29.6000805
 20
0.0100964999999981
 42
1.0
 97
        0
 72
     1
 10
29.6000805
 20
0.0100964999999981
 11
29.612844
 21
0.0100964999999981
 97
        0
 75
     0
 76
     1
 98
        1
 10
0.0
 20
0.0
  0
ENDBLK
  5
6B
330
69
100
AcDbEntity
  8
0
100
AcDbBlockEnd
  0
BLOCK
  5
12A
330
129
100
AcDbEntity
  8
0
100
AcDbBlockBegin
  2
Block4_1
 70
     0
 10
0.0
 20
0.0
 30
0.0
  3
Block4_1
  1

  0
LINE
  5
12C
330
129
100
AcDbEntity
  8
0
  6
SLD-Durchgehend
 62
     7
370
    50
100
AcDbLine
 10
6.8143755
 20
0.0100965
 30
0.0
 11
6.8165091
 21
0.0100965
 31
0.0
  0
LINE
  5
12D
330
129
100
AcDbEntity
  8
0
  6
SLD-Durchgehend
 62
     7
370
    50
100
AcDbLine
 10
30.7692933
 20
3.7012626
 30
0.0
 11
30.7850286
 21
3.6666297
 31
0.0
  0
LINE
  5
12E
330
129
100
AcDbEntity
  8
0
  6
SLD-Durchgehend
 62
     7
370
    50
100
AcDbLine
 10
30.7850286
 20
3.6666297
 30
0.0
 11
31.5281691
 21
3.6616386
 31
0.0
  0
LINE
  5
12F
330
129
100
AcDbEntity
  8
0
  6
SLD-Durchgehend
 62
     7
370
    50
100
AcDbLine
 10
31.5281691
 20
3.6616386
 30
0.0
 11
31.4910597
 21
3.7464111
 31
0.0
  0
LINE
  5
130
330
129
100
AcDbEntity
  8
0
  6
SLD-Durchgehend
 62
     7
370
    50
100
AcDbLine
 10
29.6000805
 20
0.0100965
 30
0.0
 11
29.612844
 21
0.0100965
 31
0.0
  0
LINE
  5
131
330
129
100
AcDbEntity
  8
0
  6
SLD-Durchgehend
 62
     7
370
    50
100
AcDbLine
 10
31.56204
 20
1.3113258
 30
0.0
 11
31.594425
 21
1.3932789
 31
0.0
  0
LINE
  5
132
330
129
100
AcDbEntity
  8
0
  6
SLD-Durchgehend
 62
     7
370
    50
100
AcDbLine
 10
31.594425
 20
1.3932789
 30
0.0
 11
30.8433597
 21
1.3935456
 31
0.0
  0
LINE
  5
133
330
129
100
AcDbEntity
  8
0
  6
SLD-Durchgehend
 62
     7
370
    50
100
AcDbLine
 10
30.8433597
 20
1.3935456
 30
0.0
 11
30.8276244
 21
1.359408
 31
0.0
  0
LINE
  5
134
330
129
100
AcDbEntity
  8
0
  6
SLD-Durchgehend
 62
     7
370
    50
100
AcDbLine
 10
11.5404519
 20
0.0100965
 30
0.0
 11
11.5478433
 21
0.0100965
 31
0.0
  0
LINE
  5
135
330
129
100
AcDbEntity
  8
0
  6
SLD-Durchgehend
 62
     7
370
    50
100
AcDbLine
 10
13.644753
 20
2.3703153
 30
0.0
 11
13.6460865
 21
2.3703153
 31
0.0
  0
LINE
  5
136
330
129
100
AcDbEntity
  8
0
  6
SLD-Durchgehend
 62
     7
370
    50
100
AcDbLine
 10
13.6460865
 20
2.3703153
 30
0.0
 11
13.6460865
 21
5.9976639
 31
0.0
  0
LINE
  5
137
330
129
100
AcDbEntity
  8
0
  6
SLD-Durchgehend
 62
     7
370
    50
100
AcDbLine
 10
13.6460865
 20
5.9976639
 30
0.0
 11
12.9646299
 21
5.9976639
 31
0.0
  0
LINE
  5
138
330
129
100
AcDbEntity
  8
0
  6
SLD-Durchgehend
 62
     7
370
    50
100
AcDbLine
 10
12.9646299
 20
5.9976639
 30
0.0
 11
12.9646299
 21
4.2490644
 31
0.0
  0
LINE
  5
139
330
129
100
AcDbEntity
  8
0
  6
SLD-Durchgehend
 62
     7
370
    50
100
AcDbLine
 10
26.1839583
 20
3.7729287
 30
0.0
 11
26.2014462
 21
3.7435536
 31
0.0
  0
LINE
  5
13A
330
129
100
AcDbEntity
  8
0
  6
SLD-Durchgehend
 62
     7
370
    50
100
AcDbLine
 10
26.2014462
 20
3.7435536
 30
0.0
 11
26.8831695
 21
3.7435536
 31
0.0
  0
LINE
  5
13B
330
129
100
AcDbEntity
  8
0
  6
SLD-Durchgehend
 62
     7
370
    50
100
AcDbLine
 10
26.8831695
 20
3.7435536
 30
0.0
 11
26.8459077
 21
3.827526
 31
0.0
  0
LINE
  5
13C
330
129
100
AcDbEntity
  8
0
  6
SLD-Durchgehend
 62
     7
370
    50
100
AcDbLine
 10
25.2545088
 20
4.8678084
 30
0.0
 11
25.1957967
 21
4.867275
 31
0.0
  0
LINE
  5
13D
330
129
100
AcDbEntity
  8
0
  6
SLD-Durchgehend
 62
     7
370
    50
100
AcDbLine
 10
25.1957967
 20
4.867275
 30
0.0
 11
25.1957967
 21
4.8659415
 31
0.0
  0
LINE
  5
13E
330
129
100
AcDbEntity
  8
0
  6
SLD-Durchgehend
 62
     7
370
    50
100
AcDbLine
 10
24.191214
 20
1.3709904
 30
0.0
 11
24.1792506
 21
1.4148054
 31
0.0
  0
LINE
  5
13F
330
129
100
AcDbEntity
  8
0
  6
SLD-Durchgehend
 62
     7
370
    50
100
AcDbLine
 10
24.1792506
 20
1.4148054
 30
0.0
 11
23.4820968
 21
1.4148054
 31
0.0
  0
LINE
  5
140
330
129
100
AcDbEntity
  8
0
  6
SLD-Durchgehend
 62
     7
370
    50
100
AcDbLine
 10
23.4820968
 20
1.4148054
 30
0.0
 11
23.5064046
 21
1.3371195
 31
0.0
  0
LINE
  5
141
330
129
100
AcDbEntity
  8
0
  6
SLD-Durchgehend
 62
     7
370
    50
100
AcDbLine
 10
25.2792738
 20
0.0
 30
0.0
 11
25.3310136
 21
0.0005715
 31
0.0
  0
LINE
  5
142
330
129
100
AcDbEntity
  8
0
  6
SLD-Durchgehend
 62
     7
370
    50
100
AcDbLine
 10
32.9807316
 20
4.2326052
 30
0.0
 11
32.9807316
 21
5.9976639
 31
0.0
  0
LINE
  5
143
330
129
100
AcDbEntity
  8
0
  6
SLD-Durchgehend
 62
     7
370
    50
100
AcDbLine
 10
32.9807316
 20
5.9976639
 30
0.0
 11
32.2952364
 21
5.9976639
 31
0.0
  0
LINE
  5
144
330
129
100
AcDbEntity
  8
0
  6
SLD-Durchgehend
 62
     7
370
    50
100
AcDbLine
 10
32.2952364
 20
5.9976639
 30
0.0
 11
32.2952364
 21
0.1233678
 31
0.0
  0
LINE
  5
145
330
129
100
AcDbEntity
  8
0
  6
SLD-Durchgehend
 62
     7
370
    50
100
AcDbLine
 10
32.2952364
 20
0.1233678
 30
0.0
 11
32.9807316
 21
0.1233678
 31
0.0
  0
LINE
  5
146
330
129
100
AcDbEntity
  8
0
  6
SLD-Durchgehend
 62
     7
370
    50
100
AcDbLine
 10
32.9807316
 20
0.1233678
 30
0.0
 11
32.9807316
 21
2.8234005
 31
0.0
  0
LINE
  5
147
330
129
100
AcDbEntity
  8
0
  6
SLD-Durchgehend
 62
     7
370
    50
100
AcDbLine
 10
35.2545015
 20
3.0777942
 30
0.0
 11
35.2545015
 21
0.1233678
 31
0.0
  0
LINE
  5
148
330
129
100
AcDbEntity
  8
0
  6
SLD-Durchgehend
 62
     7
370
    50
100
AcDbLine
 10
35.2545015
 20
0.1233678
 30
0.0
 11
35.9412159
 21
0.1233678
 31
0.0
  0
LINE
  5
149
330
129
100
AcDbEntity
  8
0
  6
SLD-Durchgehend
 62
     7
370
    50
100
AcDbLine
 10
35.9412159
 20
0.1233678
 30
0.0
 11
35.9412159
 21
3.2473773
 31
0.0
  0
LINE
  5
14A
330
129
100
AcDbEntity
  8
0
  6
SLD-Durchgehend
 62
     7
370
    50
100
AcDbLine
 10
19.91487
 20
4.2401109
 30
0.0
 11
19.91487
 21
4.7685579
 31
0.0
  0
LINE
  5
14B
330
129
100
AcDbEntity
  8
0
  6
SLD-Durchgehend
 62
     7
370
    50
100
AcDbLine
 10
19.91487
 20
4.7685579
 30
0.0
 11
19.2292605
 21
4.7685579
 31
0.0
  0
LINE
  5
14C
330
129
100
AcDbEntity
  8
0
  6
SLD-Durchgehend
 62
     7
370
    50
100
AcDbLine
 10
19.2292605
 20
4.7685579
 30
0.0
 11
19.2292605
 21
0.1233678
 31
0.0
  0
LINE
  5
14D
330
129
100
AcDbEntity
  8
0
  6
SLD-Durchgehend
 62
     7
370
    50
100
AcDbLine
 10
19.2292605
 20
0.1233678
 30
0.0
 11
19.91487
 21
0.1233678
 31
0.0
  0
LINE
  5
14E
330
129
100
AcDbEntity
  8
0
  6
SLD-Durchgehend
 62
     7
370
    50
100
AcDbLine
 10
19.91487
 20
0.1233678
 30
0.0
 11
19.91487
 21
2.8229052
 31
0.0
  0
LINE
  5
14F
330
129
100
AcDbEntity
  8
0
  6
SLD-Durchgehend
 62
     7
370
    50
100
AcDbLine
 10
22.1893257
 20
3.0775275
 30
0.0
 11
22.1893257
 21
0.1233678
 31
0.0
  0
LINE
  5
150
330
129
100
AcDbEntity
  8
0
  6
SLD-Durchgehend
 62
     7
370
    50
100
AcDbLine
 10
22.1893257
 20
0.1233678
 30
0.0
 11
22.8750876
 21
0.1233678
 31
0.0
  0
LINE
  5
151
330
129
100
AcDbEntity
  8
0
  6
SLD-Durchgehend
 62
     7
370
    50
100
AcDbLine
 10
22.8750876
 20
0.1233678
 30
0.0
 11
22.8750876
 21
3.2473773
 31
0.0
  0
LINE
  5
152
330
129
100
AcDbEntity
  8
0
  6
SLD-Durchgehend
 62
     7
370
    50
100
AcDbLine
 10
16.4193474
 20
0.0100965
 30
0.0
 11
16.4241861
 21
0.0100965
 31
0.0
  0
LINE
  5
153
330
129
100
AcDbEntity
  8
0
  6
SLD-Durchgehend
 62
     7
370
    50
100
AcDbLine
 10
18.3883935
 20
1.4943582
 30
0.0
 11
18.4123203
 21
1.5715107
 31
0.0
  0
LINE
  5
154
330
129
100
AcDbEntity
  8
0
  6
SLD-Durchgehend
 62
     7
370
    50
100
AcDbLine
 10
18.4123203
 20
1.5715107
 30
0.0
 11
17.6541303
 21
1.5715107
 31
0.0
  0
LINE
  5
155
330
129
100
AcDbEntity
  8
0
  6
SLD-Durchgehend
 62
     7
370
    50
100
AcDbLine
 10
17.6541303
 20
1.5715107
 30
0.0
 11
17.6403
 21
1.5318867
 31
0.0
  0
LINE
  5
156
330
129
100
AcDbEntity
  8
0
  6
SLD-Durchgehend
 62
     7
370
    50
100
AcDbLine
 10
16.395954
 20
0.6582156
 30
0.0
 11
16.3825047
 21
0.658749
 31
0.0
  0
LINE
  5
157
330
129
100
AcDbEntity
  8
0
  6
SLD-Durchgehend
 62
     7
370
    50
100
AcDbLine
 10
15.0027894
 20
2.3422356
 30
0.0
 11
15.0025227
 21
2.4047196
 31
0.0
  0
LINE
  5
158
330
129
100
AcDbEntity
  8
0
  6
SLD-Durchgehend
 62
     7
370
    50
100
AcDbLine
 10
15.0025227
 20
2.4047196
 30
0.0
 11
18.4548018
 21
2.4047196
 31
0.0
  0
LINE
  5
159
330
129
100
AcDbEntity
  8
0
  6
SLD-Durchgehend
 62
     7
370
    50
100
AcDbLine
 10
18.4548018
 20
2.4047196
 30
0.0
 11
18.4526682
 21
2.4671655
 31
0.0
  0
LINE
  5
15A
330
129
100
AcDbEntity
  8
0
  6
SLD-Durchgehend
 62
     7
370
    50
100
AcDbLine
 10
17.6779428
 20
2.9964126
 30
0.0
 11
15.0119334
 21
2.9964126
 31
0.0
  0
LINE
  5
15B
330
129
100
AcDbEntity
  8
0
  6
SLD-Durchgehend
 62
     7
370
    50
100
AcDbLine
 10
2.1056346
 20
0.0090297
 30
0.0
 11
2.0981289
 21
0.0090297
 31
0.0
  0
LINE
  5
15C
330
129
100
AcDbEntity
  8
0
  6
SLD-Durchgehend
 62
     7
370
    50
100
AcDbLine
 10
0.0013335
 20
2.3692485
 30
0.0
 11
0.0
 21
2.3692485
 31
0.0
  0
LINE
  5
15D
330
129
100
AcDbEntity
  8
0
  6
SLD-Durchgehend
 62
     7
370
    50
100
AcDbLine
 10
0.0
 20
2.3692485
 30
0.0
 11
0.0
 21
5.9964447
 31
0.0
  0
LINE
  5
15E
330
129
100
AcDbEntity
  8
0
  6
SLD-Durchgehend
 62
     7
370
    50
100
AcDbLine
 10
0.0
 20
5.9964447
 30
0.0
 11
0.6813042
 21
5.9964447
 31
0.0
  0
LINE
  5
15F
330
129
100
AcDbEntity
  8
0
  6
SLD-Durchgehend
 62
     7
370
    50
100
AcDbLine
 10
0.6813042
 20
5.9964447
 30
0.0
 11
0.6813042
 21
4.2478452
 31
0.0
  0
LINE
  5
160
330
129
100
AcDbEntity
  8
0
  6
SLD-Durchgehend
 62
     7
370
    50
100
AcDbLine
 10
37.4033034
 20
2.4363807
 30
0.0
 11
37.4030367
 21
2.4363807
 31
0.0
  0
LINE
  5
161
330
129
100
AcDbEntity
  8
0
  6
SLD-Durchgehend
 62
     7
370
    50
100
AcDbLine
 10
40.9371546
 20
4.7588424
 30
0.0
 11
40.2286851
 21
4.7588424
 31
0.0
  0
LINE
  5
162
330
129
100
AcDbEntity
  8
0
  6
SLD-Durchgehend
 62
     7
370
    50
100
AcDbLine
 10
40.2286851
 20
4.7588424
 30
0.0
 11
40.2286851
 21
4.3272837
 31
0.0
  0
LINE
  5
163
330
129
100
AcDbEntity
  8
0
  6
SLD-Durchgehend
 62
     7
370
    50
100
AcDbLine
 10
38.8233285
 20
0.0001524
 30
0.0
 11
38.8242429
 21
0.0001524
 31
0.0
  0
LINE
  5
164
330
129
100
AcDbEntity
  8
0
  6
SLD-Durchgehend
 62
     7
370
    50
100
AcDbLine
 10
40.2673947
 20
0.582168
 30
0.0
 11
40.3571964
 21
0.1136142
 31
0.0
  0
LINE
  5
165
330
129
100
AcDbEntity
  8
0
  6
SLD-Durchgehend
 62
     7
370
    50
100
AcDbLine
 10
40.3571964
 20
0.1136142
 30
0.0
 11
40.9288107
 21
0.1136142
 31
0.0
  0
LINE
  5
166
330
129
100
AcDbEntity
  8
0
  6
SLD-Durchgehend
 62
     7
370
    50
100
AcDbLine
 10
40.9288107
 20
0.1136142
 30
0.0
 11
40.9288107
 21
4.1671494
 31
0.0
  0
LINE
  5
167
330
129
100
AcDbEntity
  8
0
  6
SLD-Durchgehend
 62
     7
370
    50
100
AcDbLine
 10
40.9288107
 20
4.1671494
 30
0.0
 11
40.9371546
 21
4.1671494
 31
0.0
  0
LINE
  5
168
330
129
100
AcDbEntity
  8
0
  6
SLD-Durchgehend
 62
     7
370
    50
100
AcDbLine
 10
40.9371546
 20
4.1671494
 30
0.0
 11
40.9371546
 21
4.7588424
 31
0.0
  0
LINE
  5
169
330
129
100
AcDbEntity
  8
0
  6
SLD-Durchgehend
 62
     7
370
    50
100
AcDbLine
 10
43.7019192
 20
4.1769411
 30
0.0
 11
43.7019192
 21
4.7686722
 31
0.0
  0
LINE
  5
16A
330
129
100
AcDbEntity
  8
0
  6
SLD-Durchgehend
 62
     7
370
    50
100
AcDbLine
 10
43.7019192
 20
4.7686722
 30
0.0
 11
42.9511206
 21
4.7686722
 31
0.0
  0
LINE
  5
16B
330
129
100
AcDbEntity
  8
0
  6
SLD-Durchgehend
 62
     7
370
    50
100
AcDbLine
 10
42.9511206
 20
4.7686722
 30
0.0
 11
42.9511206
 21
5.9977782
 31
0.0
  0
LINE
  5
16C
330
129
100
AcDbEntity
  8
0
  6
SLD-Durchgehend
 62
     7
370
    50
100
AcDbLine
 10
42.9511206
 20
5.9977782
 30
0.0
 11
42.2655111
 21
5.9977782
 31
0.0
  0
LINE
  5
16D
330
129
100
AcDbEntity
  8
0
  6
SLD-Durchgehend
 62
     7
370
    50
100
AcDbLine
 10
42.2655111
 20
5.9977782
 30
0.0
 11
42.2655111
 21
4.7686722
 31
0.0
  0
LINE
  5
16E
330
129
100
AcDbEntity
  8
0
  6
SLD-Durchgehend
 62
     7
370
    50
100
AcDbLine
 10
42.2655111
 20
4.7686722
 30
0.0
 11
41.714166
 21
4.7686722
 31
0.0
  0
LINE
  5
16F
330
129
100
AcDbEntity
  8
0
  6
SLD-Durchgehend
 62
     7
370
    50
100
AcDbLine
 10
41.714166
 20
4.7686722
 30
0.0
 11
41.714166
 21
4.1769411
 31
0.0
  0
LINE
  5
170
330
129
100
AcDbEntity
  8
0
  6
SLD-Durchgehend
 62
     7
370
    50
100
AcDbLine
 10
41.714166
 20
4.1769411
 30
0.0
 11
42.2655111
 21
4.1769411
 31
0.0
  0
LINE
  5
171
330
129
100
AcDbEntity
  8
0
  6
SLD-Durchgehend
 62
     7
370
    50
100
AcDbLine
 10
42.2655111
 20
4.1769411
 30
0.0
 11
42.2655111
 21
0.8719185
 31
0.0
  0
LINE
  5
172
330
129
100
AcDbEntity
  8
0
  6
SLD-Durchgehend
 62
     7
370
    50
100
AcDbLine
 10
43.7019192
 20
0.1016508
 30
0.0
 11
43.7019192
 21
0.6854952
 31
0.0
  0
LINE
  5
173
330
129
100
AcDbEntity
  8
0
  6
SLD-Durchgehend
 62
     7
370
    50
100
AcDbLine
 10
43.7019192
 20
0.6854952
 30
0.0
 11
43.2214401
 21
0.6854952
 31
0.0
  0
LINE
  5
174
330
129
100
AcDbEntity
  8
0
  6
SLD-Durchgehend
 62
     7
370
    50
100
AcDbLine
 10
42.9511206
 20
1.2490704
 30
0.0
 11
42.9511206
 21
4.1769411
 31
0.0
  0
LINE
  5
175
330
129
100
AcDbEntity
  8
0
  6
SLD-Durchgehend
 62
     7
370
    50
100
AcDbLine
 10
42.9511206
 20
4.1769411
 30
0.0
 11
43.7019192
 21
4.1769411
 31
0.0
  0
LINE
  5
176
330
129
100
AcDbEntity
  8
0
  6
SLD-Durchgehend
 62
     7
370
    50
100
AcDbLine
 10
45.4409175
 20
0.7226046
 30
0.0
 11
47.9055684
 21
4.3866054
 31
0.0
  0
LINE
  5
177
330
129
100
AcDbEntity
  8
0
  6
SLD-Durchgehend
 62
     7
370
    50
100
AcDbLine
 10
47.9055684
 20
4.3866054
 30
0.0
 11
47.9055684
 21
4.7761779
 31
0.0
  0
LINE
  5
178
330
129
100
AcDbEntity
  8
0
  6
SLD-Durchgehend
 62
     7
370
    50
100
AcDbLine
 10
47.9055684
 20
4.7761779
 30
0.0
 11
44.5238505
 21
4.7761779
 31
0.0
  0
LINE
  5
179
330
129
100
AcDbEntity
  8
0
  6
SLD-Durchgehend
 62
     7
370
    50
100
AcDbLine
 10
44.5238505
 20
4.7761779
 30
0.0
 11
44.5238505
 21
4.1845611
 31
0.0
  0
LINE
  5
17A
330
129
100
AcDbEntity
  8
0
  6
SLD-Durchgehend
 62
     7
370
    50
100
AcDbLine
 10
44.5238505
 20
4.1845611
 30
0.0
 11
46.9404954
 21
4.1849802
 31
0.0
  0
LINE
  5
17B
330
129
100
AcDbEntity
  8
0
  6
SLD-Durchgehend
 62
     7
370
    50
100
AcDbLine
 10
46.9404954
 20
4.1849802
 30
0.0
 11
44.5238505
 21
0.5978652
 31
0.0
  0
LINE
  5
17C
330
129
100
AcDbEntity
  8
0
  6
SLD-Durchgehend
 62
     7
370
    50
100
AcDbLine
 10
44.5238505
 20
0.5978652
 30
0.0
 11
44.5238505
 21
0.1309497
 31
0.0
  0
LINE
  5
17D
330
129
100
AcDbEntity
  8
0
  6
SLD-Durchgehend
 62
     7
370
    50
100
AcDbLine
 10
44.5238505
 20
0.1309497
 30
0.0
 11
47.9426397
 21
0.1309497
 31
0.0
  0
LINE
  5
17E
330
129
100
AcDbEntity
  8
0
  6
SLD-Durchgehend
 62
     7
370
    50
100
AcDbLine
 10
47.9426397
 20
0.1309497
 30
0.0
 11
47.9426397
 21
0.7226046
 31
0.0
  0
LINE
  5
17F
330
129
100
AcDbEntity
  8
0
  6
SLD-Durchgehend
 62
     7
370
    50
100
AcDbLine
 10
47.9426397
 20
0.7226046
 30
0.0
 11
45.4409175
 21
0.7226046
 31
0.0
  0
SPLINE
  5
180
330
129
100
AcDbEntity
  8
0
  6
Continuous
 62
     8
420
  8421504
370
    50
100
AcDbSpline
210
0.0
220
0.0
230
1.0
 70
     8
 71
     3
 72
     8
 73
     4
 74
     0
 42
0.00000001
 43
0.00000001
 40
0.0
 40
0.0
 40
0.0
 40
0.0
 40
0.1
 40
0.1
 40
0.1
 40
0.1
 10
6.814375499999999
 20
4.881448199999999
 30
0.0
 10
6.234531599999998
 20
4.881943499999997
 30
0.0
 10
5.705093999999997
 20
4.668545400000001
 30
0.0
 10
5.323103399999995
 20
4.2542841
 30
0.0
  0
SPLINE
  5
181
330
129
100
AcDbEntity
  8
0
  6
Continuous
 62
     8
420
  8421504
370
    50
100
AcDbSpline
210
0.0
220
0.0
230
1.0
 70
     8
 71
     3
 72
     8
 73
     4
 74
     0
 42
0.00000001
 43
0.00000001
 40
0.1
 40
0.1
 40
0.1
 40
0.1
 40
0.2
 40
0.2
 40
0.2
 40
0.2
 10
5.323103399999995
 20
4.2542841
 30
0.0
 10
4.9413795
 20
3.8409372
 30
0.0
 10
4.708740899999999
 20
3.230308499999998
 30
0.0
 10
4.708740899999999
 20
2.446172400000005
 30
0.0
  0
SPLINE
  5
182
330
129
100
AcDbEntity
  8
0
  6
Continuous
 62
     8
420
  8421504
370
    50
100
AcDbSpline
210
0.0
220
0.0
230
1.0
 70
     8
 71
     3
 72
     8
 73
     4
 74
     0
 42
0.00000001
 43
0.00000001
 40
0.2
 40
0.2
 40
0.2
 40
0.2
 40
0.3
 40
0.3
 40
0.3
 40
0.3
 10
4.708740899999999
 20
2.446172400000005
 30
0.0
 10
4.708740899999999
 20
1.661312400000001
 30
0.0
 10
4.9413795
 20
1.051217100000001
 30
0.0
 10
5.323103399999995
 20
0.6374892000000021
 30
0.0
  0
SPLINE
  5
183
330
129
100
AcDbEntity
  8
0
  6
Continuous
 62
     8
420
  8421504
370
    50
100
AcDbSpline
210
0.0
220
0.0
230
1.0
 70
     8
 71
     3
 72
     8
 73
     4
 74
     0
 42
0.00000001
 43
0.00000001
 40
0.3
 40
0.3
 40
0.3
 40
0.3
 40
0.4
 40
0.4
 40
0.4
 40
0.4
 10
5.323103399999995
 20
0.6374892000000021
 30
0.0
 10
5.705093999999997
 20
0.2245233000000013
 30
0.0
 10
6.234531599999998
 20
0.0100964999999981
 30
0.0
 10
6.814375499999999
 20
0.0100964999999981
 30
0.0
  0
SPLINE
  5
184
330
129
100
AcDbEntity
  8
0
  6
Continuous
 62
     8
420
  8421504
370
    50
100
AcDbSpline
210
0.0
220
0.0
230
1.0
 70
     8
 71
     3
 72
     8
 73
     4
 74
     0
 42
0.00000001
 43
0.00000001
 40
0.5
 40
0.5
 40
0.5
 40
0.5
 40
0.6
 40
0.6
 40
0.6
 40
0.6
 10
6.816509099999999
 20
0.0100964999999981
 30
0.0
 10
7.395705299999992
 20
0.0100964999999981
 30
0.0
 10
7.924037999999996
 20
0.2245233000000013
 30
0.0
 10
8.305761899999997
 20
0.6374892000000021
 30
0.0
  0
SPLINE
  5
185
330
129
100
AcDbEntity
  8
0
  6
Continuous
 62
     8
420
  8421504
370
    50
100
AcDbSpline
210
0.0
220
0.0
230
1.0
 70
     8
 71
     3
 72
     8
 73
     4
 74
     0
 42
0.00000001
 43
0.00000001
 40
0.6
 40
0.6
 40
0.6
 40
0.6
 40
0.7
 40
0.7
 40
0.7
 40
0.7
 10
8.305761899999997
 20
0.6374892000000021
 30
0.0
 10
8.687752499999998
 20
1.051217100000001
 30
0.0
 10
8.920543499999997
 20
1.661312400000001
 30
0.0
 10
8.920543499999997
 20
2.446172400000005
 30
0.0
  0
SPLINE
  5
186
330
129
100
AcDbEntity
  8
0
  6
Continuous
 62
     8
420
  8421504
370
    50
100
AcDbSpline
210
0.0
220
0.0
230
1.0
 70
     8
 71
     3
 72
     8
 73
     4
 74
     0
 42
0.00000001
 43
0.00000001
 40
0.7
 40
0.7
 40
0.7
 40
0.7
 40
0.8
 40
0.8
 40
0.8
 40
0.8
 10
8.920543499999997
 20
2.446172400000005
 30
0.0
 10
8.920543499999997
 20
3.230308499999998
 30
0.0
 10
8.687752499999998
 20
3.8409372
 30
0.0
 10
8.305761899999997
 20
4.2542841
 30
0.0
  0
SPLINE
  5
187
330
129
100
AcDbEntity
  8
0
  6
Continuous
 62
     8
420
  8421504
370
    50
100
AcDbSpline
210
0.0
220
0.0
230
1.0
 70
     8
 71
     3
 72
     8
 73
     4
 74
     0
 42
0.00000001
 43
0.00000001
 40
0.8
 40
0.8
 40
0.8
 40
0.8
 40
1.0
 40
1.0
 40
1.0
 40
1.0
 10
8.305761899999997
 20
4.2542841
 30
0.0
 10
7.924037999999996
 20
4.668545400000001
 30
0.0
 10
7.394867099999997
 20
4.881943499999997
 30
0.0
 10
6.814375499999999
 20
4.881448199999999
 30
0.0
  0
SPLINE
  5
188
330
129
100
AcDbEntity
  8
0
  6
Continuous
 62
     8
420
  8421504
370
    50
100
AcDbSpline
210
0.0
220
0.0
230
1.0
 70
     8
 71
     3
 72
     8
 73
     4
 74
     0
 42
0.00000001
 43
0.00000001
 40
0.0
 40
0.0
 40
0.0
 40
0.0
 40
0.2
 40
0.2
 40
0.2
 40
0.2
 10
6.814375499999999
 20
0.6582156000000006
 30
0.0
 10
6.012484799999998
 20
0.6605015999999964
 30
0.0
 10
5.398655700000001
 20
1.2982575
 30
0.0
 10
5.394502799999997
 20
2.446172400000005
 30
0.0
  0
SPLINE
  5
189
330
129
100
AcDbEntity
  8
0
  6
Continuous
 62
     8
420
  8421504
370
    50
100
AcDbSpline
210
0.0
220
0.0
230
1.0
 70
     8
 71
     3
 72
     8
 73
     4
 74
     0
 42
0.00000001
 43
0.00000001
 40
0.2
 40
0.2
 40
0.2
 40
0.2
 40
0.4
 40
0.4
 40
0.4
 40
0.4
 10
5.394502799999997
 20
2.446172400000005
 30
0.0
 10
5.398122299999999
 20
3.584981399999998
 30
0.0
 10
6.013018199999998
 20
4.2318051
 30
0.0
 10
6.814375499999999
 20
4.233405299999998
 30
0.0
  0
SPLINE
  5
18A
330
129
100
AcDbEntity
  8
0
  6
Continuous
 62
     8
420
  8421504
370
    50
100
AcDbSpline
210
0.0
220
0.0
230
1.0
 70
     8
 71
     3
 72
     8
 73
     4
 74
     0
 42
0.00000001
 43
0.00000001
 40
0.4
 40
0.4
 40
0.4
 40
0.4
 40
0.6
 40
0.6
 40
0.6
 40
0.6
 10
6.814375499999999
 20
4.233405299999998
 30
0.0
 10
7.616380499999997
 20
4.2318051
 30
0.0
 10
8.2307811
 20
3.584981399999998
 30
0.0
 10
8.234400599999997
 20
2.446172400000005
 30
0.0
  0
SPLINE
  5
18B
330
129
100
AcDbEntity
  8
0
  6
Continuous
 62
     8
420
  8421504
370
    50
100
AcDbSpline
210
0.0
220
0.0
230
1.0
 70
     8
 71
     3
 72
     8
 73
     4
 74
     0
 42
0.00000001
 43
0.00000001
 40
0.6
 40
0.6
 40
0.6
 40
0.6
 40
1.0
 40
1.0
 40
1.0
 40
1.0
 10
8.234400599999997
 20
2.446172400000005
 30
0.0
 10
8.2307811
 20
1.2982575
 30
0.0
 10
7.616913899999999
 20
0.6605015999999964
 30
0.0
 10
6.814375499999999
 20
0.6582156000000006
 30
0.0
  0
SPLINE
  5
18C
330
129
100
AcDbEntity
  8
0
  6
Continuous
 62
     8
420
  8421504
370
    50
100
AcDbSpline
210
0.0
220
0.0
230
1.0
 70
     8
 71
     3
 72
     8
 73
     4
 74
     0
 42
0.00000001
 43
0.00000001
 40
0.0
 40
0.0
 40
0.0
 40
0.0
 40
0.0625
 40
0.0625
 40
0.0625
 40
0.0625
 10
30.8276244
 20
1.359408000000004
 30
0.0
 10
30.6352956
 20
0.9622154999999939
 30
0.0
 10
30.2848899
 20
0.6605015999999964
 30
0.0
 10
29.6000805
 20
0.6582156000000006
 30
0.0
  0
SPLINE
  5
18D
330
129
100
AcDbEntity
  8
0
  6
Continuous
 62
     8
420
  8421504
370
    50
100
AcDbSpline
210
0.0
220
0.0
230
1.0
 70
     8
 71
     3
 72
     8
 73
     4
 74
     0
 42
0.00000001
 43
0.00000001
 40
0.0625
 40
0.0625
 40
0.0625
 40
0.0625
 40
0.125
 40
0.125
 40
0.125
 40
0.125
 10
29.6000805
 20
0.6582156000000006
 30
0.0
 10
28.9179762
 20
0.6601205999999971
 30
0.0
 10
28.1824938
 20
1.227048600000002
 30
0.0
 10
28.18032209999999
 20
2.446172400000005
 30
0.0
  0
SPLINE
  5
18E
330
129
100
AcDbEntity
  8
0
  6
Continuous
 62
     8
420
  8421504
370
    50
100
AcDbSpline
210
0.0
220
0.0
230
1.0
 70
     8
 71
     3
 72
     8
 73
     4
 74
     0
 42
0.00000001
 43
0.00000001
 40
0.125
 40
0.125
 40
0.125
 40
0.125
 40
0.1875
 40
0.1875
 40
0.1875
 40
0.1875
 10
28.18032209999999
 20
2.446172400000005
 30
0.0
 10
28.18302719999999
 20
3.6645342
 30
0.0
 10
28.9156902
 20
4.230509699999999
 30
0.0
 10
29.6565447
 20
4.233405299999998
 30
0.0
  0
SPLINE
  5
18F
330
129
100
AcDbEntity
  8
0
  6
Continuous
 62
     8
420
  8421504
370
    50
100
AcDbSpline
210
0.0
220
0.0
230
1.0
 70
     8
 71
     3
 72
     8
 73
     4
 74
     0
 42
0.00000001
 43
0.00000001
 40
0.1875
 40
0.1875
 40
0.1875
 40
0.1875
 40
0.25
 40
0.25
 40
0.25
 40
0.25
 10
29.6565447
 20
4.233405299999998
 30
0.0
 10
30.1868967
 20
4.2318051
 30
0.0
 10
30.5905281
 20
4.075899900000002
 30
0.0
 10
30.7692933
 20
3.701262600000002
 30
0.0
  0
SPLINE
  5
190
330
129
100
AcDbEntity
  8
0
  6
Continuous
 62
     8
420
  8421504
370
    50
100
AcDbSpline
210
0.0
220
0.0
230
1.0
 70
     8
 71
     3
 72
     8
 73
     4
 74
     0
 42
0.00000001
 43
0.00000001
 40
0.4375
 40
0.4375
 40
0.4375
 40
0.4375
 40
0.5
 40
0.5
 40
0.5
 40
0.5
 10
31.4910597
 20
3.746411100000003
 30
0.0
 10
31.0765698
 20
4.699520700000001
 30
0.0
 10
30.3072165
 20
4.884839099999996
 30
0.0
 10
29.7316779
 20
4.881448199999999
 30
0.0
  0
SPLINE
  5
191
330
129
100
AcDbEntity
  8
0
  6
Continuous
 62
     8
420
  8421504
370
    50
100
AcDbSpline
210
0.0
220
0.0
230
1.0
 70
     8
 71
     3
 72
     8
 73
     4
 74
     0
 42
0.00000001
 43
0.00000001
 40
0.5
 40
0.5
 40
0.5
 40
0.5
 40
0.5625
 40
0.5625
 40
0.5625
 40
0.5625
 10
29.7316779
 20
4.881448199999999
 30
0.0
 10
28.3977969
 20
4.884839099999996
 30
0.0
 10
27.5088096
 20
3.8931723
 30
0.0
 10
27.49429349999999
 20
2.446439099999998
 30
0.0
  0
SPLINE
  5
192
330
129
100
AcDbEntity
  8
0
  6
Continuous
 62
     8
420
  8421504
370
    50
100
AcDbSpline
210
0.0
220
0.0
230
1.0
 70
     8
 71
     3
 72
     8
 73
     4
 74
     0
 42
0.00000001
 43
0.00000001
 40
0.5625
 40
0.5625
 40
0.5625
 40
0.5625
 40
0.625
 40
0.625
 40
0.625
 40
0.625
 10
27.49429349999999
 20
2.446439099999998
 30
0.0
 10
27.5105622
 20
0.9973436999999976
 30
0.0
 10
28.4315535
 20
0.0090297000000017
 30
0.0
 10
29.6000805
 20
0.0100964999999981
 30
0.0
  0
SPLINE
  5
193
330
129
100
AcDbEntity
  8
0
  6
Continuous
 62
     8
420
  8421504
370
    50
100
AcDbSpline
210
0.0
220
0.0
230
1.0
 70
     8
 71
     3
 72
     8
 73
     4
 74
     0
 42
0.00000001
 43
0.00000001
 40
0.6875
 40
0.6875
 40
0.6875
 40
0.6875
 40
0.75
 40
0.75
 40
0.75
 40
0.75
 10
29.612844
 20
0.0100964999999981
 30
0.0
 10
30.60089129999999
 20
0.0100964999999981
 30
0.0
 10
31.22801729999999
 20
0.450837300000001
 30
0.0
 10
31.56204
 20
1.311325799999999
 30
0.0
  0
SPLINE
  5
194
330
129
100
AcDbEntity
  8
0
  6
Continuous
 62
     8
420
  8421504
370
    50
100
AcDbSpline
210
0.0
220
0.0
230
1.0
 70
     8
 71
     3
 72
     8
 73
     4
 74
     0
 42
0.00000001
 43
0.00000001
 40
0.0
 40
0.0
 40
0.0
 40
0.0
 40
0.0769230769230769
 40
0.0769230769230769
 40
0.0769230769230769
 40
0.0769230769230769
 10
12.9646299
 20
4.2490644
 30
0.0
 10
12.63289319999999
 20
4.652810099999999
 30
0.0
 10
12.08840609999999
 20
4.881943499999997
 30
0.0
 10
11.5404519
 20
4.881943499999997
 30
0.0
  0
SPLINE
  5
195
330
129
100
AcDbEntity
  8
0
  6
Continuous
 62
     8
420
  8421504
370
    50
100
AcDbSpline
210
0.0
220
0.0
230
1.0
 70
     8
 71
     3
 72
     8
 73
     4
 74
     0
 42
0.00000001
 43
0.00000001
 40
0.0769230769230769
 40
0.0769230769230769
 40
0.0769230769230769
 40
0.0769230769230769
 40
0.1538461538461539
 40
0.1538461538461539
 40
0.1538461538461539
 40
0.1538461538461539
 10
11.5404519
 20
4.881943499999997
 30
0.0
 10
10.9600746
 20
4.881943499999997
 30
0.0
 10
10.43090369999999
 20
4.668545400000001
 30
0.0
 10
10.0491798
 20
4.2542841
 30
0.0
  0
SPLINE
  5
196
330
129
100
AcDbEntity
  8
0
  6
Continuous
 62
     8
420
  8421504
370
    50
100
AcDbSpline
210
0.0
220
0.0
230
1.0
 70
     8
 71
     3
 72
     8
 73
     4
 74
     0
 42
0.00000001
 43
0.00000001
 40
0.1538461538461539
 40
0.1538461538461539
 40
0.1538461538461539
 40
0.1538461538461539
 40
0.2307692307692308
 40
0.2307692307692308
 40
0.2307692307692308
 40
0.2307692307692308
 10
10.0491798
 20
4.2542841
 30
0.0
 10
9.667074899999996
 20
3.8409372
 30
0.0
 10
9.434398199999999
 20
3.230308499999998
 30
0.0
 10
9.434398199999999
 20
2.446172400000005
 30
0.0
  0
SPLINE
  5
197
330
129
100
AcDbEntity
  8
0
  6
Continuous
 62
     8
420
  8421504
370
    50
100
AcDbSpline
210
0.0
220
0.0
230
1.0
 70
     8
 71
     3
 72
     8
 73
     4
 74
     0
 42
0.00000001
 43
0.00000001
 40
0.2307692307692308
 40
0.2307692307692308
 40
0.2307692307692308
 40
0.2307692307692308
 40
0.3076923076923077
 40
0.3076923076923077
 40
0.3076923076923077
 40
0.3076923076923077
 10
9.434398199999999
 20
2.446172400000005
 30
0.0
 10
9.434398199999999
 20
1.661312400000001
 30
0.0
 10
9.667074899999996
 20
1.051217100000001
 30
0.0
 10
10.0491798
 20
0.6374892000000021
 30
0.0
  0
SPLINE
  5
198
330
129
100
AcDbEntity
  8
0
  6
Continuous
 62
     8
420
  8421504
370
    50
100
AcDbSpline
210
0.0
220
0.0
230
1.0
 70
     8
 71
     3
 72
     8
 73
     4
 74
     0
 42
0.00000001
 43
0.00000001
 40
0.3076923076923077
 40
0.3076923076923077
 40
0.3076923076923077
 40
0.3076923076923077
 40
0.3846153846153846
 40
0.3846153846153846
 40
0.3846153846153846
 40
0.3846153846153846
 10
10.0491798
 20
0.6374892000000021
 30
0.0
 10
10.43090369999999
 20
0.2245233000000013
 30
0.0
 10
10.9600746
 20
0.0100964999999981
 30
0.0
 10
11.5404519
 20
0.0100964999999981
 30
0.0
  0
SPLINE
  5
199
330
129
100
AcDbEntity
  8
0
  6
Continuous
 62
     8
420
  8421504
370
    50
100
AcDbSpline
210
0.0
220
0.0
230
1.0
 70
     8
 71
     3
 72
     8
 73
     4
 74
     0
 42
0.00000001
 43
0.00000001
 40
0.4615384615384616
 40
0.4615384615384616
 40
0.4615384615384616
 40
0.4615384615384616
 40
0.5384615384615384
 40
0.5384615384615384
 40
0.5384615384615384
 40
0.5384615384615384
 10
11.5478433
 20
0.0100964999999981
 30
0.0
 10
12.5283468
 20
0.0100964999999981
 30
0.0
 10
13.3689471
 20
0.5975984999999989
 30
0.0
 10
13.5869553
 20
1.757362499999995
 30
0.0
  0
SPLINE
  5
19A
330
129
100
AcDbEntity
  8
0
  6
Continuous
 62
     8
420
  8421504
370
    50
100
AcDbSpline
210
0.0
220
0.0
230
1.0
 70
     8
 71
     3
 72
     8
 73
     4
 74
     0
 42
0.00000001
 43
0.00000001
 40
0.5384615384615384
 40
0.5384615384615384
 40
0.5384615384615384
 40
0.5384615384615384
 40
0.6153846153846154
 40
0.6153846153846154
 40
0.6153846153846154
 40
0.6153846153846154
 10
13.5869553
 20
1.757362499999995
 30
0.0
 10
13.6296654
 20
1.984400399999998
 30
0.0
 10
13.644753
 20
2.240127599999994
 30
0.0
 10
13.644753
 20
2.370315299999998
 30
0.0
  0
SPLINE
  5
19B
330
129
100
AcDbEntity
  8
0
  6
Continuous
 62
     8
420
  8421504
370
    50
100
AcDbSpline
210
0.0
220
0.0
230
1.0
 70
     8
 71
     3
 72
     8
 73
     4
 74
     0
 42
0.00000001
 43
0.00000001
 40
0.0
 40
0.0
 40
0.0
 40
0.0
 40
0.2
 40
0.2
 40
0.2
 40
0.2
 10
11.5404519
 20
0.6582156000000006
 30
0.0
 10
10.7377611
 20
0.6605015999999964
 30
0.0
 10
10.12419869999999
 20
1.2982575
 30
0.0
 10
10.1202744
 20
2.446172400000005
 30
0.0
  0
SPLINE
  5
19C
330
129
100
AcDbEntity
  8
0
  6
Continuous
 62
     8
420
  8421504
370
    50
100
AcDbSpline
210
0.0
220
0.0
230
1.0
 70
     8
 71
     3
 72
     8
 73
     4
 74
     0
 42
0.00000001
 43
0.00000001
 40
0.2
 40
0.2
 40
0.2
 40
0.2
 40
0.4
 40
0.4
 40
0.4
 40
0.4
 10
10.1202744
 20
2.446172400000005
 30
0.0
 10
10.12419869999999
 20
3.584981399999998
 30
0.0
 10
10.7382945
 20
4.2318051
 30
0.0
 10
11.5404519
 20
4.233405299999998
 30
0.0
  0
SPLINE
  5
19D
330
129
100
AcDbEntity
  8
0
  6
Continuous
 62
     8
420
  8421504
370
    50
100
AcDbSpline
210
0.0
220
0.0
230
1.0
 70
     8
 71
     3
 72
     8
 73
     4
 74
     0
 42
0.00000001
 43
0.00000001
 40
0.4
 40
0.4
 40
0.4
 40
0.4
 40
0.6
 40
0.6
 40
0.6
 40
0.6
 10
11.5404519
 20
4.233405299999998
 30
0.0
 10
12.3420378
 20
4.2318051
 30
0.0
 10
12.9602103
 20
3.6555807
 30
0.0
 10
12.9602103
 20
2.446172400000005
 30
0.0
  0
SPLINE
  5
19E
330
129
100
AcDbEntity
  8
0
  6
Continuous
 62
     8
420
  8421504
370
    50
100
AcDbSpline
210
0.0
220
0.0
230
1.0
 70
     8
 71
     3
 72
     8
 73
     4
 74
     0
 42
0.00000001
 43
0.00000001
 40
0.6
 40
0.6
 40
0.6
 40
0.6
 40
1.0
 40
1.0
 40
1.0
 40
1.0
 10
12.9602103
 20
2.446172400000005
 30
0.0
 10
12.967335
 20
1.196644800000002
 30
0.0
 10
12.3424569
 20
0.6605015999999964
 30
0.0
 10
11.5404519
 20
0.6582156000000006
 30
0.0
  0
SPLINE
  5
19F
330
129
100
AcDbEntity
  8
0
  6
Continuous
 62
     8
420
  8421504
370
    50
100
AcDbSpline
210
0.0
220
0.0
230
1.0
 70
     8
 71
     3
 72
     8
 73
     4
 74
     0
 42
0.00000001
 43
0.00000001
 40
0.0
 40
0.0
 40
0.0
 40
0.0
 40
0.04
 40
0.04
 40
0.04
 40
0.04
 10
25.6488819
 20
2.791396499999999
 30
0.0
 10
25.312878
 20
2.868548999999998
 30
0.0
 10
24.9795411
 20
2.926080000000001
 30
0.0
 10
24.73962539999999
 20
3.032645699999998
 30
0.0
  0
SPLINE
  5
1A0
330
129
100
AcDbEntity
  8
0
  6
Continuous
 62
     8
420
  8421504
370
    50
100
AcDbSpline
210
0.0
220
0.0
230
1.0
 70
     8
 71
     3
 72
     8
 73
     4
 74
     0
 42
0.00000001
 43
0.00000001
 40
0.04
 40
0.04
 40
0.04
 40
0.04
 40
0.08
 40
0.08
 40
0.08
 40
0.08
 10
24.73962539999999
 20
3.032645699999998
 30
0.0
 10
24.4982238
 20
3.142107000000002
 30
0.0
 10
24.3593493
 20
3.278619299999999
 30
0.0
 10
24.3570633
 20
3.544824000000002
 30
0.0
  0
SPLINE
  5
1A1
330
129
100
AcDbEntity
  8
0
  6
Continuous
 62
     8
420
  8421504
370
    50
100
AcDbSpline
210
0.0
220
0.0
230
1.0
 70
     8
 71
     3
 72
     8
 73
     4
 74
     0
 42
0.00000001
 43
0.00000001
 40
0.08
 40
0.08
 40
0.08
 40
0.08
 40
0.12
 40
0.12
 40
0.12
 40
0.12
 10
24.3570633
 20
3.544824000000002
 30
0.0
 10
24.366474
 20
3.956456399999997
 30
0.0
 10
24.5171595
 20
4.237062899999997
 30
0.0
 10
25.2667389
 20
4.273181700000003
 30
0.0
  0
SPLINE
  5
1A2
330
129
100
AcDbEntity
  8
0
  6
Continuous
 62
     8
420
  8421504
370
    50
100
AcDbSpline
210
0.0
220
0.0
230
1.0
 70
     8
 71
     3
 72
     8
 73
     4
 74
     0
 42
0.00000001
 43
0.00000001
 40
0.12
 40
0.12
 40
0.12
 40
0.12
 40
0.16
 40
0.16
 40
0.16
 40
0.16
 10
25.2667389
 20
4.273181700000003
 30
0.0
 10
25.7064129
 20
4.269790799999998
 30
0.0
 10
25.99833509999999
 20
4.084548599999996
 30
0.0
 10
26.1839583
 20
3.7729287
 30
0.0
  0
SPLINE
  5
1A3
330
129
100
AcDbEntity
  8
0
  6
Continuous
 62
     8
420
  8421504
370
    50
100
AcDbSpline
210
0.0
220
0.0
230
1.0
 70
     8
 71
     3
 72
     8
 73
     4
 74
     0
 42
0.00000001
 43
0.00000001
 40
0.28
 40
0.28
 40
0.28
 40
0.28
 40
0.32
 40
0.32
 40
0.32
 40
0.32
 10
26.8459077
 20
3.827525999999998
 30
0.0
 10
26.5467465
 20
4.5057822
 30
0.0
 10
25.962864
 20
4.870132500000002
 30
0.0
 10
25.2976761
 20
4.869103800000002
 30
0.0
  0
SPLINE
  5
1A4
330
129
100
AcDbEntity
  8
0
  6
Continuous
 62
     8
420
  8421504
370
    50
100
AcDbSpline
210
0.0
220
0.0
230
1.0
 70
     8
 71
     3
 72
     8
 73
     4
 74
     0
 42
0.00000001
 43
0.00000001
 40
0.32
 40
0.32
 40
0.32
 40
0.32
 40
0.36
 40
0.36
 40
0.36
 40
0.36
 10
25.2976761
 20
4.869103800000002
 30
0.0
 10
25.28072159999999
 20
4.869103800000002
 30
0.0
 10
25.2667389
 20
4.867808400000001
 30
0.0
 10
25.2545088
 20
4.867808400000001
 30
0.0
  0
SPLINE
  5
1A5
330
129
100
AcDbEntity
  8
0
  6
Continuous
 62
     8
420
  8421504
370
    50
100
AcDbSpline
210
0.0
220
0.0
230
1.0
 70
     8
 71
     3
 72
     8
 73
     4
 74
     0
 42
0.00000001
 43
0.00000001
 40
0.44
 40
0.44
 40
0.44
 40
0.44
 40
0.48
 40
0.48
 40
0.48
 40
0.48
 10
25.1957967
 20
4.865941500000002
 30
0.0
 10
24.21502649999999
 20
4.8373284
 30
0.0
 10
23.6691678
 20
4.231309800000003
 30
0.0
 10
23.67133949999999
 20
3.563721599999997
 30
0.0
  0
SPLINE
  5
1A6
330
129
100
AcDbEntity
  8
0
  6
Continuous
 62
     8
420
  8421504
370
    50
100
AcDbSpline
210
0.0
220
0.0
230
1.0
 70
     8
 71
     3
 72
     8
 73
     4
 74
     0
 42
0.00000001
 43
0.00000001
 40
0.48
 40
0.48
 40
0.48
 40
0.48
 40
0.52
 40
0.52
 40
0.52
 40
0.52
 10
23.67133949999999
 20
3.563721599999997
 30
0.0
 10
23.6689011
 20
2.621013300000002
 30
0.0
 10
24.39268679999999
 20
2.407081799999997
 30
0.0
 10
25.0581414
 20
2.279484900000003
 30
0.0
  0
SPLINE
  5
1A7
330
129
100
AcDbEntity
  8
0
  6
Continuous
 62
     8
420
  8421504
370
    50
100
AcDbSpline
210
0.0
220
0.0
230
1.0
 70
     8
 71
     3
 72
     8
 73
     4
 74
     0
 42
0.00000001
 43
0.00000001
 40
0.52
 40
0.52
 40
0.52
 40
0.52
 40
0.56
 40
0.56
 40
0.56
 40
0.56
 10
25.0581414
 20
2.279484900000003
 30
0.0
 10
25.3939167
 20
2.211743099999997
 30
0.0
 10
25.7260344
 20
2.158212599999996
 30
0.0
 10
25.9643499
 20
2.043226800000001
 30
0.0
  0
SPLINE
  5
1A8
330
129
100
AcDbEntity
  8
0
  6
Continuous
 62
     8
420
  8421504
370
    50
100
AcDbSpline
210
0.0
220
0.0
230
1.0
 70
     8
 71
     3
 72
     8
 73
     4
 74
     0
 42
0.00000001
 43
0.00000001
 40
0.56
 40
0.56
 40
0.56
 40
0.56
 40
0.6
 40
0.6
 40
0.6
 40
0.6
 10
25.9643499
 20
2.043226800000001
 30
0.0
 10
26.2027797
 20
1.925345399999998
 30
0.0
 10
26.345388
 20
1.767039899999998
 30
0.0
 10
26.3484741
 20
1.452029100000005
 30
0.0
  0
SPLINE
  5
1A9
330
129
100
AcDbEntity
  8
0
  6
Continuous
 62
     8
420
  8421504
370
    50
100
AcDbSpline
210
0.0
220
0.0
230
1.0
 70
     8
 71
     3
 72
     8
 73
     4
 74
     0
 42
0.00000001
 43
0.00000001
 40
0.6
 40
0.6
 40
0.6
 40
0.6
 40
0.64
 40
0.64
 40
0.64
 40
0.64
 10
26.3484741
 20
1.452029100000005
 30
0.0
 10
26.3482074
 20
0.7650861000000038
 30
0.0
 10
25.7924427
 20
0.6081141000000012
 30
0.0
 10
25.3281942
 20
0.5886069000000023
 30
0.0
  0
SPLINE
  5
1AA
330
129
100
AcDbEntity
  8
0
  6
Continuous
 62
     8
420
  8421504
370
    50
100
AcDbSpline
210
0.0
220
0.0
230
1.0
 70
     8
 71
     3
 72
     8
 73
     4
 74
     0
 42
0.00000001
 43
0.00000001
 40
0.64
 40
0.64
 40
0.64
 40
0.64
 40
0.68
 40
0.68
 40
0.68
 40
0.68
 10
25.3281942
 20
0.5886069000000023
 30
0.0
 10
24.9371739
 20
0.5970650999999966
 30
0.0
 10
24.3777897
 20
0.7282052999999984
 30
0.0
 10
24.191214
 20
1.370990400000002
 30
0.0
  0
SPLINE
  5
1AB
330
129
100
AcDbEntity
  8
0
  6
Continuous
 62
     8
420
  8421504
370
    50
100
AcDbSpline
210
0.0
220
0.0
230
1.0
 70
     8
 71
     3
 72
     8
 73
     4
 74
     0
 42
0.00000001
 43
0.00000001
 40
0.8
 40
0.8
 40
0.8
 40
0.8
 40
0.84
 40
0.84
 40
0.84
 40
0.84
 10
23.5064046
 20
1.337119500000003
 30
0.0
 10
23.7683802
 20
0.4924805999999976
 30
0.0
 10
24.54161969999999
 20
0.0244601999999983
 30
0.0
 10
25.2792738
 20
0.0
 30
0.0
  0
SPLINE
  5
1AC
330
129
100
AcDbEntity
  8
0
  6
Continuous
 62
     8
420
  8421504
370
    50
100
AcDbSpline
210
0.0
220
0.0
230
1.0
 70
     8
 71
     3
 72
     8
 73
     4
 74
     0
 42
0.00000001
 43
0.00000001
 40
0.88
 40
0.88
 40
0.88
 40
0.88
 40
0.92
 40
0.92
 40
0.92
 40
0.92
 10
25.3310136
 20
0.0005714999999989
 30
0.0
 10
26.4144633
 20
0.0376427999999998
 30
0.0
 10
27.036522
 20
0.6775703999999966
 30
0.0
 10
27.034617
 20
1.433093399999996
 30
0.0
  0
SPLINE
  5
1AD
330
129
100
AcDbEntity
  8
0
  6
Continuous
 62
     8
420
  8421504
370
    50
100
AcDbSpline
210
0.0
220
0.0
230
1.0
 70
     8
 71
     3
 72
     8
 73
     4
 74
     0
 42
0.00000001
 43
0.00000001
 40
0.92
 40
0.92
 40
0.92
 40
0.92
 40
1.0
 40
1.0
 40
1.0
 40
1.0
 10
27.034617
 20
1.433093399999996
 30
0.0
 10
27.0370554
 20
2.382926399999996
 30
0.0
 10
26.3174226
 20
2.642273099999995
 30
0.0
 10
25.6488819
 20
2.791396499999999
 30
0.0
  0
SPLINE
  5
1AE
330
129
100
AcDbEntity
  8
0
  6
Continuous
 62
     8
420
  8421504
370
    50
100
AcDbSpline
210
0.0
220
0.0
230
1.0
 70
     8
 71
     3
 72
     8
 73
     4
 74
     0
 42
0.00000001
 43
0.00000001
 40
0.0
 40
0.0
 40
0.0
 40
0.0
 40
0.0714285714285714
 40
0.0714285714285714
 40
0.0714285714285714
 40
0.0714285714285714
 10
34.28771399999999
 20
4.881943499999997
 30
0.0
 10
33.79938629999999
 20
4.8827436
 30
0.0
 10
33.2912085
 20
4.7060739
 30
0.0
 10
32.9807316
 20
4.232605200000003
 30
0.0
  0
SPLINE
  5
1AF
330
129
100
AcDbEntity
  8
0
  6
Continuous
 62
     8
420
  8421504
370
    50
100
AcDbSpline
210
0.0
220
0.0
230
1.0
 70
     8
 71
     3
 72
     8
 73
     4
 74
     0
 42
0.00000001
 43
0.00000001
 40
0.4285714285714285
 40
0.4285714285714285
 40
0.4285714285714285
 40
0.4285714285714285
 40
0.5
 40
0.5
 40
0.5
 40
0.5
 10
32.9807316
 20
2.823400499999998
 30
0.0
 10
32.98541789999999
 20
3.814952999999996
 30
0.0
 10
33.5612232
 20
4.228680899999996
 30
0.0
 10
34.21242839999999
 20
4.233405299999998
 30
0.0
  0
SPLINE
  5
1B0
330
129
100
AcDbEntity
  8
0
  6
Continuous
 62
     8
420
  8421504
370
    50
100
AcDbSpline
210
0.0
220
0.0
230
1.0
 70
     8
 71
     3
 72
     8
 73
     4
 74
     0
 42
0.00000001
 43
0.00000001
 40
0.5
 40
0.5
 40
0.5
 40
0.5
 40
0.5714285714285714
 40
0.5714285714285714
 40
0.5714285714285714
 40
0.5714285714285714
 10
34.21242839999999
 20
4.233405299999998
 30
0.0
 10
34.909887
 20
4.221860999999997
 30
0.0
 10
35.2432239
 20
3.974553899999997
 30
0.0
 10
35.2545015
 20
3.077794199999997
 30
0.0
  0
SPLINE
  5
1B1
330
129
100
AcDbEntity
  8
0
  6
Continuous
 62
     8
420
  8421504
370
    50
100
AcDbSpline
210
0.0
220
0.0
230
1.0
 70
     8
 71
     3
 72
     8
 73
     4
 74
     0
 42
0.00000001
 43
0.00000001
 40
0.7857142857142857
 40
0.7857142857142857
 40
0.7857142857142857
 40
0.7857142857142857
 40
0.8571428571428571
 40
0.8571428571428571
 40
0.8571428571428571
 40
0.8571428571428571
 10
35.9412159
 20
3.247377299999998
 30
0.0
 10
35.9412159
 20
3.723322499999998
 30
0.0
 10
35.8182291
 20
4.134154799999997
 30
0.0
 10
35.5453569
 20
4.425200699999999
 30
0.0
  0
SPLINE
  5
1B2
330
129
100
AcDbEntity
  8
0
  6
Continuous
 62
     8
420
  8421504
370
    50
100
AcDbSpline
210
0.0
220
0.0
230
1.0
 70
     8
 71
     3
 72
     8
 73
     4
 74
     0
 42
0.00000001
 43
0.00000001
 40
0.8571428571428571
 40
0.8571428571428571
 40
0.8571428571428571
 40
0.8571428571428571
 40
1.0
 40
1.0
 40
1.0
 40
1.0
 10
35.5453569
 20
4.425200699999999
 30
0.0
 10
35.2723704
 20
4.716856200000003
 30
0.0
 10
34.854642
 20
4.881943499999997
 30
0.0
 10
34.28771399999999
 20
4.881943499999997
 30
0.0
  0
SPLINE
  5
1B3
330
129
100
AcDbEntity
  8
0
  6
Continuous
 62
     8
420
  8421504
370
    50
100
AcDbSpline
210
0.0
220
0.0
230
1.0
 70
     8
 71
     3
 72
     8
 73
     4
 74
     0
 42
0.00000001
 43
0.00000001
 40
0.0
 40
0.0
 40
0.0
 40
0.0
 40
0.0714285714285714
 40
0.0714285714285714
 40
0.0714285714285714
 40
0.0714285714285714
 10
21.2217381
 20
4.881448199999999
 30
0.0
 10
20.7334485
 20
4.8827436
 30
0.0
 10
20.2260327
 20
4.706607300000002
 30
0.0
 10
19.91487
 20
4.2401109
 30
0.0
  0
SPLINE
  5
1B4
330
129
100
AcDbEntity
  8
0
  6
Continuous
 62
     8
420
  8421504
370
    50
100
AcDbSpline
210
0.0
220
0.0
230
1.0
 70
     8
 71
     3
 72
     8
 73
     4
 74
     0
 42
0.00000001
 43
0.00000001
 40
0.4285714285714285
 40
0.4285714285714285
 40
0.4285714285714285
 40
0.4285714285714285
 40
0.5
 40
0.5
 40
0.5
 40
0.5
 10
19.91487
 20
2.822905200000001
 30
0.0
 10
19.9197087
 20
3.814952999999996
 30
0.0
 10
20.4953997
 20
4.228680899999996
 30
0.0
 10
21.1464525
 20
4.233405299999998
 30
0.0
  0
SPLINE
  5
1B5
330
129
100
AcDbEntity
  8
0
  6
Continuous
 62
     8
420
  8421504
370
    50
100
AcDbSpline
210
0.0
220
0.0
230
1.0
 70
     8
 71
     3
 72
     8
 73
     4
 74
     0
 42
0.00000001
 43
0.00000001
 40
0.5
 40
0.5
 40
0.5
 40
0.5
 40
0.5714285714285714
 40
0.5714285714285714
 40
0.5714285714285714
 40
0.5714285714285714
 10
21.1464525
 20
4.233405299999998
 30
0.0
 10
21.8441778
 20
4.222127699999998
 30
0.0
 10
22.1777814
 20
3.974553899999997
 30
0.0
 10
22.1893257
 20
3.077527499999996
 30
0.0
  0
SPLINE
  5
1B6
330
129
100
AcDbEntity
  8
0
  6
Continuous
 62
     8
420
  8421504
370
    50
100
AcDbSpline
210
0.0
220
0.0
230
1.0
 70
     8
 71
     3
 72
     8
 73
     4
 74
     0
 42
0.00000001
 43
0.00000001
 40
0.7857142857142857
 40
0.7857142857142857
 40
0.7857142857142857
 40
0.7857142857142857
 40
0.8571428571428571
 40
0.8571428571428571
 40
0.8571428571428571
 40
0.8571428571428571
 10
22.8750876
 20
3.247377299999998
 30
0.0
 10
22.8750876
 20
3.723322499999998
 30
0.0
 10
22.7522532
 20
4.134154799999997
 30
0.0
 10
22.4795334
 20
4.425200699999999
 30
0.0
  0
SPLINE
  5
1B7
330
129
100
AcDbEntity
  8
0
  6
Continuous
 62
     8
420
  8421504
370
    50
100
AcDbSpline
210
0.0
220
0.0
230
1.0
 70
     8
 71
     3
 72
     8
 73
     4
 74
     0
 42
0.00000001
 43
0.00000001
 40
0.8571428571428571
 40
0.8571428571428571
 40
0.8571428571428571
 40
0.8571428571428571
 40
1.0
 40
1.0
 40
1.0
 40
1.0
 10
22.4795334
 20
4.425200699999999
 30
0.0
 10
22.206966
 20
4.7173515
 30
0.0
 10
21.7885518
 20
4.882248299999995
 30
0.0
 10
21.2217381
 20
4.881448199999999
 30
0.0
  0
SPLINE
  5
1B8
330
129
100
AcDbEntity
  8
0
  6
Continuous
 62
     8
420
  8421504
370
    50
100
AcDbSpline
210
0.0
220
0.0
230
1.0
 70
     8
 71
     3
 72
     8
 73
     4
 74
     0
 42
0.00000001
 43
0.00000001
 40
0.0
 40
0.0
 40
0.0
 40
0.0
 40
0.0526315789473684
 40
0.0526315789473684
 40
0.0526315789473684
 40
0.0526315789473684
 10
18.4526682
 20
2.467165499999996
 30
0.0
 10
18.4101867
 20
3.820477499999995
 30
0.0
 10
17.7229389
 20
4.8843438
 30
0.0
 10
16.3466145
 20
4.881943499999997
 30
0.0
  0
SPLINE
  5
1B9
330
129
100
AcDbEntity
  8
0
  6
Continuous
 62
     8
420
  8421504
370
    50
100
AcDbSpline
210
0.0
220
0.0
230
1.0
 70
     8
 71
     3
 72
     8
 73
     4
 74
     0
 42
0.00000001
 43
0.00000001
 40
0.0526315789473684
 40
0.0526315789473684
 40
0.0526315789473684
 40
0.0526315789473684
 40
0.1052631578947368
 40
0.1052631578947368
 40
0.1052631578947368
 40
0.1052631578947368
 10
16.3466145
 20
4.881943499999997
 30
0.0
 10
15.7666563
 20
4.881943499999997
 30
0.0
 10
15.2375997
 20
4.668545400000001
 30
0.0
 10
14.8557615
 20
4.2542841
 30
0.0
  0
SPLINE
  5
1BA
330
129
100
AcDbEntity
  8
0
  6
Continuous
 62
     8
420
  8421504
370
    50
100
AcDbSpline
210
0.0
220
0.0
230
1.0
 70
     8
 71
     3
 72
     8
 73
     4
 74
     0
 42
0.00000001
 43
0.00000001
 40
0.1052631578947368
 40
0.1052631578947368
 40
0.1052631578947368
 40
0.1052631578947368
 40
0.1578947368421053
 40
0.1578947368421053
 40
0.1578947368421053
 40
0.1578947368421053
 10
14.8557615
 20
4.2542841
 30
0.0
 10
14.4740376
 20
3.8409372
 30
0.0
 10
14.2407132
 20
3.230308499999998
 30
0.0
 10
14.2412466
 20
2.445677099999999
 30
0.0
  0
SPLINE
  5
1BB
330
129
100
AcDbEntity
  8
0
  6
Continuous
 62
     8
420
  8421504
370
    50
100
AcDbSpline
210
0.0
220
0.0
230
1.0
 70
     8
 71
     3
 72
     8
 73
     4
 74
     0
 42
0.00000001
 43
0.00000001
 40
0.1578947368421053
 40
0.1578947368421053
 40
0.1578947368421053
 40
0.1578947368421053
 40
0.2105263157894737
 40
0.2105263157894737
 40
0.2105263157894737
 40
0.2105263157894737
 10
14.2412466
 20
2.445677099999999
 30
0.0
 10
14.2407132
 20
1.661312400000001
 30
0.0
 10
14.4740376
 20
1.051217100000001
 30
0.0
 10
14.8557615
 20
0.6374892000000021
 30
0.0
  0
SPLINE
  5
1BC
330
129
100
AcDbEntity
  8
0
  6
Continuous
 62
     8
420
  8421504
370
    50
100
AcDbSpline
210
0.0
220
0.0
230
1.0
 70
     8
 71
     3
 72
     8
 73
     4
 74
     0
 42
0.00000001
 43
0.00000001
 40
0.2105263157894737
 40
0.2105263157894737
 40
0.2105263157894737
 40
0.2105263157894737
 40
0.2631578947368421
 40
0.2631578947368421
 40
0.2631578947368421
 40
0.2631578947368421
 10
14.8557615
 20
0.6374892000000021
 30
0.0
 10
15.2374854
 20
0.2245233000000013
 30
0.0
 10
15.7666563
 20
0.0100964999999981
 30
0.0
 10
16.3466145
 20
0.0100964999999981
 30
0.0
  0
SPLINE
  5
1BD
330
129
100
AcDbEntity
  8
0
  6
Continuous
 62
     8
420
  8421504
370
    50
100
AcDbSpline
210
0.0
220
0.0
230
1.0
 70
     8
 71
     3
 72
     8
 73
     4
 74
     0
 42
0.00000001
 43
0.00000001
 40
0.2631578947368421
 40
0.2631578947368421
 40
0.2631578947368421
 40
0.2631578947368421
 40
0.3157894736842105
 40
0.3157894736842105
 40
0.3157894736842105
 40
0.3157894736842105
 10
16.3466145
 20
0.0100964999999981
 30
0.0
 10
16.3620831
 20
0.0100964999999981
 30
0.0
 10
16.3733607
 20
0.0112776000000009
 30
0.0
 10
16.3823523
 20
0.0112776000000009
 30
0.0
  0
SPLINE
  5
1BE
330
129
100
AcDbEntity
  8
0
  6
Continuous
 62
     8
420
  8421504
370
    50
100
AcDbSpline
210
0.0
220
0.0
230
1.0
 70
     8
 71
     3
 72
     8
 73
     4
 74
     0
 42
0.00000001
 43
0.00000001
 40
0.3157894736842105
 40
0.3157894736842105
 40
0.3157894736842105
 40
0.3157894736842105
 40
0.3684210526315789
 40
0.3684210526315789
 40
0.3684210526315789
 40
0.3684210526315789
 10
16.3823523
 20
0.0112776000000009
 30
0.0
 10
16.391763
 20
0.0112776000000009
 30
0.0
 10
16.4044122
 20
0.0100964999999981
 30
0.0
 10
16.4193474
 20
0.0100964999999981
 30
0.0
  0
SPLINE
  5
1BF
330
129
100
AcDbEntity
  8
0
  6
Continuous
 62
     8
420
  8421504
370
    50
100
AcDbSpline
210
0.0
220
0.0
230
1.0
 70
     8
 71
     3
 72
     8
 73
     4
 74
     0
 42
0.00000001
 43
0.00000001
 40
0.4210526315789473
 40
0.4210526315789473
 40
0.4210526315789473
 40
0.4210526315789473
 40
0.4736842105263158
 40
0.4736842105263158
 40
0.4736842105263158
 40
0.4736842105263158
 10
16.4241861
 20
0.0100964999999981
 30
0.0
 10
17.3213268
 20
0.0100964999999981
 30
0.0
 10
18.0916326
 20
0.5309234999999968
 30
0.0
 10
18.3883935
 20
1.494358199999998
 30
0.0
  0
SPLINE
  5
1C0
330
129
100
AcDbEntity
  8
0
  6
Continuous
 62
     8
420
  8421504
370
    50
100
AcDbSpline
210
0.0
220
0.0
230
1.0
 70
     8
 71
     3
 72
     8
 73
     4
 74
     0
 42
0.00000001
 43
0.00000001
 40
0.631578947368421
 40
0.631578947368421
 40
0.631578947368421
 40
0.631578947368421
 40
0.6842105263157895
 40
0.6842105263157895
 40
0.6842105263157895
 40
0.6842105263157895
 10
17.6403
 20
1.531886700000004
 30
0.0
 10
17.4510573
 20
1.000810800000004
 30
0.0
 10
17.0622087
 20
0.669531299999998
 30
0.0
 10
16.395954
 20
0.6582156000000006
 30
0.0
  0
SPLINE
  5
1C1
330
129
100
AcDbEntity
  8
0
  6
Continuous
 62
     8
420
  8421504
370
    50
100
AcDbSpline
210
0.0
220
0.0
230
1.0
 70
     8
 71
     3
 72
     8
 73
     4
 74
     0
 42
0.00000001
 43
0.00000001
 40
0.7368421052631579
 40
0.7368421052631579
 40
0.7368421052631579
 40
0.7368421052631579
 40
0.7894736842105263
 40
0.7894736842105263
 40
0.7894736842105263
 40
0.7894736842105263
 10
16.3825047
 20
0.6587489999999946
 30
0.0
 10
15.4196034
 20
0.668693099999998
 30
0.0
 10
15.0089997
 20
1.351749899999996
 30
0.0
 10
15.0027894
 20
2.342235599999998
 30
0.0
  0
SPLINE
  5
1C2
330
129
100
AcDbEntity
  8
0
  6
Continuous
 62
     8
420
  8421504
370
    50
100
AcDbSpline
210
0.0
220
0.0
230
1.0
 70
     8
 71
     3
 72
     8
 73
     4
 74
     0
 42
0.00000001
 43
0.00000001
 40
0.0
 40
0.0
 40
0.0
 40
0.0
 40
0.25
 40
0.25
 40
0.25
 40
0.25
 10
15.0119334
 20
2.996412600000001
 30
0.0
 10
15.126462
 20
3.696538199999999
 30
0.0
 10
15.6033216
 20
4.232605200000003
 30
0.0
 10
16.3466145
 20
4.233405299999998
 30
0.0
  0
SPLINE
  5
1C3
330
129
100
AcDbEntity
  8
0
  6
Continuous
 62
     8
420
  8421504
370
    50
100
AcDbSpline
210
0.0
220
0.0
230
1.0
 70
     8
 71
     3
 72
     8
 73
     4
 74
     0
 42
0.00000001
 43
0.00000001
 40
0.25
 40
0.25
 40
0.25
 40
0.25
 40
0.5
 40
0.5
 40
0.5
 40
0.5
 10
16.3466145
 20
4.233405299999998
 30
0.0
 10
17.2194474
 20
4.2318051
 30
0.0
 10
17.5432593
 20
3.623843400000002
 30
0.0
 10
17.6779428
 20
2.996412600000001
 30
0.0
  0
SPLINE
  5
1C4
330
129
100
AcDbEntity
  8
0
  6
Continuous
 62
     8
420
  8421504
370
    50
100
AcDbSpline
210
0.0
220
0.0
230
1.0
 70
     8
 71
     3
 72
     8
 73
     4
 74
     0
 42
0.00000001
 43
0.00000001
 40
0.0
 40
0.0
 40
0.0
 40
0.0
 40
0.0769230769230769
 40
0.0769230769230769
 40
0.0769230769230769
 40
0.0769230769230769
 10
0.6813041999999964
 20
4.2478452
 30
0.0
 10
1.013040899999999
 20
4.6515909
 30
0.0
 10
1.557527999999997
 20
4.881029100000004
 30
0.0
 10
2.105634599999996
 20
4.881029100000004
 30
0.0
  0
SPLINE
  5
1C5
330
129
100
AcDbEntity
  8
0
  6
Continuous
 62
     8
420
  8421504
370
    50
100
AcDbSpline
210
0.0
220
0.0
230
1.0
 70
     8
 71
     3
 72
     8
 73
     4
 74
     0
 42
0.00000001
 43
0.00000001
 40
0.0769230769230769
 40
0.0769230769230769
 40
0.0769230769230769
 40
0.0769230769230769
 40
0.1538461538461539
 40
0.1538461538461539
 40
0.1538461538461539
 40
0.1538461538461539
 10
2.105634599999996
 20
4.881029100000004
 30
0.0
 10
2.686164299999999
 20
4.881029100000004
 30
0.0
 10
3.215068499999997
 20
4.667326200000002
 30
0.0
 10
3.597059099999998
 20
4.253064900000001
 30
0.0
  0
SPLINE
  5
1C6
330
129
100
AcDbEntity
  8
0
  6
Continuous
 62
     8
420
  8421504
370
    50
100
AcDbSpline
210
0.0
220
0.0
230
1.0
 70
     8
 71
     3
 72
     8
 73
     4
 74
     0
 42
0.00000001
 43
0.00000001
 40
0.1538461538461539
 40
0.1538461538461539
 40
0.1538461538461539
 40
0.1538461538461539
 40
0.2307692307692308
 40
0.2307692307692308
 40
0.2307692307692308
 40
0.2307692307692308
 10
3.597059099999998
 20
4.253064900000001
 30
0.0
 10
3.9790497
 20
3.839870400000004
 30
0.0
 10
4.211840699999996
 20
3.229279799999998
 30
0.0
 10
4.211840699999996
 20
2.445143700000005
 30
0.0
  0
SPLINE
  5
1C7
330
129
100
AcDbEntity
  8
0
  6
Continuous
 62
     8
420
  8421504
370
    50
100
AcDbSpline
210
0.0
220
0.0
230
1.0
 70
     8
 71
     3
 72
     8
 73
     4
 74
     0
 42
0.00000001
 43
0.00000001
 40
0.2307692307692308
 40
0.2307692307692308
 40
0.2307692307692308
 40
0.2307692307692308
 40
0.3076923076923077
 40
0.3076923076923077
 40
0.3076923076923077
 40
0.3076923076923077
 10
4.211840699999996
 20
2.445143700000005
 30
0.0
 10
4.211840699999996
 20
1.660207499999999
 30
0.0
 10
3.9790497
 20
1.050150299999997
 30
0.0
 10
3.597059099999998
 20
0.6364605000000024
 30
0.0
  0
SPLINE
  5
1C8
330
129
100
AcDbEntity
  8
0
  6
Continuous
 62
     8
420
  8421504
370
    50
100
AcDbSpline
210
0.0
220
0.0
230
1.0
 70
     8
 71
     3
 72
     8
 73
     4
 74
     0
 42
0.00000001
 43
0.00000001
 40
0.3076923076923077
 40
0.3076923076923077
 40
0.3076923076923077
 40
0.3076923076923077
 40
0.3846153846153846
 40
0.3846153846153846
 40
0.3846153846153846
 40
0.3846153846153846
 10
3.597059099999998
 20
0.6364605000000024
 30
0.0
 10
3.215068499999997
 20
0.2234184
 30
0.0
 10
2.686164299999999
 20
0.0090297000000017
 30
0.0
 10
2.105634599999996
 20
0.0090297000000017
 30
0.0
  0
SPLINE
  5
1C9
330
129
100
AcDbEntity
  8
0
  6
Continuous
 62
     8
420
  8421504
370
    50
100
AcDbSpline
210
0.0
220
0.0
230
1.0
 70
     8
 71
     3
 72
     8
 73
     4
 74
     0
 42
0.00000001
 43
0.00000001
 40
0.4615384615384616
 40
0.4615384615384616
 40
0.4615384615384616
 40
0.4615384615384616
 40
0.5384615384615384
 40
0.5384615384615384
 40
0.5384615384615384
 40
0.5384615384615384
 10
2.098128899999996
 20
0.0090297000000017
 30
0.0
 10
1.117892099999995
 20
0.0090297000000017
 30
0.0
 10
0.2772917999999958
 20
0.5965316999999942
 30
0.0
 10
0.0591311999999969
 20
1.756295699999999
 30
0.0
  0
SPLINE
  5
1CA
330
129
100
AcDbEntity
  8
0
  6
Continuous
 62
     8
420
  8421504
370
    50
100
AcDbSpline
210
0.0
220
0.0
230
1.0
 70
     8
 71
     3
 72
     8
 73
     4
 74
     0
 42
0.00000001
 43
0.00000001
 40
0.5384615384615384
 40
0.5384615384615384
 40
0.5384615384615384
 40
0.5384615384615384
 40
0.6153846153846154
 40
0.6153846153846154
 40
0.6153846153846154
 40
0.6153846153846154
 10
0.0591311999999969
 20
1.756295699999999
 30
0.0
 10
0.0165353999999979
 20
1.983371699999998
 30
0.0
 10
0.0013334999999975
 20
2.239060799999998
 30
0.0
 10
0.0013334999999975
 20
2.369248500000002
 30
0.0
  0
SPLINE
  5
1CB
330
129
100
AcDbEntity
  8
0
  6
Continuous
 62
     8
420
  8421504
370
    50
100
AcDbSpline
210
0.0
220
0.0
230
1.0
 70
     8
 71
     3
 72
     8
 73
     4
 74
     0
 42
0.00000001
 43
0.00000001
 40
0.0
 40
0.0
 40
0.0
 40
0.0
 40
0.2
 40
0.2
 40
0.2
 40
0.2
 10
2.105634599999996
 20
0.6571487999999959
 30
0.0
 10
2.908211099999997
 20
0.6595490999999981
 30
0.0
 10
3.5216211
 20
1.297190700000003
 30
0.0
 10
3.525659699999998
 20
2.445143700000005
 30
0.0
  0
SPLINE
  5
1CC
330
129
100
AcDbEntity
  8
0
  6
Continuous
 62
     8
420
  8421504
370
    50
100
AcDbSpline
210
0.0
220
0.0
230
1.0
 70
     8
 71
     3
 72
     8
 73
     4
 74
     0
 42
0.00000001
 43
0.00000001
 40
0.2
 40
0.2
 40
0.2
 40
0.2
 40
0.4
 40
0.4
 40
0.4
 40
0.4
 10
3.525659699999998
 20
2.445143700000005
 30
0.0
 10
3.5216211
 20
3.583914600000002
 30
0.0
 10
2.907944399999996
 20
4.230776400000001
 30
0.0
 10
2.105634599999996
 20
4.232338500000002
 30
0.0
  0
SPLINE
  5
1CD
330
129
100
AcDbEntity
  8
0
  6
Continuous
 62
     8
420
  8421504
370
    50
100
AcDbSpline
210
0.0
220
0.0
230
1.0
 70
     8
 71
     3
 72
     8
 73
     4
 74
     0
 42
0.00000001
 43
0.00000001
 40
0.4
 40
0.4
 40
0.4
 40
0.4
 40
0.6
 40
0.6
 40
0.6
 40
0.6
 10
2.105634599999996
 20
4.232338500000002
 30
0.0
 10
1.303896299999996
 20
4.230776400000001
 30
0.0
 10
0.6857618999999981
 20
3.654552
 30
0.0
 10
0.6857618999999981
 20
2.445143700000005
 30
0.0
  0
SPLINE
  5
1CE
330
129
100
AcDbEntity
  8
0
  6
Continuous
 62
     8
420
  8421504
370
    50
100
AcDbSpline
210
0.0
220
0.0
230
1.0
 70
     8
 71
     3
 72
     8
 73
     4
 74
     0
 42
0.00000001
 43
0.00000001
 40
0.6
 40
0.6
 40
0.6
 40
0.6
 40
1.0
 40
1.0
 40
1.0
 40
1.0
 10
0.6857618999999981
 20
2.445143700000005
 30
0.0
 10
0.6786371999999972
 20
1.195616100000002
 30
0.0
 10
1.303515299999997
 20
0.6595490999999981
 30
0.0
 10
2.105634599999996
 20
0.6571487999999959
 30
0.0
  0
SPLINE
  5
1CF
330
129
100
AcDbEntity
  8
0
  6
Continuous
 62
     8
420
  8421504
370
    50
100
AcDbSpline
210
0.0
220
0.0
230
1.0
 70
     8
 71
     3
 72
     8
 73
     4
 74
     0
 42
0.00000001
 43
0.00000001
 40
0.0
 40
0.0
 40
0.0
 40
0.0
 40
0.1666666666666667
 40
0.1666666666666667
 40
0.1666666666666667
 40
0.1666666666666667
 10
38.8233285
 20
0.6484239000000003
 30
0.0
 10
38.02075199999999
 20
0.6506717999999996
 30
0.0
 10
37.4067705
 20
1.288313400000005
 30
0.0
 10
37.4033034
 20
2.436380699999996
 30
0.0
  0
SPLINE
  5
1D0
330
129
100
AcDbEntity
  8
0
  6
Continuous
 62
     8
420
  8421504
370
    50
100
AcDbSpline
210
0.0
220
0.0
230
1.0
 70
     8
 71
     3
 72
     8
 73
     4
 74
     0
 42
0.00000001
 43
0.00000001
 40
0.3333333333333333
 40
0.3333333333333333
 40
0.3333333333333333
 40
0.3333333333333333
 40
0.5
 40
0.5
 40
0.5
 40
0.5
 10
37.40303669999999
 20
2.436380699999996
 30
0.0
 10
37.4067705
 20
3.575151600000002
 30
0.0
 10
38.0218569
 20
4.2220134
 30
0.0
 10
38.8233285
 20
4.223575500000002
 30
0.0
  0
SPLINE
  5
1D1
330
129
100
AcDbEntity
  8
0
  6
Continuous
 62
     8
420
  8421504
370
    50
100
AcDbSpline
210
0.0
220
0.0
230
1.0
 70
     8
 71
     3
 72
     8
 73
     4
 74
     0
 42
0.00000001
 43
0.00000001
 40
0.5
 40
0.5
 40
0.5
 40
0.5
 40
0.6666666666666666
 40
0.6666666666666666
 40
0.6666666666666666
 40
0.6666666666666666
 10
38.8233285
 20
4.223575500000002
 30
0.0
 10
39.6246477
 20
4.2220134
 30
0.0
 10
40.2391626
 20
3.575151600000002
 30
0.0
 10
40.24335360000001
 20
2.436380699999996
 30
0.0
  0
SPLINE
  5
1D2
330
129
100
AcDbEntity
  8
0
  6
Continuous
 62
     8
420
  8421504
370
    50
100
AcDbSpline
210
0.0
220
0.0
230
1.0
 70
     8
 71
     3
 72
     8
 73
     4
 74
     0
 42
0.00000001
 43
0.00000001
 40
0.6666666666666666
 40
0.6666666666666666
 40
0.6666666666666666
 40
0.6666666666666666
 40
1.0
 40
1.0
 40
1.0
 40
1.0
 10
40.24335360000001
 20
2.436380699999996
 30
0.0
 10
40.2391626
 20
1.288313400000005
 30
0.0
 10
39.6250668
 20
0.6506717999999996
 30
0.0
 10
38.8233285
 20
0.6484239000000003
 30
0.0
  0
SPLINE
  5
1D3
330
129
100
AcDbEntity
  8
0
  6
Continuous
 62
     8
420
  8421504
370
    50
100
AcDbSpline
210
0.0
220
0.0
230
1.0
 70
     8
 71
     3
 72
     8
 73
     4
 74
     0
 42
0.00000001
 43
0.00000001
 40
0.1333333333333333
 40
0.1333333333333333
 40
0.1333333333333333
 40
0.1333333333333333
 40
0.2
 40
0.2
 40
0.2
 40
0.2
 10
40.2286851
 20
4.327283700000003
 30
0.0
 10
39.85515269999999
 20
4.6850808
 30
0.0
 10
39.3620244
 20
4.872266100000004
 30
0.0
 10
38.8233285
 20
4.871732700000001
 30
0.0
  0
SPLINE
  5
1D4
330
129
100
AcDbEntity
  8
0
  6
Continuous
 62
     8
420
  8421504
370
    50
100
AcDbSpline
210
0.0
220
0.0
230
1.0
 70
     8
 71
     3
 72
     8
 73
     4
 74
     0
 42
0.00000001
 43
0.00000001
 40
0.2
 40
0.2
 40
0.2
 40
0.2
 40
0.2666666666666667
 40
0.2666666666666667
 40
0.2666666666666667
 40
0.2666666666666667
 10
38.8233285
 20
4.871732700000001
 30
0.0
 10
38.2430655
 20
4.872266100000004
 30
0.0
 10
37.71362790000001
 20
4.658563200000002
 30
0.0
 10
37.3317897
 20
4.244301900000001
 30
0.0
  0
SPLINE
  5
1D5
330
129
100
AcDbEntity
  8
0
  6
Continuous
 62
     8
420
  8421504
370
    50
100
AcDbSpline
210
0.0
220
0.0
230
1.0
 70
     8
 71
     3
 72
     8
 73
     4
 74
     0
 42
0.00000001
 43
0.00000001
 40
0.2666666666666667
 40
0.2666666666666667
 40
0.2666666666666667
 40
0.2666666666666667
 40
0.3333333333333333
 40
0.3333333333333333
 40
0.3333333333333333
 40
0.3333333333333333
 10
37.3317897
 20
4.244301900000001
 30
0.0
 10
36.9504849
 20
3.831107400000003
 30
0.0
 10
36.7172748
 20
3.220516799999998
 30
0.0
 10
36.7172748
 20
2.436380699999996
 30
0.0
  0
SPLINE
  5
1D6
330
129
100
AcDbEntity
  8
0
  6
Continuous
 62
     8
420
  8421504
370
    50
100
AcDbSpline
210
0.0
220
0.0
230
1.0
 70
     8
 71
     3
 72
     8
 73
     4
 74
     0
 42
0.00000001
 43
0.00000001
 40
0.3333333333333333
 40
0.3333333333333333
 40
0.3333333333333333
 40
0.3333333333333333
 40
0.4
 40
0.4
 40
0.4
 40
0.4
 10
36.7172748
 20
2.436380699999996
 30
0.0
 10
36.7172748
 20
1.651482599999996
 30
0.0
 10
36.9504849
 20
1.041311099999995
 30
0.0
 10
37.3317897
 20
0.6275831999999955
 30
0.0
  0
SPLINE
  5
1D7
330
129
100
AcDbEntity
  8
0
  6
Continuous
 62
     8
420
  8421504
370
    50
100
AcDbSpline
210
0.0
220
0.0
230
1.0
 70
     8
 71
     3
 72
     8
 73
     4
 74
     0
 42
0.00000001
 43
0.00000001
 40
0.4
 40
0.4
 40
0.4
 40
0.4
 40
0.4666666666666667
 40
0.4666666666666667
 40
0.4666666666666667
 40
0.4666666666666667
 10
37.3317897
 20
0.6275831999999955
 30
0.0
 10
37.71362790000001
 20
0.2146935000000002
 30
0.0
 10
38.2430655
 20
0.0001523999999989
 30
0.0
 10
38.8233285
 20
0.0001523999999989
 30
0.0
  0
SPLINE
  5
1D8
330
129
100
AcDbEntity
  8
0
  6
Continuous
 62
     8
420
  8421504
370
    50
100
AcDbSpline
210
0.0
220
0.0
230
1.0
 70
     8
 71
     3
 72
     8
 73
     4
 74
     0
 42
0.00000001
 43
0.00000001
 40
0.5333333333333333
 40
0.5333333333333333
 40
0.5333333333333333
 40
0.5333333333333333
 40
0.6
 40
0.6
 40
0.6
 40
0.6
 10
38.8242429
 20
0.0001523999999989
 30
0.0
 10
39.3812268
 20
0.0001523999999989
 30
0.0
 10
39.8895951
 20
0.2000249999999981
 30
0.0
 10
40.2673947
 20
0.5821680000000024
 30
0.0
  0
SPLINE
  5
1D9
330
129
100
AcDbEntity
  8
0
  6
Continuous
 62
     8
420
  8421504
370
    50
100
AcDbSpline
210
0.0
220
0.0
230
1.0
 70
     8
 71
     3
 72
     8
 73
     4
 74
     0
 42
0.00000001
 43
0.00000001
 40
0.4736842105263158
 40
0.4736842105263158
 40
0.4736842105263158
 40
0.4736842105263158
 40
0.5263157894736842
 40
0.5263157894736842
 40
0.5263157894736842
 40
0.5263157894736842
 10
42.2655111
 20
0.8719185000000018
 30
0.0
 10
42.26402519999999
 20
0.5637275999999998
 30
0.0
 10
42.36377099999999
 20
0.3610736999999989
 30
0.0
 10
42.5247816
 20
0.2458974000000003
 30
0.0
  0
SPLINE
  5
1DA
330
129
100
AcDbEntity
  8
0
  6
Continuous
 62
     8
420
  8421504
370
    50
100
AcDbSpline
210
0.0
220
0.0
230
1.0
 70
     8
 71
     3
 72
     8
 73
     4
 74
     0
 42
0.00000001
 43
0.00000001
 40
0.5263157894736842
 40
0.5263157894736842
 40
0.5263157894736842
 40
0.5263157894736842
 40
0.5789473684210527
 40
0.5789473684210527
 40
0.5789473684210527
 40
0.5789473684210527
 10
42.5247816
 20
0.2458974000000003
 30
0.0
 10
42.68514449999999
 20
0.1302639000000008
 30
0.0
 10
42.8903892
 20
0.1021841999999967
 30
0.0
 10
43.0985676
 20
0.1021841999999967
 30
0.0
  0
SPLINE
  5
1DB
330
129
100
AcDbEntity
  8
0
  6
Continuous
 62
     8
420
  8421504
370
    50
100
AcDbSpline
210
0.0
220
0.0
230
1.0
 70
     8
 71
     3
 72
     8
 73
     4
 74
     0
 42
0.00000001
 43
0.00000001
 40
0.5789473684210527
 40
0.5789473684210527
 40
0.5789473684210527
 40
0.5789473684210527
 40
0.631578947368421
 40
0.631578947368421
 40
0.631578947368421
 40
0.631578947368421
 10
43.0985676
 20
0.1021841999999967
 30
0.0
 10
43.136058
 20
0.1021841999999967
 30
0.0
 10
43.6856886
 20
0.1016507999999985
 30
0.0
 10
43.7019192
 20
0.1016507999999985
 30
0.0
  0
SPLINE
  5
1DC
330
129
100
AcDbEntity
  8
0
  6
Continuous
 62
     8
420
  8421504
370
    50
100
AcDbSpline
210
0.0
220
0.0
230
1.0
 70
     8
 71
     3
 72
     8
 73
     4
 74
     0
 42
0.00000001
 43
0.00000001
 40
0.7368421052631579
 40
0.7368421052631579
 40
0.7368421052631579
 40
0.7368421052631579
 40
0.7894736842105263
 40
0.7894736842105263
 40
0.7894736842105263
 40
0.7894736842105263
 10
43.2214401
 20
0.685495199999997
 30
0.0
 10
43.0789461
 20
0.6894194999999964
 30
0.0
 10
43.032045
 20
0.7359015000000025
 30
0.0
 10
42.9925353
 20
0.8309228999999972
 30
0.0
  0
SPLINE
  5
1DD
330
129
100
AcDbEntity
  8
0
  6
Continuous
 62
     8
420
  8421504
370
    50
100
AcDbSpline
210
0.0
220
0.0
230
1.0
 70
     8
 71
     3
 72
     8
 73
     4
 74
     0
 42
0.00000001
 43
0.00000001
 40
0.7894736842105263
 40
0.7894736842105263
 40
0.7894736842105263
 40
0.7894736842105263
 40
0.8421052631578947
 40
0.8421052631578947
 40
0.8421052631578947
 40
0.8421052631578947
 10
42.9925353
 20
0.8309228999999972
 30
0.0
 10
42.9551592
 20
0.9283826999999996
 30
0.0
 10
42.9508539
 20
1.0802493
 30
0.0
 10
42.9511206
 20
1.249070400000002
 30
0.0
  0
HATCH
  5
1DE
330
129
100
AcDbEntity
  8
0
  6
Continuous
 62
     7
100
AcDbHatch
 10
0.0
 20
0.0
 30
0.0
210
0.0
220
0.0
230
1.0
  2
SOLID
 70
     1
 71
     0
 91
        2
 92
        0
 93
       12
 72
     4
 94
        3
 73
     1
 74
     0
 95
        8
 96
        4
 40
0.5384615384615384
 40
0.5384615384615384
 40
0.5384615384615384
 40
0.5384615384615384
 40
0.6153846153846154
 40
0.6153846153846154
 40
0.6153846153846154
 40
0.6153846153846154
 10
0.0013334999999975
 20
2.369248500000002
 42
1.0
 10
0.0013334999999975
 20
2.239060799999998
 42
1.0
 10
0.0165353999999979
 20
1.983371699999998
 42
1.0
 10
0.0591311999999969
 20
1.756295699999999
 42
1.0
 97
        0
 72
     4
 94
        3
 73
     1
 74
     0
 95
        8
 96
        4
 40
0.4615384615384616
 40
0.4615384615384616
 40
0.4615384615384616
 40
0.4615384615384616
 40
0.5384615384615384
 40
0.5384615384615384
 40
0.5384615384615384
 40
0.5384615384615384
 10
0.0591311999999969
 20
1.756295699999999
 42
1.0
 10
0.2772917999999958
 20
0.5965316999999942
 42
1.0
 10
1.117892099999995
 20
0.0090297000000017
 42
1.0
 10
2.098128899999996
 20
0.0090297000000017
 42
1.0
 97
        0
 72
     1
 10
2.098128899999996
 20
0.0090297000000017
 11
2.105634599999996
 21
0.0090297000000017
 72
     4
 94
        3
 73
     1
 74
     0
 95
        8
 96
        4
 40
0.3076923076923077
 40
0.3076923076923077
 40
0.3076923076923077
 40
0.3076923076923077
 40
0.3846153846153846
 40
0.3846153846153846
 40
0.3846153846153846
 40
0.3846153846153846
 10
2.105634599999996
 20
0.0090297000000017
 42
1.0
 10
2.686164299999999
 20
0.0090297000000017
 42
1.0
 10
3.215068499999997
 20
0.2234184
 42
1.0
 10
3.597059099999998
 20
0.6364605000000024
 42
1.0
 97
        0
 72
     4
 94
        3
 73
     1
 74
     0
 95
        8
 96
        4
 40
0.2307692307692308
 40
0.2307692307692308
 40
0.2307692307692308
 40
0.2307692307692308
 40
0.3076923076923077
 40
0.3076923076923077
 40
0.3076923076923077
 40
0.3076923076923077
 10
3.597059099999998
 20
0.6364605000000024
 42
1.0
 10
3.9790497
 20
1.050150299999997
 42
1.0
 10
4.211840699999996
 20
1.660207499999999
 42
1.0
 10
4.211840699999996
 20
2.445143700000005
 42
1.0
 97
        0
 72
     4
 94
        3
 73
     1
 74
     0
 95
        8
 96
        4
 40
0.1538461538461539
 40
0.1538461538461539
 40
0.1538461538461539
 40
0.1538461538461539
 40
0.2307692307692308
 40
0.2307692307692308
 40
0.2307692307692308
 40
0.2307692307692308
 10
4.211840699999996
 20
2.445143700000005
 42
1.0
 10
4.211840699999996
 20
3.229279799999998
 42
1.0
 10
3.9790497
 20
3.839870400000004
 42
1.0
 10
3.597059099999998
 20
4.253064900000001
 42
1.0
 97
        0
 72
     4
 94
        3
 73
     1
 74
     0
 95
        8
 96
        4
 40
0.0769230769230769
 40
0.0769230769230769
 40
0.0769230769230769
 40
0.0769230769230769
 40
0.1538461538461539
 40
0.1538461538461539
 40
0.1538461538461539
 40
0.1538461538461539
 10
3.597059099999998
 20
4.253064900000001
 42
1.0
 10
3.215068499999997
 20
4.667326200000002
 42
1.0
 10
2.686164299999999
 20
4.881029100000004
 42
1.0
 10
2.105634599999996
 20
4.881029100000004
 42
1.0
 97
        0
 72
     4
 94
        3
 73
     1
 74
     0
 95
        8
 96
        4
 40
0.0
 40
0.0
 40
0.0
 40
0.0
 40
0.0769230769230769
 40
0.0769230769230769
 40
0.0769230769230769
 40
0.0769230769230769
 10
2.105634599999996
 20
4.881029100000004
 42
1.0
 10
1.557527999999997
 20
4.881029100000004
 42
1.0
 10
1.013040899999999
 20
4.6515909
 42
1.0
 10
0.6813041999999964
 20
4.2478452
 42
1.0
 97
        0
 72
     1
 10
0.6813041999999964
 20
4.2478452
 11
0.6813041999999964
 21
5.996444699999995
 72
     1
 10
0.6813041999999964
 20
5.996444699999995
 11
0.0
 21
5.996444699999995
 72
     1
 10
0.0
 20
5.996444699999995
 11
0.0
 21
2.369248500000002
 72
     1
 10
0.0
 20
2.369248500000002
 11
0.0013334999999975
 21
2.369248500000002
 97
        0
 92
        0
 93
        4
 72
     4
 94
        3
 73
     1
 74
     0
 95
        8
 96
        4
 40
0.6
 40
0.6
 40
0.6
 40
0.6
 40
1.0
 40
1.0
 40
1.0
 40
1.0
 10
2.105634599999996
 20
0.6571487999999959
 42
1.0
 10
1.303515299999997
 20
0.6595490999999981
 42
1.0
 10
0.6786371999999972
 20
1.195616100000002
 42
1.0
 10
0.6857618999999981
 20
2.445143700000005
 42
1.0
 97
        0
 72
     4
 94
        3
 73
     1
 74
     0
 95
        8
 96
        4
 40
0.4
 40
0.4
 40
0.4
 40
0.4
 40
0.6
 40
0.6
 40
0.6
 40
0.6
 10
0.6857618999999981
 20
2.445143700000005
 42
1.0
 10
0.6857618999999981
 20
3.654552
 42
1.0
 10
1.303896299999996
 20
4.230776400000001
 42
1.0
 10
2.105634599999996
 20
4.232338500000002
 42
1.0
 97
        0
 72
     4
 94
        3
 73
     1
 74
     0
 95
        8
 96
        4
 40
0.2
 40
0.2
 40
0.2
 40
0.2
 40
0.4
 40
0.4
 40
0.4
 40
0.4
 10
2.105634599999996
 20
4.232338500000002
 42
1.0
 10
2.907944399999996
 20
4.230776400000001
 42
1.0
 10
3.5216211
 20
3.583914600000002
 42
1.0
 10
3.525659699999998
 20
2.445143700000005
 42
1.0
 97
        0
 72
     4
 94
        3
 73
     1
 74
     0
 95
        8
 96
        4
 40
0.0
 40
0.0
 40
0.0
 40
0.0
 40
0.2
 40
0.2
 40
0.2
 40
0.2
 10
3.525659699999998
 20
2.445143700000005
 42
1.0
 10
3.5216211
 20
1.297190700000003
 42
1.0
 10
2.908211099999997
 20
0.6595490999999981
 42
1.0
 10
2.105634599999996
 20
0.6571487999999959
 42
1.0
 97
        0
 97
        0
 75
     0
 76
     1
 98
        1
 10
0.0
 20
0.0
  0
HATCH
  5
1DF
330
129
100
AcDbEntity
  8
0
  6
Continuous
 62
     7
100
AcDbHatch
 10
0.0
 20
0.0
 30
0.0
210
0.0
220
0.0
230
1.0
  2
SOLID
 70
     1
 71
     0
 91
        2
 92
        0
 93
        9
 72
     4
 94
        3
 73
     1
 74
     0
 95
        8
 96
        4
 40
0.7
 40
0.7
 40
0.7
 40
0.7
 40
0.8
 40
0.8
 40
0.8
 40
0.8
 10
8.920543499999997
 20
2.446172400000005
 42
1.0
 10
8.920543499999997
 20
3.230308499999998
 42
1.0
 10
8.687752499999998
 20
3.8409372
 42
1.0
 10
8.305761899999997
 20
4.2542841
 42
1.0
 97
        0
 72
     4
 94
        3
 73
     1
 74
     0
 95
        8
 96
        4
 40
0.8
 40
0.8
 40
0.8
 40
0.8
 40
1.0
 40
1.0
 40
1.0
 40
1.0
 10
8.305761899999997
 20
4.2542841
 42
1.0
 10
7.924037999999996
 20
4.668545400000001
 42
1.0
 10
7.394867099999997
 20
4.881943499999997
 42
1.0
 10
6.814375499999999
 20
4.881448199999999
 42
1.0
 97
        0
 72
     4
 94
        3
 73
     1
 74
     0
 95
        8
 96
        4
 40
0.0
 40
0.0
 40
0.0
 40
0.0
 40
0.1
 40
0.1
 40
0.1
 40
0.1
 10
6.814375499999999
 20
4.881448199999999
 42
1.0
 10
6.234531599999998
 20
4.881943499999997
 42
1.0
 10
5.705093999999997
 20
4.668545400000001
 42
1.0
 10
5.323103399999995
 20
4.2542841
 42
1.0
 97
        0
 72
     4
 94
        3
 73
     1
 74
     0
 95
        8
 96
        4
 40
0.1
 40
0.1
 40
0.1
 40
0.1
 40
0.2
 40
0.2
 40
0.2
 40
0.2
 10
5.323103399999995
 20
4.2542841
 42
1.0
 10
4.9413795
 20
3.8409372
 42
1.0
 10
4.708740899999999
 20
3.230308499999998
 42
1.0
 10
4.708740899999999
 20
2.446172400000005
 42
1.0
 97
        0
 72
     4
 94
        3
 73
     1
 74
     0
 95
        8
 96
        4
 40
0.2
 40
0.2
 40
0.2
 40
0.2
 40
0.3
 40
0.3
 40
0.3
 40
0.3
 10
4.708740899999999
 20
2.446172400000005
 42
1.0
 10
4.708740899999999
 20
1.661312400000001
 42
1.0
 10
4.9413795
 20
1.051217100000001
 42
1.0
 10
5.323103399999995
 20
0.6374892000000021
 42
1.0
 97
        0
 72
     4
 94
        3
 73
     1
 74
     0
 95
        8
 96
        4
 40
0.3
 40
0.3
 40
0.3
 40
0.3
 40
0.4
 40
0.4
 40
0.4
 40
0.4
 10
5.323103399999995
 20
0.6374892000000021
 42
1.0
 10
5.705093999999997
 20
0.2245233000000013
 42
1.0
 10
6.234531599999998
 20
0.0100964999999981
 42
1.0
 10
6.814375499999999
 20
0.0100964999999981
 42
1.0
 97
        0
 72
     1
 10
6.814375499999999
 20
0.0100964999999981
 11
6.816509099999999
 21
0.0100964999999981
 72
     4
 94
        3
 73
     1
 74
     0
 95
        8
 96
        4
 40
0.5
 40
0.5
 40
0.5
 40
0.5
 40
0.6
 40
0.6
 40
0.6
 40
0.6
 10
6.816509099999999
 20
0.0100964999999981
 42
1.0
 10
7.395705299999992
 20
0.0100964999999981
 42
1.0
 10
7.924037999999996
 20
0.2245233000000013
 42
1.0
 10
8.305761899999997
 20
0.6374892000000021
 42
1.0
 97
        0
 72
     4
 94
        3
 73
     1
 74
     0
 95
        8
 96
        4
 40
0.6
 40
0.6
 40
0.6
 40
0.6
 40
0.7
 40
0.7
 40
0.7
 40
0.7
 10
8.305761899999997
 20
0.6374892000000021
 42
1.0
 10
8.687752499999998
 20
1.051217100000001
 42
1.0
 10
8.920543499999997
 20
1.661312400000001
 42
1.0
 10
8.920543499999997
 20
2.446172400000005
 42
1.0
 97
        0
 97
        0
 92
        0
 93
        4
 72
     4
 94
        3
 73
     1
 74
     0
 95
        8
 96
        4
 40
0.4
 40
0.4
 40
0.4
 40
0.4
 40
0.6
 40
0.6
 40
0.6
 40
0.6
 10
6.814375499999999
 20
4.233405299999998
 42
1.0
 10
7.616380499999997
 20
4.2318051
 42
1.0
 10
8.2307811
 20
3.584981399999998
 42
1.0
 10
8.234400599999997
 20
2.446172400000005
 42
1.0
 97
        0
 72
     4
 94
        3
 73
     1
 74
     0
 95
        8
 96
        4
 40
0.6
 40
0.6
 40
0.6
 40
0.6
 40
1.0
 40
1.0
 40
1.0
 40
1.0
 10
8.234400599999997
 20
2.446172400000005
 42
1.0
 10
8.2307811
 20
1.2982575
 42
1.0
 10
7.616913899999999
 20
0.6605015999999964
 42
1.0
 10
6.814375499999999
 20
0.6582156000000006
 42
1.0
 97
        0
 72
     4
 94
        3
 73
     1
 74
     0
 95
        8
 96
        4
 40
0.0
 40
0.0
 40
0.0
 40
0.0
 40
0.2
 40
0.2
 40
0.2
 40
0.2
 10
6.814375499999999
 20
0.6582156000000006
 42
1.0
 10
6.012484799999998
 20
0.6605015999999964
 42
1.0
 10
5.398655700000001
 20
1.2982575
 42
1.0
 10
5.394502799999997
 20
2.446172400000005
 42
1.0
 97
        0
 72
     4
 94
        3
 73
     1
 74
     0
 95
        8
 96
        4
 40
0.2
 40
0.2
 40
0.2
 40
0.2
 40
0.4
 40
0.4
 40
0.4
 40
0.4
 10
5.394502799999997
 20
2.446172400000005
 42
1.0
 10
5.398122299999999
 20
3.584981399999998
 42
1.0
 10
6.013018199999998
 20
4.2318051
 42
1.0
 10
6.814375499999999
 20
4.233405299999998
 42
1.0
 97
        0
 97
        0
 75
     0
 76
     1
 98
        1
 10
0.0
 20
0.0
  0
HATCH
  5
1E0
330
129
100
AcDbEntity
  8
0
  6
Continuous
 62
     7
100
AcDbHatch
 10
0.0
 20
0.0
 30
0.0
210
0.0
220
0.0
230
1.0
  2
SOLID
 70
     1
 71
     0
 91
        2
 92
        0
 93
       18
 72
     1
 10
16.395954
 20
0.6582156000000008
 11
16.3825047
 21
0.6587489999999948
 72
     4
 94
        3
 73
     1
 74
     0
 95
        8
 96
        4
 40
0.7368421052631579
 40
0.7368421052631579
 40
0.7368421052631579
 40
0.7368421052631579
 40
0.7894736842105263
 40
0.7894736842105263
 40
0.7894736842105263
 40
0.7894736842105263
 10
16.3825047
 20
0.6587489999999946
 42
1.0
 10
15.4196034
 20
0.668693099999998
 42
1.0
 10
15.0089997
 20
1.351749899999996
 42
1.0
 10
15.0027894
 20
2.342235599999998
 42
1.0
 97
        0
 72
     1
 10
15.0027894
 20
2.342235599999998
 11
15.0025227
 21
2.4047196
 72
     1
 10
15.0025227
 20
2.4047196
 11
18.45480179999999
 21
2.4047196
 72
     1
 10
18.45480179999999
 20
2.4047196
 11
18.4526682
 21
2.467165499999997
 72
     4
 94
        3
 73
     1
 74
     0
 95
        8
 96
        4
 40
0.0
 40
0.0
 40
0.0
 40
0.0
 40
0.0526315789473684
 40
0.0526315789473684
 40
0.0526315789473684
 40
0.0526315789473684
 10
18.4526682
 20
2.467165499999996
 42
1.0
 10
18.4101867
 20
3.820477499999995
 42
1.0
 10
17.7229389
 20
4.8843438
 42
1.0
 10
16.3466145
 20
4.881943499999997
 42
1.0
 97
        0
 72
     4
 94
        3
 73
     1
 74
     0
 95
        8
 96
        4
 40
0.0526315789473684
 40
0.0526315789473684
 40
0.0526315789473684
 40
0.0526315789473684
 40
0.1052631578947368
 40
0.1052631578947368
 40
0.1052631578947368
 40
0.1052631578947368
 10
16.3466145
 20
4.881943499999997
 42
1.0
 10
15.7666563
 20
4.881943499999997
 42
1.0
 10
15.2375997
 20
4.668545400000001
 42
1.0
 10
14.8557615
 20
4.2542841
 42
1.0
 97
        0
 72
     4
 94
        3
 73
     1
 74
     0
 95
        8
 96
        4
 40
0.1052631578947368
 40
0.1052631578947368
 40
0.1052631578947368
 40
0.1052631578947368
 40
0.1578947368421053
 40
0.1578947368421053
 40
0.1578947368421053
 40
0.1578947368421053
 10
14.8557615
 20
4.2542841
 42
1.0
 10
14.4740376
 20
3.8409372
 42
1.0
 10
14.2407132
 20
3.230308499999998
 42
1.0
 10
14.2412466
 20
2.445677099999999
 42
1.0
 97
        0
 72
     4
 94
        3
 73
     1
 74
     0
 95
        8
 96
        4
 40
0.1578947368421053
 40
0.1578947368421053
 40
0.1578947368421053
 40
0.1578947368421053
 40
0.2105263157894737
 40
0.2105263157894737
 40
0.2105263157894737
 40
0.2105263157894737
 10
14.2412466
 20
2.445677099999999
 42
1.0
 10
14.2407132
 20
1.661312400000001
 42
1.0
 10
14.4740376
 20
1.051217100000001
 42
1.0
 10
14.8557615
 20
0.6374892000000021
 42
1.0
 97
        0
 72
     4
 94
        3
 73
     1
 74
     0
 95
        8
 96
        4
 40
0.2105263157894737
 40
0.2105263157894737
 40
0.2105263157894737
 40
0.2105263157894737
 40
0.2631578947368421
 40
0.2631578947368421
 40
0.2631578947368421
 40
0.2631578947368421
 10
14.8557615
 20
0.6374892000000021
 42
1.0
 10
15.2374854
 20
0.2245233000000013
 42
1.0
 10
15.7666563
 20
0.0100964999999981
 42
1.0
 10
16.3466145
 20
0.0100964999999981
 42
1.0
 97
        0
 72
     4
 94
        3
 73
     1
 74
     0
 95
        8
 96
        4
 40
0.2631578947368421
 40
0.2631578947368421
 40
0.2631578947368421
 40
0.2631578947368421
 40
0.3157894736842105
 40
0.3157894736842105
 40
0.3157894736842105
 40
0.3157894736842105
 10
16.3466145
 20
0.0100964999999981
 42
1.0
 10
16.3620831
 20
0.0100964999999981
 42
1.0
 10
16.3733607
 20
0.0112776000000009
 42
1.0
 10
16.3823523
 20
0.0112776000000009
 42
1.0
 97
        0
 72
     4
 94
        3
 73
     1
 74
     0
 95
        8
 96
        4
 40
0.3157894736842105
 40
0.3157894736842105
 40
0.3157894736842105
 40
0.3157894736842105
 40
0.3684210526315789
 40
0.3684210526315789
 40
0.3684210526315789
 40
0.3684210526315789
 10
16.3823523
 20
0.0112776000000009
 42
1.0
 10
16.391763
 20
0.0112776000000009
 42
1.0
 10
16.4044122
 20
0.0100964999999981
 42
1.0
 10
16.4193474
 20
0.0100964999999981
 42
1.0
 97
        0
 72
     1
 10
16.4193474
 20
0.0100964999999981
 11
16.4241861
 21
0.0100964999999981
 72
     4
 94
        3
 73
     1
 74
     0
 95
        8
 96
        4
 40
0.4210526315789473
 40
0.4210526315789473
 40
0.4210526315789473
 40
0.4210526315789473
 40
0.4736842105263158
 40
0.4736842105263158
 40
0.4736842105263158
 40
0.4736842105263158
 10
16.4241861
 20
0.0100964999999981
 42
1.0
 10
17.3213268
 20
0.0100964999999981
 42
1.0
 10
18.0916326
 20
0.5309234999999968
 42
1.0
 10
18.3883935
 20
1.494358199999998
 42
1.0
 97
        0
 72
     1
 10
18.3883935
 20
1.494358199999998
 11
18.4123203
 21
1.571510699999997
 72
     1
 10
18.4123203
 20
1.571510699999997
 11
17.6541303
 21
1.571510699999998
 72
     1
 10
17.6541303
 20
1.571510699999998
 11
17.6403
 21
1.531886700000004
 72
     4
 94
        3
 73
     1
 74
     0
 95
        8
 96
        4
 40
0.631578947368421
 40
0.631578947368421
 40
0.631578947368421
 40
0.631578947368421
 40
0.6842105263157895
 40
0.6842105263157895
 40
0.6842105263157895
 40
0.6842105263157895
 10
17.6403
 20
1.531886700000004
 42
1.0
 10
17.4510573
 20
1.000810800000004
 42
1.0
 10
17.0622087
 20
0.669531299999998
 42
1.0
 10
16.395954
 20
0.6582156000000006
 42
1.0
 97
        0
 97
        0
 92
        0
 93
        3
 72
     4
 94
        3
 73
     1
 74
     0
 95
        8
 96
        4
 40
0.0
 40
0.0
 40
0.0
 40
0.0
 40
0.25
 40
0.25
 40
0.25
 40
0.25
 10
15.0119334
 20
2.996412600000001
 42
1.0
 10
15.126462
 20
3.696538199999999
 42
1.0
 10
15.6033216
 20
4.232605200000003
 42
1.0
 10
16.3466145
 20
4.233405299999998
 42
1.0
 97
        0
 72
     4
 94
        3
 73
     1
 74
     0
 95
        8
 96
        4
 40
0.25
 40
0.25
 40
0.25
 40
0.25
 40
0.5
 40
0.5
 40
0.5
 40
0.5
 10
16.3466145
 20
4.233405299999998
 42
1.0
 10
17.2194474
 20
4.2318051
 42
1.0
 10
17.5432593
 20
3.623843400000002
 42
1.0
 10
17.6779428
 20
2.996412600000001
 42
1.0
 97
        0
 72
     1
 10
17.6779428
 20
2.996412600000001
 11
15.0119334
 21
2.996412600000001
 97
        0
 75
     0
 76
     1
 98
        1
 10
0.0
 20
0.0
  0
HATCH
  5
1E1
330
129
100
AcDbEntity
  8
0
  6
Continuous
 62
     7
100
AcDbHatch
 10
0.0
 20
0.0
 30
0.0
210
0.0
220
0.0
230
1.0
  2
SOLID
 70
     1
 71
     0
 91
        2
 92
        0
 93
       14
 72
     1
 10
38.8233285
 20
0.0001523999999989
 11
38.8242429
 21
0.0001523999999989
 72
     4
 94
        3
 73
     1
 74
     0
 95
        8
 96
        4
 40
0.5333333333333333
 40
0.5333333333333333
 40
0.5333333333333333
 40
0.5333333333333333
 40
0.6
 40
0.6
 40
0.6
 40
0.6
 10
38.8242429
 20
0.0001523999999989
 42
1.0
 10
39.3812268
 20
0.0001523999999989
 42
1.0
 10
39.8895951
 20
0.2000249999999981
 42
1.0
 10
40.2673947
 20
0.5821680000000024
 42
1.0
 97
        0
 72
     1
 10
40.26739469999999
 20
0.5821680000000027
 11
40.35719639999999
 21
0.1136142000000007
 72
     1
 10
40.35719639999999
 20
0.1136142000000007
 11
40.9288107
 21
0.1136142000000007
 72
     1
 10
40.9288107
 20
0.1136142000000007
 11
40.9288107
 21
4.1671494
 72
     1
 10
40.9288107
 20
4.1671494
 11
40.9371546
 21
4.1671494
 72
     1
 10
40.9371546
 20
4.1671494
 11
40.9371546
 21
4.758842400000002
 72
     1
 10
40.9371546
 20
4.758842400000002
 11
40.2286851
 21
4.758842400000002
 72
     1
 10
40.2286851
 20
4.758842400000002
 11
40.2286851
 21
4.327283700000003
 72
     4
 94
        3
 73
     1
 74
     0
 95
        8
 96
        4
 40
0.1333333333333333
 40
0.1333333333333333
 40
0.1333333333333333
 40
0.1333333333333333
 40
0.2
 40
0.2
 40
0.2
 40
0.2
 10
40.2286851
 20
4.327283700000003
 42
1.0
 10
39.85515269999999
 20
4.6850808
 42
1.0
 10
39.3620244
 20
4.872266100000004
 42
1.0
 10
38.8233285
 20
4.871732700000001
 42
1.0
 97
        0
 72
     4
 94
        3
 73
     1
 74
     0
 95
        8
 96
        4
 40
0.2
 40
0.2
 40
0.2
 40
0.2
 40
0.2666666666666667
 40
0.2666666666666667
 40
0.2666666666666667
 40
0.2666666666666667
 10
38.8233285
 20
4.871732700000001
 42
1.0
 10
38.2430655
 20
4.872266100000004
 42
1.0
 10
37.71362790000001
 20
4.658563200000002
 42
1.0
 10
37.3317897
 20
4.244301900000001
 42
1.0
 97
        0
 72
     4
 94
        3
 73
     1
 74
     0
 95
        8
 96
        4
 40
0.2666666666666667
 40
0.2666666666666667
 40
0.2666666666666667
 40
0.2666666666666667
 40
0.3333333333333333
 40
0.3333333333333333
 40
0.3333333333333333
 40
0.3333333333333333
 10
37.3317897
 20
4.244301900000001
 42
1.0
 10
36.9504849
 20
3.831107400000003
 42
1.0
 10
36.7172748
 20
3.220516799999998
 42
1.0
 10
36.7172748
 20
2.436380699999996
 42
1.0
 97
        0
 72
     4
 94
        3
 73
     1
 74
     0
 95
        8
 96
        4
 40
0.3333333333333333
 40
0.3333333333333333
 40
0.3333333333333333
 40
0.3333333333333333
 40
0.4
 40
0.4
 40
0.4
 40
0.4
 10
36.7172748
 20
2.436380699999996
 42
1.0
 10
36.7172748
 20
1.651482599999996
 42
1.0
 10
36.9504849
 20
1.041311099999995
 42
1.0
 10
37.3317897
 20
0.6275831999999955
 42
1.0
 97
        0
 72
     4
 94
        3
 73
     1
 74
     0
 95
        8
 96
        4
 40
0.4
 40
0.4
 40
0.4
 40
0.4
 40
0.4666666666666667
 40
0.4666666666666667
 40
0.4666666666666667
 40
0.4666666666666667
 10
37.3317897
 20
0.6275831999999955
 42
1.0
 10
37.71362790000001
 20
0.2146935000000002
 42
1.0
 10
38.2430655
 20
0.0001523999999989
 42
1.0
 10
38.8233285
 20
0.0001523999999989
 42
1.0
 97
        0
 97
        0
 92
        0
 93
        5
 72
     4
 94
        3
 73
     1
 74
     0
 95
        8
 96
        4
 40
0.5
 40
0.5
 40
0.5
 40
0.5
 40
0.6666666666666666
 40
0.6666666666666666
 40
0.6666666666666666
 40
0.6666666666666666
 10
38.8233285
 20
4.223575500000002
 42
1.0
 10
39.6246477
 20
4.2220134
 42
1.0
 10
40.2391626
 20
3.575151600000002
 42
1.0
 10
40.24335360000001
 20
2.436380699999996
 42
1.0
 97
        0
 72
     4
 94
        3
 73
     1
 74
     0
 95
        8
 96
        4
 40
0.6666666666666666
 40
0.6666666666666666
 40
0.6666666666666666
 40
0.6666666666666666
 40
1.0
 40
1.0
 40
1.0
 40
1.0
 10
40.24335360000001
 20
2.436380699999996
 42
1.0
 10
40.2391626
 20
1.288313400000005
 42
1.0
 10
39.6250668
 20
0.6506717999999996
 42
1.0
 10
38.8233285
 20
0.6484239000000003
 42
1.0
 97
        0
 72
     4
 94
        3
 73
     1
 74
     0
 95
        8
 96
        4
 40
0.0
 40
0.0
 40
0.0
 40
0.0
 40
0.1666666666666667
 40
0.1666666666666667
 40
0.1666666666666667
 40
0.1666666666666667
 10
38.8233285
 20
0.6484239000000003
 42
1.0
 10
38.02075199999999
 20
0.6506717999999996
 42
1.0
 10
37.4067705
 20
1.288313400000005
 42
1.0
 10
37.4033034
 20
2.436380699999996
 42
1.0
 97
        0
 72
     1
 10
37.4033034
 20
2.436380699999996
 11
37.40303669999999
 21
2.436380699999996
 72
     4
 94
        3
 73
     1
 74
     0
 95
        8
 96
        4
 40
0.3333333333333333
 40
0.3333333333333333
 40
0.3333333333333333
 40
0.3333333333333333
 40
0.5
 40
0.5
 40
0.5
 40
0.5
 10
37.40303669999999
 20
2.436380699999996
 42
1.0
 10
37.4067705
 20
3.575151600000002
 42
1.0
 10
38.0218569
 20
4.2220134
 42
1.0
 10
38.8233285
 20
4.223575500000002
 42
1.0
 97
        0
 97
        0
 75
     0
 76
     1
 98
        1
 10
0.0
 20
0.0
  0
HATCH
  5
1E2
330
129
100
AcDbEntity
  8
0
  6
Continuous
 62
     7
100
AcDbHatch
 10
0.0
 20
0.0
 30
0.0
210
0.0
220
0.0
230
1.0
  2
SOLID
 70
     1
 71
     0
 91
        1
 92
        0
 93
       18
 72
     4
 94
        3
 73
     1
 74
     0
 95
        8
 96
        4
 40
0.7368421052631579
 40
0.7368421052631579
 40
0.7368421052631579
 40
0.7368421052631579
 40
0.7894736842105263
 40
0.7894736842105263
 40
0.7894736842105263
 40
0.7894736842105263
 10
43.2214401
 20
0.685495199999997
 42
1.0
 10
43.0789461
 20
0.6894194999999964
 42
1.0
 10
43.032045
 20
0.7359015000000025
 42
1.0
 10
42.9925353
 20
0.8309228999999972
 42
1.0
 97
        0
 72
     4
 94
        3
 73
     1
 74
     0
 95
        8
 96
        4
 40
0.7894736842105263
 40
0.7894736842105263
 40
0.7894736842105263
 40
0.7894736842105263
 40
0.8421052631578947
 40
0.8421052631578947
 40
0.8421052631578947
 40
0.8421052631578947
 10
42.9925353
 20
0.8309228999999972
 42
1.0
 10
42.9551592
 20
0.9283826999999996
 42
1.0
 10
42.9508539
 20
1.0802493
 42
1.0
 10
42.9511206
 20
1.249070400000002
 42
1.0
 97
        0
 72
     1
 10
42.9511206
 20
1.249070400000002
 11
42.9511206
 21
4.176941100000001
 72
     1
 10
42.9511206
 20
4.176941100000001
 11
43.7019192
 21
4.176941100000001
 72
     1
 10
43.7019192
 20
4.176941100000001
 11
43.7019192
 21
4.768672199999999
 72
     1
 10
43.7019192
 20
4.768672199999999
 11
42.9511206
 21
4.768672199999999
 72
     1
 10
42.9511206
 20
4.768672199999999
 11
42.9511206
 21
5.997778200000002
 72
     1
 10
42.9511206
 20
5.997778200000002
 11
42.2655111
 21
5.997778200000002
 72
     1
 10
42.2655111
 20
5.997778200000002
 11
42.2655111
 21
4.768672199999999
 72
     1
 10
42.2655111
 20
4.768672199999999
 11
41.714166
 21
4.768672199999999
 72
     1
 10
41.714166
 20
4.768672199999999
 11
41.714166
 21
4.176941100000001
 72
     1
 10
41.714166
 20
4.176941100000001
 11
42.2655111
 21
4.176941100000001
 72
     1
 10
42.2655111
 20
4.176941100000001
 11
42.2655111
 21
0.8719185000000018
 72
     4
 94
        3
 73
     1
 74
     0
 95
        8
 96
        4
 40
0.4736842105263158
 40
0.4736842105263158
 40
0.4736842105263158
 40
0.4736842105263158
 40
0.5263157894736842
 40
0.5263157894736842
 40
0.5263157894736842
 40
0.5263157894736842
 10
42.2655111
 20
0.8719185000000018
 42
1.0
 10
42.26402519999999
 20
0.5637275999999998
 42
1.0
 10
42.36377099999999
 20
0.3610736999999989
 42
1.0
 10
42.5247816
 20
0.2458974000000003
 42
1.0
 97
        0
 72
     4
 94
        3
 73
     1
 74
     0
 95
        8
 96
        4
 40
0.5263157894736842
 40
0.5263157894736842
 40
0.5263157894736842
 40
0.5263157894736842
 40
0.5789473684210527
 40
0.5789473684210527
 40
0.5789473684210527
 40
0.5789473684210527
 10
42.5247816
 20
0.2458974000000003
 42
1.0
 10
42.68514449999999
 20
0.1302639000000008
 42
1.0
 10
42.8903892
 20
0.1021841999999967
 42
1.0
 10
43.0985676
 20
0.1021841999999967
 42
1.0
 97
        0
 72
     4
 94
        3
 73
     1
 74
     0
 95
        8
 96
        4
 40
0.5789473684210527
 40
0.5789473684210527
 40
0.5789473684210527
 40
0.5789473684210527
 40
0.631578947368421
 40
0.631578947368421
 40
0.631578947368421
 40
0.631578947368421
 10
43.0985676
 20
0.1021841999999967
 42
1.0
 10
43.136058
 20
0.1021841999999967
 42
1.0
 10
43.6856886
 20
0.1016507999999985
 42
1.0
 10
43.7019192
 20
0.1016507999999985
 42
1.0
 97
        0
 72
     1
 10
43.7019192
 20
0.1016507999999985
 11
43.7019192
 21
0.685495199999997
 72
     1
 10
43.7019192
 20
0.685495199999997
 11
43.2214401
 21
0.685495199999997
 97
        0
 75
     0
 76
     1
 98
        1
 10
0.0
 20
0.0
  0
HATCH
  5
1E3
330
129
100
AcDbEntity
  8
0
  6
Continuous
 62
     7
100
AcDbHatch
 10
0.0
 20
0.0
 30
0.0
210
0.0
220
0.0
230
1.0
  2
SOLID
 70
     1
 71
     0
 91
        1
 92
        0
 93
       10
 72
     1
 10
47.94263970000001
 20
0.7226045999999986
 11
45.4409175
 21
0.7226045999999986
 72
     1
 10
45.4409175
 20
0.7226045999999986
 11
47.9055684
 21
4.386605399999997
 72
     1
 10
47.9055684
 20
4.386605399999997
 11
47.9055684
 21
4.776177900000004
 72
     1
 10
47.9055684
 20
4.776177900000004
 11
44.5238505
 21
4.776177900000004
 72
     1
 10
44.5238505
 20
4.776177900000004
 11
44.5238505
 21
4.184561100000003
 72
     1
 10
44.5238505
 20
4.184561100000003
 11
46.9404954
 21
4.1849802
 72
     1
 10
46.9404954
 20
4.1849802
 11
44.5238505
 21
0.5978652000000002
 72
     1
 10
44.5238505
 20
0.5978652000000001
 11
44.5238505
 21
0.1309497000000021
 72
     1
 10
44.5238505
 20
0.1309497000000021
 11
47.94263970000001
 21
0.1309497000000021
 72
     1
 10
47.94263970000001
 20
0.1309497000000021
 11
47.94263970000001
 21
0.7226045999999986
 97
        0
 75
     0
 76
     1
 98
        1
 10
0.0
 20
0.0
  0
HATCH
  5
1E4
330
129
100
AcDbEntity
  8
0
  6
Continuous
 62
     7
100
AcDbHatch
 10
0.0
 20
0.0
 30
0.0
210
0.0
220
0.0
230
1.0
  2
SOLID
 70
     1
 71
     0
 91
        1
 92
        0
 93
       13
 72
     1
 10
32.29523639999999
 20
5.997663900000002
 11
32.29523639999999
 21
0.123367799999996
 72
     1
 10
32.29523639999999
 20
0.123367799999996
 11
32.9807316
 21
0.123367799999996
 72
     1
 10
32.9807316
 20
0.123367799999996
 11
32.9807316
 21
2.823400499999998
 72
     4
 94
        3
 73
     1
 74
     0
 95
        8
 96
        4
 40
0.4285714285714285
 40
0.4285714285714285
 40
0.4285714285714285
 40
0.4285714285714285
 40
0.5
 40
0.5
 40
0.5
 40
0.5
 10
32.9807316
 20
2.823400499999998
 42
1.0
 10
32.98541789999999
 20
3.814952999999996
 42
1.0
 10
33.5612232
 20
4.228680899999996
 42
1.0
 10
34.21242839999999
 20
4.233405299999998
 42
1.0
 97
        0
 72
     4
 94
        3
 73
     1
 74
     0
 95
        8
 96
        4
 40
0.5
 40
0.5
 40
0.5
 40
0.5
 40
0.5714285714285714
 40
0.5714285714285714
 40
0.5714285714285714
 40
0.5714285714285714
 10
34.21242839999999
 20
4.233405299999998
 42
1.0
 10
34.909887
 20
4.221860999999997
 42
1.0
 10
35.2432239
 20
3.974553899999997
 42
1.0
 10
35.2545015
 20
3.077794199999997
 42
1.0
 97
        0
 72
     1
 10
35.2545015
 20
3.077794199999997
 11
35.2545015
 21
0.123367799999996
 72
     1
 10
35.2545015
 20
0.123367799999996
 11
35.9412159
 21
0.123367799999996
 72
     1
 10
35.9412159
 20
0.123367799999996
 11
35.9412159
 21
3.247377299999998
 72
     4
 94
        3
 73
     1
 74
     0
 95
        8
 96
        4
 40
0.7857142857142857
 40
0.7857142857142857
 40
0.7857142857142857
 40
0.7857142857142857
 40
0.8571428571428571
 40
0.8571428571428571
 40
0.8571428571428571
 40
0.8571428571428571
 10
35.9412159
 20
3.247377299999998
 42
1.0
 10
35.9412159
 20
3.723322499999998
 42
1.0
 10
35.8182291
 20
4.134154799999997
 42
1.0
 10
35.5453569
 20
4.425200699999999
 42
1.0
 97
        0
 72
     4
 94
        3
 73
     1
 74
     0
 95
        8
 96
        4
 40
0.8571428571428571
 40
0.8571428571428571
 40
0.8571428571428571
 40
0.8571428571428571
 40
1.0
 40
1.0
 40
1.0
 40
1.0
 10
35.5453569
 20
4.425200699999999
 42
1.0
 10
35.2723704
 20
4.716856200000003
 42
1.0
 10
34.854642
 20
4.881943499999997
 42
1.0
 10
34.28771399999999
 20
4.881943499999997
 42
1.0
 97
        0
 72
     4
 94
        3
 73
     1
 74
     0
 95
        8
 96
        4
 40
0.0
 40
0.0
 40
0.0
 40
0.0
 40
0.0714285714285714
 40
0.0714285714285714
 40
0.0714285714285714
 40
0.0714285714285714
 10
34.28771399999999
 20
4.881943499999997
 42
1.0
 10
33.79938629999999
 20
4.8827436
 42
1.0
 10
33.2912085
 20
4.7060739
 42
1.0
 10
32.9807316
 20
4.232605200000003
 42
1.0
 97
        0
 72
     1
 10
32.9807316
 20
4.232605200000003
 11
32.9807316
 21
5.997663900000002
 72
     1
 10
32.9807316
 20
5.997663900000002
 11
32.29523639999999
 21
5.997663900000002
 97
        0
 75
     0
 76
     1
 98
        1
 10
0.0
 20
0.0
  0
HATCH
  5
1E5
330
129
100
AcDbEntity
  8
0
  6
Continuous
 62
     7
100
AcDbHatch
 10
0.0
 20
0.0
 30
0.0
210
0.0
220
0.0
230
1.0
  2
SOLID
 70
     1
 71
     0
 91
        2
 92
        0
 93
       12
 72
     4
 94
        3
 73
     1
 74
     0
 95
        8
 96
        4
 40
0.5384615384615384
 40
0.5384615384615384
 40
0.5384615384615384
 40
0.5384615384615384
 40
0.6153846153846154
 40
0.6153846153846154
 40
0.6153846153846154
 40
0.6153846153846154
 10
13.5869553
 20
1.757362499999995
 42
1.0
 10
13.6296654
 20
1.984400399999998
 42
1.0
 10
13.644753
 20
2.240127599999994
 42
1.0
 10
13.644753
 20
2.370315299999998
 42
1.0
 97
        0
 72
     1
 10
13.644753
 20
2.370315299999998
 11
13.64608649999999
 21
2.370315299999998
 72
     1
 10
13.64608649999999
 20
2.370315299999998
 11
13.64608649999999
 21
5.997663900000002
 72
     1
 10
13.64608649999999
 20
5.997663900000002
 11
12.9646299
 21
5.997663900000002
 72
     1
 10
12.9646299
 20
5.997663900000002
 11
12.9646299
 21
4.2490644
 72
     4
 94
        3
 73
     1
 74
     0
 95
        8
 96
        4
 40
0.0
 40
0.0
 40
0.0
 40
0.0
 40
0.0769230769230769
 40
0.0769230769230769
 40
0.0769230769230769
 40
0.0769230769230769
 10
12.9646299
 20
4.2490644
 42
1.0
 10
12.63289319999999
 20
4.652810099999999
 42
1.0
 10
12.08840609999999
 20
4.881943499999997
 42
1.0
 10
11.5404519
 20
4.881943499999997
 42
1.0
 97
        0
 72
     4
 94
        3
 73
     1
 74
     0
 95
        8
 96
        4
 40
0.0769230769230769
 40
0.0769230769230769
 40
0.0769230769230769
 40
0.0769230769230769
 40
0.1538461538461539
 40
0.1538461538461539
 40
0.1538461538461539
 40
0.1538461538461539
 10
11.5404519
 20
4.881943499999997
 42
1.0
 10
10.9600746
 20
4.881943499999997
 42
1.0
 10
10.43090369999999
 20
4.668545400000001
 42
1.0
 10
10.0491798
 20
4.2542841
 42
1.0
 97
        0
 72
     4
 94
        3
 73
     1
 74
     0
 95
        8
 96
        4
 40
0.1538461538461539
 40
0.1538461538461539
 40
0.1538461538461539
 40
0.1538461538461539
 40
0.2307692307692308
 40
0.2307692307692308
 40
0.2307692307692308
 40
0.2307692307692308
 10
10.0491798
 20
4.2542841
 42
1.0
 10
9.667074899999996
 20
3.8409372
 42
1.0
 10
9.434398199999999
 20
3.230308499999998
 42
1.0
 10
9.434398199999999
 20
2.446172400000005
 42
1.0
 97
        0
 72
     4
 94
        3
 73
     1
 74
     0
 95
        8
 96
        4
 40
0.2307692307692308
 40
0.2307692307692308
 40
0.2307692307692308
 40
0.2307692307692308
 40
0.3076923076923077
 40
0.3076923076923077
 40
0.3076923076923077
 40
0.3076923076923077
 10
9.434398199999999
 20
2.446172400000005
 42
1.0
 10
9.434398199999999
 20
1.661312400000001
 42
1.0
 10
9.667074899999996
 20
1.051217100000001
 42
1.0
 10
10.0491798
 20
0.6374892000000021
 42
1.0
 97
        0
 72
     4
 94
        3
 73
     1
 74
     0
 95
        8
 96
        4
 40
0.3076923076923077
 40
0.3076923076923077
 40
0.3076923076923077
 40
0.3076923076923077
 40
0.3846153846153846
 40
0.3846153846153846
 40
0.3846153846153846
 40
0.3846153846153846
 10
10.0491798
 20
0.6374892000000021
 42
1.0
 10
10.43090369999999
 20
0.2245233000000013
 42
1.0
 10
10.9600746
 20
0.0100964999999981
 42
1.0
 10
11.5404519
 20
0.0100964999999981
 42
1.0
 97
        0
 72
     1
 10
11.5404519
 20
0.0100964999999981
 11
11.5478433
 21
0.0100964999999981
 72
     4
 94
        3
 73
     1
 74
     0
 95
        8
 96
        4
 40
0.4615384615384616
 40
0.4615384615384616
 40
0.4615384615384616
 40
0.4615384615384616
 40
0.5384615384615384
 40
0.5384615384615384
 40
0.5384615384615384
 40
0.5384615384615384
 10
11.5478433
 20
0.0100964999999981
 42
1.0
 10
12.5283468
 20
0.0100964999999981
 42
1.0
 10
13.3689471
 20
0.5975984999999989
 42
1.0
 10
13.5869553
 20
1.757362499999995
 42
1.0
 97
        0
 97
        0
 92
        0
 93
        4
 72
     4
 94
        3
 73
     1
 74
     0
 95
        8
 96
        4
 40
0.4
 40
0.4
 40
0.4
 40
0.4
 40
0.6
 40
0.6
 40
0.6
 40
0.6
 10
11.5404519
 20
4.233405299999998
 42
1.0
 10
12.3420378
 20
4.2318051
 42
1.0
 10
12.9602103
 20
3.6555807
 42
1.0
 10
12.9602103
 20
2.446172400000005
 42
1.0
 97
        0
 72
     4
 94
        3
 73
     1
 74
     0
 95
        8
 96
        4
 40
0.6
 40
0.6
 40
0.6
 40
0.6
 40
1.0
 40
1.0
 40
1.0
 40
1.0
 10
12.9602103
 20
2.446172400000005
 42
1.0
 10
12.967335
 20
1.196644800000002
 42
1.0
 10
12.3424569
 20
0.6605015999999964
 42
1.0
 10
11.5404519
 20
0.6582156000000006
 42
1.0
 97
        0
 72
     4
 94
        3
 73
     1
 74
     0
 95
        8
 96
        4
 40
0.0
 40
0.0
 40
0.0
 40
0.0
 40
0.2
 40
0.2
 40
0.2
 40
0.2
 10
11.5404519
 20
0.6582156000000006
 42
1.0
 10
10.7377611
 20
0.6605015999999964
 42
1.0
 10
10.12419869999999
 20
1.2982575
 42
1.0
 10
10.1202744
 20
2.446172400000005
 42
1.0
 97
        0
 72
     4
 94
        3
 73
     1
 74
     0
 95
        8
 96
        4
 40
0.2
 40
0.2
 40
0.2
 40
0.2
 40
0.4
 40
0.4
 40
0.4
 40
0.4
 10
10.1202744
 20
2.446172400000005
 42
1.0
 10
10.12419869999999
 20
3.584981399999998
 42
1.0
 10
10.7382945
 20
4.2318051
 42
1.0
 10
11.5404519
 20
4.233405299999998
 42
1.0
 97
        0
 97
        0
 75
     0
 76
     1
 98
        1
 10
0.0
 20
0.0
  0
HATCH
  5
1E6
330
129
100
AcDbEntity
  8
0
  6
Continuous
 62
     7
100
AcDbHatch
 10
0.0
 20
0.0
 30
0.0
210
0.0
220
0.0
230
1.0
  2
SOLID
 70
     1
 71
     0
 91
        1
 92
        0
 93
       13
 72
     4
 94
        3
 73
     1
 74
     0
 95
        8
 96
        4
 40
0.8571428571428571
 40
0.8571428571428571
 40
0.8571428571428571
 40
0.8571428571428571
 40
1.0
 40
1.0
 40
1.0
 40
1.0
 10
22.4795334
 20
4.425200699999999
 42
1.0
 10
22.206966
 20
4.7173515
 42
1.0
 10
21.7885518
 20
4.882248299999995
 42
1.0
 10
21.2217381
 20
4.881448199999999
 42
1.0
 97
        0
 72
     4
 94
        3
 73
     1
 74
     0
 95
        8
 96
        4
 40
0.0
 40
0.0
 40
0.0
 40
0.0
 40
0.0714285714285714
 40
0.0714285714285714
 40
0.0714285714285714
 40
0.0714285714285714
 10
21.2217381
 20
4.881448199999999
 42
1.0
 10
20.7334485
 20
4.8827436
 42
1.0
 10
20.2260327
 20
4.706607300000002
 42
1.0
 10
19.91487
 20
4.2401109
 42
1.0
 97
        0
 72
     1
 10
19.91487
 20
4.2401109
 11
19.91487
 21
4.768557900000001
 72
     1
 10
19.91487
 20
4.768557900000001
 11
19.2292605
 21
4.768557900000001
 72
     1
 10
19.2292605
 20
4.768557900000001
 11
19.2292605
 21
0.123367799999996
 72
     1
 10
19.2292605
 20
0.123367799999996
 11
19.91487
 21
0.123367799999996
 72
     1
 10
19.91487
 20
0.123367799999996
 11
19.91487
 21
2.822905200000001
 72
     4
 94
        3
 73
     1
 74
     0
 95
        8
 96
        4
 40
0.4285714285714285
 40
0.4285714285714285
 40
0.4285714285714285
 40
0.4285714285714285
 40
0.5
 40
0.5
 40
0.5
 40
0.5
 10
19.91487
 20
2.822905200000001
 42
1.0
 10
19.9197087
 20
3.814952999999996
 42
1.0
 10
20.4953997
 20
4.228680899999996
 42
1.0
 10
21.1464525
 20
4.233405299999998
 42
1.0
 97
        0
 72
     4
 94
        3
 73
     1
 74
     0
 95
        8
 96
        4
 40
0.5
 40
0.5
 40
0.5
 40
0.5
 40
0.5714285714285714
 40
0.5714285714285714
 40
0.5714285714285714
 40
0.5714285714285714
 10
21.1464525
 20
4.233405299999998
 42
1.0
 10
21.8441778
 20
4.222127699999998
 42
1.0
 10
22.1777814
 20
3.974553899999997
 42
1.0
 10
22.1893257
 20
3.077527499999996
 42
1.0
 97
        0
 72
     1
 10
22.1893257
 20
3.077527499999996
 11
22.1893257
 21
0.123367799999996
 72
     1
 10
22.1893257
 20
0.123367799999996
 11
22.8750876
 21
0.123367799999996
 72
     1
 10
22.8750876
 20
0.123367799999996
 11
22.8750876
 21
3.247377299999998
 72
     4
 94
        3
 73
     1
 74
     0
 95
        8
 96
        4
 40
0.7857142857142857
 40
0.7857142857142857
 40
0.7857142857142857
 40
0.7857142857142857
 40
0.8571428571428571
 40
0.8571428571428571
 40
0.8571428571428571
 40
0.8571428571428571
 10
22.8750876
 20
3.247377299999998
 42
1.0
 10
22.8750876
 20
3.723322499999998
 42
1.0
 10
22.7522532
 20
4.134154799999997
 42
1.0
 10
22.4795334
 20
4.425200699999999
 42
1.0
 97
        0
 97
        0
 75
     0
 76
     1
 98
        1
 10
0.0
 20
0.0
  0
HATCH
  5
1E7
330
129
100
AcDbEntity
  8
0
  6
Continuous
 62
     7
100
AcDbHatch
 10
0.0
 20
0.0
 30
0.0
210
0.0
220
0.0
230
1.0
  2
SOLID
 70
     1
 71
     0
 91
        1
 92
        0
 93
       24
 72
     4
 94
        3
 73
     1
 74
     0
 95
        8
 96
        4
 40
0.92
 40
0.92
 40
0.92
 40
0.92
 40
1.0
 40
1.0
 40
1.0
 40
1.0
 10
27.034617
 20
1.433093399999996
 42
1.0
 10
27.0370554
 20
2.382926399999996
 42
1.0
 10
26.3174226
 20
2.642273099999995
 42
1.0
 10
25.6488819
 20
2.791396499999999
 42
1.0
 97
        0
 72
     4
 94
        3
 73
     1
 74
     0
 95
        8
 96
        4
 40
0.0
 40
0.0
 40
0.0
 40
0.0
 40
0.04
 40
0.04
 40
0.04
 40
0.04
 10
25.6488819
 20
2.791396499999999
 42
1.0
 10
25.312878
 20
2.868548999999998
 42
1.0
 10
24.9795411
 20
2.926080000000001
 42
1.0
 10
24.73962539999999
 20
3.032645699999998
 42
1.0
 97
        0
 72
     4
 94
        3
 73
     1
 74
     0
 95
        8
 96
        4
 40
0.04
 40
0.04
 40
0.04
 40
0.04
 40
0.08
 40
0.08
 40
0.08
 40
0.08
 10
24.73962539999999
 20
3.032645699999998
 42
1.0
 10
24.4982238
 20
3.142107000000002
 42
1.0
 10
24.3593493
 20
3.278619299999999
 42
1.0
 10
24.3570633
 20
3.544824000000002
 42
1.0
 97
        0
 72
     4
 94
        3
 73
     1
 74
     0
 95
        8
 96
        4
 40
0.08
 40
0.08
 40
0.08
 40
0.08
 40
0.12
 40
0.12
 40
0.12
 40
0.12
 10
24.3570633
 20
3.544824000000002
 42
1.0
 10
24.366474
 20
3.956456399999997
 42
1.0
 10
24.5171595
 20
4.237062899999997
 42
1.0
 10
25.2667389
 20
4.273181700000003
 42
1.0
 97
        0
 72
     4
 94
        3
 73
     1
 74
     0
 95
        8
 96
        4
 40
0.12
 40
0.12
 40
0.12
 40
0.12
 40
0.16
 40
0.16
 40
0.16
 40
0.16
 10
25.2667389
 20
4.273181700000003
 42
1.0
 10
25.7064129
 20
4.269790799999998
 42
1.0
 10
25.99833509999999
 20
4.084548599999996
 42
1.0
 10
26.1839583
 20
3.7729287
 42
1.0
 97
        0
 72
     1
 10
26.1839583
 20
3.7729287
 11
26.2014462
 21
3.743553599999999
 72
     1
 10
26.2014462
 20
3.743553599999999
 11
26.8831695
 21
3.743553599999999
 72
     1
 10
26.8831695
 20
3.743553599999999
 11
26.8459077
 21
3.827525999999998
 72
     4
 94
        3
 73
     1
 74
     0
 95
        8
 96
        4
 40
0.28
 40
0.28
 40
0.28
 40
0.28
 40
0.32
 40
0.32
 40
0.32
 40
0.32
 10
26.8459077
 20
3.827525999999998
 42
1.0
 10
26.5467465
 20
4.5057822
 42
1.0
 10
25.962864
 20
4.870132500000002
 42
1.0
 10
25.2976761
 20
4.869103800000002
 42
1.0
 97
        0
 72
     4
 94
        3
 73
     1
 74
     0
 95
        8
 96
        4
 40
0.32
 40
0.32
 40
0.32
 40
0.32
 40
0.36
 40
0.36
 40
0.36
 40
0.36
 10
25.2976761
 20
4.869103800000002
 42
1.0
 10
25.28072159999999
 20
4.869103800000002
 42
1.0
 10
25.2667389
 20
4.867808400000001
 42
1.0
 10
25.2545088
 20
4.867808400000001
 42
1.0
 97
        0
 72
     1
 10
25.2545088
 20
4.867808400000001
 11
25.1957967
 21
4.867274999999999
 72
     1
 10
25.1957967
 20
4.867274999999999
 11
25.1957967
 21
4.865941500000002
 72
     4
 94
        3
 73
     1
 74
     0
 95
        8
 96
        4
 40
0.44
 40
0.44
 40
0.44
 40
0.44
 40
0.48
 40
0.48
 40
0.48
 40
0.48
 10
25.1957967
 20
4.865941500000002
 42
1.0
 10
24.21502649999999
 20
4.8373284
 42
1.0
 10
23.6691678
 20
4.231309800000003
 42
1.0
 10
23.67133949999999
 20
3.563721599999997
 42
1.0
 97
        0
 72
     4
 94
        3
 73
     1
 74
     0
 95
        8
 96
        4
 40
0.48
 40
0.48
 40
0.48
 40
0.48
 40
0.52
 40
0.52
 40
0.52
 40
0.52
 10
23.67133949999999
 20
3.563721599999997
 42
1.0
 10
23.6689011
 20
2.621013300000002
 42
1.0
 10
24.39268679999999
 20
2.407081799999997
 42
1.0
 10
25.0581414
 20
2.279484900000003
 42
1.0
 97
        0
 72
     4
 94
        3
 73
     1
 74
     0
 95
        8
 96
        4
 40
0.52
 40
0.52
 40
0.52
 40
0.52
 40
0.56
 40
0.56
 40
0.56
 40
0.56
 10
25.0581414
 20
2.279484900000003
 42
1.0
 10
25.3939167
 20
2.211743099999997
 42
1.0
 10
25.7260344
 20
2.158212599999996
 42
1.0
 10
25.9643499
 20
2.043226800000001
 42
1.0
 97
        0
 72
     4
 94
        3
 73
     1
 74
     0
 95
        8
 96
        4
 40
0.56
 40
0.56
 40
0.56
 40
0.56
 40
0.6
 40
0.6
 40
0.6
 40
0.6
 10
25.9643499
 20
2.043226800000001
 42
1.0
 10
26.2027797
 20
1.925345399999998
 42
1.0
 10
26.345388
 20
1.767039899999998
 42
1.0
 10
26.3484741
 20
1.452029100000005
 42
1.0
 97
        0
 72
     4
 94
        3
 73
     1
 74
     0
 95
        8
 96
        4
 40
0.6
 40
0.6
 40
0.6
 40
0.6
 40
0.64
 40
0.64
 40
0.64
 40
0.64
 10
26.3484741
 20
1.452029100000005
 42
1.0
 10
26.3482074
 20
0.7650861000000038
 42
1.0
 10
25.7924427
 20
0.6081141000000012
 42
1.0
 10
25.3281942
 20
0.5886069000000023
 42
1.0
 97
        0
 72
     4
 94
        3
 73
     1
 74
     0
 95
        8
 96
        4
 40
0.64
 40
0.64
 40
0.64
 40
0.64
 40
0.68
 40
0.68
 40
0.68
 40
0.68
 10
25.3281942
 20
0.5886069000000023
 42
1.0
 10
24.9371739
 20
0.5970650999999966
 42
1.0
 10
24.3777897
 20
0.7282052999999984
 42
1.0
 10
24.191214
 20
1.370990400000002
 42
1.0
 97
        0
 72
     1
 10
24.191214
 20
1.370990400000002
 11
24.17925059999999
 21
1.414805399999997
 72
     1
 10
24.17925059999999
 20
1.414805399999997
 11
23.4820968
 21
1.414805399999997
 72
     1
 10
23.4820968
 20
1.414805399999997
 11
23.5064046
 21
1.337119500000003
 72
     4
 94
        3
 73
     1
 74
     0
 95
        8
 96
        4
 40
0.8
 40
0.8
 40
0.8
 40
0.8
 40
0.84
 40
0.84
 40
0.84
 40
0.84
 10
23.5064046
 20
1.337119500000003
 42
1.0
 10
23.7683802
 20
0.4924805999999976
 42
1.0
 10
24.54161969999999
 20
0.0244601999999983
 42
1.0
 10
25.2792738
 20
0.0
 42
1.0
 97
        0
 72
     1
 10
25.2792738
 20
0.0
 11
25.3310136
 21
0.0005714999999989
 72
     4
 94
        3
 73
     1
 74
     0
 95
        8
 96
        4
 40
0.88
 40
0.88
 40
0.88
 40
0.88
 40
0.92
 40
0.92
 40
0.92
 40
0.92
 10
25.3310136
 20
0.0005714999999989
 42
1.0
 10
26.4144633
 20
0.0376427999999998
 42
1.0
 10
27.036522
 20
0.6775703999999966
 42
1.0
 10
27.034617
 20
1.433093399999996
 42
1.0
 97
        0
 97
        0
 75
     0
 76
     1
 98
        1
 10
0.0
 20
0.0
  0
HATCH
  5
1E8
330
129
100
AcDbEntity
  8
0
  6
Continuous
 62
     7
100
AcDbHatch
 10
0.0
 20
0.0
 30
0.0
210
0.0
220
0.0
230
1.0
  2
SOLID
 70
     1
 71
     0
 91
        1
 92
        0
 93
       15
 72
     4
 94
        3
 73
     1
 74
     0
 95
        8
 96
        4
 40
0.6875
 40
0.6875
 40
0.6875
 40
0.6875
 40
0.75
 40
0.75
 40
0.75
 40
0.75
 10
29.612844
 20
0.0100964999999981
 42
1.0
 10
30.60089129999999
 20
0.0100964999999981
 42
1.0
 10
31.22801729999999
 20
0.450837300000001
 42
1.0
 10
31.56204
 20
1.311325799999999
 42
1.0
 97
        0
 72
     1
 10
31.56204
 20
1.311325799999999
 11
31.59442499999999
 21
1.393278900000003
 72
     1
 10
31.59442499999999
 20
1.393278900000003
 11
30.8433597
 21
1.393545600000004
 72
     1
 10
30.8433597
 20
1.393545600000004
 11
30.8276244
 21
1.359408000000004
 72
     4
 94
        3
 73
     1
 74
     0
 95
        8
 96
        4
 40
0.0
 40
0.0
 40
0.0
 40
0.0
 40
0.0625
 40
0.0625
 40
0.0625
 40
0.0625
 10
30.8276244
 20
1.359408000000004
 42
1.0
 10
30.6352956
 20
0.9622154999999939
 42
1.0
 10
30.2848899
 20
0.6605015999999964
 42
1.0
 10
29.6000805
 20
0.6582156000000006
 42
1.0
 97
        0
 72
     4
 94
        3
 73
     1
 74
     0
 95
        8
 96
        4
 40
0.0625
 40
0.0625
 40
0.0625
 40
0.0625
 40
0.125
 40
0.125
 40
0.125
 40
0.125
 10
29.6000805
 20
0.6582156000000006
 42
1.0
 10
28.9179762
 20
0.6601205999999971
 42
1.0
 10
28.1824938
 20
1.227048600000002
 42
1.0
 10
28.18032209999999
 20
2.446172400000005
 42
1.0
 97
        0
 72
     4
 94
        3
 73
     1
 74
     0
 95
        8
 96
        4
 40
0.125
 40
0.125
 40
0.125
 40
0.125
 40
0.1875
 40
0.1875
 40
0.1875
 40
0.1875
 10
28.18032209999999
 20
2.446172400000005
 42
1.0
 10
28.18302719999999
 20
3.6645342
 42
1.0
 10
28.9156902
 20
4.230509699999999
 42
1.0
 10
29.6565447
 20
4.233405299999998
 42
1.0
 97
        0
 72
     4
 94
        3
 73
     1
 74
     0
 95
        8
 96
        4
 40
0.1875
 40
0.1875
 40
0.1875
 40
0.1875
 40
0.25
 40
0.25
 40
0.25
 40
0.25
 10
29.6565447
 20
4.233405299999998
 42
1.0
 10
30.1868967
 20
4.2318051
 42
1.0
 10
30.5905281
 20
4.075899900000002
 42
1.0
 10
30.7692933
 20
3.701262600000002
 42
1.0
 97
        0
 72
     1
 10
30.7692933
 20
3.701262600000002
 11
30.7850286
 21
3.666629700000005
 72
     1
 10
30.7850286
 20
3.666629700000005
 11
31.5281691
 21
3.6616386
 72
     1
 10
31.5281691
 20
3.6616386
 11
31.4910597
 21
3.746411100000003
 72
     4
 94
        3
 73
     1
 74
     0
 95
        8
 96
        4
 40
0.4375
 40
0.4375
 40
0.4375
 40
0.4375
 40
0.5
 40
0.5
 40
0.5
 40
0.5
 10
31.4910597
 20
3.746411100000003
 42
1.0
 10
31.0765698
 20
4.699520700000001
 42
1.0
 10
30.3072165
 20
4.884839099999996
 42
1.0
 10
29.7316779
 20
4.881448199999999
 42
1.0
 97
        0
 72
     4
 94
        3
 73
     1
 74
     0
 95
        8
 96
        4
 40
0.5
 40
0.5
 40
0.5
 40
0.5
 40
0.5625
 40
0.5625
 40
0.5625
 40
0.5625
 10
29.7316779
 20
4.881448199999999
 42
1.0
 10
28.3977969
 20
4.884839099999996
 42
1.0
 10
27.5088096
 20
3.8931723
 42
1.0
 10
27.49429349999999
 20
2.446439099999998
 42
1.0
 97
        0
 72
     4
 94
        3
 73
     1
 74
     0
 95
        8
 96
        4
 40
0.5625
 40
0.5625
 40
0.5625
 40
0.5625
 40
0.625
 40
0.625
 40
0.625
 40
0.625
 10
27.49429349999999
 20
2.446439099999998
 42
1.0
 10
27.5105622
 20
0.9973436999999976
 42
1.0
 10
28.4315535
 20
0.0090297000000017
 42
1.0
 10
29.6000805
 20
0.0100964999999981
 42
1.0
 97
        0
 72
     1
 10
29.6000805
 20
0.0100964999999981
 11
29.612844
 21
0.0100964999999981
 97
        0
 75
     0
 76
     1
 98
        1
 10
0.0
 20
0.0
  0
ENDBLK
  5
12B
330
129
100
AcDbEntity
  8
0
100
AcDbBlockEnd
  0
BLOCK
  5
1FC
330
1FB
100
AcDbEntity
  8
0
100
AcDbBlockBegin
  2
_None
 70
     0
 10
0.0
 20
0.0
 30
0.0
  3
_None
  1

  0
ENDBLK
  5
1FD
330
1FB
100
AcDbEntity
  8
0
100
AcDbBlockEnd
  0
BLOCK
  5
1FF
330
1FE
100
AcDbEntity
  8
0
100
AcDbBlockBegin
  2
_D
 70
     0
 10
0.0
 20
0.0
 30
0.0
  3
_D
  1

  0
SOLID
  5
201
330
1FE
100
AcDbEntity
  8
0
  6
SLD-Durchgehend
 62
     7
370
    18
100
AcDbTrace
 10
127.8669635691
 20
224.3566815689
 30
0.0
 11
131.1544300359
 21
223.7618435828
 31
0.0
 12
131.181203698
 22
224.7774907514
 32
0.0
 13
131.181203698
 23
224.7774907514
 33
0.0
  0
LINE
  5
202
330
1FE
100
AcDbEntity
  8
0
  6
SLD-Durchgehend
 62
     7
370
     0
100
AcDbLine
 10
127.8669635691
 20
224.3566815689
 30
0.0
 11
140.136579946
 21
224.0332399515
 31
0.0
  0
LINE
  5
203
330
1FE
100
AcDbEntity
  8
0
  6
SLD-Durchgehend
 62
     7
370
     0
100
AcDbLine
 10
127.8669635691
 20
224.3566815689
 30
0.0
 11
85.381722758
 21
225.4766428279
 31
0.0
  0
MTEXT
  5
204
330
1FE
100
AcDbEntity
  8
0
  6
SLD-Durchgehend
 62
     7
370
    18
100
AcDbMText
 10
129.8070040811
 20
228.764245181
 30
0.0
 40
3.5
 41
0.0
 46
0.0
 71
     1
 72
     1
  1
%%c
  7
SLDTEXTSTYLE0
 11
0.9996527249673948
 21
-0.02635202962320407
 31
0.0
 73
     1
 44
1.0
  0
MTEXT
  5
205
330
1FE
100
AcDbEntity
  8
0
  6
SLD-Durchgehend
 62
     7
370
    18
100
AcDbMText
 10
135.0850175104
 20
228.6786012494
 30
0.0
 40
3.5
 41
0.0
 46
0.0
 71
     1
 72
     1
  1
43
  7
SLDTEXTSTYLE0
 11
0.9996527249673948
 21
-0.02635202962320407
 31
0.0
 73
     1
 44
1.0
  0
ENDBLK
  5
200
330
1FE
100
AcDbEntity
  8
0
100
AcDbBlockEnd
  0
BLOCK
  5
253
330
252
100
AcDbEntity
  8
0
100
AcDbBlockBegin
  2
_D_1
 70
     0
 10
0.0
 20
0.0
 30
0.0
  3
_D_1
  1

  0
SOLID
  5
255
330
252
100
AcDbEntity
  8
0
  6
SLD-Durchgehend
 62
     7
370
    18
100
AcDbTrace
 10
124.5383275191
 20
141.0550938338
 30
0.0
 11
121.2363275191
 21
141.5630938338
 31
0.0
 12
121.2363275191
 22
140.5470938338
 32
0.0
 13
121.2363275191
 23
140.5470938338
 33
0.0
  0
SOLID
  5
256
330
252
100
AcDbEntity
  8
0
  6
SLD-Durchgehend
 62
     7
370
    18
100
AcDbTrace
 10
102.2296704702
 20
141.0550938338
 30
0.0
 11
105.5316704702
 21
140.5470938338
 31
0.0
 12
105.5316704702
 22
141.5630938338
 32
0.0
 13
105.5316704702
 23
141.5630938338
 33
0.0
  0
LINE
  5
257
330
252
100
AcDbEntity
  8
0
  6
SLD-Durchgehend
 62
     7
370
     0
100
AcDbLine
 10
124.5383275191
 20
131.7488337802
 30
0.0
 11
124.5383275191
 21
142.0550938338
 31
0.0
  0
LINE
  5
258
330
252
100
AcDbEntity
  8
0
  6
SLD-Durchgehend
 62
     7
370
     0
100
AcDbLine
 10
102.2296704702
 20
131.7488337802
 30
0.0
 11
102.2296704702
 21
142.0550938338
 31
0.0
  0
LINE
  5
259
330
252
100
AcDbEntity
  8
0
  6
SLD-Durchgehend
 62
     7
370
     0
100
AcDbLine
 10
124.5383275191
 20
141.0550938338
 30
0.0
 11
102.2296704702
 21
141.0550938338
 31
0.0
  0
MTEXT
  5
25A
330
252
100
AcDbEntity
  8
0
  6
SLD-Durchgehend
 62
     7
370
    18
100
AcDbMText
 10
110.2648807636
 20
145.5257967842
 30
0.0
 40
3.5
 41
0.0
 46
0.0
 71
     1
 72
     1
  1
22
  7
SLDTEXTSTYLE0
 73
     1
 44
1.0
  0
ENDBLK
  5
254
330
252
100
AcDbEntity
  8
0
100
AcDbBlockEnd
  0
BLOCK
  5
25E
330
25D
100
AcDbEntity
  8
0
100
AcDbBlockBegin
  2
_D_2
 70
     0
 10
0.0
 20
0.0
 30
0.0
  3
_D_2
  1

  0
SOLID
  5
260
330
25D
100
AcDbEntity
  8
0
  6
SLD-Durchgehend
 62
     7
370
    18
100
AcDbTrace
 10
89.695251627
 20
119.899847334
 30
0.0
 11
87.3167784777
 21
117.5537583591
 31
0.0
 12
88.1319484887
 22
116.9473312379
 32
0.0
 13
88.1319484887
 23
116.9473312379
 33
0.0
  0
LINE
  5
261
330
25D
100
AcDbEntity
  8
0
  6
SLD-Durchgehend
 62
     7
370
     0
100
AcDbLine
 10
89.695251627
 20
119.899847334
 30
0.0
 11
81.5686465459
 21
108.9759217353
 31
0.0
  0
LINE
  5
262
330
25D
100
AcDbEntity
  8
0
  6
SLD-Durchgehend
 62
     7
370
     0
100
AcDbLine
 10
89.695251627
 20
119.899847334
 30
0.0
 11
102.2296704702
 21
136.7488337802
 31
0.0
  0
MTEXT
  5
263
330
25D
100
AcDbEntity
  8
0
  6
SLD-Durchgehend
 62
     7
370
    18
100
AcDbMText
 10
77.9907046196
 20
111.6376499553
 30
0.0
 40
3.5
 41
0.0
 46
0.0
 71
     1
 72
     1
  1
R21
  7
SLDTEXTSTYLE0
 11
0.5968770877712317
 21
0.8023326879130211
 31
0.0
 73
     1
 44
1.0
  0
ENDBLK
  5
25F
330
25D
100
AcDbEntity
  8
0
100
AcDbBlockEnd
  0
BLOCK
  5
267
330
266
100
AcDbEntity
  8
0
100
AcDbBlockBegin
  2
_D_3
 70
     0
 10
0.0
 20
0.0
 30
0.0
  3
_D_3
  1

  0
SOLID
  5
269
330
266
100
AcDbEntity
  8
0
  6
SLD-Durchgehend
 62
     7
370
    18
100
AcDbTrace
 10
75.5770648605
 20
125.4023966411
 30
0.0
 11
74.3660057657
 21
128.5160125244
 31
0.0
 12
73.4861239554
 22
128.0080125244
 32
0.0
 13
73.4861239554
 23
128.0080125244
 33
0.0
  0
SOLID
  5
26A
330
266
100
AcDbEntity
  8
0
  6
SLD-Durchgehend
 62
     7
370
    18
100
AcDbTrace
 10
77.3270648605
 20
122.3713077279
 30
0.0
 11
78.5381239554
 21
119.2576918446
 31
0.0
 12
79.4180057657
 22
119.7656918446
 32
0.0
 13
79.4180057657
 23
119.7656918446
 33
0.0
  0
LINE
  5
26B
330
266
100
AcDbEntity
  8
0
  6
SLD-Durchgehend
 62
     7
370
     0
100
AcDbLine
 10
81.427111587
 20
128.7799226934
 30
0.0
 11
74.7110394568
 21
124.9023966411
 31
0.0
  0
LINE
  5
26C
330
266
100
AcDbEntity
  8
0
  6
SLD-Durchgehend
 62
     7
370
     0
100
AcDbLine
 10
83.177111587
 20
125.7488337802
 30
0.0
 11
76.4610394568
 21
121.8713077279
 31
0.0
  0
LINE
  5
26D
330
266
100
AcDbEntity
  8
0
  6
SLD-Durchgehend
 62
     7
370
     0
100
AcDbLine
 10
75.5770648605
 20
125.4023966411
 30
0.0
 11
72.4020648605
 21
130.9016579552
 31
0.0
  0
LINE
  5
26E
330
266
100
AcDbEntity
  8
0
  6
SLD-Durchgehend
 62
     7
370
     0
100
AcDbLine
 10
75.5770648605
 20
125.4023966411
 30
0.0
 11
77.3270648605
 21
122.3713077279
 31
0.0
  0
LINE
  5
26F
330
266
100
AcDbEntity
  8
0
  6
SLD-Durchgehend
 62
     7
370
     0
100
AcDbLine
 10
77.3270648605
 20
122.3713077279
 30
0.0
 11
80.5020648605
 21
116.8720464139
 31
0.0
  0
MTEXT
  5
270
330
266
100
AcDbEntity
  8
0
  6
SLD-Durchgehend
 62
     7
370
    18
100
AcDbMText
 10
78.9870375857
 20
128.4375565295
 30
0.0
 40
3.5
 41
0.0
 46
0.0
 71
     1
 72
     1
  1
4
  7
SLDTEXTSTYLE0
 11
0.5000000000000101
 21
-0.8660254037844328
 31
0.0
 73
     1
 44
1.0
  0
ENDBLK
  5
268
330
266
100
AcDbEntity
  8
0
100
AcDbBlockEnd
  0
BLOCK
  5
273
330
272
100
AcDbEntity
  8
0
100
AcDbBlockBegin
  2
_D_4
 70
     0
 10
0.0
 20
0.0
 30
0.0
  3
_D_4
  1

  0
SOLID
  5
275
330
272
100
AcDbEntity
  8
0
  6
SLD-Durchgehend
 62
     7
370
    18
100
AcDbTrace
 10
89.2513195388
 20
146.2279969918
 30
0.0
 11
92.3649354221
 21
147.4390560867
 31
0.0
 12
91.8569354221
 22
148.3189378969
 32
0.0
 13
91.8569354221
 23
148.3189378969
 33
0.0
  0
SOLID
  5
276
330
272
100
AcDbEntity
  8
0
  6
SLD-Durchgehend
 62
     7
370
    18
100
AcDbTrace
 10
77.1269638858
 20
139.2279969918
 30
0.0
 11
74.0133480025
 21
138.0169378969
 31
0.0
 12
74.5213480025
 22
137.1370560867
 32
0.0
 13
74.5213480025
 23
137.1370560867
 33
0.0
  0
LINE
  5
277
330
272
100
AcDbEntity
  8
0
  6
SLD-Durchgehend
 62
     7
370
     0
100
AcDbLine
 10
94.1005053456
 20
137.8289607991
 30
0.0
 11
88.7513195388
 21
147.0940223956
 31
0.0
  0
LINE
  5
278
330
272
100
AcDbEntity
  8
0
  6
SLD-Durchgehend
 62
     7
370
     0
100
AcDbLine
 10
81.9761496926
 20
130.8289607991
 30
0.0
 11
76.6269638858
 21
140.0940223956
 31
0.0
  0
LINE
  5
279
330
272
100
AcDbEntity
  8
0
  6
SLD-Durchgehend
 62
     7
370
     0
100
AcDbLine
 10
89.2513195388
 20
146.2279969918
 30
0.0
 11
94.7505808529
 21
149.4029969918
 31
0.0
  0
LINE
  5
27A
330
272
100
AcDbEntity
  8
0
  6
SLD-Durchgehend
 62
     7
370
     0
100
AcDbLine
 10
89.2513195388
 20
146.2279969918
 30
0.0
 11
77.1269638858
 21
139.2279969918
 31
0.0
  0
LINE
  5
27B
330
272
100
AcDbEntity
  8
0
  6
SLD-Durchgehend
 62
     7
370
     0
100
AcDbLine
 10
77.1269638858
 20
139.2279969918
 30
0.0
 11
71.6277025718
 21
136.0529969918
 31
0.0
  0
MTEXT
  5
27C
330
272
100
AcDbEntity
  8
0
  6
SLD-Durchgehend
 62
     7
370
    18
100
AcDbMText
 10
73.0620607708
 20
142.0434473894
 30
0.0
 40
3.5
 41
0.0
 46
0.0
 71
     1
 72
     1
  1
%%c
  7
SLDTEXTSTYLE0
 11
0.8660254037844367
 21
0.5000000000000033
 31
0.0
 73
     1
 44
1.0
  0
MTEXT
  5
27D
330
272
100
AcDbEntity
  8
0
  6
SLD-Durchgehend
 62
     7
370
    18
100
AcDbMText
 10
77.6065855617
 20
144.728974352
 30
0.0
 40
3.5
 41
0.0
 46
0.0
 71
     1
 72
     1
  1
14
  7
SLDTEXTSTYLE0
 11
0.8660254037844367
 21
0.5000000000000033
 31
0.0
 73
     1
 44
1.0
  0
ENDBLK
  5
274
330
272
100
AcDbEntity
  8
0
100
AcDbBlockEnd
  0
BLOCK
  5
280
330
27F
100
AcDbEntity
  8
0
100
AcDbBlockBegin
  2
_D_5
 70
     0
 10
0.0
 20
0.0
 30
0.0
  3
_D_5
  1

  0
SOLID
  5
282
330
27F
100
AcDbEntity
  8
0
  6
SLD-Durchgehend
 62
     7
370
    18
100
AcDbTrace
 10
132.5383275191
 20
152.6962198391
 30
0.0
 11
135.8403275191
 21
152.1882198391
 31
0.0
 12
135.8403275191
 22
153.2042198391
 32
0.0
 13
135.8403275191
 23
153.2042198391
 33
0.0
  0
SOLID
  5
283
330
27F
100
AcDbEntity
  8
0
  6
SLD-Durchgehend
 62
     7
370
    18
100
AcDbTrace
 10
125.0383275191
 20
152.6962198391
 30
0.0
 11
121.7363275191
 21
153.2042198391
 31
0.0
 12
121.7363275191
 22
152.1882198391
 32
0.0
 13
121.7363275191
 23
152.1882198391
 33
0.0
  0
LINE
  5
284
330
27F
100
AcDbEntity
  8
0
  6
SLD-Durchgehend
 62
     7
370
     0
100
AcDbLine
 10
132.5383275191
 20
146.9988337802
 30
0.0
 11
132.5383275191
 21
153.6962198391
 31
0.0
  0
LINE
  5
285
330
27F
100
AcDbEntity
  8
0
  6
SLD-Durchgehend
 62
     7
370
     0
100
AcDbLine
 10
125.0383275191
 20
146.9988337802
 30
0.0
 11
125.0383275191
 21
153.6962198391
 31
0.0
  0
LINE
  5
286
330
27F
100
AcDbEntity
  8
0
  6
SLD-Durchgehend
 62
     7
370
     0
100
AcDbLine
 10
132.5383275191
 20
152.6962198391
 30
0.0
 11
138.8883275191
 21
152.6962198391
 31
0.0
  0
LINE
  5
287
330
27F
100
AcDbEntity
  8
0
  6
SLD-Durchgehend
 62
     7
370
     0
100
AcDbLine
 10
132.5383275191
 20
152.6962198391
 30
0.0
 11
125.0383275191
 21
152.6962198391
 31
0.0
  0
LINE
  5
288
330
27F
100
AcDbEntity
  8
0
  6
SLD-Durchgehend
 62
     7
370
     0
100
AcDbLine
 10
125.0383275191
 20
152.6962198391
 30
0.0
 11
118.6883275191
 21
152.6962198391
 31
0.0
  0
MTEXT
  5
289
330
27F
100
AcDbEntity
  8
0
  6
SLD-Durchgehend
 62
     7
370
    18
100
AcDbMText
 10
127.8013679957
 20
157.1669227895
 30
0.0
 40
3.5
 41
0.0
 46
0.0
 71
     1
 72
     1
  1
8
  7
SLDTEXTSTYLE0
 73
     1
 44
1.0
  0
ENDBLK
  5
281
330
27F
100
AcDbEntity
  8
0
100
AcDbBlockEnd
  0
ENDSEC
  0
SECTION
  2
ENTITIES
  0
SPLINE
  5
1E9
330
1F
100
AcDbEntity
  8
0
  6
SLD-Durchgehend
 62
     7
370
    25
100
AcDbSpline
210
0.0
220
0.0
230
1.0
 70
     8
 71
     3
 72
    27
 73
    23
 74
     0
 42
0.00000001
 43
0.00000001
 40
0.0
 40
0.0
 40
0.0
 40
0.0
 40
0.0376204141876791
 40
0.0861567730279421
 40
0.1349802256726566
 40
0.1845080782911639
 40
0.2349920959844385
 40
0.2864755763039263
 40
0.3388118443375616
 40
0.3917443558393018
 40
0.4450061647734065
 40
0.4983859292131691
 40
0.551721270022738
 40
0.6049578661345543
 40
0.6580773743973926
 40
0.7110816887572815
 40
0.763982945702062
 40
0.816797848415169
 40
0.8695447088998018
 40
0.922242062984588
 40
0.9749081525094788
 40
1.0
 40
1.0
 40
1.0
 40
1.0
 10
114.1196722070782
 20
233.2378076465554
 30
0.0
 10
114.1170222196454
 20
233.323680382126
 30
0.0
 10
114.1109533240551
 20
233.5203426982542
 30
0.0
 10
114.0435783879485
 20
233.8244952376431
 30
0.0
 10
113.9289646956874
 20
234.1470040156789
 30
0.0
 10
113.7657473298579
 20
234.4619180683498
 30
0.0
 10
113.5560232344568
 20
234.7683084878195
 30
0.0
 10
113.2994785809984
 20
235.0646119196896
 30
0.0
 10
112.9972439548486
 20
235.34871180923
 30
0.0
 10
112.6512599097071
 20
235.6182240089542
 30
0.0
 10
112.264387847396
 20
235.8708814230463
 30
0.0
 10
111.840048856572
 20
236.1047436092455
 30
0.0
 10
111.3818146392913
 20
236.3183269931106
 30
0.0
 10
110.8932223823724
 20
236.5105115740682
 30
0.0
 10
110.3776528678907
 20
236.6804465653036
 30
0.0
 10
109.8385062887504
 20
236.827407299511
 30
0.0
 10
109.2792385615341
 20
236.9507779834069
 30
0.0
 10
108.7033853244745
 20
237.0499967203344
 30
0.0
 10
108.1145552699878
 20
237.1247352968032
 30
0.0
 10
107.5164644351598
 20
237.1742503050818
 30
0.0
 10
107.0180589665007
 20
237.1953749203064
 30
0.0
 10
106.7203964215012
 20
237.1971714018129
 30
0.0
 10
106.6243431635388
 20
237.1977511116369
 30
0.0
  0
SPLINE
  5
1EA
330
1F
100
AcDbEntity
  8
0
  6
SLD-Durchgehend
 62
     7
370
    25
100
AcDbSpline
210
0.0
220
0.0
230
1.0
 70
     8
 71
     3
 72
    27
 73
    23
 74
     0
 42
0.00000001
 43
0.00000001
 40
0.0
 40
0.0
 40
0.0
 40
0.0
 40
0.0277549570344747
 40
0.0803022469533506
 40
0.1328765768987099
 40
0.1854853762267235
 40
0.2381474172063255
 40
0.2908823160570916
 40
0.3437105022247657
 40
0.3966527278612841
 40
0.4497286864274858
 40
0.5029539880264302
 40
0.5563342392270972
 40
0.6098543768502185
 40
0.6634604615722585
 40
0.7169814679518245
 40
0.77018581044308
 40
0.8227664547032161
 40
0.8744190176999908
 40
0.9249702131833003
 40
0.9744792014493763
 40
0.9999999999999999
 40
0.9999999999999999
 40
0.9999999999999999
 40
0.9999999999999999
 10
106.6243431635388
 20
237.1977511116369
 30
0.0
 10
106.517893773084
 20
237.1970437633595
 30
0.0
 10
106.2099082399154
 20
237.1949972224124
 30
0.0
 10
105.701475469045
 20
237.1722965624199
 30
0.0
 10
105.1041031360097
 20
237.1215529795532
 30
0.0
 10
104.5163063514893
 20
237.0456264661121
 30
0.0
 10
103.9418099850816
 20
236.9453164472018
 30
0.0
 10
103.3841741870057
 20
236.8209633882185
 30
0.0
 10
102.8468532087969
 20
236.6731369970256
 30
0.0
 10
102.3331727350004
 20
236.5024297351851
 30
0.0
 10
101.8463310219434
 20
236.3094869765241
 30
0.0
 10
101.3894133903359
 20
236.0949760517615
 30
0.0
 10
100.965430190214
 20
235.8595849907741
 30
0.0
 10
100.5773871214613
 20
235.6040486909348
 30
0.0
 10
100.2284825704778
 20
235.3293289354828
 30
0.0
 10
99.92208275504711
 20
235.0367806352804
 30
0.0
 10
99.66150531484293
 20
234.7284192817607
 30
0.0
 10
99.45004934038428
 20
234.4070243522117
 30
0.0
 10
99.2890531405452
 20
234.0761842922915
 30
0.0
 10
99.18296183005457
 20
233.7398968900891
 30
0.0
 10
99.12924164562013
 20
233.4549059183939
 30
0.0
 10
99.13033444868508
 20
233.2833083911521
 30
0.0
 10
99.13070615714993
 20
233.2249408266111
 30
0.0
  0
LINE
  5
1EB
330
1F
100
AcDbEntity
  8
0
  6
SLD-Durchgehend
 62
     7
370
    25
100
AcDbLine
 10
99.1243431635
 20
233.1977511116
 30
0.0
 11
99.1243431635
 21
230.1666621984
 31
0.0
  0
LINE
  5
1EC
330
1F
100
AcDbEntity
  8
0
  6
SLD-Durchgehend
 62
     7
370
    25
100
AcDbLine
 10
114.1243431635
 20
230.1666621984
 30
0.0
 11
114.1243431635
 21
233.1977511116
 31
0.0
  0
LINE
  5
1ED
330
1F
100
AcDbEntity
  8
0
  6
SLD-Durchgehend
 62
     7
370
    25
100
AcDbLine
 10
114.1243431635
 20
223.4166621984
 30
0.0
 11
114.1243431635
 21
230.1666621984
 31
0.0
  0
LINE
  5
1EE
330
1F
100
AcDbEntity
  8
0
  6
SLD-Durchgehend
 62
     7
370
    25
100
AcDbLine
 10
99.1243431635
 20
230.1666621984
 30
0.0
 11
99.1243431635
 21
223.4166621984
 31
0.0
  0
LINE
  5
1EF
330
1F
100
AcDbEntity
  8
0
  6
SLD-Durchgehend
 62
     7
370
    25
100
AcDbLine
 10
114.1240443612
 20
233.2312247778
 30
0.0
 11
114.1243431635
 21
233.1977511116
 31
0.0
  0
LINE
  5
1F0
330
1F
100
AcDbEntity
  8
0
  6
SLD-Durchgehend
 62
     7
370
    25
100
AcDbLine
 10
99.1243431635
 20
233.1977511116
 30
0.0
 11
99.1244809209
 21
233.2204796279
 31
0.0
  0
ARC
  5
1F1
330
1F
100
AcDbEntity
  8
0
  6
SLD-Durchgehend
 62
     7
370
    25
100
AcDbCircle
 10
106.6243431635
 20
223.4166621984
 30
0.0
 40
7.500000000000014
100
AcDbArc
 50
180.0
 51
0.0
  0
ARC
  5
1F2
330
1F
100
AcDbEntity
  8
0
  6
SLD-Durchgehend
 62
     7
370
    25
100
AcDbCircle
 10
106.6243431635
 20
243.9166621984
 30
0.0
 40
3.999999999999989
100
AcDbArc
 50
29.3762620656
 51
150.6237379344
  0
CIRCLE
  5
1F3
330
1F
100
AcDbEntity
  8
0
  6
SLD-Durchgehend
 62
     7
370
    25
100
AcDbCircle
 10
106.6243431635
 20
224.9166621984
 30
0.0
 40
21.24999999999999
  0
LWPOLYLINE
  5
1F4
330
1F
100
AcDbEntity
  8
0
  6
SLD-Durchgehend
 62
     8
370
    18
100
AcDbPolyline
 90
       72
 70
   128
 43
0.0
 10
106.6243431635
 20
237.1307638135
 10
106.0056824314
 20
237.1170676908
 10
105.3918635582
 20
237.0760865133
 10
104.787690509
 20
237.0081410144
 10
104.1978917571
 20
236.9137629596
 10
103.6270832774
 20
236.7936909853
 10
103.07973242
 20
236.6488648173
 10
102.5601229477
 20
236.480417917
 10
102.0723215091
 20
236.2896686096
 10
101.6201458118
 20
236.078109767
 10
101.2071347437
 20
235.8473971242
 10
100.8365206764
 20
235.5993363203
 10
100.5112041675
 20
235.3358687674
 10
100.2337312597
 20
235.0590564564
 10
100.0062735548
 20
234.7710658189
 10
99.8306112177
 20
234.4741507721
 10
99.7081190443
 20
234.1706350789
 10
99.6397557021
 20
233.8628941611
 10
99.6260562267
 20
233.5533365085
 10
99.6671278353
 20
233.2443848296
 10
99.7626490868
 20
232.9384570901
 10
99.9118723979
 20
232.6379475894
 10
100.1136298938
 20
232.3452082217
 10
100.3663425485
 20
232.0625300696
 10
100.6680325431
 20
231.7921254728
 10
101.016338744
 20
231.5361107139
 10
101.4085351832
 20
231.2964894556
 10
101.8415523917
 20
231.0751370591
 10
102.3120014227
 20
230.8737859069
 10
102.8162003747
 20
230.6940118449
 10
103.3502032073
 20
230.5372218489
 10
103.9098306244
 20
230.4046430131
 10
104.4907027825
 20
230.2973129468
 10
105.0882735694
 20
230.2160716531
 10
105.6978661837
 20
230.1615549554
 10
106.3147097365
 20
230.1341895207
 10
106.9339765906
 20
230.1341895207
 10
107.5508201434
 20
230.1615549554
 10
108.1604127576
 20
230.2160716531
 10
108.7579835446
 20
230.2973129468
 10
109.3388557027
 20
230.4046430131
 10
109.8984831197
 20
230.5372218489
 10
110.4324859524
 20
230.6940118449
 10
110.9366849044
 20
230.8737859069
 10
111.4071339354
 20
231.0751370591
 10
111.8401511439
 20
231.2964894556
 10
112.232347583
 20
231.5361107139
 10
112.580653784
 20
231.7921254728
 10
112.8823437785
 20
232.0625300696
 10
113.1350564333
 20
232.3452082217
 10
113.3368139292
 20
232.6379475894
 10
113.4860372403
 20
232.9384570901
 10
113.5815584917
 20
233.2443848296
 10
113.6226301003
 20
233.5533365085
 10
113.608930625
 20
233.8628941611
 10
113.5405672828
 20
234.1706350789
 10
113.4180751094
 20
234.4741507721
 10
113.2424127723
 20
234.7710658189
 10
113.0149550674
 20
235.0590564564
 10
112.7374821596
 20
235.3358687674
 10
112.4121656507
 20
235.5993363203
 10
112.0415515834
 20
235.8473971242
 10
111.6285405153
 20
236.078109767
 10
111.176364818
 20
236.2896686096
 10
110.6885633793
 20
236.480417917
 10
110.168953907
 20
236.6488648173
 10
109.6216030497
 20
236.7936909853
 10
109.05079457
 20
236.9137629596
 10
108.460995818
 20
237.0081410144
 10
107.8568227689
 20
237.0760865133
 10
107.2430038957
 20
237.1170676908
 10
106.6243431635
 20
237.1307638135
  0
LWPOLYLINE
  5
1F5
330
1F
100
AcDbEntity
  8
0
  6
SLD-Durchgehend
 62
     8
370
    18
100
AcDbPolyline
 90
       38
 70
   128
 43
0.0
 10
114.1243431635
 20
233.1977511116
 10
114.10872187
 20
232.9558444262
 10
114.0394250903
 20
232.6350433678
 10
113.9152296383
 20
232.3184084007
 10
113.7370550136
 20
232.0082837794
 10
113.506220359
 20
231.7069655581
 10
113.2244346933
 20
231.4166845914
 10
112.8937842592
 20
231.1395900181
 10
112.5167170766
 20
230.8777333494
 10
112.0960248192
 20
230.6330532805
 10
111.6348221451
 20
230.4073613371
 10
111.1365236377
 20
230.2023284633
 10
110.6048185248
 20
230.0194726508
 10
110.0436433649
 20
229.8601477
 10
109.4571529026
 20
229.7255331972
 10
108.8496893081
 20
229.6166257809
 10
108.2257500293
 20
229.5342317637
 10
107.5899544944
 20
229.478961162
 10
106.9470099111
 20
229.45122318
 10
106.301676416
 20
229.45122318
 10
105.6587318326
 20
229.478961162
 10
105.0229362977
 20
229.5342317637
 10
104.398997019
 20
229.6166257809
 10
103.7915334245
 20
229.7255331972
 10
103.2050429622
 20
229.8601477
 10
102.6438678023
 20
230.0194726508
 10
102.1121626894
 20
230.2023284633
 10
101.6138641819
 20
230.4073613371
 10
101.1526615079
 20
230.6330532805
 10
100.7319692504
 20
230.8777333494
 10
100.3549020679
 20
231.1395900181
 10
100.0242516337
 20
231.4166845914
 10
99.7424659681
 20
231.7069655581
 10
99.5116313134
 20
232.0082837794
 10
99.3334566888
 20
232.3184084007
 10
99.2092612368
 20
232.6350433678
 10
99.139964457
 20
232.9558444262
 10
99.1243431635
 20
233.1977511116
  0
LWPOLYLINE
  5
1F6
330
1F
100
AcDbEntity
  8
0
  6
SLD-Durchgehend
 62
     8
370
    18
100
AcDbPolyline
 90
       39
 70
   128
 43
0.0
 10
99.1243431635
 20
230.1666621984
 10
99.1312873003
 20
230.0053288246
 10
99.1867632643
 20
229.6838565329
 10
99.2973044677
 20
229.3659587655
 10
99.4620925021
 20
229.0539891261
 10
99.6799073346
 20
228.7502573289
 10
99.9491363403
 20
228.4570120977
 10
100.2677862418
 20
228.1764245178
 10
100.6334978669
 20
227.9105719613
 10
101.0435636145
 20
227.6614227076
 10
101.4949475014
 20
227.4308213706
 10
101.9843076391
 20
227.2204752418
 10
102.5080209764
 20
227.0319416506
 10
103.062210123
 20
226.8666164335
 10
103.6427720564
 20
226.7257236007
 10
104.2454084991
 20
226.6103062733
 10
104.8656577418
 20
226.521218961
 10
105.498927676
 20
226.459121235
 10
106.1405297927
 20
226.4244728451
 10
106.7857138943
 20
226.417530316
 10
107.4297032635
 20
226.4383450475
 10
108.0677300283
 20
226.4867629349
 10
108.6950704618
 20
226.5624255089
 10
109.3070799548
 20
226.6647725903
 10
109.8992274032
 20
226.7930464372
 10
110.4671287545
 20
226.9462973549
 10
111.0065794658
 20
227.1233907271
 10
111.5135856326
 20
227.3230154166
 10
111.9843935589
 20
227.5436934719
 10
112.4155175473
 20
227.7837910701
 10
112.8037657067
 20
228.0415306123
 10
113.1462635836
 20
228.3150038853
 10
113.4404754436
 20
228.6021861886
 10
113.6842230449
 20
228.9009513249
 10
113.8757017656
 20
229.2090873417
 10
114.0134939642
 20
229.5243129077
 10
114.0965794755
 20
229.8442942031
 10
114.1243431635
 20
230.1666621984
 10
114.1243431635
 20
230.1666621984
  0
CIRCLE
  5
1F7
330
1F
100
AcDbEntity
  8
0
  6
SLD-Durchgehend
 62
     8
370
    18
100
AcDbCircle
 10
106.6243431635
 20
224.9166621984
 30
0.0
 40
20.74999999999999
  0
DIMENSION
  5
1F8
330
1F
100
AcDbEntity
  8
0
  6
SLD-Durchgehend
 62
     7
370
    18
100
AcDbDimension
280
     0
  2
_D
 10
85.381722758
 20
225.4766428279
 30
0.0
 11
135.0503585255
 21
224.1673290349
 31
0.0
 70
   163
  1
<>
 71
     1
 42
-1.0
 73
     0
 74
     0
 75
     0
  3
SLDDIMSTYLE0
100
AcDbDiametricDimension
 15
127.8669635691
 25
224.3566815689
 35
0.0
 40
0.0
  0
ARC
  5
206
330
1F
100
AcDbEntity
  8
0
  6
SLD-Durchgehend
 62
     7
370
    25
100
AcDbCircle
 10
82.7261496926
 20
129.5299226934
 30
0.0
 40
0.5000000000000164
100
AcDbArc
 50
120.0
 51
210.0
  0
ARC
  5
207
330
1F
100
AcDbEntity
  8
0
  6
SLD-Durchgehend
 62
     7
370
    25
100
AcDbCircle
 10
94.8505053456
 20
136.5299226934
 30
0.0
 40
0.5000000000000164
100
AcDbArc
 50
30.0
 51
120.0
  0
LINE
  5
208
330
1F
100
AcDbEntity
  8
0
  6
SLD-Durchgehend
 62
     7
370
    25
100
AcDbLine
 10
82.2931369907
 20
129.2799226934
 30
0.0
 11
84.0431369907
 21
126.2488337802
 31
0.0
  0
LINE
  5
209
330
1F
100
AcDbEntity
  8
0
  6
SLD-Durchgehend
 62
     7
370
    25
100
AcDbLine
 10
97.0335180475
 20
133.7488337802
 30
0.0
 11
95.2835180475
 21
136.7799226934
 31
0.0
  0
ARC
  5
20A
330
1F
100
AcDbEntity
  8
0
  6
SLD-Durchgehend
 62
     7
370
    25
100
AcDbCircle
 10
102.2296704702
 20
136.7488337802
 30
0.0
 40
6.000000000000028
100
AcDbArc
 50
210.0
 51
270.0
  0
ARC
  5
20B
330
1F
100
AcDbEntity
  8
0
  6
SLD-Durchgehend
 62
     7
370
    25
100
AcDbCircle
 10
102.2296704702
 20
136.7488337802
 30
0.0
 40
21.0
100
AcDbArc
 50
210.0
 51
270.0
  0
LINE
  5
20C
330
1F
100
AcDbEntity
  8
0
  6
SLD-Durchgehend
 62
     7
370
    25
100
AcDbLine
 10
120.9692571167
 20
115.7488337802
 30
0.0
 11
124.5383275191
 21
115.7488337802
 31
0.0
  0
LINE
  5
20D
330
1F
100
AcDbEntity
  8
0
  6
SLD-Durchgehend
 62
     7
370
    25
100
AcDbLine
 10
102.2296704702
 20
115.7488337802
 30
0.0
 11
116.7550416961
 21
115.7488337802
 31
0.0
  0
LINE
  5
20E
330
1F
100
AcDbEntity
  8
0
  6
SLD-Durchgehend
 62
     7
370
    25
100
AcDbLine
 10
124.5383275191
 20
130.7488337802
 30
0.0
 11
102.2296704702
 21
130.7488337802
 31
0.0
  0
LINE
  5
20F
330
1F
100
AcDbEntity
  8
0
  6
SLD-Durchgehend
 62
     7
370
    25
100
AcDbLine
 10
132.5383275191
 20
105.7488337802
 30
0.0
 11
133.1883275191
 21
105.7488337802
 31
0.0
  0
LINE
  5
210
330
1F
100
AcDbEntity
  8
0
  6
SLD-Durchgehend
 62
     7
370
    25
100
AcDbLine
 10
133.1383275191
 20
143.7488337802
 30
0.0
 11
132.5383275191
 21
143.7488337802
 31
0.0
  0
LINE
  5
211
330
1F
100
AcDbEntity
  8
0
  6
SLD-Durchgehend
 62
     7
370
    25
100
AcDbLine
 10
133.1883275191
 20
147.7488337802
 30
0.0
 11
133.1383275191
 21
147.7488337802
 31
0.0
  0
LINE
  5
212
330
1F
100
AcDbEntity
  8
0
  6
SLD-Durchgehend
 62
     7
370
    25
100
AcDbLine
 10
132.5383275191
 20
145.9988337802
 30
0.0
 11
125.0383275191
 21
145.9988337802
 31
0.0
  0
LINE
  5
213
330
1F
100
AcDbEntity
  8
0
  6
SLD-Durchgehend
 62
     7
370
    25
100
AcDbLine
 10
125.0383275191
 20
103.4988337802
 30
0.0
 11
132.5383275191
 21
103.4988337802
 31
0.0
  0
ARC
  5
214
330
1F
100
AcDbEntity
  8
0
  6
SLD-Durchgehend
 62
     7
370
    25
100
AcDbCircle
 10
125.0383275191
 20
103.9988337802
 30
0.0
 40
0.5
100
AcDbArc
 50
180.0
 51
270.0
  0
ARC
  5
215
330
1F
100
AcDbEntity
  8
0
  6
SLD-Durchgehend
 62
     7
370
    25
100
AcDbCircle
 10
125.0383275191
 20
145.4988337802
 30
0.0
 40
0.5
100
AcDbArc
 50
90.0
 51
180.0
  0
LINE
  5
216
330
1F
100
AcDbEntity
  8
0
  6
SLD-Durchgehend
 62
     7
370
    25
100
AcDbLine
 10
82.4761496985
 20
129.9629353987
 30
0.0
 11
94.6005053456
 21
136.9629353953
 31
0.0
  0
SPLINE
  5
217
330
1F
100
AcDbEntity
  8
0
  6
SLD-Durchgehend
 62
     7
370
    25
100
AcDbSpline
210
0.0
220
0.0
230
1.0
 70
     8
 71
     3
 72
    26
 73
    22
 74
     0
 42
0.00000001
 43
0.00000001
 40
0.0
 40
0.0
 40
0.0
 40
0.0
 40
0.0036663799382995
 40
0.0574466929143493
 40
0.1091192349817025
 40
0.1622582775761366
 40
0.2145381143532731
 40
0.2682956839579014
 40
0.3211943971226702
 40
0.3756751135748777
 40
0.4276747153168205
 40
0.4812619483319945
 40
0.5319886782753748
 40
0.5841512699978635
 40
0.6356329440138953
 40
0.6884819114839533
 40
0.7423137024973112
 40
0.797653207243653
 40
0.8522696949440478
 40
0.9086088978288678
 40
1.0
 40
1.0
 40
1.0
 40
1.0
 10
120.969257116735
 20
115.7493536905882
 30
0.0
 10
120.9698588890551
 20
115.7491825440984
 30
0.0
 10
120.9792877617468
 20
115.7465009344431
 30
0.0
 10
120.9436784312334
 20
115.7567014760392
 30
0.0
 10
120.8587267206091
 20
115.7803970896672
 30
0.0
 10
120.7153993892912
 20
115.8182516125382
 30
0.0
 10
120.521630256937
 20
115.8649754676413
 30
0.0
 10
120.2821009224801
 20
115.9157002428187
 30
0.0
 10
119.9990875413644
 20
115.9653957627403
 30
0.0
 10
119.6861108748909
 20
116.0072798587129
 30
0.0
 10
119.3479354409696
 20
116.0370071593094
 30
0.0
 10
119.0038944566553
 20
116.0507169890214
 30
0.0
 10
118.6564683406537
 20
116.047756209898
 30
0.0
 10
118.3200983162357
 20
116.0291515847247
 30
0.0
 10
117.9948820296478
 20
115.9966451073457
 30
0.0
 10
117.6901704260364
 20
115.9536040534178
 30
0.0
 10
117.4108975315426
 20
115.9037185850951
 30
0.0
 10
117.169286626478
 20
115.8526464232529
 30
0.0
 10
116.9749262867558
 20
115.8065180087434
 30
0.0
 10
116.7998710914487
 20
115.761282888027
 30
0.0
 10
116.7721752848591
 20
115.7535917719363
 30
0.0
 10
116.7550416961295
 20
115.7488337801607
 30
0.0
  0
LINE
  5
218
330
1F
100
AcDbEntity
  8
0
  6
SLD-Durchgehend
 62
     7
370
    25
100
AcDbLine
 10
133.1883275191
 20
143.3230094012
 30
0.0
 11
133.1383275191
 21
143.3230094012
 31
0.0
  0
LINE
  5
219
330
1F
100
AcDbEntity
  8
0
  6
SLD-Durchgehend
 62
     7
370
    25
100
AcDbLine
 10
133.1883275191
 20
141.6994419227
 30
0.0
 11
133.1783275191
 21
141.6994419227
 31
0.0
  0
LINE
  5
21A
330
1F
100
AcDbEntity
  8
0
  6
SLD-Durchgehend
 62
     7
370
    25
100
AcDbLine
 10
133.1783275191
 20
141.5840573073
 30
0.0
 11
133.1783275191
 21
141.6994419227
 31
0.0
  0
LINE
  5
21B
330
1F
100
AcDbEntity
  8
0
  6
SLD-Durchgehend
 62
     7
370
    25
100
AcDbLine
 10
133.1783275191
 20
141.5840573073
 30
0.0
 11
133.1883275191
 21
141.5840573073
 31
0.0
  0
LINE
  5
21C
330
1F
100
AcDbEntity
  8
0
  6
SLD-Durchgehend
 62
     7
370
    25
100
AcDbLine
 10
133.1883275191
 20
140.8033512859
 30
0.0
 11
133.1783275191
 21
140.8033512859
 31
0.0
  0
LINE
  5
21D
330
1F
100
AcDbEntity
  8
0
  6
SLD-Durchgehend
 62
     7
370
    25
100
AcDbLine
 10
133.1783275191
 20
140.8033512859
 30
0.0
 11
133.1783275191
 21
140.5559676831
 31
0.0
  0
LINE
  5
21E
330
1F
100
AcDbEntity
  8
0
  6
SLD-Durchgehend
 62
     7
370
    25
100
AcDbLine
 10
133.1783275191
 20
140.5559676831
 30
0.0
 11
133.1883275191
 21
140.5559676831
 31
0.0
  0
LINE
  5
21F
330
1F
100
AcDbEntity
  8
0
  6
SLD-Durchgehend
 62
     7
370
    25
100
AcDbLine
 10
133.1883275191
 20
140.3195539722
 30
0.0
 11
133.1783275191
 21
140.3195539722
 31
0.0
  0
LINE
  5
220
330
1F
100
AcDbEntity
  8
0
  6
SLD-Durchgehend
 62
     7
370
    25
100
AcDbLine
 10
133.1783275191
 20
140.0148897475
 30
0.0
 11
133.1783275191
 21
140.3195539722
 31
0.0
  0
LINE
  5
221
330
1F
100
AcDbEntity
  8
0
  6
SLD-Durchgehend
 62
     7
370
    25
100
AcDbLine
 10
133.1783275191
 20
140.0148897475
 30
0.0
 11
133.1883275191
 21
140.0148897475
 31
0.0
  0
LINE
  5
222
330
1F
100
AcDbEntity
  8
0
  6
SLD-Durchgehend
 62
     7
370
    25
100
AcDbLine
 10
133.1883275191
 20
139.6162254104
 30
0.0
 11
133.1783275191
 21
139.6162254104
 31
0.0
  0
LINE
  5
223
330
1F
100
AcDbEntity
  8
0
  6
SLD-Durchgehend
 62
     7
370
    25
100
AcDbLine
 10
133.1783275191
 20
139.4454107617
 30
0.0
 11
133.1783275191
 21
139.6162254104
 31
0.0
  0
LINE
  5
224
330
1F
100
AcDbEntity
  8
0
  6
SLD-Durchgehend
 62
     7
370
    25
100
AcDbLine
 10
133.1783275191
 20
139.4454107617
 30
0.0
 11
133.1883275191
 21
139.4454107617
 31
0.0
  0
LINE
  5
225
330
1F
100
AcDbEntity
  8
0
  6
SLD-Durchgehend
 62
     7
370
    25
100
AcDbLine
 10
133.1883275191
 20
115.4761984924
 30
0.0
 11
133.1783275191
 21
115.4761984924
 31
0.0
  0
LINE
  5
226
330
1F
100
AcDbEntity
  8
0
  6
SLD-Durchgehend
 62
     7
370
    25
100
AcDbLine
 10
133.1783275191
 20
115.4761984924
 30
0.0
 11
133.1783275191
 21
115.2842192099
 31
0.0
  0
LINE
  5
227
330
1F
100
AcDbEntity
  8
0
  6
SLD-Durchgehend
 62
     7
370
    25
100
AcDbLine
 10
133.1783275191
 20
115.2842192099
 30
0.0
 11
133.1883275191
 21
115.2842192099
 31
0.0
  0
LINE
  5
228
330
1F
100
AcDbEntity
  8
0
  6
SLD-Durchgehend
 62
     7
370
    25
100
AcDbLine
 10
133.1883275191
 20
108.8033512859
 30
0.0
 11
133.1783275191
 21
108.8033512859
 31
0.0
  0
LINE
  5
229
330
1F
100
AcDbEntity
  8
0
  6
SLD-Durchgehend
 62
     7
370
    25
100
AcDbLine
 10
133.1783275191
 20
108.8033512859
 30
0.0
 11
133.1783275191
 21
108.6302743628
 31
0.0
  0
LINE
  5
22A
330
1F
100
AcDbEntity
  8
0
  6
SLD-Durchgehend
 62
     7
370
    25
100
AcDbLine
 10
133.1783275191
 20
108.6302743628
 30
0.0
 11
133.1883275191
 21
108.6302743628
 31
0.0
  0
LINE
  5
22B
330
1F
100
AcDbEntity
  8
0
  6
SLD-Durchgehend
 62
     7
370
    25
100
AcDbLine
 10
133.1883275191
 20
108.6302743628
 30
0.0
 11
133.1883275191
 21
108.4092852238
 31
0.0
  0
LINE
  5
22C
330
1F
100
AcDbEntity
  8
0
  6
SLD-Durchgehend
 62
     7
370
    25
100
AcDbLine
 10
133.1883275191
 20
108.4092852238
 30
0.0
 11
133.1783275191
 21
108.4092852238
 31
0.0
  0
LINE
  5
22D
330
1F
100
AcDbEntity
  8
0
  6
SLD-Durchgehend
 62
     7
370
    25
100
AcDbLine
 10
133.1783275191
 20
108.4092852238
 30
0.0
 11
133.1783275191
 21
108.2978287297
 31
0.0
  0
LINE
  5
22E
330
1F
100
AcDbEntity
  8
0
  6
SLD-Durchgehend
 62
     7
370
    25
100
AcDbLine
 10
133.1783275191
 20
108.2978287297
 30
0.0
 11
133.1883275191
 21
108.2978287297
 31
0.0
  0
LINE
  5
22F
330
1F
100
AcDbEntity
  8
0
  6
SLD-Durchgehend
 62
     7
370
    25
100
AcDbLine
 10
133.1883275191
 20
115.2842192099
 30
0.0
 11
133.1883275191
 21
108.8033512859
 31
0.0
  0
LINE
  5
230
330
1F
100
AcDbEntity
  8
0
  6
SLD-Durchgehend
 62
     7
370
    25
100
AcDbLine
 10
133.1883275191
 20
139.4454107617
 30
0.0
 11
133.1883275191
 21
115.4761984924
 31
0.0
  0
LINE
  5
231
330
1F
100
AcDbEntity
  8
0
  6
SLD-Durchgehend
 62
     7
370
    25
100
AcDbLine
 10
133.1883275191
 20
140.0148897475
 30
0.0
 11
133.1883275191
 21
139.6162254104
 31
0.0
  0
LINE
  5
232
330
1F
100
AcDbEntity
  8
0
  6
SLD-Durchgehend
 62
     7
370
    25
100
AcDbLine
 10
133.1883275191
 20
140.5559676831
 30
0.0
 11
133.1883275191
 21
140.3195539722
 31
0.0
  0
LINE
  5
233
330
1F
100
AcDbEntity
  8
0
  6
SLD-Durchgehend
 62
     7
370
    25
100
AcDbLine
 10
133.1883275191
 20
141.5840573073
 30
0.0
 11
133.1883275191
 21
140.8033512859
 31
0.0
  0
LINE
  5
234
330
1F
100
AcDbEntity
  8
0
  6
SLD-Durchgehend
 62
     7
370
    25
100
AcDbLine
 10
133.1883275191
 20
143.3230094012
 30
0.0
 11
133.1883275191
 21
141.6994419227
 31
0.0
  0
LINE
  5
235
330
1F
100
AcDbEntity
  8
0
  6
SLD-Durchgehend
 62
     7
370
    25
100
AcDbLine
 10
133.1883275191
 20
108.2978287297
 30
0.0
 11
133.1883275191
 21
105.7488337802
 31
0.0
  0
LINE
  5
236
330
1F
100
AcDbEntity
  8
0
  6
SLD-Durchgehend
 62
     7
370
    25
100
AcDbLine
 10
133.1783275191
 20
115.4571974398
 30
0.0
 11
133.1883275191
 21
115.4571974398
 31
0.0
  0
SPLINE
  5
237
330
1F
100
AcDbEntity
  8
0
  6
SLD-Durchgehend
 62
     7
370
    25
100
AcDbSpline
210
0.0
220
0.0
230
1.0
 70
    24
 71
     3
 72
    10
 73
     6
 74
     0
 42
0.00000001
 43
0.00000001
 40
0.0
 40
0.0
 40
0.0
 40
0.0
 40
0.1213112997025625
 40
0.5603795369736937
 40
1.0
 40
1.0
 40
1.0
 40
1.0
 10
133.1883275191317
 20
115.421753154659
 30
0.0
 10
133.1883275191317
 20
115.4095171813474
 30
0.0
 10
133.1883275191317
 20
115.3529949194018
 30
0.0
 10
133.1883275191317
 20
115.2996082628629
 30
0.0
 10
133.1883275191317
 20
115.289351043003
 30
0.0
 10
133.1883275191317
 20
115.2842192099174
 30
0.0
  0
LINE
  5
238
330
1F
100
AcDbEntity
  8
0
  6
SLD-Durchgehend
 62
     7
370
    25
100
AcDbLine
 10
133.1883275191
 20
139.6162254104
 30
0.0
 11
133.1883275191
 21
139.4454107617
 31
0.0
  0
LINE
  5
239
330
1F
100
AcDbEntity
  8
0
  6
SLD-Durchgehend
 62
     7
370
    25
100
AcDbLine
 10
133.1883275191
 20
140.3195539722
 30
0.0
 11
133.1883275191
 21
140.0148897475
 31
0.0
  0
LINE
  5
23A
330
1F
100
AcDbEntity
  8
0
  6
SLD-Durchgehend
 62
     7
370
    25
100
AcDbLine
 10
133.1783275191
 20
140.6302743628
 30
0.0
 11
133.1883275191
 21
140.6302743628
 31
0.0
  0
LINE
  5
23B
330
1F
100
AcDbEntity
  8
0
  6
SLD-Durchgehend
 62
     7
370
    25
100
AcDbLine
 10
133.1883275191
 20
140.6302743628
 30
0.0
 11
133.1883275191
 21
140.5559676831
 31
0.0
  0
SPLINE
  5
23C
330
1F
100
AcDbEntity
  8
0
  6
SLD-Durchgehend
 62
     7
370
    25
100
AcDbSpline
210
0.0
220
0.0
230
1.0
 70
    24
 71
     3
 72
    10
 73
     6
 74
     0
 42
0.00000001
 43
0.00000001
 40
0.0
 40
0.0
 40
0.0
 40
0.0
 40
0.4518220237684273
 40
0.9000985686995256
 40
0.9999999999999999
 40
0.9999999999999999
 40
0.9999999999999999
 40
0.9999999999999999
 10
133.1883275191317
 20
140.8033512859185
 30
0.0
 10
133.1883275191317
 20
140.8003360393054
 30
0.0
 10
133.1883275191317
 20
140.7943292069291
 30
0.0
 10
133.1883275191317
 20
140.7376718389926
 30
0.0
 10
133.1883275191317
 20
140.669860206349
 30
0.0
 10
133.1883275191317
 20
140.6575020317166
 30
0.0
  0
SPLINE
  5
23D
330
1F
100
AcDbEntity
  8
0
  6
SLD-Durchgehend
 62
     7
370
    25
100
AcDbSpline
210
0.0
220
0.0
230
1.0
 70
    24
 71
     3
 72
    10
 73
     6
 74
     0
 42
0.00000001
 43
0.00000001
 40
0.0
 40
0.0
 40
0.0
 40
0.0
 40
0.4888844060938491
 40
0.9739325022591849
 40
1.0
 40
1.0
 40
1.0
 40
1.0
 10
133.1883275191317
 20
108.8033512859185
 30
0.0
 10
133.1883275191317
 20
108.7999588593388
 30
0.0
 10
133.1883275191317
 20
108.7932006267866
 30
0.0
 10
133.1883275191317
 20
108.7446778557882
 30
0.0
 10
133.1883275191317
 20
108.6876197321514
 30
0.0
 10
133.1883275191317
 20
108.6847097005916
 30
0.0
  0
SPLINE
  5
23E
330
1F
100
AcDbEntity
  8
0
  6
SLD-Durchgehend
 62
     7
370
    25
100
AcDbSpline
210
0.0
220
0.0
230
1.0
 70
    24
 71
     3
 72
     9
 73
     5
 74
     0
 42
0.00000001
 43
0.00000001
 40
0.0
 40
0.0
 40
0.0
 40
0.0
 40
0.5596312527026046
 40
1.0
 40
1.0
 40
1.0
 40
1.0
 10
133.1883275191317
 20
108.4145291705339
 30
0.0
 10
133.1883275191317
 20
108.392185774928
 30
0.0
 10
133.1883275191317
 20
108.3522605643576
 30
0.0
 10
133.1883275191317
 20
108.3144703562704
 30
0.0
 10
133.1883275191317
 20
108.297828729675
 30
0.0
  0
LINE
  5
23F
330
1F
100
AcDbEntity
  8
0
  6
SLD-Durchgehend
 62
     7
370
    25
100
AcDbLine
 10
133.1883275191
 20
141.6994419227
 30
0.0
 11
133.1883275191
 21
141.5840573073
 31
0.0
  0
LINE
  5
240
330
1F
100
AcDbEntity
  8
0
  6
SLD-Durchgehend
 62
     7
370
    25
100
AcDbLine
 10
133.1383275191
 20
147.7488337802
 30
0.0
 11
133.1383275191
 21
143.7488337802
 31
0.0
  0
LINE
  5
241
330
1F
100
AcDbEntity
  8
0
  6
SLD-Durchgehend
 62
     7
370
    25
100
AcDbLine
 10
133.1883275191
 20
147.7488337802
 30
0.0
 11
133.1883275191
 21
143.7488337802
 31
0.0
  0
LINE
  5
242
330
1F
100
AcDbEntity
  8
0
  6
SLD-Durchgehend
 62
     7
370
    25
100
AcDbLine
 10
133.1383275191
 20
143.7488337802
 30
0.0
 11
133.1383275191
 21
143.3230094012
 31
0.0
  0
LINE
  5
243
330
1F
100
AcDbEntity
  8
0
  6
SLD-Durchgehend
 62
     7
370
    25
100
AcDbLine
 10
133.1883275191
 20
143.7488337802
 30
0.0
 11
133.1883275191
 21
143.3230094012
 31
0.0
  0
LINE
  5
244
330
1F
100
AcDbEntity
  8
0
  6
SLD-Durchgehend
 62
     7
370
    25
100
AcDbLine
 10
132.5383275191
 20
124.7488337802
 30
0.0
 11
132.5383275191
 21
145.9988337802
 31
0.0
  0
LINE
  5
245
330
1F
100
AcDbEntity
  8
0
  6
SLD-Durchgehend
 62
     7
370
    25
100
AcDbLine
 10
132.5383275191
 20
103.4988337802
 30
0.0
 11
132.5383275191
 21
124.7488337802
 31
0.0
  0
LINE
  5
246
330
1F
100
AcDbEntity
  8
0
  6
SLD-Durchgehend
 62
     7
370
    25
100
AcDbLine
 10
124.5383275191
 20
124.7488337802
 30
0.0
 11
124.5383275191
 21
145.4988337802
 31
0.0
  0
LINE
  5
247
330
1F
100
AcDbEntity
  8
0
  6
SLD-Durchgehend
 62
     7
370
    25
100
AcDbLine
 10
124.5383275191
 20
103.9988337802
 30
0.0
 11
124.5383275191
 21
124.7488337802
 31
0.0
  0
LINE
  5
248
330
1F
100
AcDbEntity
  8
0
  6
SLD-Durchgehend
 62
     8
370
    18
100
AcDbLine
 10
95.2835180475
 20
136.7799226934
 30
0.0
 11
82.2931369907
 21
129.2799226934
 31
0.0
  0
LINE
  5
249
330
1F
100
AcDbEntity
  8
0
  6
SLD-Durchgehend
 62
     8
370
    18
100
AcDbLine
 10
90.5383275191
 20
129.9988337802
 30
0.0
 11
97.0335180475
 21
133.7488337802
 31
0.0
  0
LINE
  5
24A
330
1F
100
AcDbEntity
  8
0
  6
SLD-Durchgehend
 62
     8
370
    18
100
AcDbLine
 10
84.0431369907
 20
126.2488337802
 30
0.0
 11
90.5383275191
 21
129.9988337802
 31
0.0
  0
LINE
  5
24B
330
1F
100
AcDbEntity
  8
0
  6
SLD-Durchgehend
 62
     8
370
    18
100
AcDbLine
 10
102.2296704702
 20
123.2488337802
 30
0.0
 11
102.2296704702
 21
130.7488337802
 31
0.0
  0
LINE
  5
24C
330
1F
100
AcDbEntity
  8
0
  6
SLD-Durchgehend
 62
     8
370
    18
100
AcDbLine
 10
102.2296704702
 20
115.7488337802
 30
0.0
 11
102.2296704702
 21
123.2488337802
 31
0.0
  0
LINE
  5
24D
330
1F
100
AcDbEntity
  8
0
  6
SLD-Durchgehend
 62
     8
370
    18
100
AcDbLine
 10
133.1883275191
 20
143.7488337802
 30
0.0
 11
133.1383275191
 21
143.7488337802
 31
0.0
  0
LINE
  5
24E
330
1F
100
AcDbEntity
  8
0
  6
SLD-Durchgehend
 62
     8
370
    18
100
AcDbLine
 10
125.0383275191
 20
124.7488337802
 30
0.0
 11
125.0383275191
 21
103.4988337802
 31
0.0
  0
LINE
  5
24F
330
1F
100
AcDbEntity
  8
0
  6
SLD-Durchgehend
 62
     8
370
    18
100
AcDbLine
 10
125.0383275191
 20
145.9988337802
 30
0.0
 11
125.0383275191
 21
124.7488337802
 31
0.0
  0
DIMENSION
  5
250
330
1F
100
AcDbEntity
  8
0
  6
SLD-Durchgehend
 62
     7
370
    18
100
AcDbDimension
280
     0
  2
_D_1
 10
102.2296704702
 20
141.0550938338
 30
0.0
 11
112.8509919571
 21
141.0550938338
 31
0.0
 70
   160
  1
<>
 71
     2
 42
-1.0
 73
     0
 74
     0
 75
     0
  3
SLDDIMSTYLE1
100
AcDbAlignedDimension
 13
124.5383275191
 23
130.7488337802
 33
0.0
 14
102.2296704702
 24
130.7488337802
 34
0.0
100
AcDbRotatedDimension
  0
DIMENSION
  5
25B
330
1F
100
AcDbEntity
  8
0
  6
SLD-Durchgehend
 62
     7
370
    18
100
AcDbDimension
280
     0
  2
_D_2
 10
102.2296704702
 20
136.7488337802
 30
0.0
 11
83.883548874
 21
112.0876507507
 31
0.0
 70
   164
  1
<>
 71
     1
 42
-1.0
 73
     0
 74
     0
 75
     0
  3
SLDDIMSTYLE2
100
AcDbRadialDimension
 15
89.695251627
 25
119.899847334
 35
0.0
 40
0.0
  0
DIMENSION
  5
264
330
1F
100
AcDbEntity
  8
0
  6
SLD-Durchgehend
 62
     7
370
    18
100
AcDbDimension
280
     0
  2
_D_3
 10
77.3270648605
 20
122.3713077279
 30
0.0
 11
75.7618230563
 21
125.082386059
 31
0.0
 70
   160
  1
<>
 71
     2
 42
-1.0
 73
     0
 74
     0
 75
     0
  3
SLDDIMSTYLE3
100
AcDbAlignedDimension
 13
82.2931369907
 23
129.2799226934
 33
0.0
 14
84.0431369907
 24
126.2488337802
 34
0.0
 50
-60.0
100
AcDbRotatedDimension
  0
DIMENSION
  5
271
330
1F
100
AcDbEntity
  8
0
  6
SLD-Durchgehend
 62
     7
370
    18
100
AcDbDimension
280
     0
  2
_D_4
 10
77.1269638858
 20
139.2279969918
 30
0.0
 11
79.8226809651
 21
140.7843699732
 31
0.0
 70
   160
  1
%%c<>
 71
     2
 42
-1.0
 73
     0
 74
     0
 75
     0
  3
SLDDIMSTYLE3
100
AcDbAlignedDimension
 13
94.6005053456
 23
136.9629353953
 33
0.0
 14
82.4761496926
 24
129.9629353953
 34
0.0
 50
30.0
100
AcDbRotatedDimension
  0
DIMENSION
  5
27E
330
1F
100
AcDbEntity
  8
0
  6
SLD-Durchgehend
 62
     7
370
    18
100
AcDbDimension
280
     0
  2
_D_5
 10
125.0383275191
 20
152.6962198391
 30
0.0
 11
129.0944235925
 21
152.6962198391
 31
0.0
 70
   160
  1
<>
 71
     2
 42
-1.0
 73
     0
 74
     0
 75
     0
  3
SLDDIMSTYLE3
100
AcDbAlignedDimension
 13
132.5383275191
 23
145.9988337802
 33
0.0
 14
125.0383275191
 24
145.9988337802
 34
0.0
100
AcDbRotatedDimension
  0
ENDSEC
  0
SECTION
  2
OBJECTS
  0
DICTIONARY
  5
C
330
0
100
AcDbDictionary
281
     1
  3
ACAD_DETAILVIEWSTYLE
350
291
  3
ACAD_GROUP
350
D
  3
ACAD_LAYOUT
350
1A
  3
ACAD_MATERIAL
350
43
  3
ACAD_MLEADERSTYLE
350
5B
  3
ACAD_MLINESTYLE
350
17
  3
ACAD_PLOTSETTINGS
350
19
  3
ACAD_PLOTSTYLENAME
350
E
  3
ACAD_SCALELIST
350
47
  3
ACAD_SECTIONVIEWSTYLE
350
292
  3
ACAD_TABLESTYLE
350
59
  3
ACAD_VISUALSTYLE
350
2A
  3
ACDB_RECOMPOSE_DATA
350
28E
  3
AcDbVariableDictionary
350
28A
  0
SUN
  5
5D
330
29
100
AcDbSun
 90
        1
290
     0
 63
     7
421
 16777215
 40
1.0
291
     1
 91
  2455826
 92
 54000000
292
     0
 70
     2
 71
   256
280
     1
  0
DICTIONARY
  5
291
102
{ACAD_REACTORS
330
C
102
}
330
C
100
AcDbDictionary
281
     1
  0
DICTIONARY
  5
D
102
{ACAD_REACTORS
330
C
102
}
330
C
100
AcDbDictionary
281
     1
  0
DICTIONARY
  5
1A
102
{ACAD_REACTORS
330
C
102
}
330
C
100
AcDbDictionary
281
     1
  3
Layout1
350
1E
  3
Layout2
350
26
  3
Model
350
22
  0
DICTIONARY
  5
43
102
{ACAD_REACTORS
330
C
102
}
330
C
100
AcDbDictionary
281
     1
  3
ByBlock
350
45
  3
ByLayer
350
44
  3
Global
350
46
  0
DICTIONARY
  5
5B
102
{ACAD_REACTORS
330
C
102
}
330
C
100
AcDbDictionary
281
     1
  3
Standard
350
5C
  0
DICTIONARY
  5
17
102
{ACAD_REACTORS
330
C
102
}
330
C
100
AcDbDictionary
281
     1
  3
Standard
350
18
  0
DICTIONARY
  5
19
102
{ACAD_REACTORS
330
C
102
}
330
C
100
AcDbDictionary
281
     1
  0
ACDBDICTIONARYWDFLT
  5
E
102
{ACAD_REACTORS
330
C
102
}
330
C
100
AcDbDictionary
281
     1
  3
Normal
350
F
100
AcDbDictionaryWithDefault
340
F
  0
DICTIONARY
  5
47
102
{ACAD_REACTORS
330
C
102
}
330
C
100
AcDbDictionary
281
     1
  3
A0
350
48
  3
A1
350
49
  3
A2
350
4A
  3
A3
350
4B
  3
A4
350
4C
  3
A5
350
4D
  3
A6
350
4E
  3
A7
350
4F
  3
A8
350
50
  3
A9
350
51
  3
B0
350
52
  3
B1
350
53
  3
B2
350
54
  3
B3
350
55
  3
B4
350
56
  3
B5
350
57
  3
B6
350
58
  0
DICTIONARY
  5
292
102
{ACAD_REACTORS
330
C
102
}
330
C
100
AcDbDictionary
281
     1
  0
DICTIONARY
  5
59
102
{ACAD_REACTORS
330
C
102
}
330
C
100
AcDbDictionary
281
     1
  3
Standard
350
5A
  0
DICTIONARY
  5
2A
102
{ACAD_REACTORS
330
C
102
}
330
C
100
AcDbDictionary
281
     1
  3
2dWireframe
350
2F
  3
Basic
350
32
  3
Brighten
350
36
  3
ColorChange
350
3A
  3
Conceptual
350
34
  3
Dim
350
35
  3
EdgeColorOff
350
3D
  3
Facepattern
350
39
  3
Flat
350
2B
  3
FlatWithEdges
350
2C
  3
Gouraud
350
2D
  3
GouraudWithEdges
350
2E
  3
Hidden
350
31
  3
JitterOff
350
3B
  3
Linepattern
350
38
  3
OverhangOff
350
3C
  3
Realistic
350
33
  3
Shaded
350
42
  3
Shaded with edges
350
41
  3
Shades of Gray
350
3E
  3
Sketchy
350
3F
  3
Thicken
350
37
  3
Wireframe
350
30
  3
X-Ray
350
40
  0
XRECORD
  5
28E
102
{ACAD_REACTORS
330
C
102
}
330
C
100
AcDbXrecord
280
     1
 90
        1
330
5A
  0
DICTIONARY
  5
28A
102
{ACAD_REACTORS
330
C
102
}
330
C
100
AcDbDictionary
281
     1
  3
CANNOSCALE
350
28B
  3
CENTEREXE
350
293
  3
CENTERLTYPEFILE
350
294
  3
CMLEADERSTYLE
350
290
  3
CTABLESTYLE
350
28F
  0
LAYOUT
  5
1E
102
{ACAD_REACTORS
330
1A
102
}
330
1A
100
AcDbPlotSettings
  1

  2
none_device
  4

  6

 40
0.0
 41
0.0
 42
0.0
 43
0.0
 44
0.0
 45
0.0
 46
0.0
 47
0.0
 48
0.0
 49
0.0
140
0.0
141
0.0
142
1.0
143
1.0
 70
   688
 72
     1
 73
     0
 74
     5
  7

 75
    16
 76
     0
 77
     2
 78
   300
147
1.0
148
0.0
149
0.0
100
AcDbLayout
  1
Layout1
 70
     1
 71
     1
 10
0.0
 20
0.0
 11
420.0
 21
297.0
 12
0.0
 22
0.0
 32
0.0
 14
1.0000000000E+20
 24
1.0000000000E+20
 34
1.0000000000E+20
 15
-1.0000000000E+20
 25
-1.0000000000E+20
 35
-1.0000000000E+20
146
0.0
 13
0.0
 23
0.0
 33
0.0
 16
1.0
 26
0.0
 36
0.0
 17
0.0
 27
1.0
 37
0.0
 76
     0
330
1B
  0
LAYOUT
  5
26
102
{ACAD_REACTORS
330
1A
102
}
330
1A
100
AcDbPlotSettings
  1

  2
none_device
  4

  6

 40
0.0
 41
0.0
 42
0.0
 43
0.0
 44
0.0
 45
0.0
 46
0.0
 47
0.0
 48
0.0
 49
0.0
140
0.0
141
0.0
142
1.0
143
1.0
 70
   688
 72
     1
 73
     0
 74
     5
  7

 75
    16
 76
     0
 77
     2
 78
   300
147
1.0
148
0.0
149
0.0
100
AcDbLayout
  1
Layout2
 70
     1
 71
     2
 10
0.0
 20
0.0
 11
0.0
 21
0.0
 12
0.0
 22
0.0
 32
0.0
 14
0.0
 24
0.0
 34
0.0
 15
0.0
 25
0.0
 35
0.0
146
0.0
 13
0.0
 23
0.0
 33
0.0
 16
1.0
 26
0.0
 36
0.0
 17
0.0
 27
1.0
 37
0.0
 76
     0
330
23
  0
LAYOUT
  5
22
102
{ACAD_REACTORS
330
1A
102
}
330
1A
100
AcDbPlotSettings
  1

  2
none_device
  4
Letter_(8.50_x_11.00_Inches)
  6

 40
6.35
 41
6.35
 42
6.35000508
 43
6.35000508
 44
215.9
 45
279.4
 46
0.0
 47
0.0
 48
0.0
 49
0.0
140
0.0
141
0.0
142
1.0
143
1.0
 70
  1712
 72
     1
 73
     0
 74
     0
  7

 75
     0
 76
     0
 77
     2
 78
   300
147
1.0
148
0.0
149
0.0
100
AcDbLayout
  1
Model
 70
     1
 71
     0
 10
0.0
 20
0.0
 11
210.0
 21
297.0
 12
0.0
 22
0.0
 32
0.0
 14
0.0
 24
0.0
 34
0.0
 15
210.0
 25
297.0
 35
0.0
146
0.0
 13
0.0
 23
0.0
 33
0.0
 16
1.0
 26
0.0
 36
0.0
 17
0.0
 27
1.0
 37
0.0
 76
     0
330
1F
331
29
  0
MATERIAL
  5
45
102
{ACAD_REACTORS
330
43
102
}
330
43
100
AcDbMaterial
  1
ByBlock
 72
     1
 94
      127
  0
MATERIAL
  5
44
102
{ACAD_REACTORS
330
43
102
}
330
43
100
AcDbMaterial
  1
ByLayer
 72
     1
 94
      127
  0
MATERIAL
  5
46
102
{ACAD_REACTORS
330
43
102
}
330
43
100
AcDbMaterial
  1
Global
 72
     1
 94
      127
  0
MLEADERSTYLE
  5
5C
102
{ACAD_REACTORS
330
5B
102
}
330
5B
100
AcDbMLeaderStyle
179
     2
170
     2
171
     1
172
     0
 90
        2
 40
0.0
 41
0.0
173
     1
 91
-1056964608
340
14
 92
       -2
290
     1
 42
2.0
291
     1
 43
8.0
  3
Standard
341
0
 44
4.0
300

342
11
174
     1
178
     6
175
     1
176
     0
 93
-1056964608
 45
4.0
292
     0
297
     0
 46
4.0
343
0
 94
-1056964608
 47
1.0
 49
1.0
140
1.0
293
     1
141
0.0
294
     1
177
     0
142
1.0
295
     0
296
     0
143
3.75
271
     0
272
     9
273
     9
298
     0
  0
MLINESTYLE
  5
18
102
{ACAD_REACTORS
330
17
102
}
330
17
100
AcDbMlineStyle
  2
Standard
 70
     0
  3

 62
   256
 51
90.0
 52
90.0
 71
     2
 49
0.5
 62
   256
  6
BYLAYER
 49
-0.5
 62
   256
  6
BYLAYER
  0
ACDBPLACEHOLDER
  5
F
102
{ACAD_REACTORS
330
E
102
}
330
E
  0
SCALE
  5
48
102
{ACAD_REACTORS
330
47
102
}
330
47
100
AcDbScale
 70
     0
300
1:1
140
1.0
141
1.0
290
     1
  0
SCALE
  5
49
102
{ACAD_REACTORS
330
47
102
}
330
47
100
AcDbScale
 70
     0
300
1:2
140
1.0
141
2.0
290
     0
  0
SCALE
  5
4A
102
{ACAD_REACTORS
330
47
102
}
330
47
100
AcDbScale
 70
     0
300
1:4
140
1.0
141
4.0
290
     0
  0
SCALE
  5
4B
102
{ACAD_REACTORS
330
47
102
}
330
47
100
AcDbScale
 70
     0
300
1:5
140
1.0
141
5.0
290
     0
  0
SCALE
  5
4C
102
{ACAD_REACTORS
330
47
102
}
330
47
100
AcDbScale
 70
     0
300
1:8
140
1.0
141
8.0
290
     0
  0
SCALE
  5
4D
102
{ACAD_REACTORS
330
47
102
}
330
47
100
AcDbScale
 70
     0
300
1:10
140
1.0
141
10.0
290
     0
  0
SCALE
  5
4E
102
{ACAD_REACTORS
330
47
102
}
330
47
100
AcDbScale
 70
     0
300
1:16
140
1.0
141
16.0
290
     0
  0
SCALE
  5
4F
102
{ACAD_REACTORS
330
47
102
}
330
47
100
AcDbScale
 70
     0
300
1:20
140
1.0
141
20.0
290
     0
  0
SCALE
  5
50
102
{ACAD_REACTORS
330
47
102
}
330
47
100
AcDbScale
 70
     0
300
1:30
140
1.0
141
30.0
290
     0
  0
SCALE
  5
51
102
{ACAD_REACTORS
330
47
102
}
330
47
100
AcDbScale
 70
     0
300
1:40
140
1.0
141
40.0
290
     0
  0
SCALE
  5
52
102
{ACAD_REACTORS
330
47
102
}
330
47
100
AcDbScale
 70
     0
300
1:50
140
1.0
141
50.0
290
     0
  0
SCALE
  5
53
102
{ACAD_REACTORS
330
47
102
}
330
47
100
AcDbScale
 70
     0
300
1:100
140
1.0
141
100.0
290
     0
  0
SCALE
  5
54
102
{ACAD_REACTORS
330
47
102
}
330
47
100
AcDbScale
 70
     0
300
2:1
140
2.0
141
1.0
290
     0
  0
SCALE
  5
55
102
{ACAD_REACTORS
330
47
102
}
330
47
100
AcDbScale
 70
     0
300
4:1
140
4.0
141
1.0
290
     0
  0
SCALE
  5
56
102
{ACAD_REACTORS
330
47
102
}
330
47
100
AcDbScale
 70
     0
300
8:1
140
8.0
141
1.0
290
     0
  0
SCALE
  5
57
102
{ACAD_REACTORS
330
47
102
}
330
47
100
AcDbScale
 70
     0
300
10:1
140
10.0
141
1.0
290
     0
  0
SCALE
  5
58
102
{ACAD_REACTORS
330
47
102
}
330
47
100
AcDbScale
 70
     0
300
100:1
140
100.0
141
1.0
290
     0
  0
TABLESTYLE
  5
5A
102
{ACAD_REACTORS
330
59
102
}
102
{ACAD_XDICTIONARY
360
28C
102
}
330
59
100
AcDbTableStyle
  3
Standard
 70
     0
 71
     0
 40
0.06
 41
0.06
280
     0
281
     0
  7
STANDARD
140
4.5
170
     2
 62
     0
 63
   257
283
     0
 90
        4
 91
        0
  1

274
    -2
284
     1
 64
     0
275
    -2
285
     1
 65
     0
276
    -2
286
     1
 66
     0
277
    -2
287
     1
 67
     0
278
    -2
288
     1
 68
     0
279
    -2
289
     1
 69
     0
  7
STANDARD
140
6.0
170
     5
 62
     0
 63
   257
283
     0
 90
        4
 91
        0
  1

274
    -2
284
     1
 64
     0
275
    -2
285
     1
 65
     0
276
    -2
286
     1
 66
     0
277
    -2
287
     1
 67
     0
278
    -2
288
     1
 68
     0
279
    -2
289
     1
 69
     0
  7
STANDARD
140
4.5
170
     5
 62
     0
 63
   257
283
     0
 90
        4
 91
        0
  1

274
    -2
284
     1
 64
     0
275
    -2
285
     1
 65
     0
276
    -2
286
     1
 66
     0
277
    -2
287
     1
 67
     0
278
    -2
288
     1
 68
     0
279
    -2
289
     1
 69
     0
  0
VISUALSTYLE
  5
2F
102
{ACAD_REACTORS
330
2A
102
}
330
2A
100
AcDbVisualStyle
  2
2dWireframe
 70
     4
177
     3
291
     0
 70
    58
 90
        0
176
     1
 90
        2
176
     1
 90
        0
176
     1
 90
        0
176
     1
 40
0.6
176
     1
 40
30.0
176
     1
 62
     7
420
 16777215
176
     1
 90
        1
176
     1
 90
        4
176
     1
 62
     7
176
     1
 62
   257
176
     1
 90
        1
176
     1
 90
        1
176
     1
 40
1.0
176
     1
 90
        0
176
     1
 62
   257
176
     1
 40
1.0
176
     1
 90
        1
176
     1
 90
        6
176
     1
 90
        2
176
     1
 62
     7
176
     1
 90
        5
176
     1
 90
        0
176
     1
 90
        0
176
     1
290
     0
176
     1
 90
        1
176
     1
 40
0.0
176
     1
 90
        0
176
     1
290
     1
176
     1
290
     1
176
     1
290
     0
176
     1
290
     0
176
     1
290
     0
176
     1
290
     0
176
     1
290
     0
176
     1
290
     0
176
     1
290
     0
176
     1
 90
       50
176
     1
 40
0.0
176
     1
 40
1.0
176
     1
 90
        0
176
     1
 62
    18
420
        0
176
     1
 90
       50
176
     1
 90
        3
176
     1
 62
     5
420
      255
176
     1
290
     0
176
     1
 90
       50
176
     1
 90
       50
176
     1
 90
       50
176
     1
290
     0
176
     1
 90
       50
176
     1
 62
   256
176
     0
 40
1.0
176
     0
 90
        2
176
     1
  1
strokes_ogs.tif
176
     1
290
     0
176
     1
 40
1.0
176
     1
 40
1.0
176
     1
  0
VISUALSTYLE
  5
32
102
{ACAD_REACTORS
330
2A
102
}
330
2A
100
AcDbVisualStyle
  2
Basic
 70
     7
177
     3
291
     1
 70
    58
 90
        1
176
     1
 90
        0
176
     1
 90
        1
176
     1
 90
        0
176
     1
 40
0.6
176
     1
 40
30.0
176
     1
 62
     7
420
 16777215
176
     1
 90
        0
176
     1
 90
        4
176
     1
 62
     7
176
     1
 62
   257
176
     1
 90
        1
176
     1
 90
        1
176
     1
 40
1.0
176
     1
 90
        8
176
     1
 62
     7
176
     1
 40
1.0
176
     1
 90
        1
176
     1
 90
        6
176
     1
 90
        2
176
     1
 62
     7
176
     1
 90
        5
176
     1
 90
        0
176
     1
 90
        0
176
     1
290
     0
176
     1
 90
        1
176
     1
 40
0.0
176
     1
 90
        0
176
     1
290
     0
176
     1
290
     1
176
     1
290
     1
176
     1
290
     0
176
     1
290
     0
176
     1
290
     0
176
     1
290
     0
176
     1
290
     0
176
     1
290
     0
176
     1
 90
       50
176
     1
 40
0.0
176
     1
 40
1.0
176
     1
 90
        0
176
     1
 62
    18
420
        0
176
     1
 90
       50
176
     1
 90
        3
176
     1
 62
     5
420
      255
176
     1
290
     0
176
     1
 90
       50
176
     1
 90
       50
176
     1
 90
       50
176
     1
290
     0
176
     1
 90
       50
176
     1
 62
   256
176
     0
 40
1.0
176
     0
 90
        2
176
     1
  1
strokes_ogs.tif
176
     1
290
     0
176
     1
 40
1.0
176
     1
 40
1.0
176
     1
  0
VISUALSTYLE
  5
36
102
{ACAD_REACTORS
330
2A
102
}
330
2A
100
AcDbVisualStyle
  2
Brighten
 70
    12
177
     3
291
     1
 70
    58
 90
        2
176
     1
 90
        2
176
     1
 90
        0
176
     1
 90
        0
176
     1
 40
0.6
176
     1
 40
30.0
176
     1
 62
     7
420
 16777215
176
     1
 90
        1
176
     1
 90
        4
176
     1
 62
     7
176
     1
 62
   257
176
     1
 90
        1
176
     1
 90
        1
176
     1
 40
1.0
176
     1
 90
        8
176
     1
 62
     7
176
     1
 40
1.0
176
     1
 90
        1
176
     1
 90
        6
176
     1
 90
        2
176
     1
 62
     7
176
     1
 90
        5
176
     1
 90
        0
176
     1
 90
        0
176
     1
290
     0
176
     1
 90
        1
176
     1
 40
50.0
176
     1
 90
        0
176
     1
290
     0
176
     1
290
     1
176
     1
290
     1
176
     1
290
     0
176
     1
290
     0
176
     1
290
     0
176
     1
290
     0
176
     1
290
     0
176
     1
290
     0
176
     1
 90
       50
176
     1
 40
0.0
176
     1
 40
1.0
176
     1
 90
        0
176
     1
 62
    18
420
        0
176
     1
 90
       50
176
     1
 90
        3
176
     1
 62
     5
420
      255
176
     1
290
     0
176
     1
 90
       50
176
     1
 90
       50
176
     1
 90
       50
176
     1
290
     0
176
     1
 90
       50
176
     1
 62
   256
176
     0
 40
1.0
176
     0
 90
        2
176
     1
  1
strokes_ogs.tif
176
     1
290
     0
176
     1
 40
1.0
176
     1
 40
1.0
176
     1
  0
VISUALSTYLE
  5
3A
102
{ACAD_REACTORS
330
2A
102
}
330
2A
100
AcDbVisualStyle
  2
ColorChange
 70
    16
177
     3
291
     1
 70
    58
 90
        2
176
     1
 90
        2
176
     1
 90
        3
176
     1
 90
        0
176
     1
 40
0.6
176
     1
 40
30.0
176
     1
 62
     8
420
  8421504
176
     1
 90
        1
176
     1
 90
        4
176
     1
 62
     7
176
     1
 62
   257
176
     1
 90
        1
176
     1
 90
        1
176
     1
 40
1.0
176
     1
 90
        8
176
     1
 62
     8
420
  8421504
176
     1
 40
1.0
176
     1
 90
        1
176
     1
 90
        6
176
     1
 90
        2
176
     1
 62
     7
176
     1
 90
        5
176
     1
 90
        0
176
     1
 90
        0
176
     1
290
     0
176
     1
 90
        1
176
     1
 40
0.0
176
     1
 90
        0
176
     1
290
     0
176
     1
290
     1
176
     1
290
     1
176
     1
290
     0
176
     1
290
     0
176
     1
290
     0
176
     1
290
     0
176
     1
290
     0
176
     1
290
     0
176
     1
 90
       50
176
     1
 40
0.0
176
     1
 40
1.0
176
     1
 90
        0
176
     1
 62
    18
420
        0
176
     1
 90
       50
176
     1
 90
        3
176
     1
 62
     5
420
      255
176
     1
290
     0
176
     1
 90
       50
176
     1
 90
       50
176
     1
 90
       50
176
     1
290
     0
176
     1
 90
       50
176
     1
 62
   256
176
     0
 40
1.0
176
     0
 90
        2
176
     1
  1
strokes_ogs.tif
176
     1
290
     0
176
     1
 40
1.0
176
     1
 40
1.0
176
     1
  0
VISUALSTYLE
  5
34
102
{ACAD_REACTORS
330
2A
102
}
330
2A
100
AcDbVisualStyle
  2
Conceptual
 70
     9
177
     3
291
     0
 70
    58
 90
        3
176
     1
 90
        2
176
     1
 90
        0
176
     1
 90
        0
176
     1
 40
0.6
176
     1
 40
30.0
176
     1
 62
     7
420
 16777215
176
     1
 90
        2
176
     1
 90
        2
176
     1
 62
     7
176
     1
 62
   257
176
     1
 90
        1
176
     1
 90
        1
176
     1
 40
179.0
176
     1
 90
        8
176
     1
 62
     7
176
     1
 40
1.0
176
     1
 90
        1
176
     1
 90
        6
176
     1
 90
        2
176
     1
 62
     7
176
     1
 90
        3
176
     1
 90
        0
176
     1
 90
        0
176
     1
290
     0
176
     1
 90
        1
176
     1
 40
0.0
176
     1
 90
        0
176
     1
290
     0
176
     1
290
     1
176
     1
290
     1
176
     1
290
     0
176
     1
290
     0
176
     1
290
     0
176
     1
290
     0
176
     1
290
     0
176
     1
290
     0
176
     1
 90
       50
176
     1
 40
0.0
176
     1
 40
1.0
176
     1
 90
        0
176
     1
 62
    18
420
        0
176
     1
 90
       50
176
     1
 90
        3
176
     1
 62
     5
420
      255
176
     1
290
     0
176
     1
 90
       50
176
     1
 90
       50
176
     1
 90
       50
176
     1
290
     0
176
     1
 90
       50
176
     1
 62
   256
176
     0
 40
1.0
176
     0
 90
        2
176
     1
  1
strokes_ogs.tif
176
     1
290
     0
176
     1
 40
1.0
176
     1
 40
1.0
176
     1
  0
VISUALSTYLE
  5
35
102
{ACAD_REACTORS
330
2A
102
}
330
2A
100
AcDbVisualStyle
  2
Dim
 70
    11
177
     3
291
     1
 70
    58
 90
        2
176
     1
 90
        2
176
     1
 90
        0
176
     1
 90
        0
176
     1
 40
0.6
176
     1
 40
30.0
176
     1
 62
     7
420
 16777215
176
     1
 90
        1
176
     1
 90
        4
176
     1
 62
     7
176
     1
 62
   257
176
     1
 90
        1
176
     1
 90
        1
176
     1
 40
1.0
176
     1
 90
        8
176
     1
 62
     7
176
     1
 40
1.0
176
     1
 90
        1
176
     1
 90
        6
176
     1
 90
        2
176
     1
 62
     7
176
     1
 90
        5
176
     1
 90
        0
176
     1
 90
        0
176
     1
290
     0
176
     1
 90
        1
176
     1
 40
-50.0
176
     1
 90
        0
176
     1
290
     0
176
     1
290
     1
176
     1
290
     1
176
     1
290
     0
176
     1
290
     0
176
     1
290
     0
176
     1
290
     0
176
     1
290
     0
176
     1
290
     0
176
     1
 90
       50
176
     1
 40
0.0
176
     1
 40
1.0
176
     1
 90
        0
176
     1
 62
    18
420
        0
176
     1
 90
       50
176
     1
 90
        3
176
     1
 62
     5
420
      255
176
     1
290
     0
176
     1
 90
       50
176
     1
 90
       50
176
     1
 90
       50
176
     1
290
     0
176
     1
 90
       50
176
     1
 62
   256
176
     0
 40
1.0
176
     0
 90
        2
176
     1
  1
strokes_ogs.tif
176
     1
290
     0
176
     1
 40
1.0
176
     1
 40
1.0
176
     1
  0
VISUALSTYLE
  5
3D
102
{ACAD_REACTORS
330
2A
102
}
330
2A
100
AcDbVisualStyle
  2
EdgeColorOff
 70
    22
177
     3
291
     1
 70
    58
 90
        2
176
     0
 90
        2
176
     0
 90
        0
176
     0
 90
        0
176
     0
 40
0.6
176
     0
 40
30.0
176
     0
 62
     7
420
 16777215
176
     0
 90
        1
176
     0
 90
        4
176
     0
 62
     7
176
     0
 62
   257
176
     0
 90
        1
176
     0
 90
        1
176
     0
 40
1.0
176
     0
 90
        8
176
     2
 62
     7
176
     0
 40
1.0
176
     0
 90
        1
176
     0
 90
        6
176
     0
 90
        2
176
     0
 62
     7
176
     0
 90
        5
176
     0
 90
        0
176
     0
 90
        0
176
     0
290
     0
176
     0
 90
        1
176
     0
 40
0.0
176
     0
 90
        0
176
     0
290
     0
176
     0
290
     1
176
     0
290
     1
176
     0
290
     0
176
     0
290
     0
176
     0
290
     0
176
     0
290
     0
176
     0
290
     0
176
     0
290
     0
176
     0
 90
       50
176
     0
 40
0.0
176
     0
 40
1.0
176
     0
 90
        0
176
     0
 62
    18
420
        0
176
     0
 90
       50
176
     0
 90
        3
176
     0
 62
     5
420
      255
176
     0
290
     0
176
     0
 90
       50
176
     0
 90
       50
176
     0
 90
       50
176
     0
290
     0
176
     0
 90
       50
176
     0
 62
   256
176
     0
 40
1.0
176
     0
 90
        2
176
     0
  1
strokes_ogs.tif
176
     0
290
     0
176
     0
 40
1.0
176
     0
 40
1.0
176
     0
  0
VISUALSTYLE
  5
39
102
{ACAD_REACTORS
330
2A
102
}
330
2A
100
AcDbVisualStyle
  2
Facepattern
 70
    15
177
     3
291
     1
 70
    58
 90
        2
176
     1
 90
        2
176
     1
 90
        0
176
     1
 90
        0
176
     1
 40
0.6
176
     1
 40
30.0
176
     1
 62
     7
420
 16777215
176
     1
 90
        1
176
     1
 90
        4
176
     1
 62
     7
176
     1
 62
   257
176
     1
 90
        1
176
     1
 90
        1
176
     1
 40
1.0
176
     1
 90
        8
176
     1
 62
     7
176
     1
 40
1.0
176
     1
 90
        1
176
     1
 90
        6
176
     1
 90
        2
176
     1
 62
     7
176
     1
 90
        5
176
     1
 90
        0
176
     1
 90
        0
176
     1
290
     0
176
     1
 90
        1
176
     1
 40
0.0
176
     1
 90
        0
176
     1
290
     0
176
     1
290
     1
176
     1
290
     1
176
     1
290
     0
176
     1
290
     0
176
     1
290
     0
176
     1
290
     0
176
     1
290
     0
176
     1
290
     0
176
     1
 90
       50
176
     1
 40
0.0
176
     1
 40
1.0
176
     1
 90
        0
176
     1
 62
    18
420
        0
176
     1
 90
       50
176
     1
 90
        3
176
     1
 62
     5
420
      255
176
     1
290
     0
176
     1
 90
       50
176
     1
 90
       50
176
     1
 90
       50
176
     1
290
     0
176
     1
 90
       50
176
     1
 62
   256
176
     0
 40
1.0
176
     0
 90
        2
176
     1
  1
strokes_ogs.tif
176
     1
290
     0
176
     1
 40
1.0
176
     1
 40
1.0
176
     1
  0
VISUALSTYLE
  5
2B
102
{ACAD_REACTORS
330
2A
102
}
330
2A
100
AcDbVisualStyle
  2
Flat
 70
     0
177
     3
291
     1
 70
    58
 90
        2
176
     1
 90
        1
176
     1
 90
        1
176
     1
 90
        2
176
     1
 40
0.6
176
     1
 40
30.0
176
     1
 62
     7
420
 16777215
176
     1
 90
        0
176
     1
 90
        0
176
     1
 62
     7
176
     1
 62
   257
176
     1
 90
        1
176
     1
 90
        1
176
     1
 40
1.0
176
     1
 90
        8
176
     1
 62
     7
176
     1
 40
1.0
176
     1
 90
        1
176
     1
 90
        6
176
     1
 90
        2
176
     1
 62
     7
176
     1
 90
        5
176
     1
 90
        0
176
     1
 90
        0
176
     1
290
     0
176
     1
 90
       13
176
     1
 40
0.0
176
     1
 90
        0
176
     1
290
     0
176
     1
290
     1
176
     1
290
     1
176
     1
290
     0
176
     1
290
     0
176
     1
290
     0
176
     1
290
     0
176
     1
290
     0
176
     1
290
     0
176
     1
 90
       50
176
     1
 40
0.0
176
     1
 40
1.0
176
     1
 90
        0
176
     1
 62
    18
420
        0
176
     1
 90
       50
176
     1
 90
        3
176
     1
 62
     5
420
      255
176
     1
290
     0
176
     1
 90
       50
176
     1
 90
       50
176
     1
 90
       50
176
     1
290
     0
176
     1
 90
       50
176
     1
 62
   256
176
     0
 40
1.0
176
     0
 90
        2
176
     1
  1
strokes_ogs.tif
176
     1
290
     0
176
     1
 40
1.0
176
     1
 40
1.0
176
     1
  0
VISUALSTYLE
  5
2C
102
{ACAD_REACTORS
330
2A
102
}
330
2A
100
AcDbVisualStyle
  2
FlatWithEdges
 70
     1
177
     3
291
     1
 70
    58
 90
        2
176
     1
 90
        1
176
     1
 90
        1
176
     1
 90
        2
176
     1
 40
0.6
176
     1
 40
30.0
176
     1
 62
     7
420
 16777215
176
     1
 90
        1
176
     1
 90
        0
176
     1
 62
     7
176
     1
 62
   257
176
     1
 90
        1
176
     1
 90
        1
176
     1
 40
1.0
176
     1
 90
        0
176
     1
 62
   257
176
     1
 40
1.0
176
     1
 90
        1
176
     1
 90
        6
176
     1
 90
        2
176
     1
 62
     7
176
     1
 90
        5
176
     1
 90
        0
176
     1
 90
        0
176
     1
290
     0
176
     1
 90
       13
176
     1
 40
0.0
176
     1
 90
        0
176
     1
290
     0
176
     1
290
     1
176
     1
290
     1
176
     1
290
     0
176
     1
290
     0
176
     1
290
     0
176
     1
290
     0
176
     1
290
     0
176
     1
290
     0
176
     1
 90
       50
176
     1
 40
0.0
176
     1
 40
1.0
176
     1
 90
        0
176
     1
 62
    18
420
        0
176
     1
 90
       50
176
     1
 90
        3
176
     1
 62
     5
420
      255
176
     1
290
     0
176
     1
 90
       50
176
     1
 90
       50
176
     1
 90
       50
176
     1
290
     0
176
     1
 90
       50
176
     1
 62
   256
176
     0
 40
1.0
176
     0
 90
        2
176
     1
  1
strokes_ogs.tif
176
     1
290
     0
176
     1
 40
1.0
176
     1
 40
1.0
176
     1
  0
VISUALSTYLE
  5
2D
102
{ACAD_REACTORS
330
2A
102
}
330
2A
100
AcDbVisualStyle
  2
Gouraud
 70
     2
177
     3
291
     1
 70
    58
 90
        2
176
     1
 90
        2
176
     1
 90
        1
176
     1
 90
        2
176
     1
 40
0.6
176
     1
 40
30.0
176
     1
 62
     7
420
 16777215
176
     1
 90
        0
176
     1
 90
        0
176
     1
 62
     7
176
     1
 62
   257
176
     1
 90
        1
176
     1
 90
        1
176
     1
 40
1.0
176
     1
 90
        0
176
     1
 62
     7
176
     1
 40
1.0
176
     1
 90
        1
176
     1
 90
        6
176
     1
 90
        2
176
     1
 62
     7
176
     1
 90
        5
176
     1
 90
        0
176
     1
 90
        0
176
     1
290
     0
176
     1
 90
       13
176
     1
 40
0.0
176
     1
 90
        0
176
     1
290
     0
176
     1
290
     1
176
     1
290
     1
176
     1
290
     0
176
     1
290
     0
176
     1
290
     0
176
     1
290
     0
176
     1
290
     0
176
     1
290
     0
176
     1
 90
       50
176
     1
 40
0.0
176
     1
 40
1.0
176
     1
 90
        0
176
     1
 62
    18
420
        0
176
     1
 90
       50
176
     1
 90
        3
176
     1
 62
     5
420
      255
176
     1
290
     0
176
     1
 90
       50
176
     1
 90
       50
176
     1
 90
       50
176
     1
290
     0
176
     1
 90
       50
176
     1
 62
   256
176
     0
 40
1.0
176
     0
 90
        2
176
     1
  1
strokes_ogs.tif
176
     1
290
     0
176
     1
 40
1.0
176
     1
 40
1.0
176
     1
  0
VISUALSTYLE
  5
2E
102
{ACAD_REACTORS
330
2A
102
}
330
2A
100
AcDbVisualStyle
  2
GouraudWithEdges
 70
     3
177
     3
291
     1
 70
    58
 90
        2
176
     1
 90
        2
176
     1
 90
        1
176
     1
 90
        2
176
     1
 40
0.6
176
     1
 40
30.0
176
     1
 62
     7
420
 16777215
176
     1
 90
        1
176
     1
 90
        0
176
     1
 62
     7
176
     1
 62
   257
176
     1
 90
        1
176
     1
 90
        1
176
     1
 40
1.0
176
     1
 90
        0
176
     1
 62
   257
176
     1
 40
1.0
176
     1
 90
        1
176
     1
 90
        6
176
     1
 90
        2
176
     1
 62
     7
176
     1
 90
        5
176
     1
 90
        0
176
     1
 90
        0
176
     1
290
     0
176
     1
 90
       13
176
     1
 40
0.0
176
     1
 90
        0
176
     1
290
     0
176
     1
290
     1
176
     1
290
     1
176
     1
290
     0
176
     1
290
     0
176
     1
290
     0
176
     1
290
     0
176
     1
290
     0
176
     1
290
     0
176
     1
 90
       50
176
     1
 40
0.0
176
     1
 40
1.0
176
     1
 90
        0
176
     1
 62
    18
420
        0
176
     1
 90
       50
176
     1
 90
        3
176
     1
 62
     5
420
      255
176
     1
290
     0
176
     1
 90
       50
176
     1
 90
       50
176
     1
 90
       50
176
     1
290
     0
176
     1
 90
       50
176
     1
 62
   256
176
     0
 40
1.0
176
     0
 90
        2
176
     1
  1
strokes_ogs.tif
176
     1
290
     0
176
     1
 40
1.0
176
     1
 40
1.0
176
     1
  0
VISUALSTYLE
  5
31
102
{ACAD_REACTORS
330
2A
102
}
330
2A
100
AcDbVisualStyle
  2
Hidden
 70
     6
177
     3
291
     0
 70
    58
 90
        1
176
     1
 90
        2
176
     1
 90
        2
176
     1
 90
        0
176
     1
 40
0.6
176
     1
 40
30.0
176
     1
 62
     7
420
 16777215
176
     1
 90
        2
176
     1
 90
        2
176
     1
 62
     7
176
     1
 62
   257
176
     1
 90
        2
176
     1
 90
        1
176
     1
 40
40.0
176
     1
 90
        0
176
     1
 62
   257
176
     1
 40
1.0
176
     1
 90
        1
176
     1
 90
        6
176
     1
 90
        2
176
     1
 62
     7
176
     1
 90
        3
176
     1
 90
        0
176
     1
 90
        0
176
     1
290
     0
176
     1
 90
        1
176
     1
 40
0.0
176
     1
 90
        0
176
     1
290
     0
176
     1
290
     1
176
     1
290
     1
176
     1
290
     0
176
     1
290
     0
176
     1
290
     0
176
     1
290
     0
176
     1
290
     0
176
     1
290
     0
176
     1
 90
       50
176
     1
 40
0.0
176
     1
 40
1.0
176
     1
 90
        0
176
     1
 62
    18
420
        0
176
     1
 90
       50
176
     1
 90
        3
176
     1
 62
     5
420
      255
176
     1
290
     0
176
     1
 90
       50
176
     1
 90
       50
176
     1
 90
       50
176
     1
290
     0
176
     1
 90
       50
176
     1
 62
   256
176
     0
 40
1.0
176
     0
 90
        2
176
     1
  1
strokes_ogs.tif
176
     1
290
     0
176
     1
 40
1.0
176
     1
 40
1.0
176
     1
  0
VISUALSTYLE
  5
3B
102
{ACAD_REACTORS
330
2A
102
}
330
2A
100
AcDbVisualStyle
  2
JitterOff
 70
    20
177
     3
291
     1
 70
    58
 90
        2
176
     0
 90
        2
176
     0
 90
        0
176
     0
 90
        0
176
     0
 40
0.6
176
     0
 40
30.0
176
     0
 62
     7
420
 16777215
176
     0
 90
        1
176
     0
 90
        4
176
     0
 62
     7
176
     0
 62
   257
176
     0
 90
        1
176
     0
 90
        1
176
     0
 40
1.0
176
     0
 90
       10
176
     2
 62
     7
176
     0
 40
1.0
176
     0
 90
        1
176
     0
 90
        6
176
     0
 90
        2
176
     0
 62
     7
176
     0
 90
        5
176
     0
 90
        0
176
     0
 90
        0
176
     0
290
     0
176
     0
 90
        1
176
     0
 40
0.0
176
     0
 90
        0
176
     0
290
     0
176
     0
290
     1
176
     0
290
     1
176
     0
290
     0
176
     0
290
     0
176
     0
290
     0
176
     0
290
     0
176
     0
290
     0
176
     0
290
     0
176
     0
 90
       50
176
     0
 40
0.0
176
     0
 40
1.0
176
     0
 90
        0
176
     0
 62
    18
420
        0
176
     0
 90
       50
176
     0
 90
        3
176
     0
 62
     5
420
      255
176
     0
290
     0
176
     0
 90
       50
176
     0
 90
       50
176
     0
 90
       50
176
     0
290
     0
176
     0
 90
       50
176
     0
 62
   256
176
     0
 40
1.0
176
     0
 90
        2
176
     0
  1
strokes_ogs.tif
176
     0
290
     0
176
     0
 40
1.0
176
     0
 40
1.0
176
     0
  0
VISUALSTYLE
  5
38
102
{ACAD_REACTORS
330
2A
102
}
330
2A
100
AcDbVisualStyle
  2
Linepattern
 70
    14
177
     3
291
     1
 70
    58
 90
        2
176
     1
 90
        2
176
     1
 90
        0
176
     1
 90
        0
176
     1
 40
0.6
176
     1
 40
30.0
176
     1
 62
     7
420
 16777215
176
     1
 90
        1
176
     1
 90
        4
176
     1
 62
     7
176
     1
 62
   257
176
     1
 90
        7
176
     1
 90
        7
176
     1
 40
1.0
176
     1
 90
        8
176
     1
 62
     7
176
     1
 40
1.0
176
     1
 90
        1
176
     1
 90
        6
176
     1
 90
        2
176
     1
 62
     7
176
     1
 90
        5
176
     1
 90
        0
176
     1
 90
        0
176
     1
290
     0
176
     1
 90
        1
176
     1
 40
0.0
176
     1
 90
        0
176
     1
290
     0
176
     1
290
     1
176
     1
290
     1
176
     1
290
     0
176
     1
290
     0
176
     1
290
     0
176
     1
290
     0
176
     1
290
     0
176
     1
290
     0
176
     1
 90
       50
176
     1
 40
0.0
176
     1
 40
1.0
176
     1
 90
        0
176
     1
 62
    18
420
        0
176
     1
 90
       50
176
     1
 90
        3
176
     1
 62
     5
420
      255
176
     1
290
     0
176
     1
 90
       50
176
     1
 90
       50
176
     1
 90
       50
176
     1
290
     0
176
     1
 90
       50
176
     1
 62
   256
176
     0
 40
1.0
176
     0
 90
        2
176
     1
  1
strokes_ogs.tif
176
     1
290
     0
176
     1
 40
1.0
176
     1
 40
1.0
176
     1
  0
VISUALSTYLE
  5
3C
102
{ACAD_REACTORS
330
2A
102
}
330
2A
100
AcDbVisualStyle
  2
OverhangOff
 70
    21
177
     3
291
     1
 70
    58
 90
        2
176
     0
 90
        2
176
     0
 90
        0
176
     0
 90
        0
176
     0
 40
0.6
176
     0
 40
30.0
176
     0
 62
     7
420
 16777215
176
     0
 90
        1
176
     0
 90
        4
176
     0
 62
     7
176
     0
 62
   257
176
     0
 90
        1
176
     0
 90
        1
176
     0
 40
1.0
176
     0
 90
        9
176
     2
 62
     7
176
     0
 40
1.0
176
     0
 90
        1
176
     0
 90
        6
176
     0
 90
        2
176
     0
 62
     7
176
     0
 90
        5
176
     0
 90
        0
176
     0
 90
        0
176
     0
290
     0
176
     0
 90
        1
176
     0
 40
0.0
176
     0
 90
        0
176
     0
290
     0
176
     0
290
     1
176
     0
290
     1
176
     0
290
     0
176
     0
290
     0
176
     0
290
     0
176
     0
290
     0
176
     0
290
     0
176
     0
290
     0
176
     0
 90
       50
176
     0
 40
0.0
176
     0
 40
1.0
176
     0
 90
        0
176
     0
 62
    18
420
        0
176
     0
 90
       50
176
     0
 90
        3
176
     0
 62
     5
420
      255
176
     0
290
     0
176
     0
 90
       50
176
     0
 90
       50
176
     0
 90
       50
176
     0
290
     0
176
     0
 90
       50
176
     0
 62
   256
176
     0
 40
1.0
176
     0
 90
        2
176
     0
  1
strokes_ogs.tif
176
     0
290
     0
176
     0
 40
1.0
176
     0
 40
1.0
176
     0
  0
VISUALSTYLE
  5
33
102
{ACAD_REACTORS
330
2A
102
}
330
2A
100
AcDbVisualStyle
  2
Realistic
 70
     8
177
     3
291
     0
 70
    58
 90
        2
176
     1
 90
        3
176
     1
 90
        0
176
     1
 90
        2
176
     1
 40
0.6
176
     1
 40
30.0
176
     1
 62
     7
420
 16777215
176
     1
 90
        0
176
     1
 90
        0
176
     1
 62
     7
176
     1
 62
   257
176
     1
 90
        1
176
     1
 90
        1
176
     1
 40
1.0
176
     1
 90
        8
176
     1
 62
   257
176
     1
 40
1.0
176
     1
 90
        1
176
     1
 90
        6
176
     1
 90
        2
176
     1
 62
     7
176
     1
 90
        3
176
     1
 90
        0
176
     1
 90
        0
176
     1
290
     0
176
     1
 90
       13
176
     1
 40
0.0
176
     1
 90
        0
176
     1
290
     0
176
     1
290
     1
176
     1
290
     1
176
     1
290
     0
176
     1
290
     0
176
     1
290
     0
176
     1
290
     0
176
     1
290
     0
176
     1
290
     0
176
     1
 90
       50
176
     1
 40
0.0
176
     1
 40
1.0
176
     1
 90
        0
176
     1
 62
    18
420
        0
176
     1
 90
       50
176
     1
 90
        3
176
     1
 62
     5
420
      255
176
     1
290
     0
176
     1
 90
       50
176
     1
 90
       50
176
     1
 90
       50
176
     1
290
     0
176
     1
 90
       50
176
     1
 62
   256
176
     0
 40
1.0
176
     0
 90
        2
176
     1
  1
strokes_ogs.tif
176
     1
290
     0
176
     1
 40
1.0
176
     1
 40
1.0
176
     1
  0
VISUALSTYLE
  5
42
102
{ACAD_REACTORS
330
2A
102
}
330
2A
100
AcDbVisualStyle
  2
Shaded
 70
    27
177
     3
291
     0
 70
    58
 90
        2
176
     1
 90
        2
176
     1
 90
        1
176
     1
 90
        2
176
     1
 40
0.6
176
     1
 40
30.0
176
     1
 62
     7
420
 16777215
176
     1
 90
        0
176
     1
 90
        4
176
     1
 62
     7
176
     1
 62
   257
176
     1
 90
        1
176
     1
 90
        1
176
     1
 40
1.0
176
     1
 90
        8
176
     1
 62
   257
176
     1
 40
1.0
176
     1
 90
        1
176
     1
 90
        6
176
     1
 90
        2
176
     1
 62
     8
420
  7895160
176
     1
 90
        3
176
     1
 90
        0
176
     1
 90
        0
176
     1
290
     0
176
     1
 90
        5
176
     1
 40
0.0
176
     1
 90
        0
176
     1
290
     0
176
     1
290
     1
176
     1
290
     1
176
     1
290
     0
176
     1
290
     0
176
     1
290
     0
176
     1
290
     0
176
     1
290
     0
176
     1
290
     0
176
     1
 90
       50
176
     1
 40
0.0
176
     1
 40
1.0
176
     1
 90
        0
176
     1
 62
    18
420
        0
176
     1
 90
       50
176
     1
 90
        3
176
     1
 62
     5
420
      255
176
     1
290
     0
176
     1
 90
       50
176
     1
 90
       50
176
     1
 90
       50
176
     1
290
     0
176
     1
 90
       50
176
     1
 62
   256
176
     0
 40
1.0
176
     0
 90
        2
176
     1
  1
strokes_ogs.tif
176
     1
290
     0
176
     1
 40
1.0
176
     1
 40
1.0
176
     1
  0
VISUALSTYLE
  5
41
102
{ACAD_REACTORS
330
2A
102
}
330
2A
100
AcDbVisualStyle
  2
Shaded with edges
 70
    26
177
     3
291
     0
 70
    58
 90
        2
176
     1
 90
        2
176
     1
 90
        1
176
     1
 90
        2
176
     1
 40
0.6
176
     1
 40
30.0
176
     1
 62
     7
420
 16777215
176
     1
 90
        1
176
     1
 90
       10
176
     1
 62
     7
176
     1
 62
   257
176
     1
 90
        2
176
     1
 90
        1
176
     1
 40
1.0
176
     1
 90
        8
176
     1
 62
   257
176
     1
 40
1.0
176
     1
 90
        1
176
     1
 90
        6
176
     1
 90
        2
176
     1
 62
     7
176
     1
 90
        3
176
     1
 90
        0
176
     1
 90
        0
176
     1
290
     0
176
     1
 90
        5
176
     1
 40
0.0
176
     1
 90
        0
176
     1
290
     0
176
     1
290
     1
176
     1
290
     1
176
     1
290
     0
176
     1
290
     0
176
     1
290
     0
176
     1
290
     0
176
     1
290
     0
176
     1
290
     0
176
     1
 90
       50
176
     1
 40
0.0
176
     1
 40
1.0
176
     1
 90
        0
176
     1
 62
    18
420
        0
176
     1
 90
       50
176
     1
 90
        3
176
     1
 62
     5
420
      255
176
     1
290
     0
176
     1
 90
       50
176
     1
 90
       50
176
     1
 90
       50
176
     1
290
     0
176
     1
 90
       50
176
     1
 62
   256
176
     0
 40
1.0
176
     0
 90
        2
176
     1
  1
strokes_ogs.tif
176
     1
290
     0
176
     1
 40
1.0
176
     1
 40
1.0
176
     1
  0
VISUALSTYLE
  5
3E
102
{ACAD_REACTORS
330
2A
102
}
330
2A
100
AcDbVisualStyle
  2
Shades of Gray
 70
    23
177
     3
291
     0
 70
    58
 90
        2
176
     1
 90
        2
176
     1
 90
        3
176
     1
 90
        0
176
     1
 40
0.6
176
     1
 40
30.0
176
     1
 62
     7
420
 16777215
176
     1
 90
        2
176
     1
 90
        2
176
     1
 62
     7
176
     1
 62
     7
176
     1
 90
        1
176
     1
 90
        1
176
     1
 40
40.0
176
     1
 90
        8
176
     1
 62
     7
176
     1
 40
1.0
176
     1
 90
        1
176
     1
 90
        6
176
     1
 90
        2
176
     1
 62
     7
176
     1
 90
        3
176
     1
 90
        0
176
     1
 90
        0
176
     1
290
     0
176
     1
 90
        1
176
     1
 40
0.0
176
     1
 90
        0
176
     1
290
     0
176
     1
290
     1
176
     1
290
     1
176
     1
290
     0
176
     1
290
     0
176
     1
290
     0
176
     1
290
     0
176
     1
290
     0
176
     1
290
     0
176
     1
 90
       50
176
     1
 40
0.0
176
     1
 40
1.0
176
     1
 90
        0
176
     1
 62
    18
420
        0
176
     1
 90
       50
176
     1
 90
        3
176
     1
 62
     5
420
      255
176
     1
290
     0
176
     1
 90
       50
176
     1
 90
       50
176
     1
 90
       50
176
     1
290
     0
176
     1
 90
       50
176
     1
 62
   256
176
     0
 40
1.0
176
     0
 90
        2
176
     1
  1
strokes_ogs.tif
176
     1
290
     0
176
     1
 40
1.0
176
     1
 40
1.0
176
     1
  0
VISUALSTYLE
  5
3F
102
{ACAD_REACTORS
330
2A
102
}
330
2A
100
AcDbVisualStyle
  2
Sketchy
 70
    24
177
     3
291
     0
 70
    58
 90
        1
176
     1
 90
        2
176
     1
 90
        2
176
     1
 90
        0
176
     1
 40
0.6
176
     1
 40
30.0
176
     1
 62
     7
420
 16777215
176
     1
 90
        2
176
     1
 90
        2
176
     1
 62
     7
176
     1
 62
     7
176
     1
 90
        1
176
     1
 90
        1
176
     1
 40
40.0
176
     1
 90
       11
176
     1
 62
     7
176
     1
 40
1.0
176
     1
 90
        1
176
     1
 90
        6
176
     1
 90
        2
176
     1
 62
     7
176
     1
 90
        6
176
     1
 90
        0
176
     1
 90
        0
176
     1
290
     0
176
     1
 90
        1
176
     1
 40
0.0
176
     1
 90
        0
176
     1
290
     0
176
     1
290
     1
176
     1
290
     1
176
     1
290
     0
176
     1
290
     0
176
     1
290
     0
176
     1
290
     0
176
     1
290
     0
176
     1
290
     0
176
     1
 90
       50
176
     1
 40
0.0
176
     1
 40
1.0
176
     1
 90
        0
176
     1
 62
    18
420
        0
176
     1
 90
       50
176
     1
 90
        3
176
     1
 62
     5
420
      255
176
     1
290
     0
176
     1
 90
       50
176
     1
 90
       50
176
     1
 90
       50
176
     1
290
     0
176
     1
 90
       50
176
     1
 62
   256
176
     0
 40
1.0
176
     0
 90
        2
176
     1
  1
strokes_ogs.tif
176
     1
290
     0
176
     1
 40
1.0
176
     1
 40
1.0
176
     1
  0
VISUALSTYLE
  5
37
102
{ACAD_REACTORS
330
2A
102
}
330
2A
100
AcDbVisualStyle
  2
Thicken
 70
    13
177
     3
291
     1
 70
    58
 90
        2
176
     1
 90
        2
176
     1
 90
        0
176
     1
 90
        0
176
     1
 40
0.6
176
     1
 40
30.0
176
     1
 62
     7
420
 16777215
176
     1
 90
        1
176
     1
 90
        4
176
     1
 62
     7
176
     1
 62
   257
176
     1
 90
        1
176
     1
 90
        1
176
     1
 40
1.0
176
     1
 90
       12
176
     1
 62
     7
176
     1
 40
1.0
176
     1
 90
        1
176
     1
 90
        6
176
     1
 90
        2
176
     1
 62
     7
176
     1
 90
        5
176
     1
 90
        0
176
     1
 90
        0
176
     1
290
     0
176
     1
 90
        1
176
     1
 40
0.0
176
     1
 90
        0
176
     1
290
     0
176
     1
290
     1
176
     1
290
     1
176
     1
290
     0
176
     1
290
     0
176
     1
290
     0
176
     1
290
     0
176
     1
290
     0
176
     1
290
     0
176
     1
 90
       50
176
     1
 40
0.0
176
     1
 40
1.0
176
     1
 90
        0
176
     1
 62
    18
420
        0
176
     1
 90
       50
176
     1
 90
        3
176
     1
 62
     5
420
      255
176
     1
290
     0
176
     1
 90
       50
176
     1
 90
       50
176
     1
 90
       50
176
     1
290
     0
176
     1
 90
       50
176
     1
 62
   256
176
     0
 40
1.0
176
     0
 90
        2
176
     1
  1
strokes_ogs.tif
176
     1
290
     0
176
     1
 40
1.0
176
     1
 40
1.0
176
     1
  0
VISUALSTYLE
  5
30
102
{ACAD_REACTORS
330
2A
102
}
330
2A
100
AcDbVisualStyle
  2
Wireframe
 70
     5
177
     3
291
     0
 70
    58
 90
        0
176
     1
 90
        2
176
     1
 90
        0
176
     1
 90
        0
176
     1
 40
0.6
176
     1
 40
30.0
176
     1
 62
     7
420
 16777215
176
     1
 90
        1
176
     1
 90
        4
176
     1
 62
     7
176
     1
 62
   257
176
     1
 90
        1
176
     1
 90
        1
176
     1
 40
1.0
176
     1
 90
        0
176
     1
 62
   257
176
     1
 40
1.0
176
     1
 90
        1
176
     1
 90
        6
176
     1
 90
        2
176
     1
 62
     7
176
     1
 90
        3
176
     1
 90
        0
176
     1
 90
        0
176
     1
290
     0
176
     1
 90
        1
176
     1
 40
0.0
176
     1
 90
        0
176
     1
290
     0
176
     1
290
     1
176
     1
290
     1
176
     1
290
     0
176
     1
290
     0
176
     1
290
     0
176
     1
290
     0
176
     1
290
     0
176
     1
290
     0
176
     1
 90
       50
176
     1
 40
0.0
176
     1
 40
1.0
176
     1
 90
        0
176
     1
 62
    18
420
        0
176
     1
 90
       50
176
     1
 90
        3
176
     1
 62
     5
420
      255
176
     1
290
     0
176
     1
 90
       50
176
     1
 90
       50
176
     1
 90
       50
176
     1
290
     0
176
     1
 90
       50
176
     1
 62
   256
176
     0
 40
1.0
176
     0
 90
        2
176
     1
  1
strokes_ogs.tif
176
     1
290
     0
176
     1
 40
1.0
176
     1
 40
1.0
176
     1
  0
VISUALSTYLE
  5
40
102
{ACAD_REACTORS
330
2A
102
}
330
2A
100
AcDbVisualStyle
  2
X-Ray
 70
    25
177
     3
291
     0
 70
    58
 90
        2
176
     1
 90
        2
176
     1
 90
        1
176
     1
 90
        1
176
     1
 40
0.5
176
     1
 40
30.0
176
     1
 62
     7
420
 16777215
176
     1
 90
        1
176
     1
 90
        0
176
     1
 62
     7
176
     1
 62
   257
176
     1
 90
        1
176
     1
 90
        1
176
     1
 40
1.0
176
     1
 90
        8
176
     1
 62
     7
176
     1
 40
1.0
176
     1
 90
        1
176
     1
 90
        6
176
     1
 90
        2
176
     1
 62
     7
176
     1
 90
        3
176
     1
 90
        0
176
     1
 90
        0
176
     1
290
     0
176
     1
 90
       13
176
     1
 40
0.0
176
     1
 90
        0
176
     1
290
     0
176
     1
290
     1
176
     1
290
     1
176
     1
290
     0
176
     1
290
     0
176
     1
290
     0
176
     1
290
     0
176
     1
290
     0
176
     1
290
     0
176
     1
 90
       50
176
     1
 40
0.0
176
     1
 40
1.0
176
     1
 90
        0
176
     1
 62
    18
420
        0
176
     1
 90
       50
176
     1
 90
        3
176
     1
 62
     5
420
      255
176
     1
290
     0
176
     1
 90
       50
176
     1
 90
       50
176
     1
 90
       50
176
     1
290
     0
176
     1
 90
       50
176
     1
 62
   256
176
     0
 40
1.0
176
     0
 90
        2
176
     1
  1
strokes_ogs.tif
176
     1
290
     0
176
     1
 40
1.0
176
     1
 40
1.0
176
     1
  0
DICTIONARYVAR
  5
28B
102
{ACAD_REACTORS
330
28A
102
}
330
28A
100
DictionaryVariables
280
     0
  1
1:1
  0
DICTIONARYVAR
  5
293
102
{ACAD_REACTORS
330
28A
102
}
330
28A
100
DictionaryVariables
280
     0
  1
3.500000
  0
DICTIONARYVAR
  5
294
102
{ACAD_REACTORS
330
28A
102
}
330
28A
100
DictionaryVariables
280
     0
  1
acadiso.lin
  0
DICTIONARYVAR
  5
290
102
{ACAD_REACTORS
330
28A
102
}
330
28A
100
DictionaryVariables
280
     0
  1
Standard
  0
DICTIONARYVAR
  5
28F
102
{ACAD_REACTORS
330
28A
102
}
330
28A
100
DictionaryVariables
280
     0
  1
Standard
  0
DICTIONARY
  5
28C
330
5A
100
AcDbDictionary
280
     1
281
     1
  3
ACAD_ROUNDTRIP_2008_TABLESTYLE_CELLSTYLEMAP
360
28D
  0
CELLSTYLEMAP
  5
28D
102
{ACAD_REACTORS
330
28C
102
}
330
28C
100
AcDbCellStyleMap
 90
        3
300
CELLSTYLE
  1
TABLEFORMAT_BEGIN
 90
        5
170
     1
 91
        0
 92
    32768
 62
   257
 93
        1
300
CONTENTFORMAT
  1
CONTENTFORMAT_BEGIN
 90
        0
 91
        0
 92
        4
 93
        0
300

 40
0.0
140
1.0
 94
        5
 62
     0
340
11
144
6.0
309
CONTENTFORMAT_END
171
     1
301
MARGIN
  1
CELLMARGIN_BEGIN
 40
1.5
 40
1.5
 40
1.5
 40
1.5
 40
1.5
 40
1.5
309
CELLMARGIN_END
 94
        6
 95
        1
302
GRIDFORMAT
  1
GRIDFORMAT_BEGIN
 90
        0
 91
        1
 62
     0
 92
       -2
340
14
 93
        0
 40
0.045
309
GRIDFORMAT_END
 95
        2
302
GRIDFORMAT
  1
GRIDFORMAT_BEGIN
 90
        0
 91
        1
 62
     0
 92
       -2
340
14
 93
        0
 40
0.045
309
GRIDFORMAT_END
 95
        4
302
GRIDFORMAT
  1
GRIDFORMAT_BEGIN
 90
        0
 91
        1
 62
     0
 92
       -2
340
14
 93
        0
 40
0.045
309
GRIDFORMAT_END
 95
        8
302
GRIDFORMAT
  1
GRIDFORMAT_BEGIN
 90
        0
 91
        1
 62
     0
 92
       -2
340
14
 93
        0
 40
0.045
309
GRIDFORMAT_END
 95
       16
302
GRIDFORMAT
  1
GRIDFORMAT_BEGIN
 90
        0
 91
        1
 62
     0
 92
       -2
340
14
 93
        0
 40
0.045
309
GRIDFORMAT_END
 95
       32
302
GRIDFORMAT
  1
GRIDFORMAT_BEGIN
 90
        0
 91
        1
 62
     0
 92
       -2
340
14
 93
        0
 40
0.045
309
GRIDFORMAT_END
309
TABLEFORMAT_END
  1
CELLSTYLE_BEGIN
 90
        1
 91
        1
300
_TITLE
309
CELLSTYLE_END
300
CELLSTYLE
  1
TABLEFORMAT_BEGIN
 90
        5
170
     1
 91
        0
 92
        0
 62
   257
 93
        1
300
CONTENTFORMAT
  1
CONTENTFORMAT_BEGIN
 90
        0
 91
        0
 92
        4
 93
        0
300

 40
0.0
140
1.0
 94
        5
 62
     0
340
11
144
4.5
309
CONTENTFORMAT_END
171
     1
301
MARGIN
  1
CELLMARGIN_BEGIN
 40
1.5
 40
1.5
 40
1.5
 40
1.5
 40
1.5
 40
1.5
309
CELLMARGIN_END
 94
        6
 95
        1
302
GRIDFORMAT
  1
GRIDFORMAT_BEGIN
 90
        0
 91
        1
 62
     0
 92
       -2
340
14
 93
        0
 40
0.045
309
GRIDFORMAT_END
 95
        2
302
GRIDFORMAT
  1
GRIDFORMAT_BEGIN
 90
        0
 91
        1
 62
     0
 92
       -2
340
14
 93
        0
 40
0.045
309
GRIDFORMAT_END
 95
        4
302
GRIDFORMAT
  1
GRIDFORMAT_BEGIN
 90
        0
 91
        1
 62
     0
 92
       -2
340
14
 93
        0
 40
0.045
309
GRIDFORMAT_END
 95
        8
302
GRIDFORMAT
  1
GRIDFORMAT_BEGIN
 90
        0
 91
        1
 62
     0
 92
       -2
340
14
 93
        0
 40
0.045
309
GRIDFORMAT_END
 95
       16
302
GRIDFORMAT
  1
GRIDFORMAT_BEGIN
 90
        0
 91
        1
 62
     0
 92
       -2
340
14
 93
        0
 40
0.045
309
GRIDFORMAT_END
 95
       32
302
GRIDFORMAT
  1
GRIDFORMAT_BEGIN
 90
        0
 91
        1
 62
     0
 92
       -2
340
14
 93
        0
 40
0.045
309
GRIDFORMAT_END
309
TABLEFORMAT_END
  1
CELLSTYLE_BEGIN
 90
        2
 91
        1
300
_HEADER
309
CELLSTYLE_END
300
CELLSTYLE
  1
TABLEFORMAT_BEGIN
 90
        5
170
     1
 91
        0
 92
        0
 62
   257
 93
        1
300
CONTENTFORMAT
  1
CONTENTFORMAT_BEGIN
 90
        0
 91
        0
 92
        4
 93
        0
300

 40
0.0
140
1.0
 94
        2
 62
     0
340
11
144
4.5
309
CONTENTFORMAT_END
171
     1
301
MARGIN
  1
CELLMARGIN_BEGIN
 40
1.5
 40
1.5
 40
1.5
 40
1.5
 40
1.5
 40
1.5
309
CELLMARGIN_END
 94
        6
 95
        1
302
GRIDFORMAT
  1
GRIDFORMAT_BEGIN
 90
        0
 91
        1
 62
     0
 92
       -2
340
14
 93
        0
 40
0.045
309
GRIDFORMAT_END
 95
        2
302
GRIDFORMAT
  1
GRIDFORMAT_BEGIN
 90
        0
 91
        1
 62
     0
 92
       -2
340
14
 93
        0
 40
0.045
309
GRIDFORMAT_END
 95
        4
302
GRIDFORMAT
  1
GRIDFORMAT_BEGIN
 90
        0
 91
        1
 62
     0
 92
       -2
340
14
 93
        0
 40
0.045
309
GRIDFORMAT_END
 95
        8
302
GRIDFORMAT
  1
GRIDFORMAT_BEGIN
 90
        0
 91
        1
 62
     0
 92
       -2
340
14
 93
        0
 40
0.045
309
GRIDFORMAT_END
 95
       16
302
GRIDFORMAT
  1
GRIDFORMAT_BEGIN
 90
        0
 91
        1
 62
     0
 92
       -2
340
14
 93
        0
 40
0.045
309
GRIDFORMAT_END
 95
       32
302
GRIDFORMAT
  1
GRIDFORMAT_BEGIN
 90
        0
 91
        1
 62
     0
 92
       -2
340
14
 93
        0
 40
0.045
309
GRIDFORMAT_END
309
TABLEFORMAT_END
  1
CELLSTYLE_BEGIN
 90
        3
 91
        2
300
_DATA
309
CELLSTYLE_END
  0
ENDSEC
  0
EOF
