  0
SECTION
  2
HEADER
  9
$ACADVER
  1
AC1027
  9
$ACADMAINTVER
 70
   105
  9
$DWGCODEPAGE
  3
ANSI_1252
  9
$LASTSAVEDBY
  1
p.perez
  9
$REQUIREDVERSIONS
160
                 0
  9
$INSBASE
 10
0.0
 20
0.0
 30
0.0
  9
$EXTMIN
 10
0.0
 20
0.0
 30
0.0
  9
$EXTMAX
 10
420.0
 20
297.0
 30
0.0
  9
$LIMMIN
 10
0.0
 20
0.0
  9
$LIMMAX
 10
420.0
 20
297.0
  9
$ORTHOMODE
 70
     0
  9
$REGENMODE
 70
     1
  9
$FILLMODE
 70
     1
  9
$QTEXTMODE
 70
     0
  9
$MIRRTEXT
 70
     1
  9
$LTSCALE
 40
1.0
  9
$ATTMODE
 70
     1
  9
$TEXTSIZE
 40
3.5
  9
$TRACEWID
 40
1.0
  9
$TEXTSTYLE
  7
Standard
  9
$CLAYER
  8
0
  9
$CELTYPE
  6
ByLayer
  9
$CECOLOR
 62
   256
  9
$CELTSCALE
 40
1.0
  9
$DISPSILH
 70
     0
  9
$DIMSCALE
 40
1.0
  9
$DIMASZ
 40
3.5
  9
$DIMEXO
 40
1.0
  9
$DIMDLI
 40
3.75
  9
$DIMRND
 40
0.0
  9
$DIMDLE
 40
0.0
  9
$DIMEXE
 40
1.0
  9
$DIMTP
 40
0.0
  9
$DIMTM
 40
0.0
  9
$DIMTXT
 40
3.5
  9
$DIMCEN
 40
2.5
  9
$DIMTSZ
 40
0.0
  9
$DIMTOL
 70
     0
  9
$DIMLIM
 70
     0
  9
$DIMTIH
 70
     1
  9
$DIMTOH
 70
     1
  9
$DIMSE1
 70
     0
  9
$DIMSE2
 70
     0
  9
$DIMTAD
 70
     1
  9
$DIMZIN
 70
     0
  9
$DIMBLK
  1

  9
$DIMASO
 70
     1
  9
$DIMSHO
 70
     1
  9
$DIMPOST
  1

  9
$DIMAPOST
  1

  9
$DIMALT
 70
     0
  9
$DIMALTD
 70
     3
  9
$DIMALTF
 40
0.0393700787
  9
$DIMLFAC
 40
1.0
  9
$DIMTOFL
 70
     1
  9
$DIMTVP
 40
0.0
  9
$DIMTIX
 70
     0
  9
$DIMSOXD
 70
     0
  9
$DIMSAH
 70
     0
  9
$DIMBLK1
  1

  9
$DIMBLK2
  1

  9
$DIMSTYLE
  2
ISO-25
  9
$DIMCLRD
 70
     0
  9
$DIMCLRE
 70
     0
  9
$DIMCLRT
 70
     0
  9
$DIMTFAC
 40
1.0
  9
$DIMGAP
 40
4.0
  9
$DIMJUST
 70
     0
  9
$DIMSD1
 70
     0
  9
$DIMSD2
 70
     0
  9
$DIMTOLJ
 70
     0
  9
$DIMTZIN
 70
     0
  9
$DIMALTZ
 70
     0
  9
$DIMALTTZ
 70
     0
  9
$DIMUPT
 70
     0
  9
$DIMDEC
 70
     1
  9
$DIMTDEC
 70
     1
  9
$DIMALTU
 70
     2
  9
$DIMALTTD
 70
     3
  9
$DIMTXSTY
  7
Standard
  9
$DIMAUNIT
 70
     0
  9
$DIMADEC
 70
     1
  9
$DIMALTRND
 40
0.0
  9
$DIMAZIN
 70
     0
  9
$DIMDSEP
 70
    44
  9
$DIMATFIT
 70
     3
  9
$DIMFRAC
 70
     0
  9
$DIMLDRBLK
  1

  9
$DIMLUNIT
 70
     2
  9
$DIMLWD
 70
    -2
  9
$DIMLWE
 70
    -2
  9
$DIMTMOVE
 70
     0
  9
$DIMFXL
 40
1.0
  9
$DIMFXLON
 70
     0
  9
$DIMJOGANG
 40
0.7853981634
  9
$DIMTFILL
 70
     0
  9
$DIMTFILLCLR
 70
     0
  9
$DIMARCSYM
 70
     0
  9
$DIMLTYPE
  6

  9
$DIMLTEX1
  6

  9
$DIMLTEX2
  6

  9
$DIMTXTDIRECTION
 70
     0
  9
$LUNITS
 70
     2
  9
$LUPREC
 70
     1
  9
$SKETCHINC
 40
1.0
  9
$FILLETRAD
 40
10.0
  9
$AUNITS
 70
     0
  9
$AUPREC
 70
     1
  9
$MENU
  1
.
  9
$ELEVATION
 40
0.0
  9
$PELEVATION
 40
0.0
  9
$THICKNESS
 40
0.0
  9
$LIMCHECK
 70
     0
  9
$CHAMFERA
 40
0.0
  9
$CHAMFERB
 40
0.0
  9
$CHAMFERC
 40
0.0
  9
$CHAMFERD
 40
0.0
  9
$SKPOLY
 70
     0
  9
$TDCREATE
 40
2459675.333194398
  9
$TDUCREATE
 40
2459675.249861065
  9
$TDUPDATE
 40
2459675.333197442
  9
$TDUUPDATE
 40
2459675.249864109
  9
$TDINDWG
 40
0.0000000116
  9
$TDUSRTIMER
 40
0.0000000116
  9
$USRTIMER
 70
     1
  9
$ANGBASE
 50
0.0
  9
$ANGDIR
 70
     0
  9
$PDMODE
 70
     0
  9
$PDSIZE
 40
-1.0
  9
$PLINEWID
 40
0.0
  9
$SPLFRAME
 70
     0
  9
$SPLINETYPE
 70
     6
  9
$SPLINESEGS
 70
     8
  9
$HANDSEED
  5
35C
  9
$SURFTAB1
 70
     6
  9
$SURFTAB2
 70
     6
  9
$SURFTYPE
 70
     6
  9
$SURFU
 70
     6
  9
$SURFV
 70
     6
  9
$UCSBASE
  2

  9
$UCSNAME
  2

  9
$UCSORG
 10
0.0
 20
0.0
 30
0.0
  9
$UCSXDIR
 10
1.0
 20
0.0
 30
0.0
  9
$UCSYDIR
 10
0.0
 20
1.0
 30
0.0
  9
$UCSORTHOREF
  2

  9
$UCSORTHOVIEW
 70
     0
  9
$UCSORGTOP
 10
0.0
 20
0.0
 30
0.0
  9
$UCSORGBOTTOM
 10
0.0
 20
0.0
 30
0.0
  9
$UCSORGLEFT
 10
0.0
 20
0.0
 30
0.0
  9
$UCSORGRIGHT
 10
0.0
 20
0.0
 30
0.0
  9
$UCSORGFRONT
 10
0.0
 20
0.0
 30
0.0
  9
$UCSORGBACK
 10
0.0
 20
0.0
 30
0.0
  9
$PUCSBASE
  2

  9
$PUCSNAME
  2

  9
$PUCSORG
 10
0.0
 20
0.0
 30
0.0
  9
$PUCSXDIR
 10
1.0
 20
0.0
 30
0.0
  9
$PUCSYDIR
 10
0.0
 20
1.0
 30
0.0
  9
$PUCSORTHOREF
  2

  9
$PUCSORTHOVIEW
 70
     0
  9
$PUCSORGTOP
 10
0.0
 20
0.0
 30
0.0
  9
$PUCSORGBOTTOM
 10
0.0
 20
0.0
 30
0.0
  9
$PUCSORGLEFT
 10
0.0
 20
0.0
 30
0.0
  9
$PUCSORGRIGHT
 10
0.0
 20
0.0
 30
0.0
  9
$PUCSORGFRONT
 10
0.0
 20
0.0
 30
0.0
  9
$PUCSORGBACK
 10
0.0
 20
0.0
 30
0.0
  9
$USERI1
 70
     0
  9
$USERI2
 70
     0
  9
$USERI3
 70
     0
  9
$USERI4
 70
     0
  9
$USERI5
 70
     0
  9
$USERR1
 40
0.0
  9
$USERR2
 40
0.0
  9
$USERR3
 40
0.0
  9
$USERR4
 40
0.0
  9
$USERR5
 40
0.0
  9
$WORLDVIEW
 70
     1
  9
$SHADEDGE
 70
     3
  9
$SHADEDIF
 70
    70
  9
$TILEMODE
 70
     1
  9
$MAXACTVP
 70
    64
  9
$PINSBASE
 10
0.0
 20
0.0
 30
0.0
  9
$PLIMCHECK
 70
     0
  9
$PEXTMIN
 10
1.0000000000E+20
 20
1.0000000000E+20
 30
1.0000000000E+20
  9
$PEXTMAX
 10
-1.0000000000E+20
 20
-1.0000000000E+20
 30
-1.0000000000E+20
  9
$PLIMMIN
 10
0.0
 20
0.0
  9
$PLIMMAX
 10
420.0
 20
297.0
  9
$UNITMODE
 70
     0
  9
$VISRETAIN
 70
     1
  9
$PLINEGEN
 70
     0
  9
$PSLTSCALE
 70
     1
  9
$TREEDEPTH
 70
  3020
  9
$CMLSTYLE
  2
Standard
  9
$CMLJUST
 70
     0
  9
$CMLSCALE
 40
20.0
  9
$PROXYGRAPHICS
 70
     1
  9
$MEASUREMENT
 70
     1
  9
$CELWEIGHT
370
    -1
  9
$ENDCAPS
280
     0
  9
$JOINSTYLE
280
     0
  9
$LWDISPLAY
290
     1
  9
$INSUNITS
 70
     4
  9
$HYPERLINKBASE
  1

  9
$STYLESHEET
  1

  9
$XEDIT
290
     1
  9
$CEPSNTYPE
380
     0
  9
$PSTYLEMODE
290
     1
  9
$FINGERPRINTGUID
  2
{aca8f1c7-337a-44da-bedf-692c0b6dfa61}
  9
$VERSIONGUID
  2
{FAEB1C32-E019-11D5-929B-00C0DF256EC4}
  9
$EXTNAMES
290
     1
  9
$PSVPSCALE
 40
0.0
  9
$OLESTARTUP
290
     0
  9
$SORTENTS
280
   127
  9
$INDEXCTL
280
     0
  9
$HIDETEXT
280
     1
  9
$XCLIPFRAME
280
     2
  9
$HALOGAP
280
     0
  9
$OBSCOLOR
 70
   257
  9
$OBSLTYPE
280
     0
  9
$INTERSECTIONDISPLAY
280
     0
  9
$INTERSECTIONCOLOR
 70
   257
  9
$DIMASSOC
280
     2
  9
$PROJECTNAME
  1

  9
$CAMERADISPLAY
290
     0
  9
$LENSLENGTH
 40
50.0
  9
$CAMERAHEIGHT
 40
0.0
  9
$STEPSPERSEC
 40
2.0
  9
$STEPSIZE
 40
6.0
  9
$3DDWFPREC
 40
2.0
  9
$PSOLWIDTH
 40
5.0
  9
$PSOLHEIGHT
 40
80.0
  9
$LOFTANG1
 40
1.5707963268
  9
$LOFTANG2
 40
1.5707963268
  9
$LOFTMAG1
 40
0.0
  9
$LOFTMAG2
 40
0.0
  9
$LOFTPARAM
 70
     7
  9
$LOFTNORMALS
280
     1
  9
$LATITUDE
 40
37.795
  9
$LONGITUDE
 40
-122.394
  9
$NORTHDIRECTION
 40
0.0
  9
$TIMEZONE
 70
 -8000
  9
$LIGHTGLYPHDISPLAY
280
     1
  9
$TILEMODELIGHTSYNCH
280
     1
  9
$CMATERIAL
347
44
  9
$SOLIDHIST
280
     0
  9
$SHOWHIST
280
     1
  9
$DWFFRAME
280
     2
  9
$DGNFRAME
280
     2
  9
$REALWORLDSCALE
290
     1
  9
$INTERFERECOLOR
 62
   256
  9
$CSHADOW
280
     0
  9
$SHADOWPLANELOCATION
 40
0.0
  0
ENDSEC
  0
SECTION
  2
CLASSES
  0
CLASS
  1
ACDBDICTIONARYWDFLT
  2
AcDbDictionaryWithDefault
  3
ObjectDBX Classes
 90
        0
 91
        3
280
     0
281
     0
  0
CLASS
  1
VISUALSTYLE
  2
AcDbVisualStyle
  3
ObjectDBX Classes
 90
     4095
 91
        3
280
     0
281
     0
  0
CLASS
  1
MATERIAL
  2
AcDbMaterial
  3
ObjectDBX Classes
 90
     1153
 91
        3
280
     0
281
     0
  0
CLASS
  1
SCALE
  2
AcDbScale
  3
ObjectDBX Classes
 90
     1153
 91
        3
280
     0
281
     0
  0
CLASS
  1
TABLESTYLE
  2
AcDbTableStyle
  3
ObjectDBX Classes
 90
     4095
 91
        3
280
     0
281
     0
  0
CLASS
  1
MLEADERSTYLE
  2
AcDbMLeaderStyle
  3
ACDB_MLEADERSTYLE_CLASS
 90
     4095
 91
        3
280
     0
281
     0
  0
CLASS
  1
SUN
  2
AcDbSun
  3
SCENEOE
 90
     1153
 91
        3
280
     0
281
     0
  0
CLASS
  1
DICTIONARYVAR
  2
AcDbDictionaryVar
  3
ObjectDBX Classes
 90
        0
 91
        3
280
     0
281
     0
  0
CLASS
  1
CELLSTYLEMAP
  2
AcDbCellStyleMap
  3
ObjectDBX Classes
 90
     1152
 91
        3
280
     0
281
     0
  0
ENDSEC
  0
SECTION
  2
TABLES
  0
TABLE
  2
VPORT
  5
8
330
0
100
AcDbSymbolTable
 70
     1
  0
VPORT
  5
29
330
8
100
AcDbSymbolTableRecord
100
AcDbViewportTableRecord
  2
*Active
 70
     0
 10
0.0
 20
0.0
 11
1.0
 21
1.0
 12
210.0
 22
148.5
 13
0.0
 23
0.0
 14
10.0
 24
10.0
 15
10.0
 25
10.0
 16
0.0
 26
0.0
 36
1.0
 17
0.0
 27
0.0
 37
0.0
 40
297.0
 41
1.4141414141
 42
50.0
 43
0.0
 44
0.0
 50
0.0
 51
0.0
 71
     0
 72
  2000
 73
     1
 74
     3
 75
     0
 76
     0
 77
     0
 78
     0
281
     0
 65
     1
110
0.0
120
0.0
130
0.0
111
1.0
121
0.0
131
0.0
112
0.0
122
1.0
132
0.0
 79
     0
146
0.0
348
2F
 60
     3
 61
     5
292
     1
282
     1
141
0.0
142
0.0
 63
   250
361
6D
  0
ENDTAB
  0
TABLE
  2
LTYPE
  5
5
330
0
100
AcDbSymbolTable
 70
     8
  0
LTYPE
  5
14
330
5
100
AcDbSymbolTableRecord
100
AcDbLinetypeTableRecord
  2
ByBlock
 70
     0
  3

 72
    65
 73
     0
 40
0.0
  0
LTYPE
  5
15
330
5
100
AcDbSymbolTableRecord
100
AcDbLinetypeTableRecord
  2
ByLayer
 70
     0
  3

 72
    65
 73
     0
 40
0.0
  0
LTYPE
  5
16
330
5
100
AcDbSymbolTableRecord
100
AcDbLinetypeTableRecord
  2
Continuous
 70
     0
  3
Solid line
 72
    65
 73
     0
 40
0.0
  0
LTYPE
  5
6E
330
5
100
AcDbSymbolTableRecord
100
AcDbLinetypeTableRecord
  2
SLD-Durchgehend
 70
     0
  3
SolidWorks Line Style
 72
    65
 73
     0
 40
0.0
  0
LTYPE
  5
6F
330
5
100
AcDbSymbolTableRecord
100
AcDbLinetypeTableRecord
  2
SLD-Gestrichelt
 70
     0
  3
SolidWorks Line Style
 72
    65
 73
     2
 40
1.905
 49
1.27
 74
     0
 49
-0.635
 74
     0
  0
LTYPE
  5
70
330
5
100
AcDbSymbolTableRecord
100
AcDbLinetypeTableRecord
  2
SLD-Phantom
 70
     0
  3
SolidWorks Line Style
 72
    65
 73
     6
 40
12.7
 49
6.35
 74
     0
 49
-1.27
 74
     0
 49
1.27
 74
     0
 49
-1.27
 74
     0
 49
1.27
 74
     0
 49
-1.27
 74
     0
  0
LTYPE
  5
71
330
5
100
AcDbSymbolTableRecord
100
AcDbLinetypeTableRecord
  2
SLD-Kette
 70
     0
  3
SolidWorks Line Style
 72
    65
 73
     4
 40
10.16
 49
6.35
 74
     0
 49
-1.27
 74
     0
 49
1.27
 74
     0
 49
-1.27
 74
     0
  0
LTYPE
  5
72
330
5
100
AcDbSymbolTableRecord
100
AcDbLinetypeTableRecord
  2
SLD-Punktstrich
 70
     0
  3
SolidWorks Line Style
 72
    65
 73
     4
 40
19.05
 49
15.24
 74
     0
 49
-1.27
 74
     0
 49
1.27
 74
     0
 49
-1.27
 74
     0
  0
LTYPE
  5
73
330
5
100
AcDbSymbolTableRecord
100
AcDbLinetypeTableRecord
  2
SLD-Naht
 70
     0
  3
SolidWorks Line Style
 72
    65
 73
     2
 40
0.635
 49
0.0
 74
     0
 49
-0.635
 74
     0
  0
LTYPE
  5
74
330
5
100
AcDbSymbolTableRecord
100
AcDbLinetypeTableRecord
  2
SLD-Dicke-Dünne-Kette
 70
     0
  3
SolidWorks Line Style
 72
    65
 73
     4
 40
10.16
 49
6.35
 74
     0
 49
-1.27
 74
     0
 49
1.27
 74
     0
 49
-1.27
 74
     0
  0
ENDTAB
  0
TABLE
  2
LAYER
  5
2
330
0
100
AcDbSymbolTable
 70
     4
  0
LAYER
  5
10
330
2
100
AcDbSymbolTableRecord
100
AcDbLayerTableRecord
  2
0
 70
     0
 62
     7
  6
Continuous
370
    -3
390
F
347
46
348
0
  0
LAYER
  5
75
330
2
100
AcDbSymbolTableRecord
100
AcDbLayerTableRecord
  2
RAHMEN
 70
     0
 62
   179
  6
SLD-Durchgehend
370
    -3
390
F
347
46
348
0
  0
LAYER
  5
76
330
2
100
AcDbSymbolTableRecord
100
AcDbLayerTableRecord
  2
KOPF
 70
     0
 62
     7
  6
SLD-Durchgehend
370
    -3
390
F
347
46
348
0
  0
LAYER
  5
77
330
2
100
AcDbSymbolTableRecord
100
AcDbLayerTableRecord
  2
ZEICHNUNG
 70
     0
 62
     7
  6
SLD-Durchgehend
370
    -3
390
F
347
46
348
0
  0
ENDTAB
  0
TABLE
  2
STYLE
  5
3
330
0
100
AcDbSymbolTable
 70
     2
  0
STYLE
  5
11
330
3
100
AcDbSymbolTableRecord
100
AcDbTextStyleTableRecord
  2
Standard
 70
     0
 40
0.0
 41
1.0
 50
0.0
 71
     0
 42
3.5
  3
txt
  4

  0
STYLE
  5
191
330
3
100
AcDbSymbolTableRecord
100
AcDbTextStyleTableRecord
  2
SLDTEXTSTYLE0
 70
     0
 40
0.0
 41
0.605
 50
0.0
 71
     0
 42
3.5
  3
TXT
  4

  0
ENDTAB
  0
TABLE
  2
VIEW
  5
6
330
0
100
AcDbSymbolTable
 70
     0
  0
ENDTAB
  0
TABLE
  2
UCS
  5
7
330
0
100
AcDbSymbolTable
 70
     0
  0
ENDTAB
  0
TABLE
  2
APPID
  5
9
330
0
100
AcDbSymbolTable
 70
     1
  0
APPID
  5
12
330
9
100
AcDbSymbolTableRecord
100
AcDbRegAppTableRecord
  2
ACAD
 70
     0
  0
ENDTAB
  0
TABLE
  2
DIMSTYLE
  5
A
330
0
100
AcDbSymbolTable
 70
     3
100
AcDbDimStyleTable
  0
DIMSTYLE
105
27
330
A
100
AcDbSymbolTableRecord
100
AcDbDimStyleTableRecord
  2
ISO-25
 70
     0
 41
2.5
 42
0.625
 43
3.75
 44
1.25
 73
     0
 74
     0
 77
     1
 78
     8
140
2.5
141
2.5
143
0.0393700787
147
0.625
171
     3
172
     1
178
     0
271
     2
272
     2
274
     3
278
    44
283
     0
284
     8
340
11
  0
DIMSTYLE
105
192
102
{ACAD_REACTORS
330
190
102
}
330
A
100
AcDbSymbolTableRecord
100
AcDbDimStyleTableRecord
  2
SLDDIMSTYLE0
 70
     0
 41
3.5
 44
0.0
 45
0.000000001
 73
     0
 74
     0
 77
     1
 78
    12
 79
     3
140
3.5
147
0.875
172
     1
173
     1
178
     0
271
     1
272
     1
276
     2
284
    12
289
     0
340
191
  0
DIMSTYLE
105
1A1
102
{ACAD_REACTORS
330
1A0
330
1AD
330
345
102
}
330
A
100
AcDbSymbolTableRecord
100
AcDbDimStyleTableRecord
  2
SLDDIMSTYLE1
 70
     0
 41
3.5
 44
0.0
 45
0.000000001
 73
     0
 74
     0
 77
     1
 78
    12
 79
     3
140
3.5
147
0.875
173
     1
178
     0
271
     1
272
     1
276
     2
284
    12
340
191
  0
ENDTAB
  0
TABLE
  2
BLOCK_RECORD
  5
1
330
0
100
AcDbSymbolTable
 70
     6
  0
BLOCK_RECORD
  5
1F
330
1
100
AcDbSymbolTableRecord
100
AcDbBlockTableRecord
  2
*Model_Space
340
22
 70
     0
280
     1
281
     0
  0
BLOCK_RECORD
  5
1B
330
1
100
AcDbSymbolTableRecord
100
AcDbBlockTableRecord
  2
*Paper_Space
340
1E
 70
     0
280
     1
281
     0
  0
BLOCK_RECORD
  5
23
330
1
100
AcDbSymbolTableRecord
100
AcDbBlockTableRecord
  2
*Paper_Space0
340
26
 70
     0
280
     1
281
     0
  0
BLOCK_RECORD
  5
78
330
1
100
AcDbSymbolTableRecord
100
AcDbBlockTableRecord
  2
Logo nach 2017
340
0
 70
     0
280
     1
281
     0
  0
BLOCK_RECORD
  5
193
330
1
100
AcDbSymbolTableRecord
100
AcDbBlockTableRecord
  2
_D
340
0
 70
     0
280
     1
281
     0
  0
BLOCK_RECORD
  5
1A2
330
1
100
AcDbSymbolTableRecord
100
AcDbBlockTableRecord
  2
_D_1
340
0
 70
     0
280
     1
281
     0
  0
BLOCK_RECORD
  5
1AE
330
1
100
AcDbSymbolTableRecord
100
AcDbBlockTableRecord
  2
_D_2
340
0
 70
     0
280
     1
281
     0
  0
BLOCK_RECORD
  5
346
330
1
100
AcDbSymbolTableRecord
100
AcDbBlockTableRecord
  2
_D_3
340
0
 70
     0
280
     1
281
     0
  0
ENDTAB
  0
ENDSEC
  0
SECTION
  2
BLOCKS
  0
BLOCK
  5
20
330
1F
100
AcDbEntity
  8
0
100
AcDbBlockBegin
  2
*Model_Space
 70
     0
 10
0.0
 20
0.0
 30
0.0
  3
*Model_Space
  1

  0
ENDBLK
  5
21
330
1F
100
AcDbEntity
  8
0
100
AcDbBlockEnd
  0
BLOCK
  5
1C
330
1B
100
AcDbEntity
 67
     1
  8
0
100
AcDbBlockBegin
  2
*Paper_Space
 70
     0
 10
0.0
 20
0.0
 30
0.0
  3
*Paper_Space
  1

  0
ENDBLK
  5
1D
330
1B
100
AcDbEntity
 67
     1
  8
0
100
AcDbBlockEnd
  0
BLOCK
  5
24
330
23
100
AcDbEntity
  8
0
100
AcDbBlockBegin
  2
*Paper_Space0
 70
     0
 10
0.0
 20
0.0
 30
0.0
  3
*Paper_Space0
  1

  0
ENDBLK
  5
25
330
23
100
AcDbEntity
  8
0
100
AcDbBlockEnd
  0
BLOCK
  5
79
330
78
100
AcDbEntity
  8
0
100
AcDbBlockBegin
  2
Logo nach 2017
 70
     0
 10
0.0
 20
0.0
 30
0.0
  3
Logo nach 2017
  1

  0
LINE
  5
7B
330
78
100
AcDbEntity
  8
0
  6
SLD-Durchgehend
 62
     7
370
    18
100
AcDbLine
 10
6.8143755
 20
0.0100965
 30
0.0
 11
6.8165091
 21
0.0100965
 31
0.0
  0
LINE
  5
7C
330
78
100
AcDbEntity
  8
0
  6
SLD-Durchgehend
 62
     7
370
    18
100
AcDbLine
 10
30.7692933
 20
3.7012626
 30
0.0
 11
30.7850286
 21
3.6666297
 31
0.0
  0
LINE
  5
7D
330
78
100
AcDbEntity
  8
0
  6
SLD-Durchgehend
 62
     7
370
    18
100
AcDbLine
 10
30.7850286
 20
3.6666297
 30
0.0
 11
31.5281691
 21
3.6616386
 31
0.0
  0
LINE
  5
7E
330
78
100
AcDbEntity
  8
0
  6
SLD-Durchgehend
 62
     7
370
    18
100
AcDbLine
 10
31.5281691
 20
3.6616386
 30
0.0
 11
31.4910597
 21
3.7464111
 31
0.0
  0
LINE
  5
7F
330
78
100
AcDbEntity
  8
0
  6
SLD-Durchgehend
 62
     7
370
    18
100
AcDbLine
 10
29.6000805
 20
0.0100965
 30
0.0
 11
29.612844
 21
0.0100965
 31
0.0
  0
LINE
  5
80
330
78
100
AcDbEntity
  8
0
  6
SLD-Durchgehend
 62
     7
370
    18
100
AcDbLine
 10
31.56204
 20
1.3113258
 30
0.0
 11
31.594425
 21
1.3932789
 31
0.0
  0
LINE
  5
81
330
78
100
AcDbEntity
  8
0
  6
SLD-Durchgehend
 62
     7
370
    18
100
AcDbLine
 10
31.594425
 20
1.3932789
 30
0.0
 11
30.8433597
 21
1.3935456
 31
0.0
  0
LINE
  5
82
330
78
100
AcDbEntity
  8
0
  6
SLD-Durchgehend
 62
     7
370
    18
100
AcDbLine
 10
30.8433597
 20
1.3935456
 30
0.0
 11
30.8276244
 21
1.359408
 31
0.0
  0
LINE
  5
83
330
78
100
AcDbEntity
  8
0
  6
SLD-Durchgehend
 62
     7
370
    18
100
AcDbLine
 10
11.5404519
 20
0.0100965
 30
0.0
 11
11.5478433
 21
0.0100965
 31
0.0
  0
LINE
  5
84
330
78
100
AcDbEntity
  8
0
  6
SLD-Durchgehend
 62
     7
370
    18
100
AcDbLine
 10
13.644753
 20
2.3703153
 30
0.0
 11
13.6460865
 21
2.3703153
 31
0.0
  0
LINE
  5
85
330
78
100
AcDbEntity
  8
0
  6
SLD-Durchgehend
 62
     7
370
    18
100
AcDbLine
 10
13.6460865
 20
2.3703153
 30
0.0
 11
13.6460865
 21
5.9976639
 31
0.0
  0
LINE
  5
86
330
78
100
AcDbEntity
  8
0
  6
SLD-Durchgehend
 62
     7
370
    18
100
AcDbLine
 10
13.6460865
 20
5.9976639
 30
0.0
 11
12.9646299
 21
5.9976639
 31
0.0
  0
LINE
  5
87
330
78
100
AcDbEntity
  8
0
  6
SLD-Durchgehend
 62
     7
370
    18
100
AcDbLine
 10
12.9646299
 20
5.9976639
 30
0.0
 11
12.9646299
 21
4.2490644
 31
0.0
  0
LINE
  5
88
330
78
100
AcDbEntity
  8
0
  6
SLD-Durchgehend
 62
     7
370
    18
100
AcDbLine
 10
26.1839583
 20
3.7729287
 30
0.0
 11
26.2014462
 21
3.7435536
 31
0.0
  0
LINE
  5
89
330
78
100
AcDbEntity
  8
0
  6
SLD-Durchgehend
 62
     7
370
    18
100
AcDbLine
 10
26.2014462
 20
3.7435536
 30
0.0
 11
26.8831695
 21
3.7435536
 31
0.0
  0
LINE
  5
8A
330
78
100
AcDbEntity
  8
0
  6
SLD-Durchgehend
 62
     7
370
    18
100
AcDbLine
 10
26.8831695
 20
3.7435536
 30
0.0
 11
26.8459077
 21
3.827526
 31
0.0
  0
LINE
  5
8B
330
78
100
AcDbEntity
  8
0
  6
SLD-Durchgehend
 62
     7
370
    18
100
AcDbLine
 10
25.2545088
 20
4.8678084
 30
0.0
 11
25.1957967
 21
4.867275
 31
0.0
  0
LINE
  5
8C
330
78
100
AcDbEntity
  8
0
  6
SLD-Durchgehend
 62
     7
370
    18
100
AcDbLine
 10
25.1957967
 20
4.867275
 30
0.0
 11
25.1957967
 21
4.8659415
 31
0.0
  0
LINE
  5
8D
330
78
100
AcDbEntity
  8
0
  6
SLD-Durchgehend
 62
     7
370
    18
100
AcDbLine
 10
24.191214
 20
1.3709904
 30
0.0
 11
24.1792506
 21
1.4148054
 31
0.0
  0
LINE
  5
8E
330
78
100
AcDbEntity
  8
0
  6
SLD-Durchgehend
 62
     7
370
    18
100
AcDbLine
 10
24.1792506
 20
1.4148054
 30
0.0
 11
23.4820968
 21
1.4148054
 31
0.0
  0
LINE
  5
8F
330
78
100
AcDbEntity
  8
0
  6
SLD-Durchgehend
 62
     7
370
    18
100
AcDbLine
 10
23.4820968
 20
1.4148054
 30
0.0
 11
23.5064046
 21
1.3371195
 31
0.0
  0
LINE
  5
90
330
78
100
AcDbEntity
  8
0
  6
SLD-Durchgehend
 62
     7
370
    18
100
AcDbLine
 10
25.2792738
 20
0.0
 30
0.0
 11
25.3310136
 21
0.0005715
 31
0.0
  0
LINE
  5
91
330
78
100
AcDbEntity
  8
0
  6
SLD-Durchgehend
 62
     7
370
    18
100
AcDbLine
 10
32.9807316
 20
4.2326052
 30
0.0
 11
32.9807316
 21
5.9976639
 31
0.0
  0
LINE
  5
92
330
78
100
AcDbEntity
  8
0
  6
SLD-Durchgehend
 62
     7
370
    18
100
AcDbLine
 10
32.9807316
 20
5.9976639
 30
0.0
 11
32.2952364
 21
5.9976639
 31
0.0
  0
LINE
  5
93
330
78
100
AcDbEntity
  8
0
  6
SLD-Durchgehend
 62
     7
370
    18
100
AcDbLine
 10
32.2952364
 20
5.9976639
 30
0.0
 11
32.2952364
 21
0.1233678
 31
0.0
  0
LINE
  5
94
330
78
100
AcDbEntity
  8
0
  6
SLD-Durchgehend
 62
     7
370
    18
100
AcDbLine
 10
32.2952364
 20
0.1233678
 30
0.0
 11
32.9807316
 21
0.1233678
 31
0.0
  0
LINE
  5
95
330
78
100
AcDbEntity
  8
0
  6
SLD-Durchgehend
 62
     7
370
    18
100
AcDbLine
 10
32.9807316
 20
0.1233678
 30
0.0
 11
32.9807316
 21
2.8234005
 31
0.0
  0
LINE
  5
96
330
78
100
AcDbEntity
  8
0
  6
SLD-Durchgehend
 62
     7
370
    18
100
AcDbLine
 10
35.2545015
 20
3.0777942
 30
0.0
 11
35.2545015
 21
0.1233678
 31
0.0
  0
LINE
  5
97
330
78
100
AcDbEntity
  8
0
  6
SLD-Durchgehend
 62
     7
370
    18
100
AcDbLine
 10
35.2545015
 20
0.1233678
 30
0.0
 11
35.9412159
 21
0.1233678
 31
0.0
  0
LINE
  5
98
330
78
100
AcDbEntity
  8
0
  6
SLD-Durchgehend
 62
     7
370
    18
100
AcDbLine
 10
35.9412159
 20
0.1233678
 30
0.0
 11
35.9412159
 21
3.2473773
 31
0.0
  0
LINE
  5
99
330
78
100
AcDbEntity
  8
0
  6
SLD-Durchgehend
 62
     7
370
    18
100
AcDbLine
 10
19.91487
 20
4.2401109
 30
0.0
 11
19.91487
 21
4.7685579
 31
0.0
  0
LINE
  5
9A
330
78
100
AcDbEntity
  8
0
  6
SLD-Durchgehend
 62
     7
370
    18
100
AcDbLine
 10
19.91487
 20
4.7685579
 30
0.0
 11
19.2292605
 21
4.7685579
 31
0.0
  0
LINE
  5
9B
330
78
100
AcDbEntity
  8
0
  6
SLD-Durchgehend
 62
     7
370
    18
100
AcDbLine
 10
19.2292605
 20
4.7685579
 30
0.0
 11
19.2292605
 21
0.1233678
 31
0.0
  0
LINE
  5
9C
330
78
100
AcDbEntity
  8
0
  6
SLD-Durchgehend
 62
     7
370
    18
100
AcDbLine
 10
19.2292605
 20
0.1233678
 30
0.0
 11
19.91487
 21
0.1233678
 31
0.0
  0
LINE
  5
9D
330
78
100
AcDbEntity
  8
0
  6
SLD-Durchgehend
 62
     7
370
    18
100
AcDbLine
 10
19.91487
 20
0.1233678
 30
0.0
 11
19.91487
 21
2.8229052
 31
0.0
  0
LINE
  5
9E
330
78
100
AcDbEntity
  8
0
  6
SLD-Durchgehend
 62
     7
370
    18
100
AcDbLine
 10
22.1893257
 20
3.0775275
 30
0.0
 11
22.1893257
 21
0.1233678
 31
0.0
  0
LINE
  5
9F
330
78
100
AcDbEntity
  8
0
  6
SLD-Durchgehend
 62
     7
370
    18
100
AcDbLine
 10
22.1893257
 20
0.1233678
 30
0.0
 11
22.8750876
 21
0.1233678
 31
0.0
  0
LINE
  5
A0
330
78
100
AcDbEntity
  8
0
  6
SLD-Durchgehend
 62
     7
370
    18
100
AcDbLine
 10
22.8750876
 20
0.1233678
 30
0.0
 11
22.8750876
 21
3.2473773
 31
0.0
  0
LINE
  5
A1
330
78
100
AcDbEntity
  8
0
  6
SLD-Durchgehend
 62
     7
370
    18
100
AcDbLine
 10
16.4193474
 20
0.0100965
 30
0.0
 11
16.4241861
 21
0.0100965
 31
0.0
  0
LINE
  5
A2
330
78
100
AcDbEntity
  8
0
  6
SLD-Durchgehend
 62
     7
370
    18
100
AcDbLine
 10
18.3883935
 20
1.4943582
 30
0.0
 11
18.4123203
 21
1.5715107
 31
0.0
  0
LINE
  5
A3
330
78
100
AcDbEntity
  8
0
  6
SLD-Durchgehend
 62
     7
370
    18
100
AcDbLine
 10
18.4123203
 20
1.5715107
 30
0.0
 11
17.6541303
 21
1.5715107
 31
0.0
  0
LINE
  5
A4
330
78
100
AcDbEntity
  8
0
  6
SLD-Durchgehend
 62
     7
370
    18
100
AcDbLine
 10
17.6541303
 20
1.5715107
 30
0.0
 11
17.6403
 21
1.5318867
 31
0.0
  0
LINE
  5
A5
330
78
100
AcDbEntity
  8
0
  6
SLD-Durchgehend
 62
     7
370
    18
100
AcDbLine
 10
16.395954
 20
0.6582156
 30
0.0
 11
16.3825047
 21
0.658749
 31
0.0
  0
LINE
  5
A6
330
78
100
AcDbEntity
  8
0
  6
SLD-Durchgehend
 62
     7
370
    18
100
AcDbLine
 10
15.0027894
 20
2.3422356
 30
0.0
 11
15.0025227
 21
2.4047196
 31
0.0
  0
LINE
  5
A7
330
78
100
AcDbEntity
  8
0
  6
SLD-Durchgehend
 62
     7
370
    18
100
AcDbLine
 10
15.0025227
 20
2.4047196
 30
0.0
 11
18.4548018
 21
2.4047196
 31
0.0
  0
LINE
  5
A8
330
78
100
AcDbEntity
  8
0
  6
SLD-Durchgehend
 62
     7
370
    18
100
AcDbLine
 10
18.4548018
 20
2.4047196
 30
0.0
 11
18.4526682
 21
2.4671655
 31
0.0
  0
LINE
  5
A9
330
78
100
AcDbEntity
  8
0
  6
SLD-Durchgehend
 62
     7
370
    18
100
AcDbLine
 10
17.6779428
 20
2.9964126
 30
0.0
 11
15.0119334
 21
2.9964126
 31
0.0
  0
LINE
  5
AA
330
78
100
AcDbEntity
  8
0
  6
SLD-Durchgehend
 62
     7
370
    18
100
AcDbLine
 10
2.1056346
 20
0.0090297
 30
0.0
 11
2.0981289
 21
0.0090297
 31
0.0
  0
LINE
  5
AB
330
78
100
AcDbEntity
  8
0
  6
SLD-Durchgehend
 62
     7
370
    18
100
AcDbLine
 10
0.0013335
 20
2.3692485
 30
0.0
 11
0.0
 21
2.3692485
 31
0.0
  0
LINE
  5
AC
330
78
100
AcDbEntity
  8
0
  6
SLD-Durchgehend
 62
     7
370
    18
100
AcDbLine
 10
0.0
 20
2.3692485
 30
0.0
 11
0.0
 21
5.9964447
 31
0.0
  0
LINE
  5
AD
330
78
100
AcDbEntity
  8
0
  6
SLD-Durchgehend
 62
     7
370
    18
100
AcDbLine
 10
0.0
 20
5.9964447
 30
0.0
 11
0.6813042
 21
5.9964447
 31
0.0
  0
LINE
  5
AE
330
78
100
AcDbEntity
  8
0
  6
SLD-Durchgehend
 62
     7
370
    18
100
AcDbLine
 10
0.6813042
 20
5.9964447
 30
0.0
 11
0.6813042
 21
4.2478452
 31
0.0
  0
LINE
  5
AF
330
78
100
AcDbEntity
  8
0
  6
SLD-Durchgehend
 62
     7
370
    18
100
AcDbLine
 10
37.4033034
 20
2.4363807
 30
0.0
 11
37.4030367
 21
2.4363807
 31
0.0
  0
LINE
  5
B0
330
78
100
AcDbEntity
  8
0
  6
SLD-Durchgehend
 62
     7
370
    18
100
AcDbLine
 10
40.9371546
 20
4.7588424
 30
0.0
 11
40.2286851
 21
4.7588424
 31
0.0
  0
LINE
  5
B1
330
78
100
AcDbEntity
  8
0
  6
SLD-Durchgehend
 62
     7
370
    18
100
AcDbLine
 10
40.2286851
 20
4.7588424
 30
0.0
 11
40.2286851
 21
4.3272837
 31
0.0
  0
LINE
  5
B2
330
78
100
AcDbEntity
  8
0
  6
SLD-Durchgehend
 62
     7
370
    18
100
AcDbLine
 10
38.8233285
 20
0.0001524
 30
0.0
 11
38.8242429
 21
0.0001524
 31
0.0
  0
LINE
  5
B3
330
78
100
AcDbEntity
  8
0
  6
SLD-Durchgehend
 62
     7
370
    18
100
AcDbLine
 10
40.2673947
 20
0.582168
 30
0.0
 11
40.3571964
 21
0.1136142
 31
0.0
  0
LINE
  5
B4
330
78
100
AcDbEntity
  8
0
  6
SLD-Durchgehend
 62
     7
370
    18
100
AcDbLine
 10
40.3571964
 20
0.1136142
 30
0.0
 11
40.9288107
 21
0.1136142
 31
0.0
  0
LINE
  5
B5
330
78
100
AcDbEntity
  8
0
  6
SLD-Durchgehend
 62
     7
370
    18
100
AcDbLine
 10
40.9288107
 20
0.1136142
 30
0.0
 11
40.9288107
 21
4.1671494
 31
0.0
  0
LINE
  5
B6
330
78
100
AcDbEntity
  8
0
  6
SLD-Durchgehend
 62
     7
370
    18
100
AcDbLine
 10
40.9288107
 20
4.1671494
 30
0.0
 11
40.9371546
 21
4.1671494
 31
0.0
  0
LINE
  5
B7
330
78
100
AcDbEntity
  8
0
  6
SLD-Durchgehend
 62
     7
370
    18
100
AcDbLine
 10
40.9371546
 20
4.1671494
 30
0.0
 11
40.9371546
 21
4.7588424
 31
0.0
  0
LINE
  5
B8
330
78
100
AcDbEntity
  8
0
  6
SLD-Durchgehend
 62
     7
370
    18
100
AcDbLine
 10
43.7019192
 20
4.1769411
 30
0.0
 11
43.7019192
 21
4.7686722
 31
0.0
  0
LINE
  5
B9
330
78
100
AcDbEntity
  8
0
  6
SLD-Durchgehend
 62
     7
370
    18
100
AcDbLine
 10
43.7019192
 20
4.7686722
 30
0.0
 11
42.9511206
 21
4.7686722
 31
0.0
  0
LINE
  5
BA
330
78
100
AcDbEntity
  8
0
  6
SLD-Durchgehend
 62
     7
370
    18
100
AcDbLine
 10
42.9511206
 20
4.7686722
 30
0.0
 11
42.9511206
 21
5.9977782
 31
0.0
  0
LINE
  5
BB
330
78
100
AcDbEntity
  8
0
  6
SLD-Durchgehend
 62
     7
370
    18
100
AcDbLine
 10
42.9511206
 20
5.9977782
 30
0.0
 11
42.2655111
 21
5.9977782
 31
0.0
  0
LINE
  5
BC
330
78
100
AcDbEntity
  8
0
  6
SLD-Durchgehend
 62
     7
370
    18
100
AcDbLine
 10
42.2655111
 20
5.9977782
 30
0.0
 11
42.2655111
 21
4.7686722
 31
0.0
  0
LINE
  5
BD
330
78
100
AcDbEntity
  8
0
  6
SLD-Durchgehend
 62
     7
370
    18
100
AcDbLine
 10
42.2655111
 20
4.7686722
 30
0.0
 11
41.714166
 21
4.7686722
 31
0.0
  0
LINE
  5
BE
330
78
100
AcDbEntity
  8
0
  6
SLD-Durchgehend
 62
     7
370
    18
100
AcDbLine
 10
41.714166
 20
4.7686722
 30
0.0
 11
41.714166
 21
4.1769411
 31
0.0
  0
LINE
  5
BF
330
78
100
AcDbEntity
  8
0
  6
SLD-Durchgehend
 62
     7
370
    18
100
AcDbLine
 10
41.714166
 20
4.1769411
 30
0.0
 11
42.2655111
 21
4.1769411
 31
0.0
  0
LINE
  5
C0
330
78
100
AcDbEntity
  8
0
  6
SLD-Durchgehend
 62
     7
370
    18
100
AcDbLine
 10
42.2655111
 20
4.1769411
 30
0.0
 11
42.2655111
 21
0.8719185
 31
0.0
  0
LINE
  5
C1
330
78
100
AcDbEntity
  8
0
  6
SLD-Durchgehend
 62
     7
370
    18
100
AcDbLine
 10
43.7019192
 20
0.1016508
 30
0.0
 11
43.7019192
 21
0.6854952
 31
0.0
  0
LINE
  5
C2
330
78
100
AcDbEntity
  8
0
  6
SLD-Durchgehend
 62
     7
370
    18
100
AcDbLine
 10
43.7019192
 20
0.6854952
 30
0.0
 11
43.2214401
 21
0.6854952
 31
0.0
  0
LINE
  5
C3
330
78
100
AcDbEntity
  8
0
  6
SLD-Durchgehend
 62
     7
370
    18
100
AcDbLine
 10
42.9511206
 20
1.2490704
 30
0.0
 11
42.9511206
 21
4.1769411
 31
0.0
  0
LINE
  5
C4
330
78
100
AcDbEntity
  8
0
  6
SLD-Durchgehend
 62
     7
370
    18
100
AcDbLine
 10
42.9511206
 20
4.1769411
 30
0.0
 11
43.7019192
 21
4.1769411
 31
0.0
  0
LINE
  5
C5
330
78
100
AcDbEntity
  8
0
  6
SLD-Durchgehend
 62
     7
370
    18
100
AcDbLine
 10
45.4409175
 20
0.7226046
 30
0.0
 11
47.9055684
 21
4.3866054
 31
0.0
  0
LINE
  5
C6
330
78
100
AcDbEntity
  8
0
  6
SLD-Durchgehend
 62
     7
370
    18
100
AcDbLine
 10
47.9055684
 20
4.3866054
 30
0.0
 11
47.9055684
 21
4.7761779
 31
0.0
  0
LINE
  5
C7
330
78
100
AcDbEntity
  8
0
  6
SLD-Durchgehend
 62
     7
370
    18
100
AcDbLine
 10
47.9055684
 20
4.7761779
 30
0.0
 11
44.5238505
 21
4.7761779
 31
0.0
  0
LINE
  5
C8
330
78
100
AcDbEntity
  8
0
  6
SLD-Durchgehend
 62
     7
370
    18
100
AcDbLine
 10
44.5238505
 20
4.7761779
 30
0.0
 11
44.5238505
 21
4.1845611
 31
0.0
  0
LINE
  5
C9
330
78
100
AcDbEntity
  8
0
  6
SLD-Durchgehend
 62
     7
370
    18
100
AcDbLine
 10
44.5238505
 20
4.1845611
 30
0.0
 11
46.9404954
 21
4.1849802
 31
0.0
  0
LINE
  5
CA
330
78
100
AcDbEntity
  8
0
  6
SLD-Durchgehend
 62
     7
370
    18
100
AcDbLine
 10
46.9404954
 20
4.1849802
 30
0.0
 11
44.5238505
 21
0.5978652
 31
0.0
  0
LINE
  5
CB
330
78
100
AcDbEntity
  8
0
  6
SLD-Durchgehend
 62
     7
370
    18
100
AcDbLine
 10
44.5238505
 20
0.5978652
 30
0.0
 11
44.5238505
 21
0.1309497
 31
0.0
  0
LINE
  5
CC
330
78
100
AcDbEntity
  8
0
  6
SLD-Durchgehend
 62
     7
370
    18
100
AcDbLine
 10
44.5238505
 20
0.1309497
 30
0.0
 11
47.9426397
 21
0.1309497
 31
0.0
  0
LINE
  5
CD
330
78
100
AcDbEntity
  8
0
  6
SLD-Durchgehend
 62
     7
370
    18
100
AcDbLine
 10
47.9426397
 20
0.1309497
 30
0.0
 11
47.9426397
 21
0.7226046
 31
0.0
  0
LINE
  5
CE
330
78
100
AcDbEntity
  8
0
  6
SLD-Durchgehend
 62
     7
370
    18
100
AcDbLine
 10
47.9426397
 20
0.7226046
 30
0.0
 11
45.4409175
 21
0.7226046
 31
0.0
  0
SPLINE
  5
CF
330
78
100
AcDbEntity
  8
0
  6
Continuous
 62
     8
420
  8421504
370
    18
100
AcDbSpline
210
0.0
220
0.0
230
1.0
 70
     8
 71
     3
 72
     8
 73
     4
 74
     0
 42
0.00000001
 43
0.00000001
 40
0.0
 40
0.0
 40
0.0
 40
0.0
 40
0.1
 40
0.1
 40
0.1
 40
0.1
 10
6.814375499999999
 20
4.881448199999999
 30
0.0
 10
6.234531599999998
 20
4.881943499999997
 30
0.0
 10
5.705093999999997
 20
4.668545400000001
 30
0.0
 10
5.323103399999995
 20
4.2542841
 30
0.0
  0
SPLINE
  5
D0
330
78
100
AcDbEntity
  8
0
  6
Continuous
 62
     8
420
  8421504
370
    18
100
AcDbSpline
210
0.0
220
0.0
230
1.0
 70
     8
 71
     3
 72
     8
 73
     4
 74
     0
 42
0.00000001
 43
0.00000001
 40
0.1
 40
0.1
 40
0.1
 40
0.1
 40
0.2
 40
0.2
 40
0.2
 40
0.2
 10
5.323103399999995
 20
4.2542841
 30
0.0
 10
4.9413795
 20
3.8409372
 30
0.0
 10
4.708740899999999
 20
3.230308499999998
 30
0.0
 10
4.708740899999999
 20
2.446172400000005
 30
0.0
  0
SPLINE
  5
D1
330
78
100
AcDbEntity
  8
0
  6
Continuous
 62
     8
420
  8421504
370
    18
100
AcDbSpline
210
0.0
220
0.0
230
1.0
 70
     8
 71
     3
 72
     8
 73
     4
 74
     0
 42
0.00000001
 43
0.00000001
 40
0.2
 40
0.2
 40
0.2
 40
0.2
 40
0.3
 40
0.3
 40
0.3
 40
0.3
 10
4.708740899999999
 20
2.446172400000005
 30
0.0
 10
4.708740899999999
 20
1.661312400000001
 30
0.0
 10
4.9413795
 20
1.051217100000001
 30
0.0
 10
5.323103399999995
 20
0.6374892000000021
 30
0.0
  0
SPLINE
  5
D2
330
78
100
AcDbEntity
  8
0
  6
Continuous
 62
     8
420
  8421504
370
    18
100
AcDbSpline
210
0.0
220
0.0
230
1.0
 70
     8
 71
     3
 72
     8
 73
     4
 74
     0
 42
0.00000001
 43
0.00000001
 40
0.3
 40
0.3
 40
0.3
 40
0.3
 40
0.4
 40
0.4
 40
0.4
 40
0.4
 10
5.323103399999995
 20
0.6374892000000021
 30
0.0
 10
5.705093999999997
 20
0.2245233000000013
 30
0.0
 10
6.234531599999998
 20
0.0100964999999981
 30
0.0
 10
6.814375499999999
 20
0.0100964999999981
 30
0.0
  0
SPLINE
  5
D3
330
78
100
AcDbEntity
  8
0
  6
Continuous
 62
     8
420
  8421504
370
    18
100
AcDbSpline
210
0.0
220
0.0
230
1.0
 70
     8
 71
     3
 72
     8
 73
     4
 74
     0
 42
0.00000001
 43
0.00000001
 40
0.5
 40
0.5
 40
0.5
 40
0.5
 40
0.6
 40
0.6
 40
0.6
 40
0.6
 10
6.816509099999999
 20
0.0100964999999981
 30
0.0
 10
7.395705299999992
 20
0.0100964999999981
 30
0.0
 10
7.924037999999996
 20
0.2245233000000013
 30
0.0
 10
8.305761899999997
 20
0.6374892000000021
 30
0.0
  0
SPLINE
  5
D4
330
78
100
AcDbEntity
  8
0
  6
Continuous
 62
     8
420
  8421504
370
    18
100
AcDbSpline
210
0.0
220
0.0
230
1.0
 70
     8
 71
     3
 72
     8
 73
     4
 74
     0
 42
0.00000001
 43
0.00000001
 40
0.6
 40
0.6
 40
0.6
 40
0.6
 40
0.7
 40
0.7
 40
0.7
 40
0.7
 10
8.305761899999997
 20
0.6374892000000021
 30
0.0
 10
8.687752499999998
 20
1.051217100000001
 30
0.0
 10
8.920543499999997
 20
1.661312400000001
 30
0.0
 10
8.920543499999997
 20
2.446172400000005
 30
0.0
  0
SPLINE
  5
D5
330
78
100
AcDbEntity
  8
0
  6
Continuous
 62
     8
420
  8421504
370
    18
100
AcDbSpline
210
0.0
220
0.0
230
1.0
 70
     8
 71
     3
 72
     8
 73
     4
 74
     0
 42
0.00000001
 43
0.00000001
 40
0.7
 40
0.7
 40
0.7
 40
0.7
 40
0.8
 40
0.8
 40
0.8
 40
0.8
 10
8.920543499999997
 20
2.446172400000005
 30
0.0
 10
8.920543499999997
 20
3.230308499999998
 30
0.0
 10
8.687752499999998
 20
3.8409372
 30
0.0
 10
8.305761899999997
 20
4.2542841
 30
0.0
  0
SPLINE
  5
D6
330
78
100
AcDbEntity
  8
0
  6
Continuous
 62
     8
420
  8421504
370
    18
100
AcDbSpline
210
0.0
220
0.0
230
1.0
 70
     8
 71
     3
 72
     8
 73
     4
 74
     0
 42
0.00000001
 43
0.00000001
 40
0.8
 40
0.8
 40
0.8
 40
0.8
 40
1.0
 40
1.0
 40
1.0
 40
1.0
 10
8.305761899999997
 20
4.2542841
 30
0.0
 10
7.924037999999996
 20
4.668545400000001
 30
0.0
 10
7.394867099999997
 20
4.881943499999997
 30
0.0
 10
6.814375499999999
 20
4.881448199999999
 30
0.0
  0
SPLINE
  5
D7
330
78
100
AcDbEntity
  8
0
  6
Continuous
 62
     8
420
  8421504
370
    18
100
AcDbSpline
210
0.0
220
0.0
230
1.0
 70
     8
 71
     3
 72
     8
 73
     4
 74
     0
 42
0.00000001
 43
0.00000001
 40
0.0
 40
0.0
 40
0.0
 40
0.0
 40
0.2
 40
0.2
 40
0.2
 40
0.2
 10
6.814375499999999
 20
0.6582156000000006
 30
0.0
 10
6.012484799999998
 20
0.6605015999999964
 30
0.0
 10
5.398655700000001
 20
1.2982575
 30
0.0
 10
5.394502799999997
 20
2.446172400000005
 30
0.0
  0
SPLINE
  5
D8
330
78
100
AcDbEntity
  8
0
  6
Continuous
 62
     8
420
  8421504
370
    18
100
AcDbSpline
210
0.0
220
0.0
230
1.0
 70
     8
 71
     3
 72
     8
 73
     4
 74
     0
 42
0.00000001
 43
0.00000001
 40
0.2
 40
0.2
 40
0.2
 40
0.2
 40
0.4
 40
0.4
 40
0.4
 40
0.4
 10
5.394502799999997
 20
2.446172400000005
 30
0.0
 10
5.398122299999999
 20
3.584981399999998
 30
0.0
 10
6.013018199999998
 20
4.2318051
 30
0.0
 10
6.814375499999999
 20
4.233405299999998
 30
0.0
  0
SPLINE
  5
D9
330
78
100
AcDbEntity
  8
0
  6
Continuous
 62
     8
420
  8421504
370
    18
100
AcDbSpline
210
0.0
220
0.0
230
1.0
 70
     8
 71
     3
 72
     8
 73
     4
 74
     0
 42
0.00000001
 43
0.00000001
 40
0.4
 40
0.4
 40
0.4
 40
0.4
 40
0.6
 40
0.6
 40
0.6
 40
0.6
 10
6.814375499999999
 20
4.233405299999998
 30
0.0
 10
7.616380499999997
 20
4.2318051
 30
0.0
 10
8.2307811
 20
3.584981399999998
 30
0.0
 10
8.234400599999997
 20
2.446172400000005
 30
0.0
  0
SPLINE
  5
DA
330
78
100
AcDbEntity
  8
0
  6
Continuous
 62
     8
420
  8421504
370
    18
100
AcDbSpline
210
0.0
220
0.0
230
1.0
 70
     8
 71
     3
 72
     8
 73
     4
 74
     0
 42
0.00000001
 43
0.00000001
 40
0.6
 40
0.6
 40
0.6
 40
0.6
 40
1.0
 40
1.0
 40
1.0
 40
1.0
 10
8.234400599999997
 20
2.446172400000005
 30
0.0
 10
8.2307811
 20
1.2982575
 30
0.0
 10
7.616913899999999
 20
0.6605015999999964
 30
0.0
 10
6.814375499999999
 20
0.6582156000000006
 30
0.0
  0
SPLINE
  5
DB
330
78
100
AcDbEntity
  8
0
  6
Continuous
 62
     8
420
  8421504
370
    18
100
AcDbSpline
210
0.0
220
0.0
230
1.0
 70
     8
 71
     3
 72
     8
 73
     4
 74
     0
 42
0.00000001
 43
0.00000001
 40
0.0
 40
0.0
 40
0.0
 40
0.0
 40
0.0625
 40
0.0625
 40
0.0625
 40
0.0625
 10
30.8276244
 20
1.359408000000004
 30
0.0
 10
30.6352956
 20
0.9622154999999939
 30
0.0
 10
30.2848899
 20
0.6605015999999964
 30
0.0
 10
29.6000805
 20
0.6582156000000006
 30
0.0
  0
SPLINE
  5
DC
330
78
100
AcDbEntity
  8
0
  6
Continuous
 62
     8
420
  8421504
370
    18
100
AcDbSpline
210
0.0
220
0.0
230
1.0
 70
     8
 71
     3
 72
     8
 73
     4
 74
     0
 42
0.00000001
 43
0.00000001
 40
0.0625
 40
0.0625
 40
0.0625
 40
0.0625
 40
0.125
 40
0.125
 40
0.125
 40
0.125
 10
29.6000805
 20
0.6582156000000006
 30
0.0
 10
28.9179762
 20
0.6601205999999971
 30
0.0
 10
28.1824938
 20
1.227048600000002
 30
0.0
 10
28.18032209999999
 20
2.446172400000005
 30
0.0
  0
SPLINE
  5
DD
330
78
100
AcDbEntity
  8
0
  6
Continuous
 62
     8
420
  8421504
370
    18
100
AcDbSpline
210
0.0
220
0.0
230
1.0
 70
     8
 71
     3
 72
     8
 73
     4
 74
     0
 42
0.00000001
 43
0.00000001
 40
0.125
 40
0.125
 40
0.125
 40
0.125
 40
0.1875
 40
0.1875
 40
0.1875
 40
0.1875
 10
28.18032209999999
 20
2.446172400000005
 30
0.0
 10
28.18302719999999
 20
3.6645342
 30
0.0
 10
28.9156902
 20
4.230509699999999
 30
0.0
 10
29.6565447
 20
4.233405299999998
 30
0.0
  0
SPLINE
  5
DE
330
78
100
AcDbEntity
  8
0
  6
Continuous
 62
     8
420
  8421504
370
    18
100
AcDbSpline
210
0.0
220
0.0
230
1.0
 70
     8
 71
     3
 72
     8
 73
     4
 74
     0
 42
0.00000001
 43
0.00000001
 40
0.1875
 40
0.1875
 40
0.1875
 40
0.1875
 40
0.25
 40
0.25
 40
0.25
 40
0.25
 10
29.6565447
 20
4.233405299999998
 30
0.0
 10
30.1868967
 20
4.2318051
 30
0.0
 10
30.5905281
 20
4.075899900000002
 30
0.0
 10
30.7692933
 20
3.701262600000002
 30
0.0
  0
SPLINE
  5
DF
330
78
100
AcDbEntity
  8
0
  6
Continuous
 62
     8
420
  8421504
370
    18
100
AcDbSpline
210
0.0
220
0.0
230
1.0
 70
     8
 71
     3
 72
     8
 73
     4
 74
     0
 42
0.00000001
 43
0.00000001
 40
0.4375
 40
0.4375
 40
0.4375
 40
0.4375
 40
0.5
 40
0.5
 40
0.5
 40
0.5
 10
31.4910597
 20
3.746411100000003
 30
0.0
 10
31.0765698
 20
4.699520700000001
 30
0.0
 10
30.3072165
 20
4.884839099999996
 30
0.0
 10
29.7316779
 20
4.881448199999999
 30
0.0
  0
SPLINE
  5
E0
330
78
100
AcDbEntity
  8
0
  6
Continuous
 62
     8
420
  8421504
370
    18
100
AcDbSpline
210
0.0
220
0.0
230
1.0
 70
     8
 71
     3
 72
     8
 73
     4
 74
     0
 42
0.00000001
 43
0.00000001
 40
0.5
 40
0.5
 40
0.5
 40
0.5
 40
0.5625
 40
0.5625
 40
0.5625
 40
0.5625
 10
29.7316779
 20
4.881448199999999
 30
0.0
 10
28.3977969
 20
4.884839099999996
 30
0.0
 10
27.5088096
 20
3.8931723
 30
0.0
 10
27.49429349999999
 20
2.446439099999998
 30
0.0
  0
SPLINE
  5
E1
330
78
100
AcDbEntity
  8
0
  6
Continuous
 62
     8
420
  8421504
370
    18
100
AcDbSpline
210
0.0
220
0.0
230
1.0
 70
     8
 71
     3
 72
     8
 73
     4
 74
     0
 42
0.00000001
 43
0.00000001
 40
0.5625
 40
0.5625
 40
0.5625
 40
0.5625
 40
0.625
 40
0.625
 40
0.625
 40
0.625
 10
27.49429349999999
 20
2.446439099999998
 30
0.0
 10
27.5105622
 20
0.9973436999999976
 30
0.0
 10
28.4315535
 20
0.0090297000000017
 30
0.0
 10
29.6000805
 20
0.0100964999999981
 30
0.0
  0
SPLINE
  5
E2
330
78
100
AcDbEntity
  8
0
  6
Continuous
 62
     8
420
  8421504
370
    18
100
AcDbSpline
210
0.0
220
0.0
230
1.0
 70
     8
 71
     3
 72
     8
 73
     4
 74
     0
 42
0.00000001
 43
0.00000001
 40
0.6875
 40
0.6875
 40
0.6875
 40
0.6875
 40
0.75
 40
0.75
 40
0.75
 40
0.75
 10
29.612844
 20
0.0100964999999981
 30
0.0
 10
30.60089129999999
 20
0.0100964999999981
 30
0.0
 10
31.22801729999999
 20
0.450837300000001
 30
0.0
 10
31.56204
 20
1.311325799999999
 30
0.0
  0
SPLINE
  5
E3
330
78
100
AcDbEntity
  8
0
  6
Continuous
 62
     8
420
  8421504
370
    18
100
AcDbSpline
210
0.0
220
0.0
230
1.0
 70
     8
 71
     3
 72
     8
 73
     4
 74
     0
 42
0.00000001
 43
0.00000001
 40
0.0
 40
0.0
 40
0.0
 40
0.0
 40
0.0769230769230769
 40
0.0769230769230769
 40
0.0769230769230769
 40
0.0769230769230769
 10
12.9646299
 20
4.2490644
 30
0.0
 10
12.63289319999999
 20
4.652810099999999
 30
0.0
 10
12.08840609999999
 20
4.881943499999997
 30
0.0
 10
11.5404519
 20
4.881943499999997
 30
0.0
  0
SPLINE
  5
E4
330
78
100
AcDbEntity
  8
0
  6
Continuous
 62
     8
420
  8421504
370
    18
100
AcDbSpline
210
0.0
220
0.0
230
1.0
 70
     8
 71
     3
 72
     8
 73
     4
 74
     0
 42
0.00000001
 43
0.00000001
 40
0.0769230769230769
 40
0.0769230769230769
 40
0.0769230769230769
 40
0.0769230769230769
 40
0.1538461538461539
 40
0.1538461538461539
 40
0.1538461538461539
 40
0.1538461538461539
 10
11.5404519
 20
4.881943499999997
 30
0.0
 10
10.9600746
 20
4.881943499999997
 30
0.0
 10
10.43090369999999
 20
4.668545400000001
 30
0.0
 10
10.0491798
 20
4.2542841
 30
0.0
  0
SPLINE
  5
E5
330
78
100
AcDbEntity
  8
0
  6
Continuous
 62
     8
420
  8421504
370
    18
100
AcDbSpline
210
0.0
220
0.0
230
1.0
 70
     8
 71
     3
 72
     8
 73
     4
 74
     0
 42
0.00000001
 43
0.00000001
 40
0.1538461538461539
 40
0.1538461538461539
 40
0.1538461538461539
 40
0.1538461538461539
 40
0.2307692307692308
 40
0.2307692307692308
 40
0.2307692307692308
 40
0.2307692307692308
 10
10.0491798
 20
4.2542841
 30
0.0
 10
9.667074899999996
 20
3.8409372
 30
0.0
 10
9.434398199999999
 20
3.230308499999998
 30
0.0
 10
9.434398199999999
 20
2.446172400000005
 30
0.0
  0
SPLINE
  5
E6
330
78
100
AcDbEntity
  8
0
  6
Continuous
 62
     8
420
  8421504
370
    18
100
AcDbSpline
210
0.0
220
0.0
230
1.0
 70
     8
 71
     3
 72
     8
 73
     4
 74
     0
 42
0.00000001
 43
0.00000001
 40
0.2307692307692308
 40
0.2307692307692308
 40
0.2307692307692308
 40
0.2307692307692308
 40
0.3076923076923077
 40
0.3076923076923077
 40
0.3076923076923077
 40
0.3076923076923077
 10
9.434398199999999
 20
2.446172400000005
 30
0.0
 10
9.434398199999999
 20
1.661312400000001
 30
0.0
 10
9.667074899999996
 20
1.051217100000001
 30
0.0
 10
10.0491798
 20
0.6374892000000021
 30
0.0
  0
SPLINE
  5
E7
330
78
100
AcDbEntity
  8
0
  6
Continuous
 62
     8
420
  8421504
370
    18
100
AcDbSpline
210
0.0
220
0.0
230
1.0
 70
     8
 71
     3
 72
     8
 73
     4
 74
     0
 42
0.00000001
 43
0.00000001
 40
0.3076923076923077
 40
0.3076923076923077
 40
0.3076923076923077
 40
0.3076923076923077
 40
0.3846153846153846
 40
0.3846153846153846
 40
0.3846153846153846
 40
0.3846153846153846
 10
10.0491798
 20
0.6374892000000021
 30
0.0
 10
10.43090369999999
 20
0.2245233000000013
 30
0.0
 10
10.9600746
 20
0.0100964999999981
 30
0.0
 10
11.5404519
 20
0.0100964999999981
 30
0.0
  0
SPLINE
  5
E8
330
78
100
AcDbEntity
  8
0
  6
Continuous
 62
     8
420
  8421504
370
    18
100
AcDbSpline
210
0.0
220
0.0
230
1.0
 70
     8
 71
     3
 72
     8
 73
     4
 74
     0
 42
0.00000001
 43
0.00000001
 40
0.4615384615384616
 40
0.4615384615384616
 40
0.4615384615384616
 40
0.4615384615384616
 40
0.5384615384615384
 40
0.5384615384615384
 40
0.5384615384615384
 40
0.5384615384615384
 10
11.5478433
 20
0.0100964999999981
 30
0.0
 10
12.5283468
 20
0.0100964999999981
 30
0.0
 10
13.3689471
 20
0.5975984999999989
 30
0.0
 10
13.5869553
 20
1.757362499999995
 30
0.0
  0
SPLINE
  5
E9
330
78
100
AcDbEntity
  8
0
  6
Continuous
 62
     8
420
  8421504
370
    18
100
AcDbSpline
210
0.0
220
0.0
230
1.0
 70
     8
 71
     3
 72
     8
 73
     4
 74
     0
 42
0.00000001
 43
0.00000001
 40
0.5384615384615384
 40
0.5384615384615384
 40
0.5384615384615384
 40
0.5384615384615384
 40
0.6153846153846154
 40
0.6153846153846154
 40
0.6153846153846154
 40
0.6153846153846154
 10
13.5869553
 20
1.757362499999995
 30
0.0
 10
13.6296654
 20
1.984400399999998
 30
0.0
 10
13.644753
 20
2.240127599999994
 30
0.0
 10
13.644753
 20
2.370315299999998
 30
0.0
  0
SPLINE
  5
EA
330
78
100
AcDbEntity
  8
0
  6
Continuous
 62
     8
420
  8421504
370
    18
100
AcDbSpline
210
0.0
220
0.0
230
1.0
 70
     8
 71
     3
 72
     8
 73
     4
 74
     0
 42
0.00000001
 43
0.00000001
 40
0.0
 40
0.0
 40
0.0
 40
0.0
 40
0.2
 40
0.2
 40
0.2
 40
0.2
 10
11.5404519
 20
0.6582156000000006
 30
0.0
 10
10.7377611
 20
0.6605015999999964
 30
0.0
 10
10.12419869999999
 20
1.2982575
 30
0.0
 10
10.1202744
 20
2.446172400000005
 30
0.0
  0
SPLINE
  5
EB
330
78
100
AcDbEntity
  8
0
  6
Continuous
 62
     8
420
  8421504
370
    18
100
AcDbSpline
210
0.0
220
0.0
230
1.0
 70
     8
 71
     3
 72
     8
 73
     4
 74
     0
 42
0.00000001
 43
0.00000001
 40
0.2
 40
0.2
 40
0.2
 40
0.2
 40
0.4
 40
0.4
 40
0.4
 40
0.4
 10
10.1202744
 20
2.446172400000005
 30
0.0
 10
10.12419869999999
 20
3.584981399999998
 30
0.0
 10
10.7382945
 20
4.2318051
 30
0.0
 10
11.5404519
 20
4.233405299999998
 30
0.0
  0
SPLINE
  5
EC
330
78
100
AcDbEntity
  8
0
  6
Continuous
 62
     8
420
  8421504
370
    18
100
AcDbSpline
210
0.0
220
0.0
230
1.0
 70
     8
 71
     3
 72
     8
 73
     4
 74
     0
 42
0.00000001
 43
0.00000001
 40
0.4
 40
0.4
 40
0.4
 40
0.4
 40
0.6
 40
0.6
 40
0.6
 40
0.6
 10
11.5404519
 20
4.233405299999998
 30
0.0
 10
12.3420378
 20
4.2318051
 30
0.0
 10
12.9602103
 20
3.6555807
 30
0.0
 10
12.9602103
 20
2.446172400000005
 30
0.0
  0
SPLINE
  5
ED
330
78
100
AcDbEntity
  8
0
  6
Continuous
 62
     8
420
  8421504
370
    18
100
AcDbSpline
210
0.0
220
0.0
230
1.0
 70
     8
 71
     3
 72
     8
 73
     4
 74
     0
 42
0.00000001
 43
0.00000001
 40
0.6
 40
0.6
 40
0.6
 40
0.6
 40
1.0
 40
1.0
 40
1.0
 40
1.0
 10
12.9602103
 20
2.446172400000005
 30
0.0
 10
12.967335
 20
1.196644800000002
 30
0.0
 10
12.3424569
 20
0.6605015999999964
 30
0.0
 10
11.5404519
 20
0.6582156000000006
 30
0.0
  0
SPLINE
  5
EE
330
78
100
AcDbEntity
  8
0
  6
Continuous
 62
     8
420
  8421504
370
    18
100
AcDbSpline
210
0.0
220
0.0
230
1.0
 70
     8
 71
     3
 72
     8
 73
     4
 74
     0
 42
0.00000001
 43
0.00000001
 40
0.0
 40
0.0
 40
0.0
 40
0.0
 40
0.04
 40
0.04
 40
0.04
 40
0.04
 10
25.6488819
 20
2.791396499999999
 30
0.0
 10
25.312878
 20
2.868548999999998
 30
0.0
 10
24.9795411
 20
2.926080000000001
 30
0.0
 10
24.73962539999999
 20
3.032645699999998
 30
0.0
  0
SPLINE
  5
EF
330
78
100
AcDbEntity
  8
0
  6
Continuous
 62
     8
420
  8421504
370
    18
100
AcDbSpline
210
0.0
220
0.0
230
1.0
 70
     8
 71
     3
 72
     8
 73
     4
 74
     0
 42
0.00000001
 43
0.00000001
 40
0.04
 40
0.04
 40
0.04
 40
0.04
 40
0.08
 40
0.08
 40
0.08
 40
0.08
 10
24.73962539999999
 20
3.032645699999998
 30
0.0
 10
24.4982238
 20
3.142107000000002
 30
0.0
 10
24.3593493
 20
3.278619299999999
 30
0.0
 10
24.3570633
 20
3.544824000000002
 30
0.0
  0
SPLINE
  5
F0
330
78
100
AcDbEntity
  8
0
  6
Continuous
 62
     8
420
  8421504
370
    18
100
AcDbSpline
210
0.0
220
0.0
230
1.0
 70
     8
 71
     3
 72
     8
 73
     4
 74
     0
 42
0.00000001
 43
0.00000001
 40
0.08
 40
0.08
 40
0.08
 40
0.08
 40
0.12
 40
0.12
 40
0.12
 40
0.12
 10
24.3570633
 20
3.544824000000002
 30
0.0
 10
24.366474
 20
3.956456399999997
 30
0.0
 10
24.5171595
 20
4.237062899999997
 30
0.0
 10
25.2667389
 20
4.273181700000003
 30
0.0
  0
SPLINE
  5
F1
330
78
100
AcDbEntity
  8
0
  6
Continuous
 62
     8
420
  8421504
370
    18
100
AcDbSpline
210
0.0
220
0.0
230
1.0
 70
     8
 71
     3
 72
     8
 73
     4
 74
     0
 42
0.00000001
 43
0.00000001
 40
0.12
 40
0.12
 40
0.12
 40
0.12
 40
0.16
 40
0.16
 40
0.16
 40
0.16
 10
25.2667389
 20
4.273181700000003
 30
0.0
 10
25.7064129
 20
4.269790799999998
 30
0.0
 10
25.99833509999999
 20
4.084548599999996
 30
0.0
 10
26.1839583
 20
3.7729287
 30
0.0
  0
SPLINE
  5
F2
330
78
100
AcDbEntity
  8
0
  6
Continuous
 62
     8
420
  8421504
370
    18
100
AcDbSpline
210
0.0
220
0.0
230
1.0
 70
     8
 71
     3
 72
     8
 73
     4
 74
     0
 42
0.00000001
 43
0.00000001
 40
0.28
 40
0.28
 40
0.28
 40
0.28
 40
0.32
 40
0.32
 40
0.32
 40
0.32
 10
26.8459077
 20
3.827525999999998
 30
0.0
 10
26.5467465
 20
4.5057822
 30
0.0
 10
25.962864
 20
4.870132500000002
 30
0.0
 10
25.2976761
 20
4.869103800000002
 30
0.0
  0
SPLINE
  5
F3
330
78
100
AcDbEntity
  8
0
  6
Continuous
 62
     8
420
  8421504
370
    18
100
AcDbSpline
210
0.0
220
0.0
230
1.0
 70
     8
 71
     3
 72
     8
 73
     4
 74
     0
 42
0.00000001
 43
0.00000001
 40
0.32
 40
0.32
 40
0.32
 40
0.32
 40
0.36
 40
0.36
 40
0.36
 40
0.36
 10
25.2976761
 20
4.869103800000002
 30
0.0
 10
25.28072159999999
 20
4.869103800000002
 30
0.0
 10
25.2667389
 20
4.867808400000001
 30
0.0
 10
25.2545088
 20
4.867808400000001
 30
0.0
  0
SPLINE
  5
F4
330
78
100
AcDbEntity
  8
0
  6
Continuous
 62
     8
420
  8421504
370
    18
100
AcDbSpline
210
0.0
220
0.0
230
1.0
 70
     8
 71
     3
 72
     8
 73
     4
 74
     0
 42
0.00000001
 43
0.00000001
 40
0.44
 40
0.44
 40
0.44
 40
0.44
 40
0.48
 40
0.48
 40
0.48
 40
0.48
 10
25.1957967
 20
4.865941500000002
 30
0.0
 10
24.21502649999999
 20
4.8373284
 30
0.0
 10
23.6691678
 20
4.231309800000003
 30
0.0
 10
23.67133949999999
 20
3.563721599999997
 30
0.0
  0
SPLINE
  5
F5
330
78
100
AcDbEntity
  8
0
  6
Continuous
 62
     8
420
  8421504
370
    18
100
AcDbSpline
210
0.0
220
0.0
230
1.0
 70
     8
 71
     3
 72
     8
 73
     4
 74
     0
 42
0.00000001
 43
0.00000001
 40
0.48
 40
0.48
 40
0.48
 40
0.48
 40
0.52
 40
0.52
 40
0.52
 40
0.52
 10
23.67133949999999
 20
3.563721599999997
 30
0.0
 10
23.6689011
 20
2.621013300000002
 30
0.0
 10
24.39268679999999
 20
2.407081799999997
 30
0.0
 10
25.0581414
 20
2.279484900000003
 30
0.0
  0
SPLINE
  5
F6
330
78
100
AcDbEntity
  8
0
  6
Continuous
 62
     8
420
  8421504
370
    18
100
AcDbSpline
210
0.0
220
0.0
230
1.0
 70
     8
 71
     3
 72
     8
 73
     4
 74
     0
 42
0.00000001
 43
0.00000001
 40
0.52
 40
0.52
 40
0.52
 40
0.52
 40
0.56
 40
0.56
 40
0.56
 40
0.56
 10
25.0581414
 20
2.279484900000003
 30
0.0
 10
25.3939167
 20
2.211743099999997
 30
0.0
 10
25.7260344
 20
2.158212599999996
 30
0.0
 10
25.9643499
 20
2.043226800000001
 30
0.0
  0
SPLINE
  5
F7
330
78
100
AcDbEntity
  8
0
  6
Continuous
 62
     8
420
  8421504
370
    18
100
AcDbSpline
210
0.0
220
0.0
230
1.0
 70
     8
 71
     3
 72
     8
 73
     4
 74
     0
 42
0.00000001
 43
0.00000001
 40
0.56
 40
0.56
 40
0.56
 40
0.56
 40
0.6
 40
0.6
 40
0.6
 40
0.6
 10
25.9643499
 20
2.043226800000001
 30
0.0
 10
26.2027797
 20
1.925345399999998
 30
0.0
 10
26.345388
 20
1.767039899999998
 30
0.0
 10
26.3484741
 20
1.452029100000005
 30
0.0
  0
SPLINE
  5
F8
330
78
100
AcDbEntity
  8
0
  6
Continuous
 62
     8
420
  8421504
370
    18
100
AcDbSpline
210
0.0
220
0.0
230
1.0
 70
     8
 71
     3
 72
     8
 73
     4
 74
     0
 42
0.00000001
 43
0.00000001
 40
0.6
 40
0.6
 40
0.6
 40
0.6
 40
0.64
 40
0.64
 40
0.64
 40
0.64
 10
26.3484741
 20
1.452029100000005
 30
0.0
 10
26.3482074
 20
0.7650861000000038
 30
0.0
 10
25.7924427
 20
0.6081141000000012
 30
0.0
 10
25.3281942
 20
0.5886069000000023
 30
0.0
  0
SPLINE
  5
F9
330
78
100
AcDbEntity
  8
0
  6
Continuous
 62
     8
420
  8421504
370
    18
100
AcDbSpline
210
0.0
220
0.0
230
1.0
 70
     8
 71
     3
 72
     8
 73
     4
 74
     0
 42
0.00000001
 43
0.00000001
 40
0.64
 40
0.64
 40
0.64
 40
0.64
 40
0.68
 40
0.68
 40
0.68
 40
0.68
 10
25.3281942
 20
0.5886069000000023
 30
0.0
 10
24.9371739
 20
0.5970650999999966
 30
0.0
 10
24.3777897
 20
0.7282052999999984
 30
0.0
 10
24.191214
 20
1.370990400000002
 30
0.0
  0
SPLINE
  5
FA
330
78
100
AcDbEntity
  8
0
  6
Continuous
 62
     8
420
  8421504
370
    18
100
AcDbSpline
210
0.0
220
0.0
230
1.0
 70
     8
 71
     3
 72
     8
 73
     4
 74
     0
 42
0.00000001
 43
0.00000001
 40
0.8
 40
0.8
 40
0.8
 40
0.8
 40
0.84
 40
0.84
 40
0.84
 40
0.84
 10
23.5064046
 20
1.337119500000003
 30
0.0
 10
23.7683802
 20
0.4924805999999976
 30
0.0
 10
24.54161969999999
 20
0.0244601999999983
 30
0.0
 10
25.2792738
 20
0.0
 30
0.0
  0
SPLINE
  5
FB
330
78
100
AcDbEntity
  8
0
  6
Continuous
 62
     8
420
  8421504
370
    18
100
AcDbSpline
210
0.0
220
0.0
230
1.0
 70
     8
 71
     3
 72
     8
 73
     4
 74
     0
 42
0.00000001
 43
0.00000001
 40
0.88
 40
0.88
 40
0.88
 40
0.88
 40
0.92
 40
0.92
 40
0.92
 40
0.92
 10
25.3310136
 20
0.0005714999999989
 30
0.0
 10
26.4144633
 20
0.0376427999999998
 30
0.0
 10
27.036522
 20
0.6775703999999966
 30
0.0
 10
27.034617
 20
1.433093399999996
 30
0.0
  0
SPLINE
  5
FC
330
78
100
AcDbEntity
  8
0
  6
Continuous
 62
     8
420
  8421504
370
    18
100
AcDbSpline
210
0.0
220
0.0
230
1.0
 70
     8
 71
     3
 72
     8
 73
     4
 74
     0
 42
0.00000001
 43
0.00000001
 40
0.92
 40
0.92
 40
0.92
 40
0.92
 40
1.0
 40
1.0
 40
1.0
 40
1.0
 10
27.034617
 20
1.433093399999996
 30
0.0
 10
27.0370554
 20
2.382926399999996
 30
0.0
 10
26.3174226
 20
2.642273099999995
 30
0.0
 10
25.6488819
 20
2.791396499999999
 30
0.0
  0
SPLINE
  5
FD
330
78
100
AcDbEntity
  8
0
  6
Continuous
 62
     8
420
  8421504
370
    18
100
AcDbSpline
210
0.0
220
0.0
230
1.0
 70
     8
 71
     3
 72
     8
 73
     4
 74
     0
 42
0.00000001
 43
0.00000001
 40
0.0
 40
0.0
 40
0.0
 40
0.0
 40
0.0714285714285714
 40
0.0714285714285714
 40
0.0714285714285714
 40
0.0714285714285714
 10
34.28771399999999
 20
4.881943499999997
 30
0.0
 10
33.79938629999999
 20
4.8827436
 30
0.0
 10
33.2912085
 20
4.7060739
 30
0.0
 10
32.9807316
 20
4.232605200000003
 30
0.0
  0
SPLINE
  5
FE
330
78
100
AcDbEntity
  8
0
  6
Continuous
 62
     8
420
  8421504
370
    18
100
AcDbSpline
210
0.0
220
0.0
230
1.0
 70
     8
 71
     3
 72
     8
 73
     4
 74
     0
 42
0.00000001
 43
0.00000001
 40
0.4285714285714285
 40
0.4285714285714285
 40
0.4285714285714285
 40
0.4285714285714285
 40
0.5
 40
0.5
 40
0.5
 40
0.5
 10
32.9807316
 20
2.823400499999998
 30
0.0
 10
32.98541789999999
 20
3.814952999999996
 30
0.0
 10
33.5612232
 20
4.228680899999996
 30
0.0
 10
34.21242839999999
 20
4.233405299999998
 30
0.0
  0
SPLINE
  5
FF
330
78
100
AcDbEntity
  8
0
  6
Continuous
 62
     8
420
  8421504
370
    18
100
AcDbSpline
210
0.0
220
0.0
230
1.0
 70
     8
 71
     3
 72
     8
 73
     4
 74
     0
 42
0.00000001
 43
0.00000001
 40
0.5
 40
0.5
 40
0.5
 40
0.5
 40
0.5714285714285714
 40
0.5714285714285714
 40
0.5714285714285714
 40
0.5714285714285714
 10
34.21242839999999
 20
4.233405299999998
 30
0.0
 10
34.909887
 20
4.221860999999997
 30
0.0
 10
35.2432239
 20
3.974553899999997
 30
0.0
 10
35.2545015
 20
3.077794199999997
 30
0.0
  0
SPLINE
  5
100
330
78
100
AcDbEntity
  8
0
  6
Continuous
 62
     8
420
  8421504
370
    18
100
AcDbSpline
210
0.0
220
0.0
230
1.0
 70
     8
 71
     3
 72
     8
 73
     4
 74
     0
 42
0.00000001
 43
0.00000001
 40
0.7857142857142857
 40
0.7857142857142857
 40
0.7857142857142857
 40
0.7857142857142857
 40
0.8571428571428571
 40
0.8571428571428571
 40
0.8571428571428571
 40
0.8571428571428571
 10
35.9412159
 20
3.247377299999998
 30
0.0
 10
35.9412159
 20
3.723322499999998
 30
0.0
 10
35.8182291
 20
4.134154799999997
 30
0.0
 10
35.5453569
 20
4.425200699999999
 30
0.0
  0
SPLINE
  5
101
330
78
100
AcDbEntity
  8
0
  6
Continuous
 62
     8
420
  8421504
370
    18
100
AcDbSpline
210
0.0
220
0.0
230
1.0
 70
     8
 71
     3
 72
     8
 73
     4
 74
     0
 42
0.00000001
 43
0.00000001
 40
0.8571428571428571
 40
0.8571428571428571
 40
0.8571428571428571
 40
0.8571428571428571
 40
1.0
 40
1.0
 40
1.0
 40
1.0
 10
35.5453569
 20
4.425200699999999
 30
0.0
 10
35.2723704
 20
4.716856200000003
 30
0.0
 10
34.854642
 20
4.881943499999997
 30
0.0
 10
34.28771399999999
 20
4.881943499999997
 30
0.0
  0
SPLINE
  5
102
330
78
100
AcDbEntity
  8
0
  6
Continuous
 62
     8
420
  8421504
370
    18
100
AcDbSpline
210
0.0
220
0.0
230
1.0
 70
     8
 71
     3
 72
     8
 73
     4
 74
     0
 42
0.00000001
 43
0.00000001
 40
0.0
 40
0.0
 40
0.0
 40
0.0
 40
0.0714285714285714
 40
0.0714285714285714
 40
0.0714285714285714
 40
0.0714285714285714
 10
21.2217381
 20
4.881448199999999
 30
0.0
 10
20.7334485
 20
4.8827436
 30
0.0
 10
20.2260327
 20
4.706607300000002
 30
0.0
 10
19.91487
 20
4.2401109
 30
0.0
  0
SPLINE
  5
103
330
78
100
AcDbEntity
  8
0
  6
Continuous
 62
     8
420
  8421504
370
    18
100
AcDbSpline
210
0.0
220
0.0
230
1.0
 70
     8
 71
     3
 72
     8
 73
     4
 74
     0
 42
0.00000001
 43
0.00000001
 40
0.4285714285714285
 40
0.4285714285714285
 40
0.4285714285714285
 40
0.4285714285714285
 40
0.5
 40
0.5
 40
0.5
 40
0.5
 10
19.91487
 20
2.822905200000001
 30
0.0
 10
19.9197087
 20
3.814952999999996
 30
0.0
 10
20.4953997
 20
4.228680899999996
 30
0.0
 10
21.1464525
 20
4.233405299999998
 30
0.0
  0
SPLINE
  5
104
330
78
100
AcDbEntity
  8
0
  6
Continuous
 62
     8
420
  8421504
370
    18
100
AcDbSpline
210
0.0
220
0.0
230
1.0
 70
     8
 71
     3
 72
     8
 73
     4
 74
     0
 42
0.00000001
 43
0.00000001
 40
0.5
 40
0.5
 40
0.5
 40
0.5
 40
0.5714285714285714
 40
0.5714285714285714
 40
0.5714285714285714
 40
0.5714285714285714
 10
21.1464525
 20
4.233405299999998
 30
0.0
 10
21.8441778
 20
4.222127699999998
 30
0.0
 10
22.1777814
 20
3.974553899999997
 30
0.0
 10
22.1893257
 20
3.077527499999996
 30
0.0
  0
SPLINE
  5
105
330
78
100
AcDbEntity
  8
0
  6
Continuous
 62
     8
420
  8421504
370
    18
100
AcDbSpline
210
0.0
220
0.0
230
1.0
 70
     8
 71
     3
 72
     8
 73
     4
 74
     0
 42
0.00000001
 43
0.00000001
 40
0.7857142857142857
 40
0.7857142857142857
 40
0.7857142857142857
 40
0.7857142857142857
 40
0.8571428571428571
 40
0.8571428571428571
 40
0.8571428571428571
 40
0.8571428571428571
 10
22.8750876
 20
3.247377299999998
 30
0.0
 10
22.8750876
 20
3.723322499999998
 30
0.0
 10
22.7522532
 20
4.134154799999997
 30
0.0
 10
22.4795334
 20
4.425200699999999
 30
0.0
  0
SPLINE
  5
106
330
78
100
AcDbEntity
  8
0
  6
Continuous
 62
     8
420
  8421504
370
    18
100
AcDbSpline
210
0.0
220
0.0
230
1.0
 70
     8
 71
     3
 72
     8
 73
     4
 74
     0
 42
0.00000001
 43
0.00000001
 40
0.8571428571428571
 40
0.8571428571428571
 40
0.8571428571428571
 40
0.8571428571428571
 40
1.0
 40
1.0
 40
1.0
 40
1.0
 10
22.4795334
 20
4.425200699999999
 30
0.0
 10
22.206966
 20
4.7173515
 30
0.0
 10
21.7885518
 20
4.882248299999995
 30
0.0
 10
21.2217381
 20
4.881448199999999
 30
0.0
  0
SPLINE
  5
107
330
78
100
AcDbEntity
  8
0
  6
Continuous
 62
     8
420
  8421504
370
    18
100
AcDbSpline
210
0.0
220
0.0
230
1.0
 70
     8
 71
     3
 72
     8
 73
     4
 74
     0
 42
0.00000001
 43
0.00000001
 40
0.0
 40
0.0
 40
0.0
 40
0.0
 40
0.0526315789473684
 40
0.0526315789473684
 40
0.0526315789473684
 40
0.0526315789473684
 10
18.4526682
 20
2.467165499999996
 30
0.0
 10
18.4101867
 20
3.820477499999995
 30
0.0
 10
17.7229389
 20
4.8843438
 30
0.0
 10
16.3466145
 20
4.881943499999997
 30
0.0
  0
SPLINE
  5
108
330
78
100
AcDbEntity
  8
0
  6
Continuous
 62
     8
420
  8421504
370
    18
100
AcDbSpline
210
0.0
220
0.0
230
1.0
 70
     8
 71
     3
 72
     8
 73
     4
 74
     0
 42
0.00000001
 43
0.00000001
 40
0.0526315789473684
 40
0.0526315789473684
 40
0.0526315789473684
 40
0.0526315789473684
 40
0.1052631578947368
 40
0.1052631578947368
 40
0.1052631578947368
 40
0.1052631578947368
 10
16.3466145
 20
4.881943499999997
 30
0.0
 10
15.7666563
 20
4.881943499999997
 30
0.0
 10
15.2375997
 20
4.668545400000001
 30
0.0
 10
14.8557615
 20
4.2542841
 30
0.0
  0
SPLINE
  5
109
330
78
100
AcDbEntity
  8
0
  6
Continuous
 62
     8
420
  8421504
370
    18
100
AcDbSpline
210
0.0
220
0.0
230
1.0
 70
     8
 71
     3
 72
     8
 73
     4
 74
     0
 42
0.00000001
 43
0.00000001
 40
0.1052631578947368
 40
0.1052631578947368
 40
0.1052631578947368
 40
0.1052631578947368
 40
0.1578947368421053
 40
0.1578947368421053
 40
0.1578947368421053
 40
0.1578947368421053
 10
14.8557615
 20
4.2542841
 30
0.0
 10
14.4740376
 20
3.8409372
 30
0.0
 10
14.2407132
 20
3.230308499999998
 30
0.0
 10
14.2412466
 20
2.445677099999999
 30
0.0
  0
SPLINE
  5
10A
330
78
100
AcDbEntity
  8
0
  6
Continuous
 62
     8
420
  8421504
370
    18
100
AcDbSpline
210
0.0
220
0.0
230
1.0
 70
     8
 71
     3
 72
     8
 73
     4
 74
     0
 42
0.00000001
 43
0.00000001
 40
0.1578947368421053
 40
0.1578947368421053
 40
0.1578947368421053
 40
0.1578947368421053
 40
0.2105263157894737
 40
0.2105263157894737
 40
0.2105263157894737
 40
0.2105263157894737
 10
14.2412466
 20
2.445677099999999
 30
0.0
 10
14.2407132
 20
1.661312400000001
 30
0.0
 10
14.4740376
 20
1.051217100000001
 30
0.0
 10
14.8557615
 20
0.6374892000000021
 30
0.0
  0
SPLINE
  5
10B
330
78
100
AcDbEntity
  8
0
  6
Continuous
 62
     8
420
  8421504
370
    18
100
AcDbSpline
210
0.0
220
0.0
230
1.0
 70
     8
 71
     3
 72
     8
 73
     4
 74
     0
 42
0.00000001
 43
0.00000001
 40
0.2105263157894737
 40
0.2105263157894737
 40
0.2105263157894737
 40
0.2105263157894737
 40
0.2631578947368421
 40
0.2631578947368421
 40
0.2631578947368421
 40
0.2631578947368421
 10
14.8557615
 20
0.6374892000000021
 30
0.0
 10
15.2374854
 20
0.2245233000000013
 30
0.0
 10
15.7666563
 20
0.0100964999999981
 30
0.0
 10
16.3466145
 20
0.0100964999999981
 30
0.0
  0
SPLINE
  5
10C
330
78
100
AcDbEntity
  8
0
  6
Continuous
 62
     8
420
  8421504
370
    18
100
AcDbSpline
210
0.0
220
0.0
230
1.0
 70
     8
 71
     3
 72
     8
 73
     4
 74
     0
 42
0.00000001
 43
0.00000001
 40
0.2631578947368421
 40
0.2631578947368421
 40
0.2631578947368421
 40
0.2631578947368421
 40
0.3157894736842105
 40
0.3157894736842105
 40
0.3157894736842105
 40
0.3157894736842105
 10
16.3466145
 20
0.0100964999999981
 30
0.0
 10
16.3620831
 20
0.0100964999999981
 30
0.0
 10
16.3733607
 20
0.0112776000000009
 30
0.0
 10
16.3823523
 20
0.0112776000000009
 30
0.0
  0
SPLINE
  5
10D
330
78
100
AcDbEntity
  8
0
  6
Continuous
 62
     8
420
  8421504
370
    18
100
AcDbSpline
210
0.0
220
0.0
230
1.0
 70
     8
 71
     3
 72
     8
 73
     4
 74
     0
 42
0.00000001
 43
0.00000001
 40
0.3157894736842105
 40
0.3157894736842105
 40
0.3157894736842105
 40
0.3157894736842105
 40
0.3684210526315789
 40
0.3684210526315789
 40
0.3684210526315789
 40
0.3684210526315789
 10
16.3823523
 20
0.0112776000000009
 30
0.0
 10
16.391763
 20
0.0112776000000009
 30
0.0
 10
16.4044122
 20
0.0100964999999981
 30
0.0
 10
16.4193474
 20
0.0100964999999981
 30
0.0
  0
SPLINE
  5
10E
330
78
100
AcDbEntity
  8
0
  6
Continuous
 62
     8
420
  8421504
370
    18
100
AcDbSpline
210
0.0
220
0.0
230
1.0
 70
     8
 71
     3
 72
     8
 73
     4
 74
     0
 42
0.00000001
 43
0.00000001
 40
0.4210526315789473
 40
0.4210526315789473
 40
0.4210526315789473
 40
0.4210526315789473
 40
0.4736842105263158
 40
0.4736842105263158
 40
0.4736842105263158
 40
0.4736842105263158
 10
16.4241861
 20
0.0100964999999981
 30
0.0
 10
17.3213268
 20
0.0100964999999981
 30
0.0
 10
18.0916326
 20
0.5309234999999968
 30
0.0
 10
18.3883935
 20
1.494358199999998
 30
0.0
  0
SPLINE
  5
10F
330
78
100
AcDbEntity
  8
0
  6
Continuous
 62
     8
420
  8421504
370
    18
100
AcDbSpline
210
0.0
220
0.0
230
1.0
 70
     8
 71
     3
 72
     8
 73
     4
 74
     0
 42
0.00000001
 43
0.00000001
 40
0.631578947368421
 40
0.631578947368421
 40
0.631578947368421
 40
0.631578947368421
 40
0.6842105263157895
 40
0.6842105263157895
 40
0.6842105263157895
 40
0.6842105263157895
 10
17.6403
 20
1.531886700000004
 30
0.0
 10
17.4510573
 20
1.000810800000004
 30
0.0
 10
17.0622087
 20
0.669531299999998
 30
0.0
 10
16.395954
 20
0.6582156000000006
 30
0.0
  0
SPLINE
  5
110
330
78
100
AcDbEntity
  8
0
  6
Continuous
 62
     8
420
  8421504
370
    18
100
AcDbSpline
210
0.0
220
0.0
230
1.0
 70
     8
 71
     3
 72
     8
 73
     4
 74
     0
 42
0.00000001
 43
0.00000001
 40
0.7368421052631579
 40
0.7368421052631579
 40
0.7368421052631579
 40
0.7368421052631579
 40
0.7894736842105263
 40
0.7894736842105263
 40
0.7894736842105263
 40
0.7894736842105263
 10
16.3825047
 20
0.6587489999999946
 30
0.0
 10
15.4196034
 20
0.668693099999998
 30
0.0
 10
15.0089997
 20
1.351749899999996
 30
0.0
 10
15.0027894
 20
2.342235599999998
 30
0.0
  0
SPLINE
  5
111
330
78
100
AcDbEntity
  8
0
  6
Continuous
 62
     8
420
  8421504
370
    18
100
AcDbSpline
210
0.0
220
0.0
230
1.0
 70
     8
 71
     3
 72
     8
 73
     4
 74
     0
 42
0.00000001
 43
0.00000001
 40
0.0
 40
0.0
 40
0.0
 40
0.0
 40
0.25
 40
0.25
 40
0.25
 40
0.25
 10
15.0119334
 20
2.996412600000001
 30
0.0
 10
15.126462
 20
3.696538199999999
 30
0.0
 10
15.6033216
 20
4.232605200000003
 30
0.0
 10
16.3466145
 20
4.233405299999998
 30
0.0
  0
SPLINE
  5
112
330
78
100
AcDbEntity
  8
0
  6
Continuous
 62
     8
420
  8421504
370
    18
100
AcDbSpline
210
0.0
220
0.0
230
1.0
 70
     8
 71
     3
 72
     8
 73
     4
 74
     0
 42
0.00000001
 43
0.00000001
 40
0.25
 40
0.25
 40
0.25
 40
0.25
 40
0.5
 40
0.5
 40
0.5
 40
0.5
 10
16.3466145
 20
4.233405299999998
 30
0.0
 10
17.2194474
 20
4.2318051
 30
0.0
 10
17.5432593
 20
3.623843400000002
 30
0.0
 10
17.6779428
 20
2.996412600000001
 30
0.0
  0
SPLINE
  5
113
330
78
100
AcDbEntity
  8
0
  6
Continuous
 62
     8
420
  8421504
370
    18
100
AcDbSpline
210
0.0
220
0.0
230
1.0
 70
     8
 71
     3
 72
     8
 73
     4
 74
     0
 42
0.00000001
 43
0.00000001
 40
0.0
 40
0.0
 40
0.0
 40
0.0
 40
0.0769230769230769
 40
0.0769230769230769
 40
0.0769230769230769
 40
0.0769230769230769
 10
0.6813041999999964
 20
4.2478452
 30
0.0
 10
1.013040899999999
 20
4.6515909
 30
0.0
 10
1.557527999999997
 20
4.881029100000004
 30
0.0
 10
2.105634599999996
 20
4.881029100000004
 30
0.0
  0
SPLINE
  5
114
330
78
100
AcDbEntity
  8
0
  6
Continuous
 62
     8
420
  8421504
370
    18
100
AcDbSpline
210
0.0
220
0.0
230
1.0
 70
     8
 71
     3
 72
     8
 73
     4
 74
     0
 42
0.00000001
 43
0.00000001
 40
0.0769230769230769
 40
0.0769230769230769
 40
0.0769230769230769
 40
0.0769230769230769
 40
0.1538461538461539
 40
0.1538461538461539
 40
0.1538461538461539
 40
0.1538461538461539
 10
2.105634599999996
 20
4.881029100000004
 30
0.0
 10
2.686164299999999
 20
4.881029100000004
 30
0.0
 10
3.215068499999997
 20
4.667326200000002
 30
0.0
 10
3.597059099999998
 20
4.253064900000001
 30
0.0
  0
SPLINE
  5
115
330
78
100
AcDbEntity
  8
0
  6
Continuous
 62
     8
420
  8421504
370
    18
100
AcDbSpline
210
0.0
220
0.0
230
1.0
 70
     8
 71
     3
 72
     8
 73
     4
 74
     0
 42
0.00000001
 43
0.00000001
 40
0.1538461538461539
 40
0.1538461538461539
 40
0.1538461538461539
 40
0.1538461538461539
 40
0.2307692307692308
 40
0.2307692307692308
 40
0.2307692307692308
 40
0.2307692307692308
 10
3.597059099999998
 20
4.253064900000001
 30
0.0
 10
3.9790497
 20
3.839870400000004
 30
0.0
 10
4.211840699999996
 20
3.229279799999998
 30
0.0
 10
4.211840699999996
 20
2.445143700000005
 30
0.0
  0
SPLINE
  5
116
330
78
100
AcDbEntity
  8
0
  6
Continuous
 62
     8
420
  8421504
370
    18
100
AcDbSpline
210
0.0
220
0.0
230
1.0
 70
     8
 71
     3
 72
     8
 73
     4
 74
     0
 42
0.00000001
 43
0.00000001
 40
0.2307692307692308
 40
0.2307692307692308
 40
0.2307692307692308
 40
0.2307692307692308
 40
0.3076923076923077
 40
0.3076923076923077
 40
0.3076923076923077
 40
0.3076923076923077
 10
4.211840699999996
 20
2.445143700000005
 30
0.0
 10
4.211840699999996
 20
1.660207499999999
 30
0.0
 10
3.9790497
 20
1.050150299999997
 30
0.0
 10
3.597059099999998
 20
0.6364605000000024
 30
0.0
  0
SPLINE
  5
117
330
78
100
AcDbEntity
  8
0
  6
Continuous
 62
     8
420
  8421504
370
    18
100
AcDbSpline
210
0.0
220
0.0
230
1.0
 70
     8
 71
     3
 72
     8
 73
     4
 74
     0
 42
0.00000001
 43
0.00000001
 40
0.3076923076923077
 40
0.3076923076923077
 40
0.3076923076923077
 40
0.3076923076923077
 40
0.3846153846153846
 40
0.3846153846153846
 40
0.3846153846153846
 40
0.3846153846153846
 10
3.597059099999998
 20
0.6364605000000024
 30
0.0
 10
3.215068499999997
 20
0.2234184
 30
0.0
 10
2.686164299999999
 20
0.0090297000000017
 30
0.0
 10
2.105634599999996
 20
0.0090297000000017
 30
0.0
  0
SPLINE
  5
118
330
78
100
AcDbEntity
  8
0
  6
Continuous
 62
     8
420
  8421504
370
    18
100
AcDbSpline
210
0.0
220
0.0
230
1.0
 70
     8
 71
     3
 72
     8
 73
     4
 74
     0
 42
0.00000001
 43
0.00000001
 40
0.4615384615384616
 40
0.4615384615384616
 40
0.4615384615384616
 40
0.4615384615384616
 40
0.5384615384615384
 40
0.5384615384615384
 40
0.5384615384615384
 40
0.5384615384615384
 10
2.098128899999996
 20
0.0090297000000017
 30
0.0
 10
1.117892099999995
 20
0.0090297000000017
 30
0.0
 10
0.2772917999999958
 20
0.5965316999999942
 30
0.0
 10
0.0591311999999969
 20
1.756295699999999
 30
0.0
  0
SPLINE
  5
119
330
78
100
AcDbEntity
  8
0
  6
Continuous
 62
     8
420
  8421504
370
    18
100
AcDbSpline
210
0.0
220
0.0
230
1.0
 70
     8
 71
     3
 72
     8
 73
     4
 74
     0
 42
0.00000001
 43
0.00000001
 40
0.5384615384615384
 40
0.5384615384615384
 40
0.5384615384615384
 40
0.5384615384615384
 40
0.6153846153846154
 40
0.6153846153846154
 40
0.6153846153846154
 40
0.6153846153846154
 10
0.0591311999999969
 20
1.756295699999999
 30
0.0
 10
0.0165353999999979
 20
1.983371699999998
 30
0.0
 10
0.0013334999999975
 20
2.239060799999998
 30
0.0
 10
0.0013334999999975
 20
2.369248500000002
 30
0.0
  0
SPLINE
  5
11A
330
78
100
AcDbEntity
  8
0
  6
Continuous
 62
     8
420
  8421504
370
    18
100
AcDbSpline
210
0.0
220
0.0
230
1.0
 70
     8
 71
     3
 72
     8
 73
     4
 74
     0
 42
0.00000001
 43
0.00000001
 40
0.0
 40
0.0
 40
0.0
 40
0.0
 40
0.2
 40
0.2
 40
0.2
 40
0.2
 10
2.105634599999996
 20
0.6571487999999959
 30
0.0
 10
2.908211099999997
 20
0.6595490999999981
 30
0.0
 10
3.5216211
 20
1.297190700000003
 30
0.0
 10
3.525659699999998
 20
2.445143700000005
 30
0.0
  0
SPLINE
  5
11B
330
78
100
AcDbEntity
  8
0
  6
Continuous
 62
     8
420
  8421504
370
    18
100
AcDbSpline
210
0.0
220
0.0
230
1.0
 70
     8
 71
     3
 72
     8
 73
     4
 74
     0
 42
0.00000001
 43
0.00000001
 40
0.2
 40
0.2
 40
0.2
 40
0.2
 40
0.4
 40
0.4
 40
0.4
 40
0.4
 10
3.525659699999998
 20
2.445143700000005
 30
0.0
 10
3.5216211
 20
3.583914600000002
 30
0.0
 10
2.907944399999996
 20
4.230776400000001
 30
0.0
 10
2.105634599999996
 20
4.232338500000002
 30
0.0
  0
SPLINE
  5
11C
330
78
100
AcDbEntity
  8
0
  6
Continuous
 62
     8
420
  8421504
370
    18
100
AcDbSpline
210
0.0
220
0.0
230
1.0
 70
     8
 71
     3
 72
     8
 73
     4
 74
     0
 42
0.00000001
 43
0.00000001
 40
0.4
 40
0.4
 40
0.4
 40
0.4
 40
0.6
 40
0.6
 40
0.6
 40
0.6
 10
2.105634599999996
 20
4.232338500000002
 30
0.0
 10
1.303896299999996
 20
4.230776400000001
 30
0.0
 10
0.6857618999999981
 20
3.654552
 30
0.0
 10
0.6857618999999981
 20
2.445143700000005
 30
0.0
  0
SPLINE
  5
11D
330
78
100
AcDbEntity
  8
0
  6
Continuous
 62
     8
420
  8421504
370
    18
100
AcDbSpline
210
0.0
220
0.0
230
1.0
 70
     8
 71
     3
 72
     8
 73
     4
 74
     0
 42
0.00000001
 43
0.00000001
 40
0.6
 40
0.6
 40
0.6
 40
0.6
 40
1.0
 40
1.0
 40
1.0
 40
1.0
 10
0.6857618999999981
 20
2.445143700000005
 30
0.0
 10
0.6786371999999972
 20
1.195616100000002
 30
0.0
 10
1.303515299999997
 20
0.6595490999999981
 30
0.0
 10
2.105634599999996
 20
0.6571487999999959
 30
0.0
  0
SPLINE
  5
11E
330
78
100
AcDbEntity
  8
0
  6
Continuous
 62
     8
420
  8421504
370
    18
100
AcDbSpline
210
0.0
220
0.0
230
1.0
 70
     8
 71
     3
 72
     8
 73
     4
 74
     0
 42
0.00000001
 43
0.00000001
 40
0.0
 40
0.0
 40
0.0
 40
0.0
 40
0.1666666666666667
 40
0.1666666666666667
 40
0.1666666666666667
 40
0.1666666666666667
 10
38.8233285
 20
0.6484239000000003
 30
0.0
 10
38.02075199999999
 20
0.6506717999999996
 30
0.0
 10
37.4067705
 20
1.288313400000005
 30
0.0
 10
37.4033034
 20
2.436380699999996
 30
0.0
  0
SPLINE
  5
11F
330
78
100
AcDbEntity
  8
0
  6
Continuous
 62
     8
420
  8421504
370
    18
100
AcDbSpline
210
0.0
220
0.0
230
1.0
 70
     8
 71
     3
 72
     8
 73
     4
 74
     0
 42
0.00000001
 43
0.00000001
 40
0.3333333333333333
 40
0.3333333333333333
 40
0.3333333333333333
 40
0.3333333333333333
 40
0.5
 40
0.5
 40
0.5
 40
0.5
 10
37.40303669999999
 20
2.436380699999996
 30
0.0
 10
37.4067705
 20
3.575151600000002
 30
0.0
 10
38.0218569
 20
4.2220134
 30
0.0
 10
38.8233285
 20
4.223575500000002
 30
0.0
  0
SPLINE
  5
120
330
78
100
AcDbEntity
  8
0
  6
Continuous
 62
     8
420
  8421504
370
    18
100
AcDbSpline
210
0.0
220
0.0
230
1.0
 70
     8
 71
     3
 72
     8
 73
     4
 74
     0
 42
0.00000001
 43
0.00000001
 40
0.5
 40
0.5
 40
0.5
 40
0.5
 40
0.6666666666666666
 40
0.6666666666666666
 40
0.6666666666666666
 40
0.6666666666666666
 10
38.8233285
 20
4.223575500000002
 30
0.0
 10
39.6246477
 20
4.2220134
 30
0.0
 10
40.2391626
 20
3.575151600000002
 30
0.0
 10
40.24335360000001
 20
2.436380699999996
 30
0.0
  0
SPLINE
  5
121
330
78
100
AcDbEntity
  8
0
  6
Continuous
 62
     8
420
  8421504
370
    18
100
AcDbSpline
210
0.0
220
0.0
230
1.0
 70
     8
 71
     3
 72
     8
 73
     4
 74
     0
 42
0.00000001
 43
0.00000001
 40
0.6666666666666666
 40
0.6666666666666666
 40
0.6666666666666666
 40
0.6666666666666666
 40
1.0
 40
1.0
 40
1.0
 40
1.0
 10
40.24335360000001
 20
2.436380699999996
 30
0.0
 10
40.2391626
 20
1.288313400000005
 30
0.0
 10
39.6250668
 20
0.6506717999999996
 30
0.0
 10
38.8233285
 20
0.6484239000000003
 30
0.0
  0
SPLINE
  5
122
330
78
100
AcDbEntity
  8
0
  6
Continuous
 62
     8
420
  8421504
370
    18
100
AcDbSpline
210
0.0
220
0.0
230
1.0
 70
     8
 71
     3
 72
     8
 73
     4
 74
     0
 42
0.00000001
 43
0.00000001
 40
0.1333333333333333
 40
0.1333333333333333
 40
0.1333333333333333
 40
0.1333333333333333
 40
0.2
 40
0.2
 40
0.2
 40
0.2
 10
40.2286851
 20
4.327283700000003
 30
0.0
 10
39.85515269999999
 20
4.6850808
 30
0.0
 10
39.3620244
 20
4.872266100000004
 30
0.0
 10
38.8233285
 20
4.871732700000001
 30
0.0
  0
SPLINE
  5
123
330
78
100
AcDbEntity
  8
0
  6
Continuous
 62
     8
420
  8421504
370
    18
100
AcDbSpline
210
0.0
220
0.0
230
1.0
 70
     8
 71
     3
 72
     8
 73
     4
 74
     0
 42
0.00000001
 43
0.00000001
 40
0.2
 40
0.2
 40
0.2
 40
0.2
 40
0.2666666666666667
 40
0.2666666666666667
 40
0.2666666666666667
 40
0.2666666666666667
 10
38.8233285
 20
4.871732700000001
 30
0.0
 10
38.2430655
 20
4.872266100000004
 30
0.0
 10
37.71362790000001
 20
4.658563200000002
 30
0.0
 10
37.3317897
 20
4.244301900000001
 30
0.0
  0
SPLINE
  5
124
330
78
100
AcDbEntity
  8
0
  6
Continuous
 62
     8
420
  8421504
370
    18
100
AcDbSpline
210
0.0
220
0.0
230
1.0
 70
     8
 71
     3
 72
     8
 73
     4
 74
     0
 42
0.00000001
 43
0.00000001
 40
0.2666666666666667
 40
0.2666666666666667
 40
0.2666666666666667
 40
0.2666666666666667
 40
0.3333333333333333
 40
0.3333333333333333
 40
0.3333333333333333
 40
0.3333333333333333
 10
37.3317897
 20
4.244301900000001
 30
0.0
 10
36.9504849
 20
3.831107400000003
 30
0.0
 10
36.7172748
 20
3.220516799999998
 30
0.0
 10
36.7172748
 20
2.436380699999996
 30
0.0
  0
SPLINE
  5
125
330
78
100
AcDbEntity
  8
0
  6
Continuous
 62
     8
420
  8421504
370
    18
100
AcDbSpline
210
0.0
220
0.0
230
1.0
 70
     8
 71
     3
 72
     8
 73
     4
 74
     0
 42
0.00000001
 43
0.00000001
 40
0.3333333333333333
 40
0.3333333333333333
 40
0.3333333333333333
 40
0.3333333333333333
 40
0.4
 40
0.4
 40
0.4
 40
0.4
 10
36.7172748
 20
2.436380699999996
 30
0.0
 10
36.7172748
 20
1.651482599999996
 30
0.0
 10
36.9504849
 20
1.041311099999995
 30
0.0
 10
37.3317897
 20
0.6275831999999955
 30
0.0
  0
SPLINE
  5
126
330
78
100
AcDbEntity
  8
0
  6
Continuous
 62
     8
420
  8421504
370
    18
100
AcDbSpline
210
0.0
220
0.0
230
1.0
 70
     8
 71
     3
 72
     8
 73
     4
 74
     0
 42
0.00000001
 43
0.00000001
 40
0.4
 40
0.4
 40
0.4
 40
0.4
 40
0.4666666666666667
 40
0.4666666666666667
 40
0.4666666666666667
 40
0.4666666666666667
 10
37.3317897
 20
0.6275831999999955
 30
0.0
 10
37.71362790000001
 20
0.2146935000000002
 30
0.0
 10
38.2430655
 20
0.0001523999999989
 30
0.0
 10
38.8233285
 20
0.0001523999999989
 30
0.0
  0
SPLINE
  5
127
330
78
100
AcDbEntity
  8
0
  6
Continuous
 62
     8
420
  8421504
370
    18
100
AcDbSpline
210
0.0
220
0.0
230
1.0
 70
     8
 71
     3
 72
     8
 73
     4
 74
     0
 42
0.00000001
 43
0.00000001
 40
0.5333333333333333
 40
0.5333333333333333
 40
0.5333333333333333
 40
0.5333333333333333
 40
0.6
 40
0.6
 40
0.6
 40
0.6
 10
38.8242429
 20
0.0001523999999989
 30
0.0
 10
39.3812268
 20
0.0001523999999989
 30
0.0
 10
39.8895951
 20
0.2000249999999981
 30
0.0
 10
40.2673947
 20
0.5821680000000024
 30
0.0
  0
SPLINE
  5
128
330
78
100
AcDbEntity
  8
0
  6
Continuous
 62
     8
420
  8421504
370
    18
100
AcDbSpline
210
0.0
220
0.0
230
1.0
 70
     8
 71
     3
 72
     8
 73
     4
 74
     0
 42
0.00000001
 43
0.00000001
 40
0.4736842105263158
 40
0.4736842105263158
 40
0.4736842105263158
 40
0.4736842105263158
 40
0.5263157894736842
 40
0.5263157894736842
 40
0.5263157894736842
 40
0.5263157894736842
 10
42.2655111
 20
0.8719185000000018
 30
0.0
 10
42.26402519999999
 20
0.5637275999999998
 30
0.0
 10
42.36377099999999
 20
0.3610736999999989
 30
0.0
 10
42.5247816
 20
0.2458974000000003
 30
0.0
  0
SPLINE
  5
129
330
78
100
AcDbEntity
  8
0
  6
Continuous
 62
     8
420
  8421504
370
    18
100
AcDbSpline
210
0.0
220
0.0
230
1.0
 70
     8
 71
     3
 72
     8
 73
     4
 74
     0
 42
0.00000001
 43
0.00000001
 40
0.5263157894736842
 40
0.5263157894736842
 40
0.5263157894736842
 40
0.5263157894736842
 40
0.5789473684210527
 40
0.5789473684210527
 40
0.5789473684210527
 40
0.5789473684210527
 10
42.5247816
 20
0.2458974000000003
 30
0.0
 10
42.68514449999999
 20
0.1302639000000008
 30
0.0
 10
42.8903892
 20
0.1021841999999967
 30
0.0
 10
43.0985676
 20
0.1021841999999967
 30
0.0
  0
SPLINE
  5
12A
330
78
100
AcDbEntity
  8
0
  6
Continuous
 62
     8
420
  8421504
370
    18
100
AcDbSpline
210
0.0
220
0.0
230
1.0
 70
     8
 71
     3
 72
     8
 73
     4
 74
     0
 42
0.00000001
 43
0.00000001
 40
0.5789473684210527
 40
0.5789473684210527
 40
0.5789473684210527
 40
0.5789473684210527
 40
0.631578947368421
 40
0.631578947368421
 40
0.631578947368421
 40
0.631578947368421
 10
43.0985676
 20
0.1021841999999967
 30
0.0
 10
43.136058
 20
0.1021841999999967
 30
0.0
 10
43.6856886
 20
0.1016507999999985
 30
0.0
 10
43.7019192
 20
0.1016507999999985
 30
0.0
  0
SPLINE
  5
12B
330
78
100
AcDbEntity
  8
0
  6
Continuous
 62
     8
420
  8421504
370
    18
100
AcDbSpline
210
0.0
220
0.0
230
1.0
 70
     8
 71
     3
 72
     8
 73
     4
 74
     0
 42
0.00000001
 43
0.00000001
 40
0.7368421052631579
 40
0.7368421052631579
 40
0.7368421052631579
 40
0.7368421052631579
 40
0.7894736842105263
 40
0.7894736842105263
 40
0.7894736842105263
 40
0.7894736842105263
 10
43.2214401
 20
0.685495199999997
 30
0.0
 10
43.0789461
 20
0.6894194999999964
 30
0.0
 10
43.032045
 20
0.7359015000000025
 30
0.0
 10
42.9925353
 20
0.8309228999999972
 30
0.0
  0
SPLINE
  5
12C
330
78
100
AcDbEntity
  8
0
  6
Continuous
 62
     8
420
  8421504
370
    18
100
AcDbSpline
210
0.0
220
0.0
230
1.0
 70
     8
 71
     3
 72
     8
 73
     4
 74
     0
 42
0.00000001
 43
0.00000001
 40
0.7894736842105263
 40
0.7894736842105263
 40
0.7894736842105263
 40
0.7894736842105263
 40
0.8421052631578947
 40
0.8421052631578947
 40
0.8421052631578947
 40
0.8421052631578947
 10
42.9925353
 20
0.8309228999999972
 30
0.0
 10
42.9551592
 20
0.9283826999999996
 30
0.0
 10
42.9508539
 20
1.0802493
 30
0.0
 10
42.9511206
 20
1.249070400000002
 30
0.0
  0
HATCH
  5
12D
330
78
100
AcDbEntity
  8
0
  6
Continuous
 62
     7
100
AcDbHatch
 10
0.0
 20
0.0
 30
0.0
210
0.0
220
0.0
230
1.0
  2
SOLID
 70
     1
 71
     0
 91
        2
 92
        0
 93
       12
 72
     4
 94
        3
 73
     1
 74
     0
 95
        8
 96
        4
 40
0.5384615384615384
 40
0.5384615384615384
 40
0.5384615384615384
 40
0.5384615384615384
 40
0.6153846153846154
 40
0.6153846153846154
 40
0.6153846153846154
 40
0.6153846153846154
 10
0.0013334999999989
 20
2.369248500000004
 42
1.0
 10
0.0013334999999989
 20
2.239060799999998
 42
1.0
 10
0.0165353999999965
 20
1.9833717
 42
1.0
 10
0.0591311999999962
 20
1.7562957
 42
1.0
 97
        0
 72
     4
 94
        3
 73
     1
 74
     0
 95
        8
 96
        4
 40
0.4615384615384616
 40
0.4615384615384616
 40
0.4615384615384616
 40
0.4615384615384616
 40
0.5384615384615384
 40
0.5384615384615384
 40
0.5384615384615384
 40
0.5384615384615384
 10
0.0591311999999962
 20
1.7562957
 42
1.0
 10
0.2772917999999958
 20
0.5965316999999928
 42
1.0
 10
1.117892099999997
 20
0.0090297000000031
 42
1.0
 10
2.098128899999996
 20
0.0090297000000031
 42
1.0
 97
        0
 72
     1
 10
2.098128899999996
 20
0.0090297000000031
 11
2.105634599999996
 21
0.0090297000000031
 72
     4
 94
        3
 73
     1
 74
     0
 95
        8
 96
        4
 40
0.3076923076923077
 40
0.3076923076923077
 40
0.3076923076923077
 40
0.3076923076923077
 40
0.3846153846153846
 40
0.3846153846153846
 40
0.3846153846153846
 40
0.3846153846153846
 10
2.105634599999996
 20
0.0090297000000031
 42
1.0
 10
2.686164299999998
 20
0.0090297000000031
 42
1.0
 10
3.215068499999998
 20
0.2234184000000014
 42
1.0
 10
3.597059099999997
 20
0.6364605000000051
 42
1.0
 97
        0
 72
     4
 94
        3
 73
     1
 74
     0
 95
        8
 96
        4
 40
0.2307692307692308
 40
0.2307692307692308
 40
0.2307692307692308
 40
0.2307692307692308
 40
0.3076923076923077
 40
0.3076923076923077
 40
0.3076923076923077
 40
0.3076923076923077
 10
3.597059099999997
 20
0.6364605000000051
 42
1.0
 10
3.979049700000001
 20
1.050150299999997
 42
1.0
 10
4.211840699999997
 20
1.660207499999997
 42
1.0
 10
4.211840699999997
 20
2.445143700000006
 42
1.0
 97
        0
 72
     4
 94
        3
 73
     1
 74
     0
 95
        8
 96
        4
 40
0.1538461538461539
 40
0.1538461538461539
 40
0.1538461538461539
 40
0.1538461538461539
 40
0.2307692307692308
 40
0.2307692307692308
 40
0.2307692307692308
 40
0.2307692307692308
 10
4.211840699999997
 20
2.445143700000006
 42
1.0
 10
4.211840699999997
 20
3.229279799999998
 42
1.0
 10
3.979049700000001
 20
3.839870400000001
 42
1.0
 10
3.597059099999997
 20
4.253064899999999
 42
1.0
 97
        0
 72
     4
 94
        3
 73
     1
 74
     0
 95
        8
 96
        4
 40
0.0769230769230769
 40
0.0769230769230769
 40
0.0769230769230769
 40
0.0769230769230769
 40
0.1538461538461539
 40
0.1538461538461539
 40
0.1538461538461539
 40
0.1538461538461539
 10
3.597059099999997
 20
4.253064899999999
 42
1.0
 10
3.215068499999998
 20
4.667326200000002
 42
1.0
 10
2.686164299999998
 20
4.881029100000004
 42
1.0
 10
2.105634599999996
 20
4.881029100000004
 42
1.0
 97
        0
 72
     4
 94
        3
 73
     1
 74
     0
 95
        8
 96
        4
 40
0.0
 40
0.0
 40
0.0
 40
0.0
 40
0.0769230769230769
 40
0.0769230769230769
 40
0.0769230769230769
 40
0.0769230769230769
 10
2.105634599999996
 20
4.881029100000004
 42
1.0
 10
1.557527999999996
 20
4.881029100000004
 42
1.0
 10
1.013040899999998
 20
4.651590900000002
 42
1.0
 10
0.6813041999999964
 20
4.247845200000003
 42
1.0
 97
        0
 72
     1
 10
0.6813041999999964
 20
4.247845200000003
 11
0.6813041999999964
 21
5.996444699999993
 72
     1
 10
0.6813041999999964
 20
5.996444699999993
 11
0.0
 21
5.996444699999993
 72
     1
 10
0.0
 20
5.996444699999993
 11
0.0
 21
2.369248500000004
 72
     1
 10
0.0
 20
2.369248500000004
 11
0.0013334999999989
 21
2.369248500000004
 97
        0
 92
        0
 93
        4
 72
     4
 94
        3
 73
     1
 74
     0
 95
        8
 96
        4
 40
0.6
 40
0.6
 40
0.6
 40
0.6
 40
1.0
 40
1.0
 40
1.0
 40
1.0
 10
2.105634599999996
 20
0.6571487999999931
 42
1.0
 10
1.303515299999995
 20
0.6595490999999967
 42
1.0
 10
0.6786371999999985
 20
1.195616100000005
 42
1.0
 10
0.6857618999999981
 20
2.445143700000006
 42
1.0
 97
        0
 72
     4
 94
        3
 73
     1
 74
     0
 95
        8
 96
        4
 40
0.4
 40
0.4
 40
0.4
 40
0.4
 40
0.6
 40
0.6
 40
0.6
 40
0.6
 10
0.6857618999999981
 20
2.445143700000006
 42
1.0
 10
0.6857618999999981
 20
3.654551999999998
 42
1.0
 10
1.303896299999996
 20
4.230776399999997
 42
1.0
 10
2.105634599999996
 20
4.232338500000002
 42
1.0
 97
        0
 72
     4
 94
        3
 73
     1
 74
     0
 95
        8
 96
        4
 40
0.2
 40
0.2
 40
0.2
 40
0.2
 40
0.4
 40
0.4
 40
0.4
 40
0.4
 10
2.105634599999996
 20
4.232338500000002
 42
1.0
 10
2.907944399999994
 20
4.230776399999997
 42
1.0
 10
3.5216211
 20
3.583914600000002
 42
1.0
 10
3.525659699999996
 20
2.445143700000006
 42
1.0
 97
        0
 72
     4
 94
        3
 73
     1
 74
     0
 95
        8
 96
        4
 40
0.0
 40
0.0
 40
0.0
 40
0.0
 40
0.2
 40
0.2
 40
0.2
 40
0.2
 10
3.525659699999996
 20
2.445143700000006
 42
1.0
 10
3.5216211
 20
1.297190700000006
 42
1.0
 10
2.908211099999995
 20
0.6595490999999967
 42
1.0
 10
2.105634599999996
 20
0.6571487999999931
 42
1.0
 97
        0
 97
        0
 75
     0
 76
     1
 98
        1
 10
0.0
 20
0.0
  0
HATCH
  5
12E
330
78
100
AcDbEntity
  8
0
  6
Continuous
 62
     7
100
AcDbHatch
 10
0.0
 20
0.0
 30
0.0
210
0.0
220
0.0
230
1.0
  2
SOLID
 70
     1
 71
     0
 91
        2
 92
        0
 93
        9
 72
     4
 94
        3
 73
     1
 74
     0
 95
        8
 96
        4
 40
0.7
 40
0.7
 40
0.7
 40
0.7
 40
0.8
 40
0.8
 40
0.8
 40
0.8
 10
8.920543499999996
 20
2.446172400000002
 42
1.0
 10
8.920543499999996
 20
3.230308500000001
 42
1.0
 10
8.6877525
 20
3.840937199999998
 42
1.0
 10
8.305761899999997
 20
4.254284099999999
 42
1.0
 97
        0
 72
     4
 94
        3
 73
     1
 74
     0
 95
        8
 96
        4
 40
0.8
 40
0.8
 40
0.8
 40
0.8
 40
1.0
 40
1.0
 40
1.0
 40
1.0
 10
8.305761899999997
 20
4.254284099999999
 42
1.0
 10
7.924037999999994
 20
4.668545400000001
 42
1.0
 10
7.394867099999997
 20
4.881943499999999
 42
1.0
 10
6.814375499999997
 20
4.881448199999999
 42
1.0
 97
        0
 72
     4
 94
        3
 73
     1
 74
     0
 95
        8
 96
        4
 40
0.0
 40
0.0
 40
0.0
 40
0.0
 40
0.1
 40
0.1
 40
0.1
 40
0.1
 10
6.814375499999997
 20
4.881448199999999
 42
1.0
 10
6.234531599999996
 20
4.881943499999999
 42
1.0
 10
5.705093999999997
 20
4.668545400000001
 42
1.0
 10
5.323103399999994
 20
4.254284099999999
 42
1.0
 97
        0
 72
     4
 94
        3
 73
     1
 74
     0
 95
        8
 96
        4
 40
0.1
 40
0.1
 40
0.1
 40
0.1
 40
0.2
 40
0.2
 40
0.2
 40
0.2
 10
5.323103399999994
 20
4.254284099999999
 42
1.0
 10
4.941379499999999
 20
3.840937199999998
 42
1.0
 10
4.708740899999998
 20
3.230308500000001
 42
1.0
 10
4.708740899999998
 20
2.446172400000002
 42
1.0
 97
        0
 72
     4
 94
        3
 73
     1
 74
     0
 95
        8
 96
        4
 40
0.2
 40
0.2
 40
0.2
 40
0.2
 40
0.3
 40
0.3
 40
0.3
 40
0.3
 10
4.708740899999998
 20
2.446172400000002
 42
1.0
 10
4.708740899999998
 20
1.661312400000003
 42
1.0
 10
4.941379499999999
 20
1.051217100000001
 42
1.0
 10
5.323103399999994
 20
0.6374892000000008
 42
1.0
 97
        0
 72
     4
 94
        3
 73
     1
 74
     0
 95
        8
 96
        4
 40
0.3
 40
0.3
 40
0.3
 40
0.3
 40
0.4
 40
0.4
 40
0.4
 40
0.4
 10
5.323103399999994
 20
0.6374892000000008
 42
1.0
 10
5.705093999999997
 20
0.2245233000000013
 42
1.0
 10
6.234531599999996
 20
0.0100965000000008
 42
1.0
 10
6.814375499999997
 20
0.0100965000000008
 42
1.0
 97
        0
 72
     1
 10
6.814375499999997
 20
0.0100965000000008
 11
6.816509099999999
 21
0.0100965000000008
 72
     4
 94
        3
 73
     1
 74
     0
 95
        8
 96
        4
 40
0.5
 40
0.5
 40
0.5
 40
0.5
 40
0.6
 40
0.6
 40
0.6
 40
0.6
 10
6.816509099999999
 20
0.0100965000000008
 42
1.0
 10
7.395705299999992
 20
0.0100965000000008
 42
1.0
 10
7.924037999999994
 20
0.2245233000000013
 42
1.0
 10
8.305761899999997
 20
0.6374892000000008
 42
1.0
 97
        0
 72
     4
 94
        3
 73
     1
 74
     0
 95
        8
 96
        4
 40
0.6
 40
0.6
 40
0.6
 40
0.6
 40
0.7
 40
0.7
 40
0.7
 40
0.7
 10
8.305761899999997
 20
0.6374892000000008
 42
1.0
 10
8.6877525
 20
1.051217100000001
 42
1.0
 10
8.920543499999996
 20
1.661312400000003
 42
1.0
 10
8.920543499999996
 20
2.446172400000002
 42
1.0
 97
        0
 97
        0
 92
        0
 93
        4
 72
     4
 94
        3
 73
     1
 74
     0
 95
        8
 96
        4
 40
0.4
 40
0.4
 40
0.4
 40
0.4
 40
0.6
 40
0.6
 40
0.6
 40
0.6
 10
6.814375499999997
 20
4.233405299999999
 42
1.0
 10
7.616380499999999
 20
4.2318051
 42
1.0
 10
8.230781100000002
 20
3.584981399999999
 42
1.0
 10
8.234400599999997
 20
2.446172400000002
 42
1.0
 97
        0
 72
     4
 94
        3
 73
     1
 74
     0
 95
        8
 96
        4
 40
0.6
 40
0.6
 40
0.6
 40
0.6
 40
1.0
 40
1.0
 40
1.0
 40
1.0
 10
8.234400599999997
 20
2.446172400000002
 42
1.0
 10
8.230781100000002
 20
1.298257499999997
 42
1.0
 10
7.616913900000001
 20
0.660501599999995
 42
1.0
 10
6.814375499999997
 20
0.6582155999999978
 42
1.0
 97
        0
 72
     4
 94
        3
 73
     1
 74
     0
 95
        8
 96
        4
 40
0.0
 40
0.0
 40
0.0
 40
0.0
 40
0.2
 40
0.2
 40
0.2
 40
0.2
 10
6.814375499999997
 20
0.6582155999999978
 42
1.0
 10
6.012484799999998
 20
0.660501599999995
 42
1.0
 10
5.398655700000001
 20
1.298257499999997
 42
1.0
 10
5.394502799999996
 20
2.446172400000002
 42
1.0
 97
        0
 72
     4
 94
        3
 73
     1
 74
     0
 95
        8
 96
        4
 40
0.2
 40
0.2
 40
0.2
 40
0.2
 40
0.4
 40
0.4
 40
0.4
 40
0.4
 10
5.394502799999996
 20
2.446172400000002
 42
1.0
 10
5.398122299999999
 20
3.584981399999999
 42
1.0
 10
6.013018199999998
 20
4.2318051
 42
1.0
 10
6.814375499999997
 20
4.233405299999999
 42
1.0
 97
        0
 97
        0
 75
     0
 76
     1
 98
        1
 10
0.0
 20
0.0
  0
HATCH
  5
12F
330
78
100
AcDbEntity
  8
0
  6
Continuous
 62
     7
100
AcDbHatch
 10
0.0
 20
0.0
 30
0.0
210
0.0
220
0.0
230
1.0
  2
SOLID
 70
     1
 71
     0
 91
        2
 92
        0
 93
       18
 72
     1
 10
16.395954
 20
0.6582156000000048
 11
16.38250469999999
 21
0.6587490000000001
 72
     4
 94
        3
 73
     1
 74
     0
 95
        8
 96
        4
 40
0.7368421052631579
 40
0.7368421052631579
 40
0.7368421052631579
 40
0.7368421052631579
 40
0.7894736842105263
 40
0.7894736842105263
 40
0.7894736842105263
 40
0.7894736842105263
 10
16.38250469999999
 20
0.6587489999999931
 42
1.0
 10
15.4196034
 20
0.6686930999999994
 42
1.0
 10
15.0089997
 20
1.351749899999998
 42
1.0
 10
15.0027894
 20
2.342235599999999
 42
1.0
 97
        0
 72
     1
 10
15.0027894
 20
2.342235599999992
 11
15.0025227
 21
2.404719600000001
 72
     1
 10
15.0025227
 20
2.404719600000001
 11
18.45480179999999
 21
2.404719600000001
 72
     1
 10
18.45480179999999
 20
2.404719600000001
 11
18.45266819999999
 21
2.467165499999993
 72
     4
 94
        3
 73
     1
 74
     0
 95
        8
 96
        4
 40
0.0
 40
0.0
 40
0.0
 40
0.0
 40
0.0526315789473684
 40
0.0526315789473684
 40
0.0526315789473684
 40
0.0526315789473684
 10
18.4526682
 20
2.467165499999993
 42
1.0
 10
18.4101867
 20
3.820477499999996
 42
1.0
 10
17.7229389
 20
4.884343799999996
 42
1.0
 10
16.34661449999999
 20
4.881943499999999
 42
1.0
 97
        0
 72
     4
 94
        3
 73
     1
 74
     0
 95
        8
 96
        4
 40
0.0526315789473684
 40
0.0526315789473684
 40
0.0526315789473684
 40
0.0526315789473684
 40
0.1052631578947368
 40
0.1052631578947368
 40
0.1052631578947368
 40
0.1052631578947368
 10
16.34661449999999
 20
4.881943499999999
 42
1.0
 10
15.7666563
 20
4.881943499999999
 42
1.0
 10
15.2375997
 20
4.668545400000001
 42
1.0
 10
14.8557615
 20
4.254284099999999
 42
1.0
 97
        0
 72
     4
 94
        3
 73
     1
 74
     0
 95
        8
 96
        4
 40
0.1052631578947368
 40
0.1052631578947368
 40
0.1052631578947368
 40
0.1052631578947368
 40
0.1578947368421053
 40
0.1578947368421053
 40
0.1578947368421053
 40
0.1578947368421053
 10
14.8557615
 20
4.254284099999999
 42
1.0
 10
14.4740376
 20
3.840937199999998
 42
1.0
 10
14.2407132
 20
3.230308500000001
 42
1.0
 10
14.2412466
 20
2.445677100000001
 42
1.0
 97
        0
 72
     4
 94
        3
 73
     1
 74
     0
 95
        8
 96
        4
 40
0.1578947368421053
 40
0.1578947368421053
 40
0.1578947368421053
 40
0.1578947368421053
 40
0.2105263157894737
 40
0.2105263157894737
 40
0.2105263157894737
 40
0.2105263157894737
 10
14.2412466
 20
2.445677100000001
 42
1.0
 10
14.2407132
 20
1.661312400000003
 42
1.0
 10
14.4740376
 20
1.051217100000001
 42
1.0
 10
14.8557615
 20
0.6374892000000008
 42
1.0
 97
        0
 72
     4
 94
        3
 73
     1
 74
     0
 95
        8
 96
        4
 40
0.2105263157894737
 40
0.2105263157894737
 40
0.2105263157894737
 40
0.2105263157894737
 40
0.2631578947368421
 40
0.2631578947368421
 40
0.2631578947368421
 40
0.2631578947368421
 10
14.8557615
 20
0.6374892000000008
 42
1.0
 10
15.2374854
 20
0.2245233000000013
 42
1.0
 10
15.7666563
 20
0.0100965000000008
 42
1.0
 10
16.34661449999999
 20
0.0100965000000008
 42
1.0
 97
        0
 72
     4
 94
        3
 73
     1
 74
     0
 95
        8
 96
        4
 40
0.2631578947368421
 40
0.2631578947368421
 40
0.2631578947368421
 40
0.2631578947368421
 40
0.3157894736842105
 40
0.3157894736842105
 40
0.3157894736842105
 40
0.3157894736842105
 10
16.34661449999999
 20
0.0100965000000008
 42
1.0
 10
16.36208309999999
 20
0.0100965000000008
 42
1.0
 10
16.3733607
 20
0.0112775999999981
 42
1.0
 10
16.3823523
 20
0.0112775999999981
 42
1.0
 97
        0
 72
     4
 94
        3
 73
     1
 74
     0
 95
        8
 96
        4
 40
0.3157894736842105
 40
0.3157894736842105
 40
0.3157894736842105
 40
0.3157894736842105
 40
0.3684210526315789
 40
0.3684210526315789
 40
0.3684210526315789
 40
0.3684210526315789
 10
16.3823523
 20
0.0112775999999981
 42
1.0
 10
16.391763
 20
0.0112775999999981
 42
1.0
 10
16.4044122
 20
0.0100965000000008
 42
1.0
 10
16.4193474
 20
0.0100965000000008
 42
1.0
 97
        0
 72
     1
 10
16.4193474
 20
0.0100965000000008
 11
16.4241861
 21
0.0100965000000008
 72
     4
 94
        3
 73
     1
 74
     0
 95
        8
 96
        4
 40
0.4210526315789473
 40
0.4210526315789473
 40
0.4210526315789473
 40
0.4210526315789473
 40
0.4736842105263158
 40
0.4736842105263158
 40
0.4736842105263158
 40
0.4736842105263158
 10
16.4241861
 20
0.0100965000000008
 42
1.0
 10
17.32132679999999
 20
0.0100965000000008
 42
1.0
 10
18.0916326
 20
0.5309234999999954
 42
1.0
 10
18.3883935
 20
1.494358199999997
 42
1.0
 97
        0
 72
     1
 10
18.3883935
 20
1.494358199999997
 11
18.41232029999999
 21
1.571510700000007
 72
     1
 10
18.41232029999999
 20
1.571510700000007
 11
17.6541303
 21
1.571510700000001
 72
     1
 10
17.6541303
 20
1.571510700000001
 11
17.6403
 21
1.531886700000006
 72
     4
 94
        3
 73
     1
 74
     0
 95
        8
 96
        4
 40
0.631578947368421
 40
0.631578947368421
 40
0.631578947368421
 40
0.631578947368421
 40
0.6842105263157895
 40
0.6842105263157895
 40
0.6842105263157895
 40
0.6842105263157895
 10
17.6403
 20
1.531886700000006
 42
1.0
 10
17.4510573
 20
1.000810800000002
 42
1.0
 10
17.0622087
 20
0.669531299999998
 42
1.0
 10
16.395954
 20
0.6582155999999978
 42
1.0
 97
        0
 97
        0
 92
        0
 93
        3
 72
     4
 94
        3
 73
     1
 74
     0
 95
        8
 96
        4
 40
0.0
 40
0.0
 40
0.0
 40
0.0
 40
0.25
 40
0.25
 40
0.25
 40
0.25
 10
15.0119334
 20
2.996412599999998
 42
1.0
 10
15.12646199999999
 20
3.696538200000002
 42
1.0
 10
15.6033216
 20
4.232605200000003
 42
1.0
 10
16.34661449999999
 20
4.233405299999999
 42
1.0
 97
        0
 72
     4
 94
        3
 73
     1
 74
     0
 95
        8
 96
        4
 40
0.25
 40
0.25
 40
0.25
 40
0.25
 40
0.5
 40
0.5
 40
0.5
 40
0.5
 10
16.34661449999999
 20
4.233405299999999
 42
1.0
 10
17.2194474
 20
4.2318051
 42
1.0
 10
17.5432593
 20
3.6238434
 42
1.0
 10
17.6779428
 20
2.996412599999998
 42
1.0
 97
        0
 72
     1
 10
17.6779428
 20
2.996412599999998
 11
15.0119334
 21
2.996412599999998
 97
        0
 75
     0
 76
     1
 98
        1
 10
0.0
 20
0.0
  0
HATCH
  5
130
330
78
100
AcDbEntity
  8
0
  6
Continuous
 62
     7
100
AcDbHatch
 10
0.0
 20
0.0
 30
0.0
210
0.0
220
0.0
230
1.0
  2
SOLID
 70
     1
 71
     0
 91
        2
 92
        0
 93
       14
 72
     1
 10
38.8233285
 20
0.0001524000000017
 11
38.8242429
 21
0.0001524000000017
 72
     4
 94
        3
 73
     1
 74
     0
 95
        8
 96
        4
 40
0.5333333333333333
 40
0.5333333333333333
 40
0.5333333333333333
 40
0.5333333333333333
 40
0.6
 40
0.6
 40
0.6
 40
0.6
 10
38.8242429
 20
0.0001524000000017
 42
1.0
 10
39.3812268
 20
0.0001524000000017
 42
1.0
 10
39.8895951
 20
0.2000249999999995
 42
1.0
 10
40.2673947
 20
0.5821680000000009
 42
1.0
 97
        0
 72
     1
 10
40.26739469999999
 20
0.5821680000000009
 11
40.35719639999999
 21
0.1136142000000007
 72
     1
 10
40.35719639999999
 20
0.1136142000000007
 11
40.9288107
 21
0.1136142000000007
 72
     1
 10
40.9288107
 20
0.1136142000000007
 11
40.9288107
 21
4.1671494
 72
     1
 10
40.9288107
 20
4.1671494
 11
40.9371546
 21
4.1671494
 72
     1
 10
40.9371546
 20
4.1671494
 11
40.9371546
 21
4.758842400000004
 72
     1
 10
40.9371546
 20
4.758842400000004
 11
40.2286851
 21
4.758842400000004
 72
     1
 10
40.2286851
 20
4.758842400000004
 11
40.2286851
 21
4.327283700000003
 72
     4
 94
        3
 73
     1
 74
     0
 95
        8
 96
        4
 40
0.1333333333333333
 40
0.1333333333333333
 40
0.1333333333333333
 40
0.1333333333333333
 40
0.2
 40
0.2
 40
0.2
 40
0.2
 10
40.2286851
 20
4.327283700000003
 42
1.0
 10
39.85515269999999
 20
4.685080799999998
 42
1.0
 10
39.3620244
 20
4.872266100000002
 42
1.0
 10
38.8233285
 20
4.871732699999999
 42
1.0
 97
        0
 72
     4
 94
        3
 73
     1
 74
     0
 95
        8
 96
        4
 40
0.2
 40
0.2
 40
0.2
 40
0.2
 40
0.2666666666666667
 40
0.2666666666666667
 40
0.2666666666666667
 40
0.2666666666666667
 10
38.8233285
 20
4.871732699999999
 42
1.0
 10
38.2430655
 20
4.872266100000002
 42
1.0
 10
37.71362790000001
 20
4.658563200000001
 42
1.0
 10
37.3317897
 20
4.244301899999997
 42
1.0
 97
        0
 72
     4
 94
        3
 73
     1
 74
     0
 95
        8
 96
        4
 40
0.2666666666666667
 40
0.2666666666666667
 40
0.2666666666666667
 40
0.2666666666666667
 40
0.3333333333333333
 40
0.3333333333333333
 40
0.3333333333333333
 40
0.3333333333333333
 10
37.3317897
 20
4.244301899999997
 42
1.0
 10
36.9504849
 20
3.831107400000006
 42
1.0
 10
36.7172748
 20
3.220516799999996
 42
1.0
 10
36.7172748
 20
2.436380699999997
 42
1.0
 97
        0
 72
     4
 94
        3
 73
     1
 74
     0
 95
        8
 96
        4
 40
0.3333333333333333
 40
0.3333333333333333
 40
0.3333333333333333
 40
0.3333333333333333
 40
0.4
 40
0.4
 40
0.4
 40
0.4
 10
36.7172748
 20
2.436380699999997
 42
1.0
 10
36.7172748
 20
1.651482599999997
 42
1.0
 10
36.9504849
 20
1.041311099999997
 42
1.0
 10
37.3317897
 20
0.6275831999999968
 42
1.0
 97
        0
 72
     4
 94
        3
 73
     1
 74
     0
 95
        8
 96
        4
 40
0.4
 40
0.4
 40
0.4
 40
0.4
 40
0.4666666666666667
 40
0.4666666666666667
 40
0.4666666666666667
 40
0.4666666666666667
 10
37.3317897
 20
0.6275831999999968
 42
1.0
 10
37.71362790000001
 20
0.2146935000000016
 42
1.0
 10
38.2430655
 20
0.0001524000000017
 42
1.0
 10
38.8233285
 20
0.0001524000000017
 42
1.0
 97
        0
 97
        0
 92
        0
 93
        5
 72
     4
 94
        3
 73
     1
 74
     0
 95
        8
 96
        4
 40
0.5
 40
0.5
 40
0.5
 40
0.5
 40
0.6666666666666666
 40
0.6666666666666666
 40
0.6666666666666666
 40
0.6666666666666666
 10
38.8233285
 20
4.2235755
 42
1.0
 10
39.6246477
 20
4.222013400000002
 42
1.0
 10
40.2391626
 20
3.5751516
 42
1.0
 10
40.24335360000001
 20
2.436380699999997
 42
1.0
 97
        0
 72
     4
 94
        3
 73
     1
 74
     0
 95
        8
 96
        4
 40
0.6666666666666666
 40
0.6666666666666666
 40
0.6666666666666666
 40
0.6666666666666666
 40
1.0
 40
1.0
 40
1.0
 40
1.0
 10
40.24335360000001
 20
2.436380699999997
 42
1.0
 10
40.2391626
 20
1.288313400000005
 42
1.0
 10
39.6250668
 20
0.6506718000000022
 42
1.0
 10
38.8233285
 20
0.6484239000000003
 42
1.0
 97
        0
 72
     4
 94
        3
 73
     1
 74
     0
 95
        8
 96
        4
 40
0.0
 40
0.0
 40
0.0
 40
0.0
 40
0.1666666666666667
 40
0.1666666666666667
 40
0.1666666666666667
 40
0.1666666666666667
 10
38.8233285
 20
0.6484239000000003
 42
1.0
 10
38.02075199999999
 20
0.6506718000000022
 42
1.0
 10
37.4067705
 20
1.288313400000005
 42
1.0
 10
37.4033034
 20
2.436380699999997
 42
1.0
 97
        0
 72
     1
 10
37.4033034
 20
2.436380699999997
 11
37.40303669999999
 21
2.436380699999997
 72
     4
 94
        3
 73
     1
 74
     0
 95
        8
 96
        4
 40
0.3333333333333333
 40
0.3333333333333333
 40
0.3333333333333333
 40
0.3333333333333333
 40
0.5
 40
0.5
 40
0.5
 40
0.5
 10
37.40303669999999
 20
2.436380699999997
 42
1.0
 10
37.4067705
 20
3.5751516
 42
1.0
 10
38.0218569
 20
4.222013400000002
 42
1.0
 10
38.8233285
 20
4.2235755
 42
1.0
 97
        0
 97
        0
 75
     0
 76
     1
 98
        1
 10
0.0
 20
0.0
  0
HATCH
  5
131
330
78
100
AcDbEntity
  8
0
  6
Continuous
 62
     7
100
AcDbHatch
 10
0.0
 20
0.0
 30
0.0
210
0.0
220
0.0
230
1.0
  2
SOLID
 70
     1
 71
     0
 91
        1
 92
        0
 93
       18
 72
     4
 94
        3
 73
     1
 74
     0
 95
        8
 96
        4
 40
0.7368421052631579
 40
0.7368421052631579
 40
0.7368421052631579
 40
0.7368421052631579
 40
0.7894736842105263
 40
0.7894736842105263
 40
0.7894736842105263
 40
0.7894736842105263
 10
43.2214401
 20
0.685495199999997
 42
1.0
 10
43.0789461
 20
0.6894194999999964
 42
1.0
 10
43.03204499999999
 20
0.7359015000000038
 42
1.0
 10
42.99253529999999
 20
0.830922899999996
 42
1.0
 97
        0
 72
     4
 94
        3
 73
     1
 74
     0
 95
        8
 96
        4
 40
0.7894736842105263
 40
0.7894736842105263
 40
0.7894736842105263
 40
0.7894736842105263
 40
0.8421052631578947
 40
0.8421052631578947
 40
0.8421052631578947
 40
0.8421052631578947
 10
42.99253529999999
 20
0.830922899999996
 42
1.0
 10
42.95515920000001
 20
0.9283827000000009
 42
1.0
 10
42.95085390000001
 20
1.080249300000002
 42
1.0
 10
42.9511206
 20
1.249070400000003
 42
1.0
 97
        0
 72
     1
 10
42.9511206
 20
1.249070400000003
 11
42.9511206
 21
4.176941099999998
 72
     1
 10
42.9511206
 20
4.176941099999998
 11
43.70191919999999
 21
4.176941099999998
 72
     1
 10
43.70191919999999
 20
4.176941099999998
 11
43.70191919999999
 21
4.768672199999997
 72
     1
 10
43.70191919999999
 20
4.768672199999997
 11
42.9511206
 21
4.768672199999997
 72
     1
 10
42.9511206
 20
4.768672199999997
 11
42.9511206
 21
5.997778199999998
 72
     1
 10
42.9511206
 20
5.997778199999998
 11
42.2655111
 21
5.997778199999998
 72
     1
 10
42.2655111
 20
5.997778199999998
 11
42.2655111
 21
4.768672199999997
 72
     1
 10
42.2655111
 20
4.768672199999997
 11
41.714166
 21
4.768672199999997
 72
     1
 10
41.714166
 20
4.768672199999997
 11
41.714166
 21
4.176941099999998
 72
     1
 10
41.714166
 20
4.176941099999998
 11
42.2655111
 21
4.176941099999998
 72
     1
 10
42.2655111
 20
4.176941099999998
 11
42.2655111
 21
0.8719184999999992
 72
     4
 94
        3
 73
     1
 74
     0
 95
        8
 96
        4
 40
0.4736842105263158
 40
0.4736842105263158
 40
0.4736842105263158
 40
0.4736842105263158
 40
0.5263157894736842
 40
0.5263157894736842
 40
0.5263157894736842
 40
0.5263157894736842
 10
42.2655111
 20
0.871918499999999
 42
1.0
 10
42.2640252
 20
0.5637276000000011
 42
1.0
 10
42.36377099999999
 20
0.3610736999999989
 42
1.0
 10
42.5247816
 20
0.2458974000000003
 42
1.0
 97
        0
 72
     4
 94
        3
 73
     1
 74
     0
 95
        8
 96
        4
 40
0.5263157894736842
 40
0.5263157894736842
 40
0.5263157894736842
 40
0.5263157894736842
 40
0.5789473684210527
 40
0.5789473684210527
 40
0.5789473684210527
 40
0.5789473684210527
 10
42.5247816
 20
0.2458974000000003
 42
1.0
 10
42.68514449999999
 20
0.1302639000000036
 42
1.0
 10
42.8903892
 20
0.102184199999994
 42
1.0
 10
43.0985676
 20
0.102184199999994
 42
1.0
 97
        0
 72
     4
 94
        3
 73
     1
 74
     0
 95
        8
 96
        4
 40
0.5789473684210527
 40
0.5789473684210527
 40
0.5789473684210527
 40
0.5789473684210527
 40
0.631578947368421
 40
0.631578947368421
 40
0.631578947368421
 40
0.631578947368421
 10
43.0985676
 20
0.102184199999994
 42
1.0
 10
43.13605800000001
 20
0.102184199999994
 42
1.0
 10
43.68568859999999
 20
0.1016507999999985
 42
1.0
 10
43.70191919999999
 20
0.1016507999999985
 42
1.0
 97
        0
 72
     1
 10
43.70191919999999
 20
0.1016507999999985
 11
43.70191919999999
 21
0.685495199999997
 72
     1
 10
43.70191919999999
 20
0.685495199999997
 11
43.2214401
 21
0.685495199999997
 97
        0
 75
     0
 76
     1
 98
        1
 10
0.0
 20
0.0
  0
HATCH
  5
132
330
78
100
AcDbEntity
  8
0
  6
Continuous
 62
     7
100
AcDbHatch
 10
0.0
 20
0.0
 30
0.0
210
0.0
220
0.0
230
1.0
  2
SOLID
 70
     1
 71
     0
 91
        1
 92
        0
 93
       10
 72
     1
 10
47.94263970000001
 20
0.7226045999999986
 11
45.4409175
 21
0.7226045999999986
 72
     1
 10
45.4409175
 20
0.7226045999999986
 11
47.9055684
 21
4.386605399999997
 72
     1
 10
47.9055684
 20
4.386605399999997
 11
47.9055684
 21
4.776177900000004
 72
     1
 10
47.9055684
 20
4.776177900000004
 11
44.5238505
 21
4.776177900000004
 72
     1
 10
44.5238505
 20
4.776177900000004
 11
44.5238505
 21
4.184561100000003
 72
     1
 10
44.5238505
 20
4.184561100000003
 11
46.9404954
 21
4.1849802
 72
     1
 10
46.9404954
 20
4.1849802
 11
44.5238505
 21
0.5978652000000002
 72
     1
 10
44.5238505
 20
0.5978652000000001
 11
44.5238505
 21
0.1309497000000021
 72
     1
 10
44.5238505
 20
0.1309497000000021
 11
47.94263970000001
 21
0.1309497000000021
 72
     1
 10
47.94263970000001
 20
0.1309497000000021
 11
47.94263970000001
 21
0.7226045999999986
 97
        0
 75
     0
 76
     1
 98
        1
 10
0.0
 20
0.0
  0
HATCH
  5
133
330
78
100
AcDbEntity
  8
0
  6
Continuous
 62
     7
100
AcDbHatch
 10
0.0
 20
0.0
 30
0.0
210
0.0
220
0.0
230
1.0
  2
SOLID
 70
     1
 71
     0
 91
        1
 92
        0
 93
       13
 72
     1
 10
32.29523639999999
 20
5.997663900000002
 11
32.29523639999999
 21
0.123367799999996
 72
     1
 10
32.29523639999999
 20
0.123367799999996
 11
32.9807316
 21
0.123367799999996
 72
     1
 10
32.9807316
 20
0.123367799999996
 11
32.9807316
 21
2.823400499999998
 72
     4
 94
        3
 73
     1
 74
     0
 95
        8
 96
        4
 40
0.4285714285714285
 40
0.4285714285714285
 40
0.4285714285714285
 40
0.4285714285714285
 40
0.5
 40
0.5
 40
0.5
 40
0.5
 10
32.9807316
 20
2.823400499999998
 42
1.0
 10
32.98541789999999
 20
3.814952999999996
 42
1.0
 10
33.5612232
 20
4.228680899999996
 42
1.0
 10
34.21242839999999
 20
4.233405299999998
 42
1.0
 97
        0
 72
     4
 94
        3
 73
     1
 74
     0
 95
        8
 96
        4
 40
0.5
 40
0.5
 40
0.5
 40
0.5
 40
0.5714285714285714
 40
0.5714285714285714
 40
0.5714285714285714
 40
0.5714285714285714
 10
34.21242839999999
 20
4.233405299999998
 42
1.0
 10
34.909887
 20
4.221860999999997
 42
1.0
 10
35.2432239
 20
3.974553899999997
 42
1.0
 10
35.2545015
 20
3.077794199999997
 42
1.0
 97
        0
 72
     1
 10
35.2545015
 20
3.077794199999997
 11
35.2545015
 21
0.123367799999996
 72
     1
 10
35.2545015
 20
0.123367799999996
 11
35.9412159
 21
0.123367799999996
 72
     1
 10
35.9412159
 20
0.123367799999996
 11
35.9412159
 21
3.247377299999998
 72
     4
 94
        3
 73
     1
 74
     0
 95
        8
 96
        4
 40
0.7857142857142857
 40
0.7857142857142857
 40
0.7857142857142857
 40
0.7857142857142857
 40
0.8571428571428571
 40
0.8571428571428571
 40
0.8571428571428571
 40
0.8571428571428571
 10
35.9412159
 20
3.247377299999998
 42
1.0
 10
35.9412159
 20
3.723322499999998
 42
1.0
 10
35.8182291
 20
4.134154799999997
 42
1.0
 10
35.5453569
 20
4.425200699999999
 42
1.0
 97
        0
 72
     4
 94
        3
 73
     1
 74
     0
 95
        8
 96
        4
 40
0.8571428571428571
 40
0.8571428571428571
 40
0.8571428571428571
 40
0.8571428571428571
 40
1.0
 40
1.0
 40
1.0
 40
1.0
 10
35.5453569
 20
4.425200699999999
 42
1.0
 10
35.2723704
 20
4.716856200000003
 42
1.0
 10
34.854642
 20
4.881943499999997
 42
1.0
 10
34.28771399999999
 20
4.881943499999997
 42
1.0
 97
        0
 72
     4
 94
        3
 73
     1
 74
     0
 95
        8
 96
        4
 40
0.0
 40
0.0
 40
0.0
 40
0.0
 40
0.0714285714285714
 40
0.0714285714285714
 40
0.0714285714285714
 40
0.0714285714285714
 10
34.28771399999999
 20
4.881943499999997
 42
1.0
 10
33.79938629999999
 20
4.8827436
 42
1.0
 10
33.2912085
 20
4.7060739
 42
1.0
 10
32.9807316
 20
4.232605200000003
 42
1.0
 97
        0
 72
     1
 10
32.9807316
 20
4.232605200000003
 11
32.9807316
 21
5.997663900000002
 72
     1
 10
32.9807316
 20
5.997663900000002
 11
32.29523639999999
 21
5.997663900000002
 97
        0
 75
     0
 76
     1
 98
        1
 10
0.0
 20
0.0
  0
HATCH
  5
134
330
78
100
AcDbEntity
  8
0
  6
Continuous
 62
     7
100
AcDbHatch
 10
0.0
 20
0.0
 30
0.0
210
0.0
220
0.0
230
1.0
  2
SOLID
 70
     1
 71
     0
 91
        2
 92
        0
 93
       12
 72
     4
 94
        3
 73
     1
 74
     0
 95
        8
 96
        4
 40
0.5384615384615384
 40
0.5384615384615384
 40
0.5384615384615384
 40
0.5384615384615384
 40
0.6153846153846154
 40
0.6153846153846154
 40
0.6153846153846154
 40
0.6153846153846154
 10
13.5869553
 20
1.757362499999995
 42
1.0
 10
13.6296654
 20
1.984400399999998
 42
1.0
 10
13.644753
 20
2.240127599999994
 42
1.0
 10
13.644753
 20
2.370315299999998
 42
1.0
 97
        0
 72
     1
 10
13.644753
 20
2.370315299999998
 11
13.64608649999999
 21
2.370315299999998
 72
     1
 10
13.64608649999999
 20
2.370315299999998
 11
13.64608649999999
 21
5.997663900000002
 72
     1
 10
13.64608649999999
 20
5.997663900000002
 11
12.9646299
 21
5.997663900000002
 72
     1
 10
12.9646299
 20
5.997663900000002
 11
12.9646299
 21
4.2490644
 72
     4
 94
        3
 73
     1
 74
     0
 95
        8
 96
        4
 40
0.0
 40
0.0
 40
0.0
 40
0.0
 40
0.0769230769230769
 40
0.0769230769230769
 40
0.0769230769230769
 40
0.0769230769230769
 10
12.9646299
 20
4.2490644
 42
1.0
 10
12.63289319999999
 20
4.652810099999999
 42
1.0
 10
12.08840609999999
 20
4.881943499999997
 42
1.0
 10
11.5404519
 20
4.881943499999997
 42
1.0
 97
        0
 72
     4
 94
        3
 73
     1
 74
     0
 95
        8
 96
        4
 40
0.0769230769230769
 40
0.0769230769230769
 40
0.0769230769230769
 40
0.0769230769230769
 40
0.1538461538461539
 40
0.1538461538461539
 40
0.1538461538461539
 40
0.1538461538461539
 10
11.5404519
 20
4.881943499999997
 42
1.0
 10
10.9600746
 20
4.881943499999997
 42
1.0
 10
10.43090369999999
 20
4.668545400000001
 42
1.0
 10
10.0491798
 20
4.2542841
 42
1.0
 97
        0
 72
     4
 94
        3
 73
     1
 74
     0
 95
        8
 96
        4
 40
0.1538461538461539
 40
0.1538461538461539
 40
0.1538461538461539
 40
0.1538461538461539
 40
0.2307692307692308
 40
0.2307692307692308
 40
0.2307692307692308
 40
0.2307692307692308
 10
10.0491798
 20
4.2542841
 42
1.0
 10
9.667074899999996
 20
3.8409372
 42
1.0
 10
9.434398199999999
 20
3.230308499999998
 42
1.0
 10
9.434398199999999
 20
2.446172400000005
 42
1.0
 97
        0
 72
     4
 94
        3
 73
     1
 74
     0
 95
        8
 96
        4
 40
0.2307692307692308
 40
0.2307692307692308
 40
0.2307692307692308
 40
0.2307692307692308
 40
0.3076923076923077
 40
0.3076923076923077
 40
0.3076923076923077
 40
0.3076923076923077
 10
9.434398199999999
 20
2.446172400000005
 42
1.0
 10
9.434398199999999
 20
1.661312400000001
 42
1.0
 10
9.667074899999996
 20
1.051217100000001
 42
1.0
 10
10.0491798
 20
0.6374892000000021
 42
1.0
 97
        0
 72
     4
 94
        3
 73
     1
 74
     0
 95
        8
 96
        4
 40
0.3076923076923077
 40
0.3076923076923077
 40
0.3076923076923077
 40
0.3076923076923077
 40
0.3846153846153846
 40
0.3846153846153846
 40
0.3846153846153846
 40
0.3846153846153846
 10
10.0491798
 20
0.6374892000000021
 42
1.0
 10
10.43090369999999
 20
0.2245233000000013
 42
1.0
 10
10.9600746
 20
0.0100964999999981
 42
1.0
 10
11.5404519
 20
0.0100964999999981
 42
1.0
 97
        0
 72
     1
 10
11.5404519
 20
0.0100964999999981
 11
11.5478433
 21
0.0100964999999981
 72
     4
 94
        3
 73
     1
 74
     0
 95
        8
 96
        4
 40
0.4615384615384616
 40
0.4615384615384616
 40
0.4615384615384616
 40
0.4615384615384616
 40
0.5384615384615384
 40
0.5384615384615384
 40
0.5384615384615384
 40
0.5384615384615384
 10
11.5478433
 20
0.0100964999999981
 42
1.0
 10
12.5283468
 20
0.0100964999999981
 42
1.0
 10
13.3689471
 20
0.5975984999999989
 42
1.0
 10
13.5869553
 20
1.757362499999995
 42
1.0
 97
        0
 97
        0
 92
        0
 93
        4
 72
     4
 94
        3
 73
     1
 74
     0
 95
        8
 96
        4
 40
0.4
 40
0.4
 40
0.4
 40
0.4
 40
0.6
 40
0.6
 40
0.6
 40
0.6
 10
11.5404519
 20
4.233405299999998
 42
1.0
 10
12.3420378
 20
4.2318051
 42
1.0
 10
12.9602103
 20
3.6555807
 42
1.0
 10
12.9602103
 20
2.446172400000005
 42
1.0
 97
        0
 72
     4
 94
        3
 73
     1
 74
     0
 95
        8
 96
        4
 40
0.6
 40
0.6
 40
0.6
 40
0.6
 40
1.0
 40
1.0
 40
1.0
 40
1.0
 10
12.9602103
 20
2.446172400000005
 42
1.0
 10
12.967335
 20
1.196644800000002
 42
1.0
 10
12.3424569
 20
0.6605015999999964
 42
1.0
 10
11.5404519
 20
0.6582156000000006
 42
1.0
 97
        0
 72
     4
 94
        3
 73
     1
 74
     0
 95
        8
 96
        4
 40
0.0
 40
0.0
 40
0.0
 40
0.0
 40
0.2
 40
0.2
 40
0.2
 40
0.2
 10
11.5404519
 20
0.6582156000000006
 42
1.0
 10
10.7377611
 20
0.6605015999999964
 42
1.0
 10
10.12419869999999
 20
1.2982575
 42
1.0
 10
10.1202744
 20
2.446172400000005
 42
1.0
 97
        0
 72
     4
 94
        3
 73
     1
 74
     0
 95
        8
 96
        4
 40
0.2
 40
0.2
 40
0.2
 40
0.2
 40
0.4
 40
0.4
 40
0.4
 40
0.4
 10
10.1202744
 20
2.446172400000005
 42
1.0
 10
10.12419869999999
 20
3.584981399999998
 42
1.0
 10
10.7382945
 20
4.2318051
 42
1.0
 10
11.5404519
 20
4.233405299999998
 42
1.0
 97
        0
 97
        0
 75
     0
 76
     1
 98
        1
 10
0.0
 20
0.0
  0
HATCH
  5
135
330
78
100
AcDbEntity
  8
0
  6
Continuous
 62
     7
100
AcDbHatch
 10
0.0
 20
0.0
 30
0.0
210
0.0
220
0.0
230
1.0
  2
SOLID
 70
     1
 71
     0
 91
        1
 92
        0
 93
       13
 72
     4
 94
        3
 73
     1
 74
     0
 95
        8
 96
        4
 40
0.8571428571428571
 40
0.8571428571428571
 40
0.8571428571428571
 40
0.8571428571428571
 40
1.0
 40
1.0
 40
1.0
 40
1.0
 10
22.4795334
 20
4.425200699999999
 42
1.0
 10
22.206966
 20
4.7173515
 42
1.0
 10
21.7885518
 20
4.882248299999995
 42
1.0
 10
21.2217381
 20
4.881448199999999
 42
1.0
 97
        0
 72
     4
 94
        3
 73
     1
 74
     0
 95
        8
 96
        4
 40
0.0
 40
0.0
 40
0.0
 40
0.0
 40
0.0714285714285714
 40
0.0714285714285714
 40
0.0714285714285714
 40
0.0714285714285714
 10
21.2217381
 20
4.881448199999999
 42
1.0
 10
20.7334485
 20
4.8827436
 42
1.0
 10
20.2260327
 20
4.706607300000002
 42
1.0
 10
19.91487
 20
4.2401109
 42
1.0
 97
        0
 72
     1
 10
19.91487
 20
4.2401109
 11
19.91487
 21
4.768557900000001
 72
     1
 10
19.91487
 20
4.768557900000001
 11
19.2292605
 21
4.768557900000001
 72
     1
 10
19.2292605
 20
4.768557900000001
 11
19.2292605
 21
0.123367799999996
 72
     1
 10
19.2292605
 20
0.123367799999996
 11
19.91487
 21
0.123367799999996
 72
     1
 10
19.91487
 20
0.123367799999996
 11
19.91487
 21
2.822905200000001
 72
     4
 94
        3
 73
     1
 74
     0
 95
        8
 96
        4
 40
0.4285714285714285
 40
0.4285714285714285
 40
0.4285714285714285
 40
0.4285714285714285
 40
0.5
 40
0.5
 40
0.5
 40
0.5
 10
19.91487
 20
2.822905200000001
 42
1.0
 10
19.9197087
 20
3.814952999999996
 42
1.0
 10
20.4953997
 20
4.228680899999996
 42
1.0
 10
21.1464525
 20
4.233405299999998
 42
1.0
 97
        0
 72
     4
 94
        3
 73
     1
 74
     0
 95
        8
 96
        4
 40
0.5
 40
0.5
 40
0.5
 40
0.5
 40
0.5714285714285714
 40
0.5714285714285714
 40
0.5714285714285714
 40
0.5714285714285714
 10
21.1464525
 20
4.233405299999998
 42
1.0
 10
21.8441778
 20
4.222127699999998
 42
1.0
 10
22.1777814
 20
3.974553899999997
 42
1.0
 10
22.1893257
 20
3.077527499999996
 42
1.0
 97
        0
 72
     1
 10
22.1893257
 20
3.077527499999996
 11
22.1893257
 21
0.123367799999996
 72
     1
 10
22.1893257
 20
0.123367799999996
 11
22.8750876
 21
0.123367799999996
 72
     1
 10
22.8750876
 20
0.123367799999996
 11
22.8750876
 21
3.247377299999998
 72
     4
 94
        3
 73
     1
 74
     0
 95
        8
 96
        4
 40
0.7857142857142857
 40
0.7857142857142857
 40
0.7857142857142857
 40
0.7857142857142857
 40
0.8571428571428571
 40
0.8571428571428571
 40
0.8571428571428571
 40
0.8571428571428571
 10
22.8750876
 20
3.247377299999998
 42
1.0
 10
22.8750876
 20
3.723322499999998
 42
1.0
 10
22.7522532
 20
4.134154799999997
 42
1.0
 10
22.4795334
 20
4.425200699999999
 42
1.0
 97
        0
 97
        0
 75
     0
 76
     1
 98
        1
 10
0.0
 20
0.0
  0
HATCH
  5
136
330
78
100
AcDbEntity
  8
0
  6
Continuous
 62
     7
100
AcDbHatch
 10
0.0
 20
0.0
 30
0.0
210
0.0
220
0.0
230
1.0
  2
SOLID
 70
     1
 71
     0
 91
        1
 92
        0
 93
       24
 72
     4
 94
        3
 73
     1
 74
     0
 95
        8
 96
        4
 40
0.92
 40
0.92
 40
0.92
 40
0.92
 40
1.0
 40
1.0
 40
1.0
 40
1.0
 10
27.034617
 20
1.433093399999996
 42
1.0
 10
27.0370554
 20
2.382926399999996
 42
1.0
 10
26.3174226
 20
2.642273099999995
 42
1.0
 10
25.6488819
 20
2.791396499999999
 42
1.0
 97
        0
 72
     4
 94
        3
 73
     1
 74
     0
 95
        8
 96
        4
 40
0.0
 40
0.0
 40
0.0
 40
0.0
 40
0.04
 40
0.04
 40
0.04
 40
0.04
 10
25.6488819
 20
2.791396499999999
 42
1.0
 10
25.312878
 20
2.868548999999998
 42
1.0
 10
24.9795411
 20
2.926080000000001
 42
1.0
 10
24.73962539999999
 20
3.032645699999998
 42
1.0
 97
        0
 72
     4
 94
        3
 73
     1
 74
     0
 95
        8
 96
        4
 40
0.04
 40
0.04
 40
0.04
 40
0.04
 40
0.08
 40
0.08
 40
0.08
 40
0.08
 10
24.73962539999999
 20
3.032645699999998
 42
1.0
 10
24.4982238
 20
3.142107000000002
 42
1.0
 10
24.3593493
 20
3.278619299999999
 42
1.0
 10
24.3570633
 20
3.544824000000002
 42
1.0
 97
        0
 72
     4
 94
        3
 73
     1
 74
     0
 95
        8
 96
        4
 40
0.08
 40
0.08
 40
0.08
 40
0.08
 40
0.12
 40
0.12
 40
0.12
 40
0.12
 10
24.3570633
 20
3.544824000000002
 42
1.0
 10
24.366474
 20
3.956456399999997
 42
1.0
 10
24.5171595
 20
4.237062899999997
 42
1.0
 10
25.2667389
 20
4.273181700000003
 42
1.0
 97
        0
 72
     4
 94
        3
 73
     1
 74
     0
 95
        8
 96
        4
 40
0.12
 40
0.12
 40
0.12
 40
0.12
 40
0.16
 40
0.16
 40
0.16
 40
0.16
 10
25.2667389
 20
4.273181700000003
 42
1.0
 10
25.7064129
 20
4.269790799999998
 42
1.0
 10
25.99833509999999
 20
4.084548599999996
 42
1.0
 10
26.1839583
 20
3.7729287
 42
1.0
 97
        0
 72
     1
 10
26.1839583
 20
3.7729287
 11
26.2014462
 21
3.743553599999999
 72
     1
 10
26.2014462
 20
3.743553599999999
 11
26.8831695
 21
3.743553599999999
 72
     1
 10
26.8831695
 20
3.743553599999999
 11
26.8459077
 21
3.827525999999998
 72
     4
 94
        3
 73
     1
 74
     0
 95
        8
 96
        4
 40
0.28
 40
0.28
 40
0.28
 40
0.28
 40
0.32
 40
0.32
 40
0.32
 40
0.32
 10
26.8459077
 20
3.827525999999998
 42
1.0
 10
26.5467465
 20
4.5057822
 42
1.0
 10
25.962864
 20
4.870132500000002
 42
1.0
 10
25.2976761
 20
4.869103800000002
 42
1.0
 97
        0
 72
     4
 94
        3
 73
     1
 74
     0
 95
        8
 96
        4
 40
0.32
 40
0.32
 40
0.32
 40
0.32
 40
0.36
 40
0.36
 40
0.36
 40
0.36
 10
25.2976761
 20
4.869103800000002
 42
1.0
 10
25.28072159999999
 20
4.869103800000002
 42
1.0
 10
25.2667389
 20
4.867808400000001
 42
1.0
 10
25.2545088
 20
4.867808400000001
 42
1.0
 97
        0
 72
     1
 10
25.2545088
 20
4.867808400000001
 11
25.1957967
 21
4.867274999999999
 72
     1
 10
25.1957967
 20
4.867274999999999
 11
25.1957967
 21
4.865941500000002
 72
     4
 94
        3
 73
     1
 74
     0
 95
        8
 96
        4
 40
0.44
 40
0.44
 40
0.44
 40
0.44
 40
0.48
 40
0.48
 40
0.48
 40
0.48
 10
25.1957967
 20
4.865941500000002
 42
1.0
 10
24.21502649999999
 20
4.8373284
 42
1.0
 10
23.6691678
 20
4.231309800000003
 42
1.0
 10
23.67133949999999
 20
3.563721599999997
 42
1.0
 97
        0
 72
     4
 94
        3
 73
     1
 74
     0
 95
        8
 96
        4
 40
0.48
 40
0.48
 40
0.48
 40
0.48
 40
0.52
 40
0.52
 40
0.52
 40
0.52
 10
23.67133949999999
 20
3.563721599999997
 42
1.0
 10
23.6689011
 20
2.621013300000002
 42
1.0
 10
24.39268679999999
 20
2.407081799999997
 42
1.0
 10
25.0581414
 20
2.279484900000003
 42
1.0
 97
        0
 72
     4
 94
        3
 73
     1
 74
     0
 95
        8
 96
        4
 40
0.52
 40
0.52
 40
0.52
 40
0.52
 40
0.56
 40
0.56
 40
0.56
 40
0.56
 10
25.0581414
 20
2.279484900000003
 42
1.0
 10
25.3939167
 20
2.211743099999997
 42
1.0
 10
25.7260344
 20
2.158212599999996
 42
1.0
 10
25.9643499
 20
2.043226800000001
 42
1.0
 97
        0
 72
     4
 94
        3
 73
     1
 74
     0
 95
        8
 96
        4
 40
0.56
 40
0.56
 40
0.56
 40
0.56
 40
0.6
 40
0.6
 40
0.6
 40
0.6
 10
25.9643499
 20
2.043226800000001
 42
1.0
 10
26.2027797
 20
1.925345399999998
 42
1.0
 10
26.345388
 20
1.767039899999998
 42
1.0
 10
26.3484741
 20
1.452029100000005
 42
1.0
 97
        0
 72
     4
 94
        3
 73
     1
 74
     0
 95
        8
 96
        4
 40
0.6
 40
0.6
 40
0.6
 40
0.6
 40
0.64
 40
0.64
 40
0.64
 40
0.64
 10
26.3484741
 20
1.452029100000005
 42
1.0
 10
26.3482074
 20
0.7650861000000038
 42
1.0
 10
25.7924427
 20
0.6081141000000012
 42
1.0
 10
25.3281942
 20
0.5886069000000023
 42
1.0
 97
        0
 72
     4
 94
        3
 73
     1
 74
     0
 95
        8
 96
        4
 40
0.64
 40
0.64
 40
0.64
 40
0.64
 40
0.68
 40
0.68
 40
0.68
 40
0.68
 10
25.3281942
 20
0.5886069000000023
 42
1.0
 10
24.9371739
 20
0.5970650999999966
 42
1.0
 10
24.3777897
 20
0.7282052999999984
 42
1.0
 10
24.191214
 20
1.370990400000002
 42
1.0
 97
        0
 72
     1
 10
24.191214
 20
1.370990400000002
 11
24.17925059999999
 21
1.414805399999997
 72
     1
 10
24.17925059999999
 20
1.414805399999997
 11
23.4820968
 21
1.414805399999997
 72
     1
 10
23.4820968
 20
1.414805399999997
 11
23.5064046
 21
1.337119500000003
 72
     4
 94
        3
 73
     1
 74
     0
 95
        8
 96
        4
 40
0.8
 40
0.8
 40
0.8
 40
0.8
 40
0.84
 40
0.84
 40
0.84
 40
0.84
 10
23.5064046
 20
1.337119500000003
 42
1.0
 10
23.7683802
 20
0.4924805999999976
 42
1.0
 10
24.54161969999999
 20
0.0244601999999983
 42
1.0
 10
25.2792738
 20
0.0
 42
1.0
 97
        0
 72
     1
 10
25.2792738
 20
0.0
 11
25.3310136
 21
0.0005714999999989
 72
     4
 94
        3
 73
     1
 74
     0
 95
        8
 96
        4
 40
0.88
 40
0.88
 40
0.88
 40
0.88
 40
0.92
 40
0.92
 40
0.92
 40
0.92
 10
25.3310136
 20
0.0005714999999989
 42
1.0
 10
26.4144633
 20
0.0376427999999998
 42
1.0
 10
27.036522
 20
0.6775703999999966
 42
1.0
 10
27.034617
 20
1.433093399999996
 42
1.0
 97
        0
 97
        0
 75
     0
 76
     1
 98
        1
 10
0.0
 20
0.0
  0
HATCH
  5
137
330
78
100
AcDbEntity
  8
0
  6
Continuous
 62
     7
100
AcDbHatch
 10
0.0
 20
0.0
 30
0.0
210
0.0
220
0.0
230
1.0
  2
SOLID
 70
     1
 71
     0
 91
        1
 92
        0
 93
       15
 72
     4
 94
        3
 73
     1
 74
     0
 95
        8
 96
        4
 40
0.6875
 40
0.6875
 40
0.6875
 40
0.6875
 40
0.75
 40
0.75
 40
0.75
 40
0.75
 10
29.612844
 20
0.0100964999999981
 42
1.0
 10
30.60089129999999
 20
0.0100964999999981
 42
1.0
 10
31.22801729999999
 20
0.450837300000001
 42
1.0
 10
31.56204
 20
1.311325799999999
 42
1.0
 97
        0
 72
     1
 10
31.56204
 20
1.311325799999999
 11
31.59442499999999
 21
1.393278900000003
 72
     1
 10
31.59442499999999
 20
1.393278900000003
 11
30.8433597
 21
1.393545600000004
 72
     1
 10
30.8433597
 20
1.393545600000004
 11
30.8276244
 21
1.359408000000004
 72
     4
 94
        3
 73
     1
 74
     0
 95
        8
 96
        4
 40
0.0
 40
0.0
 40
0.0
 40
0.0
 40
0.0625
 40
0.0625
 40
0.0625
 40
0.0625
 10
30.8276244
 20
1.359408000000004
 42
1.0
 10
30.6352956
 20
0.9622154999999939
 42
1.0
 10
30.2848899
 20
0.6605015999999964
 42
1.0
 10
29.6000805
 20
0.6582156000000006
 42
1.0
 97
        0
 72
     4
 94
        3
 73
     1
 74
     0
 95
        8
 96
        4
 40
0.0625
 40
0.0625
 40
0.0625
 40
0.0625
 40
0.125
 40
0.125
 40
0.125
 40
0.125
 10
29.6000805
 20
0.6582156000000006
 42
1.0
 10
28.9179762
 20
0.6601205999999971
 42
1.0
 10
28.1824938
 20
1.227048600000002
 42
1.0
 10
28.18032209999999
 20
2.446172400000005
 42
1.0
 97
        0
 72
     4
 94
        3
 73
     1
 74
     0
 95
        8
 96
        4
 40
0.125
 40
0.125
 40
0.125
 40
0.125
 40
0.1875
 40
0.1875
 40
0.1875
 40
0.1875
 10
28.18032209999999
 20
2.446172400000005
 42
1.0
 10
28.18302719999999
 20
3.6645342
 42
1.0
 10
28.9156902
 20
4.230509699999999
 42
1.0
 10
29.6565447
 20
4.233405299999998
 42
1.0
 97
        0
 72
     4
 94
        3
 73
     1
 74
     0
 95
        8
 96
        4
 40
0.1875
 40
0.1875
 40
0.1875
 40
0.1875
 40
0.25
 40
0.25
 40
0.25
 40
0.25
 10
29.6565447
 20
4.233405299999998
 42
1.0
 10
30.1868967
 20
4.2318051
 42
1.0
 10
30.5905281
 20
4.075899900000002
 42
1.0
 10
30.7692933
 20
3.701262600000002
 42
1.0
 97
        0
 72
     1
 10
30.7692933
 20
3.701262600000002
 11
30.7850286
 21
3.666629700000005
 72
     1
 10
30.7850286
 20
3.666629700000005
 11
31.5281691
 21
3.6616386
 72
     1
 10
31.5281691
 20
3.6616386
 11
31.4910597
 21
3.746411100000003
 72
     4
 94
        3
 73
     1
 74
     0
 95
        8
 96
        4
 40
0.4375
 40
0.4375
 40
0.4375
 40
0.4375
 40
0.5
 40
0.5
 40
0.5
 40
0.5
 10
31.4910597
 20
3.746411100000003
 42
1.0
 10
31.0765698
 20
4.699520700000001
 42
1.0
 10
30.3072165
 20
4.884839099999996
 42
1.0
 10
29.7316779
 20
4.881448199999999
 42
1.0
 97
        0
 72
     4
 94
        3
 73
     1
 74
     0
 95
        8
 96
        4
 40
0.5
 40
0.5
 40
0.5
 40
0.5
 40
0.5625
 40
0.5625
 40
0.5625
 40
0.5625
 10
29.7316779
 20
4.881448199999999
 42
1.0
 10
28.3977969
 20
4.884839099999996
 42
1.0
 10
27.5088096
 20
3.8931723
 42
1.0
 10
27.49429349999999
 20
2.446439099999998
 42
1.0
 97
        0
 72
     4
 94
        3
 73
     1
 74
     0
 95
        8
 96
        4
 40
0.5625
 40
0.5625
 40
0.5625
 40
0.5625
 40
0.625
 40
0.625
 40
0.625
 40
0.625
 10
27.49429349999999
 20
2.446439099999998
 42
1.0
 10
27.5105622
 20
0.9973436999999976
 42
1.0
 10
28.4315535
 20
0.0090297000000017
 42
1.0
 10
29.6000805
 20
0.0100964999999981
 42
1.0
 97
        0
 72
     1
 10
29.6000805
 20
0.0100964999999981
 11
29.612844
 21
0.0100964999999981
 97
        0
 75
     0
 76
     1
 98
        1
 10
0.0
 20
0.0
  0
ENDBLK
  5
7A
330
78
100
AcDbEntity
  8
0
100
AcDbBlockEnd
  0
BLOCK
  5
194
330
193
100
AcDbEntity
  8
0
100
AcDbBlockBegin
  2
_D
 70
     0
 10
0.0
 20
0.0
 30
0.0
  3
_D
  1

  0
ARC
  5
196
330
193
100
AcDbEntity
  8
0
  6
SLD-Durchgehend
 62
     7
370
    18
100
AcDbCircle
 10
322.2341430254
 20
104.131604764
 30
0.0
 40
6.004150275287324
100
AcDbArc
 50
153.4349488229
 51
206.5650511771
  0
ARC
  5
197
330
193
100
AcDbEntity
  8
0
  6
SLD-Durchgehend
 62
     7
370
    18
100
AcDbCircle
 10
324.0248207064
 20
104.131604764
 30
0.0
 40
6.004150275287375
100
AcDbArc
 50
333.4349488229
 51
26.5650511771
  0
SOLID
  5
198
330
193
100
AcDbEntity
  8
0
  6
SLD-Durchgehend
 62
     7
370
    18
100
AcDbTrace
 10
309.2713872604
 20
101.4464671314
 30
0.0
 11
305.7713872604
 21
102.3464671314
 31
0.0
 12
305.7713872604
 22
100.5464671314
 32
0.0
 13
305.7713872604
 23
100.5464671314
 33
0.0
  0
SOLID
  5
199
330
193
100
AcDbEntity
  8
0
  6
SLD-Durchgehend
 62
     7
370
    18
100
AcDbTrace
 10
336.7713872604
 20
101.4464671314
 30
0.0
 11
340.2713872604
 21
100.5464671314
 31
0.0
 12
340.2713872604
 22
102.3464671314
 32
0.0
 13
340.2713872604
 23
102.3464671314
 33
0.0
  0
LINE
  5
19A
330
193
100
AcDbEntity
  8
0
  6
SLD-Durchgehend
 62
     7
370
     0
100
AcDbLine
 10
309.2713872604
 20
92.707211405
 30
0.0
 11
309.2713872604
 21
102.4464671314
 31
0.0
  0
LINE
  5
19B
330
193
100
AcDbEntity
  8
0
  6
SLD-Durchgehend
 62
     7
370
     0
100
AcDbLine
 10
336.7713872604
 20
94.407211405
 30
0.0
 11
336.7713872604
 21
102.4464671314
 31
0.0
  0
LINE
  5
19C
330
193
100
AcDbEntity
  8
0
  6
SLD-Durchgehend
 62
     7
370
     0
100
AcDbLine
 10
309.2713872604
 20
101.4464671314
 30
0.0
 11
302.2713872604
 21
101.4464671314
 31
0.0
  0
LINE
  5
19D
330
193
100
AcDbEntity
  8
0
  6
SLD-Durchgehend
 62
     7
370
     0
100
AcDbLine
 10
309.2713872604
 20
101.4464671314
 30
0.0
 11
336.7713872604
 21
101.4464671314
 31
0.0
  0
LINE
  5
19E
330
193
100
AcDbEntity
  8
0
  6
SLD-Durchgehend
 62
     7
370
     0
100
AcDbLine
 10
336.7713872604
 20
101.4464671314
 30
0.0
 11
343.7713872604
 21
101.4464671314
 31
0.0
  0
MTEXT
  5
19F
330
193
100
AcDbEntity
  8
0
  6
SLD-Durchgehend
 62
     7
370
    18
100
AcDbMText
 10
318.4513677603
 20
105.9582044535
 30
0.0
 40
3.5
 41
0.0
 46
0.0
 71
     1
 72
     1
  1
27.5
  7
SLDTEXTSTYLE0
 73
     1
 44
1.0
  0
ENDBLK
  5
195
330
193
100
AcDbEntity
  8
0
100
AcDbBlockEnd
  0
BLOCK
  5
1A3
330
1A2
100
AcDbEntity
  8
0
100
AcDbBlockBegin
  2
_D_1
 70
     0
 10
0.0
 20
0.0
 30
0.0
  3
_D_1
  1

  0
ARC
  5
1A5
330
1A2
100
AcDbEntity
  8
0
  6
SLD-Durchgehend
 62
     7
370
    18
100
AcDbCircle
 10
344.4093415739
 20
78.1208706399
 30
0.0
 40
6.004150275287241
100
AcDbArc
 50
243.4349488229
 51
296.5650511771
  0
ARC
  5
1A6
330
1A2
100
AcDbEntity
  8
0
  6
SLD-Durchgehend
 62
     7
370
    18
100
AcDbCircle
 10
344.4093415739
 20
75.9014902598
 30
0.0
 40
6.004150275287267
100
AcDbArc
 50
63.4349488229
 51
116.5650511771
  0
SOLID
  5
1A7
330
1A2
100
AcDbEntity
  8
0
  6
SLD-Durchgehend
 62
     7
370
    18
100
AcDbTrace
 10
347.0944792065
 20
93.707211405
 30
0.0
 11
346.1944792065
 21
90.207211405
 31
0.0
 12
347.9944792065
 22
90.207211405
 32
0.0
 13
347.9944792065
 23
90.207211405
 33
0.0
  0
SOLID
  5
1A8
330
1A2
100
AcDbEntity
  8
0
  6
SLD-Durchgehend
 62
     7
370
    18
100
AcDbTrace
 10
347.0944792065
 20
41.707211405
 30
0.0
 11
347.9944792065
 21
45.207211405
 31
0.0
 12
346.1944792065
 22
45.207211405
 32
0.0
 13
346.1944792065
 23
45.207211405
 33
0.0
  0
LINE
  5
1A9
330
1A2
100
AcDbEntity
  8
0
  6
SLD-Durchgehend
 62
     7
370
     0
100
AcDbLine
 10
337.4713872604
 20
93.707211405
 30
0.0
 11
348.0944792065
 21
93.707211405
 31
0.0
  0
LINE
  5
1AA
330
1A2
100
AcDbEntity
  8
0
  6
SLD-Durchgehend
 62
     7
370
     0
100
AcDbLine
 10
337.4713872604
 20
41.707211405
 30
0.0
 11
348.0944792065
 21
41.707211405
 31
0.0
  0
LINE
  5
1AB
330
1A2
100
AcDbEntity
  8
0
  6
SLD-Durchgehend
 62
     7
370
     0
100
AcDbLine
 10
347.0944792065
 20
93.707211405
 30
0.0
 11
347.0944792065
 21
41.707211405
 31
0.0
  0
MTEXT
  5
1AC
330
1A2
100
AcDbEntity
  8
0
  6
SLD-Durchgehend
 62
     7
370
    18
100
AcDbMText
 10
342.5827418844
 20
74.3380953748
 30
0.0
 40
3.5
 41
0.0
 46
0.0
 71
     1
 72
     1
  1
52
  7
SLDTEXTSTYLE0
 11
-3.491481338843133E-15
 21
1.0
 31
0.0
 73
     1
 44
1.0
  0
ENDBLK
  5
1A4
330
1A2
100
AcDbEntity
  8
0
100
AcDbBlockEnd
  0
BLOCK
  5
1AF
330
1AE
100
AcDbEntity
  8
0
100
AcDbBlockBegin
  2
_D_2
 70
     0
 10
0.0
 20
0.0
 30
0.0
  3
_D_2
  1

  0
ARC
  5
1B1
330
1AE
100
AcDbEntity
  8
0
  6
SLD-Durchgehend
 62
     7
370
    18
100
AcDbCircle
 10
141.631858862
 20
106.3923490376
 30
0.0
 40
6.004150275287349
100
AcDbArc
 50
153.4349488229
 51
206.5650511771
  0
ARC
  5
1B2
330
1AE
100
AcDbEntity
  8
0
  6
SLD-Durchgehend
 62
     7
370
    18
100
AcDbCircle
 10
146.096482515
 20
106.3923490376
 30
0.0
 40
6.004150275287349
100
AcDbArc
 50
333.4349488229
 51
26.5650511771
  0
SOLID
  5
1B3
330
1AE
100
AcDbEntity
  8
0
  6
SLD-Durchgehend
 62
     7
370
    18
100
AcDbTrace
 10
309.2713872604
 20
103.707211405
 30
0.0
 11
305.7713872604
 21
104.607211405
 31
0.0
 12
305.7713872604
 22
102.807211405
 32
0.0
 13
305.7713872604
 23
102.807211405
 33
0.0
  0
SOLID
  5
1B4
330
1AE
100
AcDbEntity
  8
0
  6
SLD-Durchgehend
 62
     7
370
    18
100
AcDbTrace
 10
9.8508677813
 20
103.707211405
 30
0.0
 11
13.3508677813
 21
102.807211405
 31
0.0
 12
13.3508677813
 22
104.607211405
 32
0.0
 13
13.3508677813
 23
104.607211405
 33
0.0
  0
LINE
  5
1B5
330
1AE
100
AcDbEntity
  8
0
  6
SLD-Durchgehend
 62
     7
370
     0
100
AcDbLine
 10
309.2713872604
 20
92.707211405
 30
0.0
 11
309.2713872604
 21
104.707211405
 31
0.0
  0
LINE
  5
1B6
330
1AE
100
AcDbEntity
  8
0
  6
SLD-Durchgehend
 62
     7
370
     0
100
AcDbLine
 10
9.8508677813
 20
68.707211405
 30
0.0
 11
9.8508677813
 21
104.707211405
 31
0.0
  0
LINE
  5
1B7
330
1AE
100
AcDbEntity
  8
0
  6
SLD-Durchgehend
 62
     7
370
     0
100
AcDbLine
 10
309.2713872604
 20
103.707211405
 30
0.0
 11
9.8508677813
 21
103.707211405
 31
0.0
  0
MTEXT
  5
1B8
330
1AE
100
AcDbEntity
  8
0
  6
SLD-Durchgehend
 62
     7
370
    18
100
AcDbMText
 10
137.849083597
 20
108.2189487271
 30
0.0
 40
3.5
 41
0.0
 46
0.0
 71
     1
 72
     1
  1
299.4
  7
SLDTEXTSTYLE0
 73
     1
 44
1.0
  0
ENDBLK
  5
1B0
330
1AE
100
AcDbEntity
  8
0
100
AcDbBlockEnd
  0
BLOCK
  5
347
330
346
100
AcDbEntity
  8
0
100
AcDbBlockBegin
  2
_D_3
 70
     0
 10
0.0
 20
0.0
 30
0.0
  3
_D_3
  1

  0
ARC
  5
349
330
346
100
AcDbEntity
  8
0
  6
SLD-Durchgehend
 62
     7
370
    18
100
AcDbCircle
 10
408.7457749342
 20
212.3132163315
 30
0.0
 40
6.004150275287394
100
AcDbArc
 50
243.4349488229
 51
296.5650511771
  0
ARC
  5
34A
330
346
100
AcDbEntity
  8
0
  6
SLD-Durchgehend
 62
     7
370
    18
100
AcDbCircle
 10
408.7457749342
 20
210.0938359514
 30
0.0
 40
6.004150275287343
100
AcDbArc
 50
63.4349488229
 51
116.5650511771
  0
SOLID
  5
34B
330
346
100
AcDbEntity
  8
0
  6
SLD-Durchgehend
 62
     7
370
    18
100
AcDbTrace
 10
411.4309125667
 20
232.0934195159
 30
0.0
 11
410.5309125667
 21
228.5934195159
 31
0.0
 12
412.3309125667
 22
228.5934195159
 32
0.0
 13
412.3309125667
 23
228.5934195159
 33
0.0
  0
SOLID
  5
34C
330
346
100
AcDbEntity
  8
0
  6
SLD-Durchgehend
 62
     7
370
    18
100
AcDbTrace
 10
411.4309125667
 20
188.0934195159
 30
0.0
 11
412.3309125667
 21
191.5934195159
 31
0.0
 12
410.5309125667
 22
191.5934195159
 32
0.0
 13
410.5309125667
 23
191.5934195159
 33
0.0
  0
LINE
  5
34D
330
346
100
AcDbEntity
  8
0
  6
SLD-Durchgehend
 62
     7
370
     0
100
AcDbLine
 10
400.7530806379
 20
232.0934195159
 30
0.0
 11
412.4309125667
 21
232.0934195159
 31
0.0
  0
LINE
  5
34E
330
346
100
AcDbEntity
  8
0
  6
SLD-Durchgehend
 62
     7
370
     0
100
AcDbLine
 10
402.4530806379
 20
188.0934195159
 30
0.0
 11
412.4309125667
 21
188.0934195159
 31
0.0
  0
LINE
  5
34F
330
346
100
AcDbEntity
  8
0
  6
SLD-Durchgehend
 62
     7
370
     0
100
AcDbLine
 10
411.4309125667
 20
232.0934195159
 30
0.0
 11
411.4309125667
 21
188.0934195159
 31
0.0
  0
MTEXT
  5
350
330
346
100
AcDbEntity
  8
0
  6
SLD-Durchgehend
 62
     7
370
    18
100
AcDbMText
 10
406.9191752447
 20
208.5304410664
 30
0.0
 40
3.5
 41
0.0
 46
0.0
 71
     1
 72
     1
  1
44
  7
SLDTEXTSTYLE0
 11
-7.044195017643634E-15
 21
1.0
 31
0.0
 73
     1
 44
1.0
  0
ENDBLK
  5
348
330
346
100
AcDbEntity
  8
0
100
AcDbBlockEnd
  0
ENDSEC
  0
SECTION
  2
ENTITIES
  0
LINE
  5
138
330
1F
100
AcDbEntity
  8
0
  6
SLD-Durchgehend
 62
     7
370
    35
100
AcDbLine
 10
309.2213872604
 20
79.707211405
 30
0.0
 11
309.2713872604
 21
79.707211405
 31
0.0
  0
LINE
  5
139
330
1F
100
AcDbEntity
  8
0
  6
SLD-Durchgehend
 62
     7
370
    35
100
AcDbLine
 10
309.2713872604
 20
89.707211405
 30
0.0
 11
309.2213872604
 21
89.707211405
 31
0.0
  0
LINE
  5
13A
330
1F
100
AcDbEntity
  8
0
  6
SLD-Durchgehend
 62
     7
370
    35
100
AcDbLine
 10
309.2213872604
 20
45.707211405
 30
0.0
 11
309.2713872604
 21
45.707211405
 31
0.0
  0
LINE
  5
13B
330
1F
100
AcDbEntity
  8
0
  6
SLD-Durchgehend
 62
     7
370
    35
100
AcDbLine
 10
309.2713872604
 20
55.707211405
 30
0.0
 11
309.2213872604
 21
55.707211405
 31
0.0
  0
ARC
  5
13C
330
1F
100
AcDbEntity
  8
0
  6
SLD-Durchgehend
 62
     7
370
    35
100
AcDbCircle
 10
308.5213872604
 20
73.457211405
 30
0.0
 40
0.75
100
AcDbArc
 50
0.0
 51
180.0
  0
ARC
  5
13D
330
1F
100
AcDbEntity
  8
0
  6
SLD-Durchgehend
 62
     7
370
    35
100
AcDbCircle
 10
308.5213872604
 20
61.957211405
 30
0.0
 40
0.75
100
AcDbArc
 50
180.0
 51
0.0
  0
LINE
  5
13E
330
1F
100
AcDbEntity
  8
0
  6
SLD-Durchgehend
 62
     7
370
    35
100
AcDbLine
 10
307.2713872604
 20
77.707211405
 30
0.0
 11
298.2713872604
 21
77.707211405
 31
0.0
  0
LINE
  5
13F
330
1F
100
AcDbEntity
  8
0
  6
SLD-Durchgehend
 62
     7
370
    35
100
AcDbLine
 10
298.2713872604
 20
57.707211405
 30
0.0
 11
307.2713872604
 21
57.707211405
 31
0.0
  0
ARC
  5
140
330
1F
100
AcDbEntity
  8
0
  6
SLD-Durchgehend
 62
     7
370
    35
100
AcDbCircle
 10
298.2713872604
 20
58.207211405
 30
0.0
 40
0.5
100
AcDbArc
 50
180.0
 51
270.0
  0
ARC
  5
141
330
1F
100
AcDbEntity
  8
0
  6
SLD-Durchgehend
 62
     7
370
    35
100
AcDbCircle
 10
298.2713872604
 20
77.207211405
 30
0.0
 40
0.5
100
AcDbArc
 50
90.0
 51
180.0
  0
ARC
  5
142
330
1F
100
AcDbEntity
  8
0
  6
SLD-Durchgehend
 62
     7
370
    35
100
AcDbCircle
 10
307.2713872604
 20
77.207211405
 30
0.0
 40
0.5
100
AcDbArc
 50
0.0
 51
90.0
  0
ARC
  5
143
330
1F
100
AcDbEntity
  8
0
  6
SLD-Durchgehend
 62
     7
370
    35
100
AcDbCircle
 10
307.2713872604
 20
58.207211405
 30
0.0
 40
0.5
100
AcDbArc
 50
270.0
 51
0.0
  0
LINE
  5
144
330
1F
100
AcDbEntity
  8
0
  6
SLD-Durchgehend
 62
     7
370
    35
100
AcDbLine
 10
11.2713872604
 20
60.207211405
 30
0.0
 11
12.2713872604
 21
60.207211405
 31
0.0
  0
LINE
  5
145
330
1F
100
AcDbEntity
  8
0
  6
SLD-Durchgehend
 62
     7
370
    35
100
AcDbLine
 10
12.2713872604
 20
75.207211405
 30
0.0
 11
11.2713872604
 21
75.207211405
 31
0.0
  0
ARC
  5
146
330
1F
100
AcDbEntity
  8
0
  6
SLD-Durchgehend
 62
     7
370
    35
100
AcDbCircle
 10
29.8506348907
 20
67.6106942
 30
0.0
 40
20.00000000000002
100
AcDbArc
 50
180.0
 51
201.7263573307
  0
ARC
  5
147
330
1F
100
AcDbEntity
  8
0
  6
SLD-Durchgehend
 62
     7
370
    35
100
AcDbCircle
 10
29.8506348907
 20
67.8037286101
 30
0.0
 40
20.00000000000002
100
AcDbArc
 50
158.2736426693
 51
180.0
  0
LINE
  5
148
330
1F
100
AcDbEntity
  8
0
  6
SLD-Durchgehend
 62
     7
370
    35
100
AcDbLine
 10
9.8506348907
 20
67.8037286101
 30
0.0
 11
9.8506348907
 21
67.6106942
 31
0.0
  0
LINE
  5
149
330
1F
100
AcDbEntity
  8
0
  6
SLD-Durchgehend
 62
     7
370
    35
100
AcDbLine
 10
297.7713872604
 20
75.207211405
 30
0.0
 11
12.2713872604
 21
75.207211405
 31
0.0
  0
LINE
  5
14A
330
1F
100
AcDbEntity
  8
0
  6
SLD-Durchgehend
 62
     7
370
    35
100
AcDbLine
 10
12.2713872604
 20
60.207211405
 30
0.0
 11
297.7713872604
 21
60.207211405
 31
0.0
  0
LINE
  5
14B
330
1F
100
AcDbEntity
  8
0
  6
SLD-Durchgehend
 62
     7
370
    35
100
AcDbLine
 10
309.2213872604
 20
79.707211405
 30
0.0
 11
309.2213872604
 21
89.707211405
 31
0.0
  0
LINE
  5
14C
330
1F
100
AcDbEntity
  8
0
  6
SLD-Durchgehend
 62
     7
370
    35
100
AcDbLine
 10
309.2213872604
 20
45.707211405
 30
0.0
 11
309.2213872604
 21
55.707211405
 31
0.0
  0
LINE
  5
14D
330
1F
100
AcDbEntity
  8
0
  6
SLD-Durchgehend
 62
     7
370
    35
100
AcDbLine
 10
336.7713872604
 20
90.207211405
 30
0.0
 11
337.4713872604
 21
90.207211405
 31
0.0
  0
LINE
  5
14E
330
1F
100
AcDbEntity
  8
0
  6
SLD-Durchgehend
 62
     7
370
    35
100
AcDbLine
 10
337.4713872604
 20
90.207211405
 30
0.0
 11
337.4713872604
 21
83.207211405
 31
0.0
  0
LINE
  5
14F
330
1F
100
AcDbEntity
  8
0
  6
SLD-Durchgehend
 62
     7
370
    35
100
AcDbLine
 10
337.4713872604
 20
52.207211405
 30
0.0
 11
337.4713872604
 21
83.207211405
 31
0.0
  0
LINE
  5
150
330
1F
100
AcDbEntity
  8
0
  6
SLD-Durchgehend
 62
     7
370
    35
100
AcDbLine
 10
337.4713872604
 20
45.207211405
 30
0.0
 11
336.7713872604
 21
45.207211405
 31
0.0
  0
LINE
  5
151
330
1F
100
AcDbEntity
  8
0
  6
SLD-Durchgehend
 62
     7
370
    35
100
AcDbLine
 10
337.4713872604
 20
52.207211405
 30
0.0
 11
337.4713872604
 21
45.207211405
 31
0.0
  0
LINE
  5
152
330
1F
100
AcDbEntity
  8
0
  6
SLD-Durchgehend
 62
     7
370
    35
100
AcDbLine
 10
297.7713872604
 20
58.207211405
 30
0.0
 11
297.7713872604
 21
77.207211405
 31
0.0
  0
LINE
  5
153
330
1F
100
AcDbEntity
  8
0
  6
SLD-Durchgehend
 62
     7
370
    35
100
AcDbLine
 10
307.7713872604
 20
77.207211405
 30
0.0
 11
307.7713872604
 21
58.207211405
 31
0.0
  0
LINE
  5
154
330
1F
100
AcDbEntity
  8
0
  6
SLD-Durchgehend
 62
     7
370
    35
100
AcDbLine
 10
11.2713872604
 20
60.207211405
 30
0.0
 11
11.2713872604
 21
75.207211405
 31
0.0
  0
LINE
  5
155
330
1F
100
AcDbEntity
  8
0
  6
SLD-Durchgehend
 62
     7
370
    35
100
AcDbLine
 10
12.2713872604
 20
60.207211405
 30
0.0
 11
12.2713872604
 21
75.207211405
 31
0.0
  0
ARC
  5
156
330
1F
100
AcDbEntity
  8
0
  6
SLD-Durchgehend
 62
     7
370
    35
100
AcDbCircle
 10
311.2713872604
 20
43.707211405
 30
0.0
 40
2.0
100
AcDbArc
 50
180.0
 51
270.0
  0
LINE
  5
157
330
1F
100
AcDbEntity
  8
0
  6
SLD-Durchgehend
 62
     7
370
    35
100
AcDbLine
 10
315.2713872604
 20
93.407211405
 30
0.0
 11
315.2713872604
 21
42.007211405
 31
0.0
  0
LINE
  5
158
330
1F
100
AcDbEntity
  8
0
  6
SLD-Durchgehend
 62
     7
370
    35
100
AcDbLine
 10
311.2713872604
 20
93.707211405
 30
0.0
 11
314.9713872604
 21
93.707211405
 31
0.0
  0
ARC
  5
159
330
1F
100
AcDbEntity
  8
0
  6
SLD-Durchgehend
 62
     7
370
    35
100
AcDbCircle
 10
314.9713872604
 20
42.007211405
 30
0.0
 40
0.3000000000000114
100
AcDbArc
 50
270.0
 51
0.0
  0
ARC
  5
15A
330
1F
100
AcDbEntity
  8
0
  6
SLD-Durchgehend
 62
     7
370
    35
100
AcDbCircle
 10
311.2713872604
 20
91.707211405
 30
0.0
 40
2.0
100
AcDbArc
 50
90.0
 51
180.0
  0
ARC
  5
15B
330
1F
100
AcDbEntity
  8
0
  6
SLD-Durchgehend
 62
     7
370
    35
100
AcDbCircle
 10
314.9713872604
 20
93.407211405
 30
0.0
 40
0.3000000000000114
100
AcDbArc
 50
0.0
 51
90.0
  0
LINE
  5
15C
330
1F
100
AcDbEntity
  8
0
  6
SLD-Durchgehend
 62
     7
370
    35
100
AcDbLine
 10
309.2713872604
 20
43.707211405
 30
0.0
 11
309.2713872604
 21
91.707211405
 31
0.0
  0
LINE
  5
15D
330
1F
100
AcDbEntity
  8
0
  6
SLD-Durchgehend
 62
     7
370
    35
100
AcDbLine
 10
314.9713872604
 20
41.707211405
 30
0.0
 11
311.2713872604
 21
41.707211405
 31
0.0
  0
LINE
  5
15E
330
1F
100
AcDbEntity
  8
0
  6
SLD-Durchgehend
 62
     7
370
    35
100
AcDbLine
 10
315.2713872604
 20
93.707211405
 30
0.0
 11
316.7713872604
 21
93.707211405
 31
0.0
  0
LINE
  5
15F
330
1F
100
AcDbEntity
  8
0
  6
SLD-Durchgehend
 62
     7
370
    35
100
AcDbLine
 10
316.7713872604
 20
93.707211405
 30
0.0
 11
316.7713872604
 21
93.407211405
 31
0.0
  0
LINE
  5
160
330
1F
100
AcDbEntity
  8
0
  6
SLD-Durchgehend
 62
     7
370
    35
100
AcDbLine
 10
315.2713872604
 20
93.407211405
 30
0.0
 11
315.2713872604
 21
93.707211405
 31
0.0
  0
LINE
  5
161
330
1F
100
AcDbEntity
  8
0
  6
SLD-Durchgehend
 62
     7
370
    35
100
AcDbLine
 10
316.7713872604
 20
42.007211405
 30
0.0
 11
316.7713872604
 21
93.407211405
 31
0.0
  0
LINE
  5
162
330
1F
100
AcDbEntity
  8
0
  6
SLD-Durchgehend
 62
     7
370
    35
100
AcDbLine
 10
316.7713872604
 20
42.007211405
 30
0.0
 11
316.7713872604
 21
41.707211405
 31
0.0
  0
LINE
  5
163
330
1F
100
AcDbEntity
  8
0
  6
SLD-Durchgehend
 62
     7
370
    35
100
AcDbLine
 10
316.7713872604
 20
41.707211405
 30
0.0
 11
315.2713872604
 21
41.707211405
 31
0.0
  0
LINE
  5
164
330
1F
100
AcDbEntity
  8
0
  6
SLD-Durchgehend
 62
     7
370
    35
100
AcDbLine
 10
315.2713872604
 20
41.707211405
 30
0.0
 11
315.2713872604
 21
42.007211405
 31
0.0
  0
LINE
  5
165
330
1F
100
AcDbEntity
  8
0
  6
SLD-Durchgehend
 62
     7
370
    35
100
AcDbLine
 10
336.7713872604
 20
93.407211405
 30
0.0
 11
336.7713872604
 21
42.007211405
 31
0.0
  0
LINE
  5
166
330
1F
100
AcDbEntity
  8
0
  6
SLD-Durchgehend
 62
     7
370
    35
100
AcDbLine
 10
317.0713872604
 20
93.707211405
 30
0.0
 11
336.4713872604
 21
93.707211405
 31
0.0
  0
ARC
  5
167
330
1F
100
AcDbEntity
  8
0
  6
SLD-Durchgehend
 62
     7
370
    35
100
AcDbCircle
 10
336.4713872604
 20
93.407211405
 30
0.0
 40
0.3000000000000114
100
AcDbArc
 50
0.0
 51
90.0
  0
ARC
  5
168
330
1F
100
AcDbEntity
  8
0
  6
SLD-Durchgehend
 62
     7
370
    35
100
AcDbCircle
 10
336.4713872604
 20
42.007211405
 30
0.0
 40
0.3000000000000114
100
AcDbArc
 50
270.0
 51
0.0
  0
LINE
  5
169
330
1F
100
AcDbEntity
  8
0
  6
SLD-Durchgehend
 62
     7
370
    35
100
AcDbLine
 10
336.4713872604
 20
41.707211405
 30
0.0
 11
317.0713872604
 21
41.707211405
 31
0.0
  0
ARC
  5
16A
330
1F
100
AcDbEntity
  8
0
  6
SLD-Durchgehend
 62
     7
370
    35
100
AcDbCircle
 10
317.0713872604
 20
93.407211405
 30
0.0
 40
0.3000000000000682
100
AcDbArc
 50
90.0
 51
180.0
  0
ARC
  5
16B
330
1F
100
AcDbEntity
  8
0
  6
SLD-Durchgehend
 62
     7
370
    35
100
AcDbCircle
 10
317.0713872604
 20
42.007211405
 30
0.0
 40
0.3000000000000682
100
AcDbArc
 50
180.0
 51
270.0
  0
LINE
  5
16C
330
1F
100
AcDbEntity
  8
0
  6
SLD-Durchgehend
 62
     7
370
    35
100
AcDbLine
 10
314.9713872604
 20
93.707211405
 30
0.0
 11
315.2713872604
 21
93.707211405
 31
0.0
  0
LINE
  5
16D
330
1F
100
AcDbEntity
  8
0
  6
SLD-Durchgehend
 62
     7
370
    35
100
AcDbLine
 10
316.7713872604
 20
93.707211405
 30
0.0
 11
317.0713872604
 21
93.707211405
 31
0.0
  0
LINE
  5
16E
330
1F
100
AcDbEntity
  8
0
  6
SLD-Durchgehend
 62
     7
370
    35
100
AcDbLine
 10
317.0713872604
 20
41.707211405
 30
0.0
 11
316.7713872604
 21
41.707211405
 31
0.0
  0
LINE
  5
16F
330
1F
100
AcDbEntity
  8
0
  6
SLD-Durchgehend
 62
     7
370
    35
100
AcDbLine
 10
315.2713872604
 20
41.707211405
 30
0.0
 11
314.9713872604
 21
41.707211405
 31
0.0
  0
LINE
  5
170
330
1F
100
AcDbEntity
  8
0
  6
SLD-Durchgehend
 62
     8
370
    18
100
AcDbLine
 10
337.4713872604
 20
83.207211405
 30
0.0
 11
336.7713872604
 21
83.207211405
 31
0.0
  0
LINE
  5
171
330
1F
100
AcDbEntity
  8
0
  6
SLD-Durchgehend
 62
     8
370
    18
100
AcDbLine
 10
336.7713872604
 20
52.207211405
 30
0.0
 11
337.4713872604
 21
52.207211405
 31
0.0
  0
LINE
  5
172
330
1F
100
AcDbEntity
  8
0
  6
SLD-Durchgehend
 62
     8
370
    18
100
AcDbLine
 10
307.2713872604
 20
57.707211405
 30
0.0
 11
307.2713872604
 21
77.707211405
 31
0.0
  0
LINE
  5
173
330
1F
100
AcDbEntity
  8
0
  6
SLD-Durchgehend
 62
     8
370
    18
100
AcDbLine
 10
298.2713872604
 20
77.707211405
 30
0.0
 11
298.2713872604
 21
57.707211405
 31
0.0
  0
ARC
  5
174
330
1F
100
AcDbEntity
  8
0
  6
SLD-Durchgehend
 62
     8
370
    18
100
AcDbCircle
 10
311.2713872604
 20
43.707211405
 30
0.0
 40
1.700000000000045
100
AcDbArc
 50
180.0
 51
270.0
  0
LINE
  5
175
330
1F
100
AcDbEntity
  8
0
  6
SLD-Durchgehend
 62
     8
370
    18
100
AcDbLine
 10
311.2713872604
 20
42.007211405
 30
0.0
 11
311.2713872604
 21
41.707211405
 31
0.0
  0
LINE
  5
176
330
1F
100
AcDbEntity
  8
0
  6
SLD-Durchgehend
 62
     8
370
    18
100
AcDbLine
 10
309.2713872604
 20
43.707211405
 30
0.0
 11
309.5713872604
 21
43.707211405
 31
0.0
  0
LINE
  5
177
330
1F
100
AcDbEntity
  8
0
  6
SLD-Durchgehend
 62
     8
370
    18
100
AcDbLine
 10
314.9713872604
 20
42.007211405
 30
0.0
 11
314.9713872604
 21
93.407211405
 31
0.0
  0
LINE
  5
178
330
1F
100
AcDbEntity
  8
0
  6
SLD-Durchgehend
 62
     8
370
    18
100
AcDbLine
 10
314.9713872604
 20
93.407211405
 30
0.0
 11
315.2713872604
 21
93.407211405
 31
0.0
  0
LINE
  5
179
330
1F
100
AcDbEntity
  8
0
  6
SLD-Durchgehend
 62
     8
370
    18
100
AcDbLine
 10
314.9713872604
 20
42.007211405
 30
0.0
 11
315.2713872604
 21
42.007211405
 31
0.0
  0
LINE
  5
17A
330
1F
100
AcDbEntity
  8
0
  6
SLD-Durchgehend
 62
     8
370
    18
100
AcDbLine
 10
314.9713872604
 20
93.707211405
 30
0.0
 11
314.9713872604
 21
93.407211405
 31
0.0
  0
LINE
  5
17B
330
1F
100
AcDbEntity
  8
0
  6
SLD-Durchgehend
 62
     8
370
    18
100
AcDbLine
 10
314.9713872604
 20
93.407211405
 30
0.0
 11
311.2713872604
 21
93.407211405
 31
0.0
  0
LINE
  5
17C
330
1F
100
AcDbEntity
  8
0
  6
SLD-Durchgehend
 62
     8
370
    18
100
AcDbLine
 10
311.2713872604
 20
93.707211405
 30
0.0
 11
311.2713872604
 21
93.407211405
 31
0.0
  0
LINE
  5
17D
330
1F
100
AcDbEntity
  8
0
  6
SLD-Durchgehend
 62
     8
370
    18
100
AcDbLine
 10
314.9713872604
 20
42.007211405
 30
0.0
 11
314.9713872604
 21
41.707211405
 31
0.0
  0
ARC
  5
17E
330
1F
100
AcDbEntity
  8
0
  6
SLD-Durchgehend
 62
     8
370
    18
100
AcDbCircle
 10
311.2713872604
 20
91.707211405
 30
0.0
 40
1.700000000000045
100
AcDbArc
 50
90.0
 51
180.0
  0
LINE
  5
17F
330
1F
100
AcDbEntity
  8
0
  6
SLD-Durchgehend
 62
     8
370
    18
100
AcDbLine
 10
309.2713872604
 20
91.707211405
 30
0.0
 11
309.5713872604
 21
91.707211405
 31
0.0
  0
LINE
  5
180
330
1F
100
AcDbEntity
  8
0
  6
SLD-Durchgehend
 62
     8
370
    18
100
AcDbLine
 10
309.5713872604
 20
91.707211405
 30
0.0
 11
309.5713872604
 21
43.707211405
 31
0.0
  0
LINE
  5
181
330
1F
100
AcDbEntity
  8
0
  6
SLD-Durchgehend
 62
     8
370
    18
100
AcDbLine
 10
311.2713872604
 20
42.007211405
 30
0.0
 11
314.9713872604
 21
42.007211405
 31
0.0
  0
LINE
  5
182
330
1F
100
AcDbEntity
  8
0
  6
SLD-Durchgehend
 62
     8
370
    18
100
AcDbLine
 10
316.7713872604
 20
93.407211405
 30
0.0
 11
315.2713872604
 21
93.407211405
 31
0.0
  0
LINE
  5
183
330
1F
100
AcDbEntity
  8
0
  6
SLD-Durchgehend
 62
     8
370
    18
100
AcDbLine
 10
315.2713872604
 20
42.007211405
 30
0.0
 11
316.7713872604
 21
42.007211405
 31
0.0
  0
LINE
  5
184
330
1F
100
AcDbEntity
  8
0
  6
SLD-Durchgehend
 62
     8
370
    18
100
AcDbLine
 10
336.4713872604
 20
42.007211405
 30
0.0
 11
336.4713872604
 21
93.407211405
 31
0.0
  0
LINE
  5
185
330
1F
100
AcDbEntity
  8
0
  6
SLD-Durchgehend
 62
     8
370
    18
100
AcDbLine
 10
336.4713872604
 20
93.407211405
 30
0.0
 11
336.7713872604
 21
93.407211405
 31
0.0
  0
LINE
  5
186
330
1F
100
AcDbEntity
  8
0
  6
SLD-Durchgehend
 62
     8
370
    18
100
AcDbLine
 10
336.4713872604
 20
42.007211405
 30
0.0
 11
336.7713872604
 21
42.007211405
 31
0.0
  0
LINE
  5
187
330
1F
100
AcDbEntity
  8
0
  6
SLD-Durchgehend
 62
     8
370
    18
100
AcDbLine
 10
336.4713872604
 20
93.407211405
 30
0.0
 11
317.0713872604
 21
93.407211405
 31
0.0
  0
LINE
  5
188
330
1F
100
AcDbEntity
  8
0
  6
SLD-Durchgehend
 62
     8
370
    18
100
AcDbLine
 10
317.0713872604
 20
93.407211405
 30
0.0
 11
317.0713872604
 21
93.707211405
 31
0.0
  0
LINE
  5
189
330
1F
100
AcDbEntity
  8
0
  6
SLD-Durchgehend
 62
     8
370
    18
100
AcDbLine
 10
336.4713872604
 20
93.407211405
 30
0.0
 11
336.4713872604
 21
93.707211405
 31
0.0
  0
LINE
  5
18A
330
1F
100
AcDbEntity
  8
0
  6
SLD-Durchgehend
 62
     8
370
    18
100
AcDbLine
 10
336.4713872604
 20
41.707211405
 30
0.0
 11
336.4713872604
 21
42.007211405
 31
0.0
  0
LINE
  5
18B
330
1F
100
AcDbEntity
  8
0
  6
SLD-Durchgehend
 62
     8
370
    18
100
AcDbLine
 10
317.0713872604
 20
93.407211405
 30
0.0
 11
317.0713872604
 21
42.007211405
 31
0.0
  0
LINE
  5
18C
330
1F
100
AcDbEntity
  8
0
  6
SLD-Durchgehend
 62
     8
370
    18
100
AcDbLine
 10
317.0713872604
 20
42.007211405
 30
0.0
 11
336.4713872604
 21
42.007211405
 31
0.0
  0
LINE
  5
18D
330
1F
100
AcDbEntity
  8
0
  6
SLD-Durchgehend
 62
     8
370
    18
100
AcDbLine
 10
317.0713872604
 20
41.707211405
 30
0.0
 11
317.0713872604
 21
42.007211405
 31
0.0
  0
LINE
  5
18E
330
1F
100
AcDbEntity
  8
0
  6
SLD-Durchgehend
 62
     8
370
    18
100
AcDbLine
 10
316.7713872604
 20
93.407211405
 30
0.0
 11
317.0713872604
 21
93.407211405
 31
0.0
  0
LINE
  5
18F
330
1F
100
AcDbEntity
  8
0
  6
SLD-Durchgehend
 62
     8
370
    18
100
AcDbLine
 10
316.7713872604
 20
42.007211405
 30
0.0
 11
317.0713872604
 21
42.007211405
 31
0.0
  0
DIMENSION
  5
190
330
1F
100
AcDbEntity
  8
0
  6
SLD-Durchgehend
 62
     7
370
    18
100
AcDbDimension
280
     0
  2
_D
 10
336.7713872604
 20
101.4464671314
 30
0.0
 11
323.1294818659
 21
101.4464671314
 31
0.0
 70
   160
  1
(<>)
 71
     2
 42
-1.0
 73
     0
 74
     0
 75
     0
  3
SLDDIMSTYLE0
100
AcDbAlignedDimension
 13
309.2713872604
 23
91.707211405
 33
0.0
 14
336.7713872604
 24
93.407211405
 34
0.0
 50
0.0
100
AcDbRotatedDimension
  0
DIMENSION
  5
1A0
330
1F
100
AcDbEntity
  8
0
  6
SLD-Durchgehend
 62
     7
370
    18
100
AcDbDimension
280
     0
  2
_D_1
 10
347.0944792065
 20
41.707211405
 30
0.0
 11
347.0944792065
 21
77.0111804499
 31
0.0
 70
   160
  1
(<>)
 71
     2
 42
-1.0
 73
     0
 74
     0
 75
     0
  3
SLDDIMSTYLE1
100
AcDbAlignedDimension
 13
336.4713872604
 23
93.707211405
 33
0.0
 14
336.4713872604
 24
41.707211405
 34
0.0
 50
90.0
100
AcDbRotatedDimension
  0
DIMENSION
  5
1AD
330
1F
100
AcDbEntity
  8
0
  6
SLD-Durchgehend
 62
     7
370
    18
100
AcDbDimension
280
     0
  2
_D_2
 10
9.8508677813
 20
103.707211405
 30
0.0
 11
143.8641706885
 21
103.707211405
 31
0.0
 70
   160
  1
(<>)
 71
     2
 42
-1.0
 73
     0
 74
     0
 75
     0
  3
SLDDIMSTYLE1
100
AcDbAlignedDimension
 13
309.2713872604
 23
91.707211405
 33
0.0
 14
9.8508677813
 24
67.707211405
 34
0.0
 50
0.0
100
AcDbRotatedDimension
  0
LINE
  5
1B9
330
1F
100
AcDbEntity
  8
0
  6
SLD-Dicke-Dünne-Kette
 62
     7
370
    18
100
AcDbLine
 10
4.096274708
 20
67.707211405
 30
0.0
 11
362.0831254169
 21
67.707211405
 31
0.0
  0
LINE
  5
1BA
330
1F
100
AcDbEntity
  8
0
  6
SLD-Durchgehend
 62
     7
370
    18
100
AcDbLine
 10
6.096274708
 20
56.7506708174
 30
0.0
 11
6.096274708
 21
67.707211405
 31
0.0
  0
SOLID
  5
1BB
330
1F
100
AcDbEntity
  8
0
  6
SLD-Durchgehend
 62
     7
370
    18
100
AcDbTrace
 10
6.096274708
 20
67.707211405
 30
0.0
 11
4.596274708
 21
61.707211405
 31
0.0
 12
7.596274708
 22
61.707211405
 32
0.0
 13
7.596274708
 23
61.707211405
 33
0.0
  0
LINE
  5
1BC
330
1F
100
AcDbEntity
  8
0
  6
SLD-Durchgehend
 62
     7
370
    18
100
AcDbLine
 10
360.0831254169
 20
55.707211405
 30
0.0
 11
360.0831254169
 21
67.707211405
 31
0.0
  0
SOLID
  5
1BD
330
1F
100
AcDbEntity
  8
0
  6
SLD-Durchgehend
 62
     7
370
    18
100
AcDbTrace
 10
360.0831254169
 20
67.707211405
 30
0.0
 11
358.5831254169
 21
61.707211405
 31
0.0
 12
361.5831254169
 22
61.707211405
 32
0.0
 13
361.5831254169
 23
61.707211405
 33
0.0
  0
MTEXT
  5
1BE
330
1F
100
AcDbEntity
  8
0
  6
Continuous
 62
     7
100
AcDbMText
 10
8.4040749585
 20
57.0122190428
 30
0.0
 40
5.0
 41
0.0
 46
0.0
 71
     1
 72
     1
  1
A
  7
SLDTEXTSTYLE0
 73
     1
 44
1.0
  0
MTEXT
  5
1BF
330
1F
100
AcDbEntity
  8
0
  6
Continuous
 62
     7
100
AcDbMText
 10
365.7616264506
 20
54.384202948
 30
0.0
 40
5.0
 41
0.0
 46
0.0
 71
     1
 72
     1
  1
A
  7
SLDTEXTSTYLE0
 73
     1
 44
1.0
  0
LINE
  5
1C0
330
1F
100
AcDbEntity
  8
0
  6
SLD-Punktstrich
 62
     7
370
    18
100
AcDbLine
 10
338.4713872604
 20
67.707211405
 30
0.0
 11
7.4693588768
 21
67.707211405
 31
0.0
  0
LINE
  5
1C1
330
1F
100
AcDbEntity
  8
0
  6
SLD-Durchgehend
 62
     7
370
    35
100
AcDbLine
 10
9.8506348907
 20
221.189936721
 30
0.0
 11
9.8506348907
 21
220.9969023109
 31
0.0
  0
LINE
  5
1C2
330
1F
100
AcDbEntity
  8
0
  6
SLD-Durchgehend
 62
     7
370
    35
100
AcDbLine
 10
323.1141216705
 20
216.4746173624
 30
0.0
 11
323.4713872604
 21
217.0934195159
 31
0.0
  0
LINE
  5
1C3
330
1F
100
AcDbEntity
  8
0
  6
SLD-Durchgehend
 62
     7
370
    35
100
AcDbLine
 10
320.7713872604
 20
217.0934195159
 30
0.0
 11
321.1286528504
 21
216.4746173624
 31
0.0
  0
LINE
  5
1C4
330
1F
100
AcDbEntity
  8
0
  6
SLD-Durchgehend
 62
     7
370
    35
100
AcDbLine
 10
323.4713872604
 20
225.0934195159
 30
0.0
 11
323.1141216705
 21
225.7122216694
 31
0.0
  0
LINE
  5
1C5
330
1F
100
AcDbEntity
  8
0
  6
SLD-Durchgehend
 62
     7
370
    35
100
AcDbLine
 10
321.1286528504
 20
225.7122216694
 30
0.0
 11
320.7713872604
 21
225.0934195159
 31
0.0
  0
LINE
  5
1C6
330
1F
100
AcDbEntity
  8
0
  6
SLD-Durchgehend
 62
     7
370
    35
100
AcDbLine
 10
323.4713872604
 20
218.5934195159
 30
0.0
 11
324.7763872604
 21
218.5934195159
 31
0.0
  0
LINE
  5
1C7
330
1F
100
AcDbEntity
  8
0
  6
SLD-Durchgehend
 62
     7
370
    35
100
AcDbLine
 10
324.7763872604
 20
223.5934195159
 30
0.0
 11
323.4713872604
 21
223.5934195159
 31
0.0
  0
LINE
  5
1C8
330
1F
100
AcDbEntity
  8
0
  6
SLD-Durchgehend
 62
     7
370
    35
100
AcDbLine
 10
324.7763872604
 20
218.5934195159
 30
0.0
 11
325.2213872604
 21
219.0384195159
 31
0.0
  0
LINE
  5
1C9
330
1F
100
AcDbEntity
  8
0
  6
SLD-Durchgehend
 62
     7
370
    35
100
AcDbLine
 10
325.2213872604
 20
223.1484195159
 30
0.0
 11
324.7763872604
 21
223.5934195159
 31
0.0
  0
LINE
  5
1CA
330
1F
100
AcDbEntity
  8
0
  6
SLD-Durchgehend
 62
     7
370
    35
100
AcDbLine
 10
326.7713872604
 20
188.4135602402
 30
0.0
 11
327.3258872604
 21
188.0934195159
 31
0.0
  0
LINE
  5
1CB
330
1F
100
AcDbEntity
  8
0
  6
SLD-Durchgehend
 62
     7
370
    35
100
AcDbLine
 10
332.2168872604
 20
188.0934195159
 30
0.0
 11
332.7713872604
 21
188.4135602402
 31
0.0
  0
LINE
  5
1CC
330
1F
100
AcDbEntity
  8
0
  6
SLD-Durchgehend
 62
     7
370
    35
100
AcDbLine
 10
332.7713872604
 20
188.4135602402
 30
0.0
 11
332.7713872604
 21
195.0934195159
 31
0.0
  0
LINE
  5
1CD
330
1F
100
AcDbEntity
  8
0
  6
SLD-Durchgehend
 62
     7
370
    35
100
AcDbLine
 10
326.7713872604
 20
195.0934195159
 30
0.0
 11
326.7713872604
 21
188.4135602402
 31
0.0
  0
LINE
  5
1CE
330
1F
100
AcDbEntity
  8
0
  6
SLD-Durchgehend
 62
     7
370
    35
100
AcDbLine
 10
332.7713872604
 20
195.0934195159
 30
0.0
 11
329.7713872604
 21
198.0934195159
 31
0.0
  0
LINE
  5
1CF
330
1F
100
AcDbEntity
  8
0
  6
SLD-Durchgehend
 62
     7
370
    35
100
AcDbLine
 10
329.7713872604
 20
198.0934195159
 30
0.0
 11
326.7713872604
 21
195.0934195159
 31
0.0
  0
ARC
  5
1D0
330
1F
100
AcDbEntity
  8
0
  6
SLD-Durchgehend
 62
     7
370
    35
100
AcDbCircle
 10
308.5213872604
 20
226.8434195159
 30
0.0
 40
0.75
100
AcDbArc
 50
0.0
 51
180.0
  0
ARC
  5
1D1
330
1F
100
AcDbEntity
  8
0
  6
SLD-Durchgehend
 62
     7
370
    35
100
AcDbCircle
 10
308.5213872604
 20
215.3434195159
 30
0.0
 40
0.75
100
AcDbArc
 50
180.0
 51
0.0
  0
LINE
  5
1D2
330
1F
100
AcDbEntity
  8
0
  6
SLD-Durchgehend
 62
     7
370
    35
100
AcDbLine
 10
307.7713872604
 20
226.8434195159
 30
0.0
 11
307.7713872604
 21
215.3434195159
 31
0.0
  0
LINE
  5
1D3
330
1F
100
AcDbEntity
  8
0
  6
SLD-Durchgehend
 62
     7
370
    35
100
AcDbLine
 10
309.2713872604
 20
215.3434195159
 30
0.0
 11
309.2713872604
 21
226.8434195159
 31
0.0
  0
ARC
  5
1D4
330
1F
100
AcDbEntity
  8
0
  6
SLD-Durchgehend
 62
     7
370
    35
100
AcDbCircle
 10
36.0713872604
 20
216.3934195159
 30
0.0
 40
0.3000000000000256
100
AcDbArc
 50
180.0
 51
270.0
  0
ARC
  5
1D5
330
1F
100
AcDbEntity
  8
0
  6
SLD-Durchgehend
 62
     7
370
    35
100
AcDbCircle
 10
36.0713872604
 20
225.7934195159
 30
0.0
 40
0.3000000000000256
100
AcDbArc
 50
90.0
 51
180.0
  0
LINE
  5
1D6
330
1F
100
AcDbEntity
  8
0
  6
SLD-Durchgehend
 62
     7
370
    35
100
AcDbLine
 10
36.0713872604
 20
216.0934195159
 30
0.0
 11
41.7713872604
 21
216.0934195159
 31
0.0
  0
LINE
  5
1D7
330
1F
100
AcDbEntity
  8
0
  6
SLD-Durchgehend
 62
     7
370
    35
100
AcDbLine
 10
41.7713872604
 20
226.0934195159
 30
0.0
 11
36.0713872604
 21
226.0934195159
 31
0.0
  0
ARC
  5
1D8
330
1F
100
AcDbEntity
  8
0
  6
SLD-Durchgehend
 62
     7
370
    35
100
AcDbCircle
 10
42.0213872604
 20
224.3434195159
 30
0.0
 40
0.25
100
AcDbArc
 50
180.0
 51
270.0
  0
ARC
  5
1D9
330
1F
100
AcDbEntity
  8
0
  6
SLD-Durchgehend
 62
     7
370
    35
100
AcDbCircle
 10
42.0213872604
 20
217.8434195159
 30
0.0
 40
0.25
100
AcDbArc
 50
90.0
 51
180.0
  0
LINE
  5
1DA
330
1F
100
AcDbEntity
  8
0
  6
SLD-Durchgehend
 62
     7
370
    35
100
AcDbLine
 10
42.0213872604
 20
218.0934195159
 30
0.0
 11
61.2168872604
 21
218.0934195159
 31
0.0
  0
LINE
  5
1DB
330
1F
100
AcDbEntity
  8
0
  6
SLD-Durchgehend
 62
     7
370
    35
100
AcDbLine
 10
61.2168872604
 20
224.0934195159
 30
0.0
 11
42.0213872604
 21
224.0934195159
 31
0.0
  0
LINE
  5
1DC
330
1F
100
AcDbEntity
  8
0
  6
SLD-Durchgehend
 62
     7
370
    35
100
AcDbLine
 10
61.2168872604
 20
218.0934195159
 30
0.0
 11
61.7713872604
 21
218.6479195159
 31
0.0
  0
LINE
  5
1DD
330
1F
100
AcDbEntity
  8
0
  6
SLD-Durchgehend
 62
     7
370
    35
100
AcDbLine
 10
61.7713872604
 20
223.5389195159
 30
0.0
 11
61.2168872604
 21
224.0934195159
 31
0.0
  0
LINE
  5
1DE
330
1F
100
AcDbEntity
  8
0
  6
SLD-Durchgehend
 62
     7
370
    35
100
AcDbLine
 10
337.4713872604
 20
227.0934195159
 30
0.0
 11
337.4713872604
 21
195.0934195159
 31
0.0
  0
LINE
  5
1DF
330
1F
100
AcDbEntity
  8
0
  6
SLD-Durchgehend
 62
     7
370
    35
100
AcDbLine
 10
337.4713872604
 20
227.0934195159
 30
0.0
 11
334.2713872604
 21
227.0934195159
 31
0.0
  0
LINE
  5
1E0
330
1F
100
AcDbEntity
  8
0
  6
SLD-Durchgehend
 62
     7
370
    35
100
AcDbLine
 10
334.2713872604
 20
195.0934195159
 30
0.0
 11
337.4713872604
 21
195.0934195159
 31
0.0
  0
LINE
  5
1E1
330
1F
100
AcDbEntity
  8
0
  6
SLD-Durchgehend
 62
     7
370
    35
100
AcDbLine
 10
334.2713872604
 20
227.0934195159
 30
0.0
 11
334.2713872604
 21
195.0934195159
 31
0.0
  0
LINE
  5
1E2
330
1F
100
AcDbEntity
  8
0
  6
SLD-Durchgehend
 62
     7
370
    35
100
AcDbLine
 10
328.8713872604
 20
204.1901937095
 30
0.0
 11
328.7713872604
 21
204.1901937095
 31
0.0
  0
LINE
  5
1E3
330
1F
100
AcDbEntity
  8
0
  6
SLD-Durchgehend
 62
     7
370
    35
100
AcDbLine
 10
328.8713872604
 20
204.3407404838
 30
0.0
 11
328.7713872604
 21
204.3407404865
 31
0.0
  0
SPLINE
  5
1E4
330
1F
100
AcDbEntity
  8
0
  6
SLD-Durchgehend
 62
     7
370
    35
100
AcDbSpline
210
0.0
220
0.0
230
1.0
 70
    24
 71
     3
 72
     9
 73
     5
 74
     0
 42
0.00000001
 43
0.00000001
 40
0.0
 40
0.0
 40
0.0
 40
0.0
 40
0.5606354600205851
 40
1.0
 40
1.0
 40
1.0
 40
1.0
 10
328.7713872604472
 20
204.1901937094673
 30
0.0
 10
328.7713872604472
 20
204.1943444679689
 30
0.0
 10
328.7713872604472
 20
204.2017481354099
 30
0.0
 10
328.7713872604472
 20
204.2983132148162
 30
0.0
 10
328.7713872604472
 20
204.3407404865076
 30
0.0
  0
LINE
  5
1E5
330
1F
100
AcDbEntity
  8
0
  6
SLD-Durchgehend
 62
     7
370
    35
100
AcDbLine
 10
334.2713872604
 20
196.0934195159
 30
0.0
 11
334.2713872604
 21
226.0934195159
 31
0.0
  0
LINE
  5
1E6
330
1F
100
AcDbEntity
  8
0
  6
SLD-Durchgehend
 62
     7
370
    35
100
AcDbLine
 10
331.7713872604
 20
196.0934195159
 30
0.0
 11
334.2713872604
 21
196.0934195159
 31
0.0
  0
LINE
  5
1E7
330
1F
100
AcDbEntity
  8
0
  6
SLD-Durchgehend
 62
     7
370
    35
100
AcDbLine
 10
329.7713872604
 20
198.0934195159
 30
0.0
 11
331.7713872604
 21
196.0934195159
 31
0.0
  0
LINE
  5
1E8
330
1F
100
AcDbEntity
  8
0
  6
SLD-Durchgehend
 62
     7
370
    35
100
AcDbLine
 10
327.7713872604
 20
196.0934195159
 30
0.0
 11
329.7713872604
 21
198.0934195159
 31
0.0
  0
LINE
  5
1E9
330
1F
100
AcDbEntity
  8
0
  6
SLD-Durchgehend
 62
     7
370
    35
100
AcDbLine
 10
325.7713872604
 20
196.0934195159
 30
0.0
 11
327.7713872604
 21
196.0934195159
 31
0.0
  0
LINE
  5
1EA
330
1F
100
AcDbEntity
  8
0
  6
SLD-Durchgehend
 62
     7
370
    35
100
AcDbLine
 10
325.7713872604
 20
197.3005262971
 30
0.0
 11
325.7713872604
 21
196.0934195159
 31
0.0
  0
ARC
  5
1EB
330
1F
100
AcDbEntity
  8
0
  6
SLD-Durchgehend
 62
     7
370
    35
100
AcDbCircle
 10
328.2713872604
 20
197.3005262971
 30
0.0
 40
2.5
100
AcDbArc
 50
135.0
 51
180.0
  0
LINE
  5
1EC
330
1F
100
AcDbEntity
  8
0
  6
SLD-Durchgehend
 62
     7
370
    35
100
AcDbLine
 10
328.1856008228
 20
200.7502737654
 30
0.0
 11
326.5036203075
 21
199.0682932501
 31
0.0
  0
ARC
  5
1ED
330
1F
100
AcDbEntity
  8
0
  6
SLD-Durchgehend
 62
     7
370
    35
100
AcDbCircle
 10
326.7713872604
 20
202.1644873278
 30
0.0
 40
2.0
100
AcDbArc
 50
315.0
 51
0.0
  0
LINE
  5
1EE
330
1F
100
AcDbEntity
  8
0
  6
SLD-Durchgehend
 62
     7
370
    35
100
AcDbLine
 10
328.7713872604
 20
204.1839921504
 30
0.0
 11
328.8713872604
 21
204.1839921496
 31
0.0
  0
LINE
  5
1EF
330
1F
100
AcDbEntity
  8
0
  6
SLD-Durchgehend
 62
     7
370
    35
100
AcDbLine
 10
328.8713872604
 20
204.1839921496
 30
0.0
 11
328.8713872604
 21
204.3407404838
 31
0.0
  0
LINE
  5
1F0
330
1F
100
AcDbEntity
  8
0
  6
SLD-Durchgehend
 62
     7
370
    35
100
AcDbLine
 10
328.7713872604
 20
204.918589015
 30
0.0
 11
328.8713872604
 21
204.9185890221
 31
0.0
  0
LINE
  5
1F1
330
1F
100
AcDbEntity
  8
0
  6
SLD-Durchgehend
 62
     7
370
    35
100
AcDbLine
 10
328.8713872604
 20
204.9185890221
 30
0.0
 11
328.8713872604
 21
205.0765024348
 31
0.0
  0
LINE
  5
1F2
330
1F
100
AcDbEntity
  8
0
  6
SLD-Durchgehend
 62
     7
370
    35
100
AcDbLine
 10
328.7713872604
 20
205.7821343002
 30
0.0
 11
328.8713872604
 21
205.7821343135
 31
0.0
  0
LINE
  5
1F3
330
1F
100
AcDbEntity
  8
0
  6
SLD-Durchgehend
 62
     7
370
    35
100
AcDbLine
 10
328.8713872604
 20
205.7821343135
 30
0.0
 11
328.8713872604
 21
205.9954790041
 31
0.0
  0
LINE
  5
1F4
330
1F
100
AcDbEntity
  8
0
  6
SLD-Durchgehend
 62
     7
370
    35
100
AcDbLine
 10
328.8713872604
 20
205.9954790041
 30
0.0
 11
328.7713872604
 21
205.9954789981
 31
0.0
  0
ARC
  5
1F5
330
1F
100
AcDbEntity
  8
0
  6
SLD-Durchgehend
 62
     7
370
    35
100
AcDbCircle
 10
326.7713872604
 20
220.0223517041
 30
0.0
 40
2.000000000000016
100
AcDbArc
 50
0.0
 51
45.0
  0
LINE
  5
1F6
330
1F
100
AcDbEntity
  8
0
  6
SLD-Durchgehend
 62
     7
370
    35
100
AcDbLine
 10
326.5036203075
 20
223.1185457818
 30
0.0
 11
328.1856008228
 21
221.4365652664
 31
0.0
  0
ARC
  5
1F7
330
1F
100
AcDbEntity
  8
0
  6
SLD-Durchgehend
 62
     7
370
    35
100
AcDbCircle
 10
328.2713872604
 20
224.8863127347
 30
0.0
 40
2.5
100
AcDbArc
 50
180.0
 51
225.0
  0
LINE
  5
1F8
330
1F
100
AcDbEntity
  8
0
  6
SLD-Durchgehend
 62
     7
370
    35
100
AcDbLine
 10
325.7713872604
 20
226.0934195159
 30
0.0
 11
325.7713872604
 21
224.8863127347
 31
0.0
  0
LINE
  5
1F9
330
1F
100
AcDbEntity
  8
0
  6
SLD-Durchgehend
 62
     7
370
    35
100
AcDbLine
 10
325.7713872604
 20
226.0934195159
 30
0.0
 11
327.7713872604
 21
226.0934195159
 31
0.0
  0
LINE
  5
1FA
330
1F
100
AcDbEntity
  8
0
  6
SLD-Durchgehend
 62
     7
370
    35
100
AcDbLine
 10
329.7713872604
 20
224.0934195159
 30
0.0
 11
327.7713872604
 21
226.0934195159
 31
0.0
  0
LINE
  5
1FB
330
1F
100
AcDbEntity
  8
0
  6
SLD-Durchgehend
 62
     7
370
    35
100
AcDbLine
 10
331.7713872604
 20
226.0934195159
 30
0.0
 11
329.7713872604
 21
224.0934195159
 31
0.0
  0
LINE
  5
1FC
330
1F
100
AcDbEntity
  8
0
  6
SLD-Durchgehend
 62
     7
370
    35
100
AcDbLine
 10
331.7713872604
 20
226.0934195159
 30
0.0
 11
334.2713872604
 21
226.0934195159
 31
0.0
  0
LINE
  5
1FD
330
1F
100
AcDbEntity
  8
0
  6
SLD-Durchgehend
 62
     7
370
    35
100
AcDbLine
 10
328.7713872604
 20
205.7821343002
 30
0.0
 11
328.7713872604
 21
205.0765024328
 31
0.0
  0
LINE
  5
1FE
330
1F
100
AcDbEntity
  8
0
  6
SLD-Durchgehend
 62
     7
370
    35
100
AcDbLine
 10
328.8713872604
 20
205.0765024348
 30
0.0
 11
328.7713872604
 21
205.0765024328
 31
0.0
  0
LINE
  5
1FF
330
1F
100
AcDbEntity
  8
0
  6
SLD-Durchgehend
 62
     7
370
    35
100
AcDbLine
 10
328.7713872604
 20
204.918589015
 30
0.0
 11
328.7713872604
 21
204.3407404865
 31
0.0
  0
LINE
  5
200
330
1F
100
AcDbEntity
  8
0
  6
SLD-Durchgehend
 62
     7
370
    35
100
AcDbLine
 10
328.7713872604
 20
204.1839921504
 30
0.0
 11
328.7713872604
 21
202.1644873278
 31
0.0
  0
LINE
  5
201
330
1F
100
AcDbEntity
  8
0
  6
SLD-Durchgehend
 62
     7
370
    35
100
AcDbLine
 10
328.7713872604
 20
220.0223517041
 30
0.0
 11
328.7713872604
 21
205.9954789981
 31
0.0
  0
LINE
  5
202
330
1F
100
AcDbEntity
  8
0
  6
SLD-Durchgehend
 62
     7
370
    35
100
AcDbLine
 10
332.7713872604
 20
195.0934195159
 30
0.0
 11
334.2713872604
 21
195.0934195159
 31
0.0
  0
LINE
  5
203
330
1F
100
AcDbEntity
  8
0
  6
SLD-Durchgehend
 62
     7
370
    35
100
AcDbLine
 10
325.7713872604
 20
195.0934195159
 30
0.0
 11
326.7713872604
 21
195.0934195159
 31
0.0
  0
LINE
  5
204
330
1F
100
AcDbEntity
  8
0
  6
SLD-Durchgehend
 62
     7
370
    35
100
AcDbLine
 10
325.7713872604
 20
196.0934195159
 30
0.0
 11
325.7713872604
 21
195.0934195159
 31
0.0
  0
LINE
  5
205
330
1F
100
AcDbEntity
  8
0
  6
SLD-Durchgehend
 62
     7
370
    35
100
AcDbLine
 10
328.8713872604
 20
204.9810203224
 30
0.0
 11
328.7713872604
 21
204.9810203224
 31
0.0
  0
SPLINE
  5
206
330
1F
100
AcDbEntity
  8
0
  6
SLD-Durchgehend
 62
     7
370
    35
100
AcDbSpline
210
0.0
220
0.0
230
1.0
 70
    24
 71
     3
 72
     9
 73
     5
 74
     0
 42
0.00000001
 43
0.00000001
 40
0.0
 40
0.0
 40
0.0
 40
0.0
 40
0.5598558218912573
 40
1.0
 40
1.0
 40
1.0
 40
1.0
 10
328.7713872604472
 20
204.9185890149993
 30
0.0
 10
328.7713872604472
 20
204.9319977836184
 30
0.0
 10
328.7713872604472
 20
204.955948179586
 30
0.0
 10
328.7713872604472
 20
204.973357646753
 30
0.0
 10
328.7713872604472
 20
204.9810203223706
 30
0.0
  0
SPLINE
  5
207
330
1F
100
AcDbEntity
  8
0
  6
SLD-Durchgehend
 62
     7
370
    35
100
AcDbSpline
210
0.0
220
0.0
230
1.0
 70
    24
 71
     3
 72
    10
 73
     6
 74
     0
 42
0.00000001
 43
0.00000001
 40
0.0
 40
0.0
 40
0.0
 40
0.0
 40
0.2802500621777647
 40
0.5603271247971526
 40
1.0
 40
1.0
 40
1.0
 40
1.0
 10
328.7713872604472
 20
205.7821343002363
 30
0.0
 10
328.7713872604472
 20
205.8198604375002
 30
0.0
 10
328.7713872604472
 20
205.8952894235227
 30
0.0
 10
328.7713872604472
 20
205.98139945248
 30
0.0
 10
328.7713872604472
 20
205.990863828877
 30
0.0
 10
328.7713872604472
 20
205.9966453223705
 30
0.0
  0
LINE
  5
208
330
1F
100
AcDbEntity
  8
0
  6
SLD-Durchgehend
 62
     7
370
    35
100
AcDbLine
 10
332.7713872604
 20
227.0934195159
 30
0.0
 11
334.2713872604
 21
227.0934195159
 31
0.0
  0
LINE
  5
209
330
1F
100
AcDbEntity
  8
0
  6
SLD-Durchgehend
 62
     7
370
    35
100
AcDbLine
 10
325.7713872604
 20
227.0934195159
 30
0.0
 11
326.7713872604
 21
227.0934195159
 31
0.0
  0
LINE
  5
20A
330
1F
100
AcDbEntity
  8
0
  6
SLD-Durchgehend
 62
     7
370
    35
100
AcDbLine
 10
325.7713872604
 20
227.0934195159
 30
0.0
 11
325.7713872604
 21
226.0934195159
 31
0.0
  0
SPLINE
  5
20B
330
1F
100
AcDbEntity
  8
0
  6
SLD-Durchgehend
 62
     7
370
    35
100
AcDbSpline
210
0.0
220
0.0
230
1.0
 70
    24
 71
     3
 72
     9
 73
     5
 74
     0
 42
0.00000001
 43
0.00000001
 40
0.0
 40
0.0
 40
0.0
 40
0.0
 40
0.5596159462567534
 40
1.0
 40
1.0
 40
1.0
 40
1.0
 10
328.7713872604472
 20
204.9810203223706
 30
0.0
 10
328.7713872604472
 20
204.9998266344285
 30
0.0
 10
328.7713872604472
 20
205.0334323816982
 30
0.0
 10
328.7713872604472
 20
205.0526835457419
 30
0.0
 10
328.7713872604472
 20
205.0611614514028
 30
0.0
  0
ARC
  5
20C
330
1F
100
AcDbEntity
  8
0
  6
SLD-Durchgehend
 62
     7
370
    35
100
AcDbCircle
 10
298.2713872604
 20
211.5934195159
 30
0.0
 40
0.5
100
AcDbArc
 50
180.0
 51
270.0
  0
ARC
  5
20D
330
1F
100
AcDbEntity
  8
0
  6
SLD-Durchgehend
 62
     7
370
    35
100
AcDbCircle
 10
298.2713872604
 20
230.5934195159
 30
0.0
 40
0.5
100
AcDbArc
 50
90.0
 51
180.0
  0
LINE
  5
20E
330
1F
100
AcDbEntity
  8
0
  6
SLD-Durchgehend
 62
     7
370
    35
100
AcDbLine
 10
297.7713872604
 20
214.0934195159
 30
0.0
 11
305.7713872604
 21
214.0934195159
 31
0.0
  0
LINE
  5
20F
330
1F
100
AcDbEntity
  8
0
  6
SLD-Durchgehend
 62
     7
370
    35
100
AcDbLine
 10
305.7713872604
 20
214.0934195159
 30
0.0
 11
305.7713872604
 21
215.9434195159
 31
0.0
  0
LINE
  5
210
330
1F
100
AcDbEntity
  8
0
  6
SLD-Durchgehend
 62
     7
370
    35
100
AcDbLine
 10
305.7713872604
 20
215.9434195159
 30
0.0
 11
307.7713872604
 21
215.9434195159
 31
0.0
  0
LINE
  5
211
330
1F
100
AcDbEntity
  8
0
  6
SLD-Durchgehend
 62
     7
370
    35
100
AcDbLine
 10
307.7713872604
 20
215.3434195159
 30
0.0
 11
307.7713872604
 21
211.5934195159
 31
0.0
  0
ARC
  5
212
330
1F
100
AcDbEntity
  8
0
  6
SLD-Durchgehend
 62
     7
370
    35
100
AcDbCircle
 10
307.2713872604
 20
211.5934195159
 30
0.0
 40
0.5000000000000568
100
AcDbArc
 50
270.0
 51
0.0
  0
LINE
  5
213
330
1F
100
AcDbEntity
  8
0
  6
SLD-Durchgehend
 62
     7
370
    35
100
AcDbLine
 10
307.2713872604
 20
211.0934195159
 30
0.0
 11
298.2713872604
 21
211.0934195159
 31
0.0
  0
LINE
  5
214
330
1F
100
AcDbEntity
  8
0
  6
SLD-Durchgehend
 62
     7
370
    35
100
AcDbLine
 10
297.7713872604
 20
211.5934195159
 30
0.0
 11
297.7713872604
 21
214.0934195159
 31
0.0
  0
LINE
  5
215
330
1F
100
AcDbEntity
  8
0
  6
SLD-Durchgehend
 62
     7
370
    35
100
AcDbLine
 10
298.2713872604
 20
231.0934195159
 30
0.0
 11
307.2713872604
 21
231.0934195159
 31
0.0
  0
LINE
  5
216
330
1F
100
AcDbEntity
  8
0
  6
SLD-Durchgehend
 62
     7
370
    35
100
AcDbLine
 10
305.7713872604
 20
228.0934195159
 30
0.0
 11
297.7713872604
 21
228.0934195159
 31
0.0
  0
LINE
  5
217
330
1F
100
AcDbEntity
  8
0
  6
SLD-Durchgehend
 62
     7
370
    35
100
AcDbLine
 10
307.7713872604
 20
226.2434195159
 30
0.0
 11
305.7713872604
 21
226.2434195159
 31
0.0
  0
ARC
  5
218
330
1F
100
AcDbEntity
  8
0
  6
SLD-Durchgehend
 62
     7
370
    35
100
AcDbCircle
 10
307.2713872604
 20
230.5934195159
 30
0.0
 40
0.5000000000000568
100
AcDbArc
 50
0.0
 51
90.0
  0
LINE
  5
219
330
1F
100
AcDbEntity
  8
0
  6
SLD-Durchgehend
 62
     7
370
    35
100
AcDbLine
 10
305.7713872604
 20
226.2434195159
 30
0.0
 11
305.7713872604
 21
228.0934195159
 31
0.0
  0
LINE
  5
21A
330
1F
100
AcDbEntity
  8
0
  6
SLD-Durchgehend
 62
     7
370
    35
100
AcDbLine
 10
307.7713872604
 20
230.5934195159
 30
0.0
 11
307.7713872604
 21
226.8434195159
 31
0.0
  0
LINE
  5
21B
330
1F
100
AcDbEntity
  8
0
  6
SLD-Durchgehend
 62
     7
370
    35
100
AcDbLine
 10
297.7713872604
 20
228.0934195159
 30
0.0
 11
297.7713872604
 21
230.5934195159
 31
0.0
  0
LINE
  5
21C
330
1F
100
AcDbEntity
  8
0
  6
SLD-Durchgehend
 62
     7
370
    35
100
AcDbLine
 10
302.7713872604
 20
215.9934195159
 30
0.0
 11
305.7713872604
 21
215.9934195159
 31
0.0
  0
LINE
  5
21D
330
1F
100
AcDbEntity
  8
0
  6
SLD-Durchgehend
 62
     7
370
    35
100
AcDbLine
 10
305.7713872604
 20
213.5934195159
 30
0.0
 11
305.7713872604
 21
215.9934195159
 31
0.0
  0
LINE
  5
21E
330
1F
100
AcDbEntity
  8
0
  6
SLD-Durchgehend
 62
     7
370
    35
100
AcDbLine
 10
302.7713872604
 20
213.5934195159
 30
0.0
 11
305.7713872604
 21
213.5934195159
 31
0.0
  0
LINE
  5
21F
330
1F
100
AcDbEntity
  8
0
  6
SLD-Durchgehend
 62
     7
370
    35
100
AcDbLine
 10
302.7713872604
 20
213.5934195159
 30
0.0
 11
302.7713872604
 21
215.9934195159
 31
0.0
  0
LINE
  5
220
330
1F
100
AcDbEntity
  8
0
  6
SLD-Durchgehend
 62
     7
370
    35
100
AcDbLine
 10
305.7713872604
 20
228.5934195159
 30
0.0
 11
302.7713872604
 21
228.5934195159
 31
0.0
  0
LINE
  5
221
330
1F
100
AcDbEntity
  8
0
  6
SLD-Durchgehend
 62
     7
370
    35
100
AcDbLine
 10
305.7713872604
 20
226.1934195159
 30
0.0
 11
302.7713872604
 21
226.1934195159
 31
0.0
  0
LINE
  5
222
330
1F
100
AcDbEntity
  8
0
  6
SLD-Durchgehend
 62
     7
370
    35
100
AcDbLine
 10
305.7713872604
 20
226.1934195159
 30
0.0
 11
305.7713872604
 21
225.5934195159
 31
0.0
  0
LINE
  5
223
330
1F
100
AcDbEntity
  8
0
  6
SLD-Durchgehend
 62
     7
370
    35
100
AcDbLine
 10
305.7713872604
 20
216.5934195159
 30
0.0
 11
305.7713872604
 21
215.9934195159
 31
0.0
  0
LINE
  5
224
330
1F
100
AcDbEntity
  8
0
  6
SLD-Durchgehend
 62
     7
370
    35
100
AcDbLine
 10
302.7713872604
 20
226.1934195159
 30
0.0
 11
302.7713872604
 21
226.0934195159
 31
0.0
  0
LINE
  5
225
330
1F
100
AcDbEntity
  8
0
  6
SLD-Durchgehend
 62
     7
370
    35
100
AcDbLine
 10
302.7713872604
 20
216.0934195159
 30
0.0
 11
302.7713872604
 21
215.9934195159
 31
0.0
  0
LINE
  5
226
330
1F
100
AcDbEntity
  8
0
  6
SLD-Durchgehend
 62
     7
370
    35
100
AcDbLine
 10
305.7713872604
 20
226.1934195159
 30
0.0
 11
305.7713872604
 21
228.5934195159
 31
0.0
  0
LINE
  5
227
330
1F
100
AcDbEntity
  8
0
  6
SLD-Durchgehend
 62
     7
370
    35
100
AcDbLine
 10
302.7713872604
 20
226.1934195159
 30
0.0
 11
302.7713872604
 21
228.5934195159
 31
0.0
  0
LINE
  5
228
330
1F
100
AcDbEntity
  8
0
  6
SLD-Durchgehend
 62
     7
370
    35
100
AcDbLine
 10
302.7713872604
 20
215.9434195159
 30
0.0
 11
286.2713872604
 21
215.9434195159
 31
0.0
  0
LINE
  5
229
330
1F
100
AcDbEntity
  8
0
  6
SLD-Durchgehend
 62
     7
370
    35
100
AcDbLine
 10
302.7713872604
 20
215.9434195159
 30
0.0
 11
302.7713872604
 21
213.0934195159
 31
0.0
  0
LINE
  5
22A
330
1F
100
AcDbEntity
  8
0
  6
SLD-Durchgehend
 62
     7
370
    35
100
AcDbLine
 10
298.2713872604
 20
213.0934195159
 30
0.0
 11
302.7713872604
 21
213.0934195159
 31
0.0
  0
LINE
  5
22B
330
1F
100
AcDbEntity
  8
0
  6
SLD-Durchgehend
 62
     7
370
    35
100
AcDbLine
 10
298.2713872604
 20
214.0934195159
 30
0.0
 11
298.2713872604
 21
213.0934195159
 31
0.0
  0
LINE
  5
22C
330
1F
100
AcDbEntity
  8
0
  6
SLD-Durchgehend
 62
     7
370
    35
100
AcDbLine
 10
286.2713872604
 20
214.0934195159
 30
0.0
 11
298.2713872604
 21
214.0934195159
 31
0.0
  0
LINE
  5
22D
330
1F
100
AcDbEntity
  8
0
  6
SLD-Durchgehend
 62
     7
370
    35
100
AcDbLine
 10
286.2713872604
 20
215.9434195159
 30
0.0
 11
286.2713872604
 21
214.0934195159
 31
0.0
  0
LINE
  5
22E
330
1F
100
AcDbEntity
  8
0
  6
SLD-Durchgehend
 62
     7
370
    35
100
AcDbLine
 10
302.7713872604
 20
229.0934195159
 30
0.0
 11
298.2713872604
 21
229.0934195159
 31
0.0
  0
LINE
  5
22F
330
1F
100
AcDbEntity
  8
0
  6
SLD-Durchgehend
 62
     7
370
    35
100
AcDbLine
 10
298.2713872604
 20
228.0934195159
 30
0.0
 11
286.2713872604
 21
228.0934195159
 31
0.0
  0
LINE
  5
230
330
1F
100
AcDbEntity
  8
0
  6
SLD-Durchgehend
 62
     7
370
    35
100
AcDbLine
 10
286.2713872604
 20
226.2434195159
 30
0.0
 11
302.7713872604
 21
226.2434195159
 31
0.0
  0
LINE
  5
231
330
1F
100
AcDbEntity
  8
0
  6
SLD-Durchgehend
 62
     7
370
    35
100
AcDbLine
 10
286.2713872604
 20
215.9434195159
 30
0.0
 11
286.2713872604
 21
216.0934195159
 31
0.0
  0
LINE
  5
232
330
1F
100
AcDbEntity
  8
0
  6
SLD-Durchgehend
 62
     7
370
    35
100
AcDbLine
 10
286.2713872604
 20
226.0934195159
 30
0.0
 11
286.2713872604
 21
226.2434195159
 31
0.0
  0
LINE
  5
233
330
1F
100
AcDbEntity
  8
0
  6
SLD-Durchgehend
 62
     7
370
    35
100
AcDbLine
 10
286.2713872604
 20
228.0934195159
 30
0.0
 11
286.2713872604
 21
226.2434195159
 31
0.0
  0
LINE
  5
234
330
1F
100
AcDbEntity
  8
0
  6
SLD-Durchgehend
 62
     7
370
    35
100
AcDbLine
 10
302.7713872604
 20
229.0934195159
 30
0.0
 11
302.7713872604
 21
226.2434195159
 31
0.0
  0
LINE
  5
235
330
1F
100
AcDbEntity
  8
0
  6
SLD-Durchgehend
 62
     7
370
    35
100
AcDbLine
 10
298.2713872604
 20
229.0934195159
 30
0.0
 11
298.2713872604
 21
228.0934195159
 31
0.0
  0
ARC
  5
236
330
1F
100
AcDbEntity
  8
0
  6
SLD-Durchgehend
 62
     7
370
    35
100
AcDbCircle
 10
29.8506348907
 20
221.189936721
 30
0.0
 40
20.00000000000001
100
AcDbArc
 50
158.2736426693
 51
180.2765024982
  0
ARC
  5
237
330
1F
100
AcDbEntity
  8
0
  6
SLD-Durchgehend
 62
     7
370
    35
100
AcDbCircle
 10
29.8506348907
 20
220.9969023109
 30
0.0
 40
20.00000000000002
100
AcDbArc
 50
179.7234975018
 51
201.7263573307
  0
LINE
  5
238
330
1F
100
AcDbEntity
  8
0
  6
SLD-Durchgehend
 62
     7
370
    35
100
AcDbLine
 10
14.2713872604
 20
216.5934195159
 30
0.0
 11
11.5675144748
 21
221.0934195159
 31
0.0
  0
LINE
  5
239
330
1F
100
AcDbEntity
  8
0
  6
SLD-Durchgehend
 62
     7
370
    35
100
AcDbLine
 10
19.2713872604
 20
216.5934195159
 30
0.0
 11
14.2713872604
 21
216.5934195159
 31
0.0
  0
LINE
  5
23A
330
1F
100
AcDbEntity
  8
0
  6
SLD-Durchgehend
 62
     7
370
    35
100
AcDbLine
 10
19.2713872604
 20
216.5934195159
 30
0.0
 11
19.2713872604
 21
214.0934195159
 31
0.0
  0
LINE
  5
23B
330
1F
100
AcDbEntity
  8
0
  6
SLD-Durchgehend
 62
     7
370
    35
100
AcDbLine
 10
13.7713872604
 20
214.0934195159
 30
0.0
 11
19.2713872604
 21
214.0934195159
 31
0.0
  0
LINE
  5
23C
330
1F
100
AcDbEntity
  8
0
  6
SLD-Durchgehend
 62
     7
370
    35
100
AcDbLine
 10
13.7713872604
 20
215.0934195159
 30
0.0
 11
13.7713872604
 21
214.0934195159
 31
0.0
  0
LINE
  5
23D
330
1F
100
AcDbEntity
  8
0
  6
SLD-Durchgehend
 62
     7
370
    35
100
AcDbLine
 10
12.2713872604
 20
215.0934195159
 30
0.0
 11
13.7713872604
 21
215.0934195159
 31
0.0
  0
LINE
  5
23E
330
1F
100
AcDbEntity
  8
0
  6
SLD-Durchgehend
 62
     7
370
    35
100
AcDbLine
 10
12.2713872604
 20
215.0934195159
 30
0.0
 11
12.2713872604
 21
213.5934195159
 31
0.0
  0
LINE
  5
23F
330
1F
100
AcDbEntity
  8
0
  6
SLD-Durchgehend
 62
     7
370
    35
100
AcDbLine
 10
12.2713872604
 20
213.5934195159
 30
0.0
 11
11.2713872604
 21
213.5934195159
 31
0.0
  0
LINE
  5
240
330
1F
100
AcDbEntity
  8
0
  6
SLD-Durchgehend
 62
     7
370
    35
100
AcDbLine
 10
11.2713872604
 20
228.5934195159
 30
0.0
 11
12.2713872604
 21
228.5934195159
 31
0.0
  0
LINE
  5
241
330
1F
100
AcDbEntity
  8
0
  6
SLD-Durchgehend
 62
     7
370
    35
100
AcDbLine
 10
12.2713872604
 20
228.5934195159
 30
0.0
 11
12.2713872604
 21
227.0934195159
 31
0.0
  0
LINE
  5
242
330
1F
100
AcDbEntity
  8
0
  6
SLD-Durchgehend
 62
     7
370
    35
100
AcDbLine
 10
13.7713872604
 20
227.0934195159
 30
0.0
 11
12.2713872604
 21
227.0934195159
 31
0.0
  0
LINE
  5
243
330
1F
100
AcDbEntity
  8
0
  6
SLD-Durchgehend
 62
     7
370
    35
100
AcDbLine
 10
13.7713872604
 20
228.0934195159
 30
0.0
 11
13.7713872604
 21
227.0934195159
 31
0.0
  0
LINE
  5
244
330
1F
100
AcDbEntity
  8
0
  6
SLD-Durchgehend
 62
     7
370
    35
100
AcDbLine
 10
19.2713872604
 20
228.0934195159
 30
0.0
 11
13.7713872604
 21
228.0934195159
 31
0.0
  0
LINE
  5
245
330
1F
100
AcDbEntity
  8
0
  6
SLD-Durchgehend
 62
     7
370
    35
100
AcDbLine
 10
19.2713872604
 20
228.0934195159
 30
0.0
 11
19.2713872604
 21
225.5934195159
 31
0.0
  0
LINE
  5
246
330
1F
100
AcDbEntity
  8
0
  6
SLD-Durchgehend
 62
     7
370
    35
100
AcDbLine
 10
14.2713872604
 20
225.5934195159
 30
0.0
 11
19.2713872604
 21
225.5934195159
 31
0.0
  0
LINE
  5
247
330
1F
100
AcDbEntity
  8
0
  6
SLD-Durchgehend
 62
     7
370
    35
100
AcDbLine
 10
11.5675144748
 20
221.0934195159
 30
0.0
 11
14.2713872604
 21
225.5934195159
 31
0.0
  0
LINE
  5
248
330
1F
100
AcDbEntity
  8
0
  6
SLD-Durchgehend
 62
     7
370
    35
100
AcDbLine
 10
14.2713872604
 20
216.5934195159
 30
0.0
 11
14.2713872604
 21
225.5934195159
 31
0.0
  0
LINE
  5
249
330
1F
100
AcDbEntity
  8
0
  6
SLD-Durchgehend
 62
     7
370
    35
100
AcDbLine
 10
19.2713872604
 20
216.5934195159
 30
0.0
 11
19.2713872604
 21
225.5934195159
 31
0.0
  0
LINE
  5
24A
330
1F
100
AcDbEntity
  8
0
  6
SLD-Durchgehend
 62
     7
370
    35
100
AcDbLine
 10
12.2713872604
 20
214.5934195159
 30
0.0
 11
298.2713872604
 21
214.5934195159
 31
0.0
  0
LINE
  5
24B
330
1F
100
AcDbEntity
  8
0
  6
SLD-Durchgehend
 62
     7
370
    35
100
AcDbLine
 10
298.2713872604
 20
213.5934195159
 30
0.0
 11
298.2713872604
 21
214.5934195159
 31
0.0
  0
LINE
  5
24C
330
1F
100
AcDbEntity
  8
0
  6
SLD-Durchgehend
 62
     7
370
    35
100
AcDbLine
 10
12.2713872604
 20
213.5934195159
 30
0.0
 11
298.2713872604
 21
213.5934195159
 31
0.0
  0
LINE
  5
24D
330
1F
100
AcDbEntity
  8
0
  6
SLD-Durchgehend
 62
     7
370
    35
100
AcDbLine
 10
12.2713872604
 20
213.5934195159
 30
0.0
 11
12.2713872604
 21
214.5934195159
 31
0.0
  0
LINE
  5
24E
330
1F
100
AcDbEntity
  8
0
  6
SLD-Durchgehend
 62
     7
370
    35
100
AcDbLine
 10
298.2713872604
 20
228.5934195159
 30
0.0
 11
12.2713872604
 21
228.5934195159
 31
0.0
  0
LINE
  5
24F
330
1F
100
AcDbEntity
  8
0
  6
SLD-Durchgehend
 62
     7
370
    35
100
AcDbLine
 10
298.2713872604
 20
227.5934195159
 30
0.0
 11
12.2713872604
 21
227.5934195159
 31
0.0
  0
LINE
  5
250
330
1F
100
AcDbEntity
  8
0
  6
SLD-Durchgehend
 62
     7
370
    35
100
AcDbLine
 10
12.2713872604
 20
227.5934195159
 30
0.0
 11
12.2713872604
 21
228.5934195159
 31
0.0
  0
LINE
  5
251
330
1F
100
AcDbEntity
  8
0
  6
SLD-Durchgehend
 62
     7
370
    35
100
AcDbLine
 10
298.2713872604
 20
227.5934195159
 30
0.0
 11
298.2713872604
 21
228.5934195159
 31
0.0
  0
LINE
  5
252
330
1F
100
AcDbEntity
  8
0
  6
SLD-Durchgehend
 62
     7
370
    35
100
AcDbLine
 10
81.7713872604
 20
214.8934195159
 30
0.0
 11
41.7713872604
 21
214.8934195159
 31
0.0
  0
LINE
  5
253
330
1F
100
AcDbEntity
  8
0
  6
SLD-Durchgehend
 62
     7
370
    35
100
AcDbLine
 10
41.7713872604
 20
227.2934195159
 30
0.0
 11
81.7713872604
 21
227.2934195159
 31
0.0
  0
LINE
  5
254
330
1F
100
AcDbEntity
  8
0
  6
SLD-Durchgehend
 62
     7
370
    35
100
AcDbLine
 10
41.7713872604
 20
214.8934195159
 30
0.0
 11
41.7713872604
 21
216.0934195159
 31
0.0
  0
LINE
  5
255
330
1F
100
AcDbEntity
  8
0
  6
SLD-Durchgehend
 62
     7
370
    35
100
AcDbLine
 10
41.8213872604
 20
217.9934195159
 30
0.0
 11
51.7713872604
 21
217.9934195159
 31
0.0
  0
LINE
  5
256
330
1F
100
AcDbEntity
  8
0
  6
SLD-Durchgehend
 62
     7
370
    35
100
AcDbLine
 10
51.7713872604
 20
217.9934195159
 30
0.0
 11
51.7713872604
 21
215.9934195159
 31
0.0
  0
LINE
  5
257
330
1F
100
AcDbEntity
  8
0
  6
SLD-Durchgehend
 62
     7
370
    35
100
AcDbLine
 10
51.7713872604
 20
215.9934195159
 30
0.0
 11
81.7713872604
 21
215.9934195159
 31
0.0
  0
LINE
  5
258
330
1F
100
AcDbEntity
  8
0
  6
SLD-Durchgehend
 62
     7
370
    35
100
AcDbLine
 10
81.7713872604
 20
215.9934195159
 30
0.0
 11
81.7713872604
 21
214.8934195159
 31
0.0
  0
LINE
  5
259
330
1F
100
AcDbEntity
  8
0
  6
SLD-Durchgehend
 62
     7
370
    35
100
AcDbLine
 10
81.7713872604
 20
226.1934195159
 30
0.0
 11
51.7713872604
 21
226.1934195159
 31
0.0
  0
LINE
  5
25A
330
1F
100
AcDbEntity
  8
0
  6
SLD-Durchgehend
 62
     7
370
    35
100
AcDbLine
 10
81.7713872604
 20
226.1934195159
 30
0.0
 11
81.7713872604
 21
226.0934195159
 31
0.0
  0
LINE
  5
25B
330
1F
100
AcDbEntity
  8
0
  6
SLD-Durchgehend
 62
     7
370
    35
100
AcDbLine
 10
81.7713872604
 20
216.0934195159
 30
0.0
 11
81.7713872604
 21
215.9934195159
 31
0.0
  0
LINE
  5
25C
330
1F
100
AcDbEntity
  8
0
  6
SLD-Durchgehend
 62
     7
370
    35
100
AcDbLine
 10
51.7713872604
 20
224.1934195159
 30
0.0
 11
41.8213872604
 21
224.1934195159
 31
0.0
  0
LINE
  5
25D
330
1F
100
AcDbEntity
  8
0
  6
SLD-Durchgehend
 62
     7
370
    35
100
AcDbLine
 10
51.7713872604
 20
226.1934195159
 30
0.0
 11
51.7713872604
 21
224.1934195159
 31
0.0
  0
LINE
  5
25E
330
1F
100
AcDbEntity
  8
0
  6
SLD-Durchgehend
 62
     7
370
    35
100
AcDbLine
 10
81.7713872604
 20
227.2934195159
 30
0.0
 11
81.7713872604
 21
226.1934195159
 31
0.0
  0
LINE
  5
25F
330
1F
100
AcDbEntity
  8
0
  6
SLD-Durchgehend
 62
     7
370
    35
100
AcDbLine
 10
41.7713872604
 20
226.0934195159
 30
0.0
 11
41.7713872604
 21
227.2934195159
 31
0.0
  0
LINE
  5
260
330
1F
100
AcDbEntity
  8
0
  6
SLD-Durchgehend
 62
     7
370
    35
100
AcDbLine
 10
309.2713872604
 20
224.2947216059
 30
0.0
 11
310.2713872604
 21
224.2947216059
 31
0.0
  0
LINE
  5
261
330
1F
100
AcDbEntity
  8
0
  6
SLD-Durchgehend
 62
     7
370
    35
100
AcDbLine
 10
310.2713872604
 20
224.2947216059
 30
0.0
 11
310.2713872604
 21
225.0934195159
 31
0.0
  0
LINE
  5
262
330
1F
100
AcDbEntity
  8
0
  6
SLD-Durchgehend
 62
     7
370
    35
100
AcDbLine
 10
310.2713872604
 20
225.0934195159
 30
0.0
 11
314.4726893504
 21
225.0934195159
 31
0.0
  0
LINE
  5
263
330
1F
100
AcDbEntity
  8
0
  6
SLD-Durchgehend
 62
     7
370
    35
100
AcDbLine
 10
314.4726893504
 20
225.0934195159
 30
0.0
 11
315.2713872604
 21
224.2947216059
 31
0.0
  0
LINE
  5
264
330
1F
100
AcDbEntity
  8
0
  6
SLD-Durchgehend
 62
     7
370
    35
100
AcDbLine
 10
315.2713872604
 20
224.2947216059
 30
0.0
 11
315.2713872604
 21
217.8921174259
 31
0.0
  0
LINE
  5
265
330
1F
100
AcDbEntity
  8
0
  6
SLD-Durchgehend
 62
     7
370
    35
100
AcDbLine
 10
315.2713872604
 20
217.8921174259
 30
0.0
 11
314.4726893504
 21
217.0934195159
 31
0.0
  0
LINE
  5
266
330
1F
100
AcDbEntity
  8
0
  6
SLD-Durchgehend
 62
     7
370
    35
100
AcDbLine
 10
314.4726893504
 20
217.0934195159
 30
0.0
 11
310.2713872604
 21
217.0934195159
 31
0.0
  0
LINE
  5
267
330
1F
100
AcDbEntity
  8
0
  6
SLD-Durchgehend
 62
     7
370
    35
100
AcDbLine
 10
310.2713872604
 20
217.0934195159
 30
0.0
 11
310.2713872604
 21
217.8921174259
 31
0.0
  0
LINE
  5
268
330
1F
100
AcDbEntity
  8
0
  6
SLD-Durchgehend
 62
     7
370
    35
100
AcDbLine
 10
310.2713872604
 20
217.8921174259
 30
0.0
 11
309.2713872604
 21
217.8921174259
 31
0.0
  0
LINE
  5
269
330
1F
100
AcDbEntity
  8
0
  6
SLD-Durchgehend
 62
     7
370
    35
100
AcDbLine
 10
304.2713872604
 20
216.5934195159
 30
0.0
 11
307.7713872604
 21
216.5934195159
 31
0.0
  0
LINE
  5
26A
330
1F
100
AcDbEntity
  8
0
  6
SLD-Durchgehend
 62
     7
370
    35
100
AcDbLine
 10
304.2713872604
 20
216.0934195159
 30
0.0
 11
304.2713872604
 21
216.5934195159
 31
0.0
  0
LINE
  5
26B
330
1F
100
AcDbEntity
  8
0
  6
SLD-Durchgehend
 62
     7
370
    35
100
AcDbLine
 10
304.2713872604
 20
216.0934195159
 30
0.0
 11
52.2713872604
 21
216.0934195159
 31
0.0
  0
LINE
  5
26C
330
1F
100
AcDbEntity
  8
0
  6
SLD-Durchgehend
 62
     7
370
    35
100
AcDbLine
 10
52.2713872604
 20
216.0934195159
 30
0.0
 11
51.7713872604
 21
216.5934195159
 31
0.0
  0
LINE
  5
26D
330
1F
100
AcDbEntity
  8
0
  6
SLD-Durchgehend
 62
     7
370
    35
100
AcDbLine
 10
51.7713872604
 20
216.5934195159
 30
0.0
 11
51.7713872604
 21
218.0934195159
 31
0.0
  0
LINE
  5
26E
330
1F
100
AcDbEntity
  8
0
  6
SLD-Durchgehend
 62
     7
370
    35
100
AcDbLine
 10
72.7713872604
 20
218.5934195159
 30
0.0
 11
61.7168872604
 21
218.5934195159
 31
0.0
  0
LINE
  5
26F
330
1F
100
AcDbEntity
  8
0
  6
SLD-Durchgehend
 62
     7
370
    35
100
AcDbLine
 10
74.273538808
 20
221.0934195159
 30
0.0
 11
72.7713872604
 21
218.5934195159
 31
0.0
  0
LINE
  5
270
330
1F
100
AcDbEntity
  8
0
  6
SLD-Durchgehend
 62
     7
370
    35
100
AcDbLine
 10
72.7713872604
 20
223.5934195159
 30
0.0
 11
74.273538808
 21
221.0934195159
 31
0.0
  0
LINE
  5
271
330
1F
100
AcDbEntity
  8
0
  6
SLD-Durchgehend
 62
     7
370
    35
100
AcDbLine
 10
61.7168872604
 20
223.5934195159
 30
0.0
 11
72.7713872604
 21
223.5934195159
 31
0.0
  0
LINE
  5
272
330
1F
100
AcDbEntity
  8
0
  6
SLD-Durchgehend
 62
     7
370
    35
100
AcDbLine
 10
51.7713872604
 20
224.0934195159
 30
0.0
 11
51.7713872604
 21
225.5934195159
 31
0.0
  0
LINE
  5
273
330
1F
100
AcDbEntity
  8
0
  6
SLD-Durchgehend
 62
     7
370
    35
100
AcDbLine
 10
51.7713872604
 20
225.5934195159
 30
0.0
 11
52.2713872604
 21
226.0934195159
 31
0.0
  0
LINE
  5
274
330
1F
100
AcDbEntity
  8
0
  6
SLD-Durchgehend
 62
     7
370
    35
100
AcDbLine
 10
52.2713872604
 20
226.0934195159
 30
0.0
 11
304.2713872604
 21
226.0934195159
 31
0.0
  0
LINE
  5
275
330
1F
100
AcDbEntity
  8
0
  6
SLD-Durchgehend
 62
     7
370
    35
100
AcDbLine
 10
304.2713872604
 20
225.5934195159
 30
0.0
 11
304.2713872604
 21
226.0934195159
 31
0.0
  0
LINE
  5
276
330
1F
100
AcDbEntity
  8
0
  6
SLD-Durchgehend
 62
     7
370
    35
100
AcDbLine
 10
307.7713872604
 20
225.5934195159
 30
0.0
 11
304.2713872604
 21
225.5934195159
 31
0.0
  0
LINE
  5
277
330
1F
100
AcDbEntity
  8
0
  6
SLD-Durchgehend
 62
     7
370
    35
100
AcDbLine
 10
72.7713872604
 20
223.5934195159
 30
0.0
 11
72.7713872604
 21
218.5934195159
 31
0.0
  0
LINE
  5
278
330
1F
100
AcDbEntity
  8
0
  6
SLD-Durchgehend
 62
     7
370
    35
100
AcDbLine
 10
309.2713872604
 20
215.3434195159
 30
0.0
 11
309.2713872604
 21
210.3934195159
 31
0.0
  0
LINE
  5
279
330
1F
100
AcDbEntity
  8
0
  6
SLD-Durchgehend
 62
     7
370
    35
100
AcDbLine
 10
310.1213872604
 20
217.6934195159
 30
0.0
 11
309.2713872604
 21
216.8434195159
 31
0.0
  0
LINE
  5
27A
330
1F
100
AcDbEntity
  8
0
  6
SLD-Durchgehend
 62
     7
370
    35
100
AcDbLine
 10
315.2713872604
 20
217.6934195159
 30
0.0
 11
310.1213872604
 21
217.6934195159
 31
0.0
  0
LINE
  5
27B
330
1F
100
AcDbEntity
  8
0
  6
SLD-Durchgehend
 62
     7
370
    35
100
AcDbLine
 10
315.2713872604
 20
217.6934195159
 30
0.0
 11
315.2713872604
 21
210.3934195159
 31
0.0
  0
ARC
  5
27C
330
1F
100
AcDbEntity
  8
0
  6
SLD-Durchgehend
 62
     7
370
    35
100
AcDbCircle
 10
314.9713872604
 20
210.3934195159
 30
0.0
 40
0.3000000000000114
100
AcDbArc
 50
270.0
 51
0.0
  0
LINE
  5
27D
330
1F
100
AcDbEntity
  8
0
  6
SLD-Durchgehend
 62
     7
370
    35
100
AcDbLine
 10
309.5713872604
 20
210.0934195159
 30
0.0
 11
314.9713872604
 21
210.0934195159
 31
0.0
  0
ARC
  5
27E
330
1F
100
AcDbEntity
  8
0
  6
SLD-Durchgehend
 62
     7
370
    35
100
AcDbCircle
 10
309.5713872604
 20
210.3934195159
 30
0.0
 40
0.3000000000000114
100
AcDbArc
 50
180.0
 51
270.0
  0
LINE
  5
27F
330
1F
100
AcDbEntity
  8
0
  6
SLD-Durchgehend
 62
     7
370
    35
100
AcDbLine
 10
310.1213872604
 20
224.4934195159
 30
0.0
 11
310.1213872604
 21
224.2947216059
 31
0.0
  0
LINE
  5
280
330
1F
100
AcDbEntity
  8
0
  6
SLD-Durchgehend
 62
     7
370
    35
100
AcDbLine
 10
310.1213872604
 20
217.8921174259
 30
0.0
 11
310.1213872604
 21
217.6934195159
 31
0.0
  0
LINE
  5
281
330
1F
100
AcDbEntity
  8
0
  6
SLD-Durchgehend
 62
     7
370
    35
100
AcDbLine
 10
309.2713872604
 20
225.3434195159
 30
0.0
 11
310.1213872604
 21
224.4934195159
 31
0.0
  0
LINE
  5
282
330
1F
100
AcDbEntity
  8
0
  6
SLD-Durchgehend
 62
     7
370
    35
100
AcDbLine
 10
310.1213872604
 20
224.4934195159
 30
0.0
 11
315.2713872604
 21
224.4934195159
 31
0.0
  0
ARC
  5
283
330
1F
100
AcDbEntity
  8
0
  6
SLD-Durchgehend
 62
     7
370
    35
100
AcDbCircle
 10
309.5713872604
 20
231.7934195159
 30
0.0
 40
0.3000000000000398
100
AcDbArc
 50
90.0
 51
180.0
  0
LINE
  5
284
330
1F
100
AcDbEntity
  8
0
  6
SLD-Durchgehend
 62
     7
370
    35
100
AcDbLine
 10
314.9713872604
 20
232.0934195159
 30
0.0
 11
309.5713872604
 21
232.0934195159
 31
0.0
  0
ARC
  5
285
330
1F
100
AcDbEntity
  8
0
  6
SLD-Durchgehend
 62
     7
370
    35
100
AcDbCircle
 10
314.9713872604
 20
231.7934195159
 30
0.0
 40
0.3000000000000398
100
AcDbArc
 50
0.0
 51
90.0
  0
LINE
  5
286
330
1F
100
AcDbEntity
  8
0
  6
SLD-Durchgehend
 62
     7
370
    35
100
AcDbLine
 10
309.2713872604
 20
231.7934195159
 30
0.0
 11
309.2713872604
 21
226.8434195159
 31
0.0
  0
LINE
  5
287
330
1F
100
AcDbEntity
  8
0
  6
SLD-Durchgehend
 62
     7
370
    35
100
AcDbLine
 10
315.2713872604
 20
231.7934195159
 30
0.0
 11
315.2713872604
 21
224.4934195159
 31
0.0
  0
LINE
  5
288
330
1F
100
AcDbEntity
  8
0
  6
SLD-Durchgehend
 62
     7
370
    35
100
AcDbLine
 10
316.7713872604
 20
230.0934195159
 30
0.0
 11
315.2713872604
 21
230.0934195159
 31
0.0
  0
LINE
  5
289
330
1F
100
AcDbEntity
  8
0
  6
SLD-Durchgehend
 62
     7
370
    35
100
AcDbLine
 10
316.7713872604
 20
230.0934195159
 30
0.0
 11
316.7713872604
 21
210.0934195159
 31
0.0
  0
LINE
  5
28A
330
1F
100
AcDbEntity
  8
0
  6
SLD-Durchgehend
 62
     7
370
    35
100
AcDbLine
 10
315.2713872604
 20
210.0934195159
 30
0.0
 11
316.7713872604
 21
210.0934195159
 31
0.0
  0
LINE
  5
28B
330
1F
100
AcDbEntity
  8
0
  6
SLD-Durchgehend
 62
     7
370
    35
100
AcDbLine
 10
315.2713872604
 20
230.0934195159
 30
0.0
 11
315.2713872604
 21
210.0934195159
 31
0.0
  0
LINE
  5
28C
330
1F
100
AcDbEntity
  8
0
  6
SLD-Durchgehend
 62
     7
370
    35
100
AcDbLine
 10
336.4713872604
 20
230.0934195159
 30
0.0
 11
317.0713872604
 21
230.0934195159
 31
0.0
  0
ARC
  5
28D
330
1F
100
AcDbEntity
  8
0
  6
SLD-Durchgehend
 62
     7
370
    35
100
AcDbCircle
 10
336.4713872604
 20
229.7934195159
 30
0.0
 40
0.3000000000000114
100
AcDbArc
 50
0.0
 51
90.0
  0
LINE
  5
28E
330
1F
100
AcDbEntity
  8
0
  6
SLD-Durchgehend
 62
     7
370
    35
100
AcDbLine
 10
336.7713872604
 20
228.0934195159
 30
0.0
 11
336.7713872604
 21
229.7934195159
 31
0.0
  0
LINE
  5
28F
330
1F
100
AcDbEntity
  8
0
  6
SLD-Durchgehend
 62
     7
370
    35
100
AcDbLine
 10
333.7713872604
 20
228.0934195159
 30
0.0
 11
336.7713872604
 21
228.0934195159
 31
0.0
  0
LINE
  5
290
330
1F
100
AcDbEntity
  8
0
  6
SLD-Durchgehend
 62
     7
370
    35
100
AcDbLine
 10
330.7713872604
 20
225.0934195159
 30
0.0
 11
333.7713872604
 21
228.0934195159
 31
0.0
  0
LINE
  5
291
330
1F
100
AcDbEntity
  8
0
  6
SLD-Durchgehend
 62
     7
370
    35
100
AcDbLine
 10
328.7713872604
 20
225.0934195159
 30
0.0
 11
330.7713872604
 21
225.0934195159
 31
0.0
  0
LINE
  5
292
330
1F
100
AcDbEntity
  8
0
  6
SLD-Durchgehend
 62
     7
370
    35
100
AcDbLine
 10
325.7713872604
 20
228.0934195159
 30
0.0
 11
328.7713872604
 21
225.0934195159
 31
0.0
  0
LINE
  5
293
330
1F
100
AcDbEntity
  8
0
  6
SLD-Durchgehend
 62
     7
370
    35
100
AcDbLine
 10
321.7713872604
 20
228.0934195159
 30
0.0
 11
325.7713872604
 21
228.0934195159
 31
0.0
  0
ARC
  5
294
330
1F
100
AcDbEntity
  8
0
  6
SLD-Durchgehend
 62
     7
370
    35
100
AcDbCircle
 10
321.7713872604
 20
227.0934195159
 30
0.0
 40
1.0
100
AcDbArc
 50
90.0
 51
180.0
  0
LINE
  5
295
330
1F
100
AcDbEntity
  8
0
  6
SLD-Durchgehend
 62
     7
370
    35
100
AcDbLine
 10
320.7713872604
 20
193.5934195159
 30
0.0
 11
320.7713872604
 21
227.0934195159
 31
0.0
  0
ARC
  5
296
330
1F
100
AcDbEntity
  8
0
  6
SLD-Durchgehend
 62
     7
370
    35
100
AcDbCircle
 10
321.7713872604
 20
193.5934195159
 30
0.0
 40
1.0
100
AcDbArc
 50
180.0
 51
270.0
  0
LINE
  5
297
330
1F
100
AcDbEntity
  8
0
  6
SLD-Durchgehend
 62
     7
370
    35
100
AcDbLine
 10
326.7713872604
 20
192.5934195159
 30
0.0
 11
321.7713872604
 21
192.5934195159
 31
0.0
  0
LINE
  5
298
330
1F
100
AcDbEntity
  8
0
  6
SLD-Durchgehend
 62
     7
370
    35
100
AcDbLine
 10
326.2713872604
 20
188.0934195159
 30
0.0
 11
326.7713872604
 21
188.5934195159
 31
0.0
  0
LINE
  5
299
330
1F
100
AcDbEntity
  8
0
  6
SLD-Durchgehend
 62
     7
370
    35
100
AcDbLine
 10
317.0713872604
 20
188.0934195159
 30
0.0
 11
326.2713872604
 21
188.0934195159
 31
0.0
  0
ARC
  5
29A
330
1F
100
AcDbEntity
  8
0
  6
SLD-Durchgehend
 62
     7
370
    35
100
AcDbCircle
 10
317.0713872604
 20
188.3934195159
 30
0.0
 40
0.3000000000000114
100
AcDbArc
 50
180.0
 51
270.0
  0
LINE
  5
29B
330
1F
100
AcDbEntity
  8
0
  6
SLD-Durchgehend
 62
     7
370
    35
100
AcDbLine
 10
316.7713872604
 20
203.5934195159
 30
0.0
 11
316.7713872604
 21
188.3934195159
 31
0.0
  0
ARC
  5
29C
330
1F
100
AcDbEntity
  8
0
  6
SLD-Durchgehend
 62
     7
370
    35
100
AcDbCircle
 10
313.7713872604
 20
203.5934195159
 30
0.0
 40
3.0
100
AcDbArc
 50
0.0
 51
90.0
  0
LINE
  5
29D
330
1F
100
AcDbEntity
  8
0
  6
SLD-Durchgehend
 62
     7
370
    35
100
AcDbLine
 10
312.7713872604
 20
206.5934195159
 30
0.0
 11
313.7713872604
 21
206.5934195159
 31
0.0
  0
LINE
  5
29E
330
1F
100
AcDbEntity
  8
0
  6
SLD-Durchgehend
 62
     7
370
    35
100
AcDbLine
 10
312.7713872604
 20
209.5160692467
 30
0.0
 11
312.7713872604
 21
206.5934195159
 31
0.0
  0
LINE
  5
29F
330
1F
100
AcDbEntity
  8
0
  6
SLD-Durchgehend
 62
     7
370
    35
100
AcDbLine
 10
312.7713872604
 20
209.5160692467
 30
0.0
 11
313.7713872604
 21
210.0934195159
 31
0.0
  0
LINE
  5
2A0
330
1F
100
AcDbEntity
  8
0
  6
SLD-Durchgehend
 62
     7
370
    35
100
AcDbLine
 10
316.7713872604
 20
210.0934195159
 30
0.0
 11
313.7713872604
 21
210.0934195159
 31
0.0
  0
LINE
  5
2A1
330
1F
100
AcDbEntity
  8
0
  6
SLD-Durchgehend
 62
     7
370
    35
100
AcDbLine
 10
316.7713872604
 20
229.7934195159
 30
0.0
 11
316.7713872604
 21
210.0934195159
 31
0.0
  0
ARC
  5
2A2
330
1F
100
AcDbEntity
  8
0
  6
SLD-Durchgehend
 62
     7
370
    35
100
AcDbCircle
 10
317.0713872604
 20
229.7934195159
 30
0.0
 40
0.3000000000000398
100
AcDbArc
 50
90.0
 51
180.0
  0
LINE
  5
2A3
330
1F
100
AcDbEntity
  8
0
  6
SLD-Durchgehend
 62
     7
370
    35
100
AcDbLine
 10
332.7713872604
 20
188.5934195159
 30
0.0
 11
333.2713872604
 21
188.0934195159
 31
0.0
  0
LINE
  5
2A4
330
1F
100
AcDbEntity
  8
0
  6
SLD-Durchgehend
 62
     7
370
    35
100
AcDbLine
 10
326.2713872604
 20
188.0934195159
 30
0.0
 11
327.3258872604
 21
188.0934195159
 31
0.0
  0
LINE
  5
2A5
330
1F
100
AcDbEntity
  8
0
  6
SLD-Durchgehend
 62
     7
370
    35
100
AcDbLine
 10
332.2168872604
 20
188.0934195159
 30
0.0
 11
333.2713872604
 21
188.0934195159
 31
0.0
  0
LINE
  5
2A6
330
1F
100
AcDbEntity
  8
0
  6
SLD-Durchgehend
 62
     7
370
    35
100
AcDbLine
 10
336.7713872604
 20
192.5934195159
 30
0.0
 11
332.7713872604
 21
192.5934195159
 31
0.0
  0
LINE
  5
2A7
330
1F
100
AcDbEntity
  8
0
  6
SLD-Durchgehend
 62
     7
370
    35
100
AcDbLine
 10
336.7713872604
 20
188.3934195159
 30
0.0
 11
336.7713872604
 21
192.5934195159
 31
0.0
  0
ARC
  5
2A8
330
1F
100
AcDbEntity
  8
0
  6
SLD-Durchgehend
 62
     7
370
    35
100
AcDbCircle
 10
336.4713872604
 20
188.3934195159
 30
0.0
 40
0.3000000000000114
100
AcDbArc
 50
270.0
 51
0.0
  0
LINE
  5
2A9
330
1F
100
AcDbEntity
  8
0
  6
SLD-Durchgehend
 62
     7
370
    35
100
AcDbLine
 10
333.2713872604
 20
188.0934195159
 30
0.0
 11
336.4713872604
 21
188.0934195159
 31
0.0
  0
LINE
  5
2AA
330
1F
100
AcDbEntity
  8
0
  6
SLD-Durchgehend
 62
     7
370
    35
100
AcDbLine
 10
333.7713872604
 20
227.0934195159
 30
0.0
 11
333.7713872604
 21
228.0934195159
 31
0.0
  0
LINE
  5
2AB
330
1F
100
AcDbEntity
  8
0
  6
SLD-Durchgehend
 62
     7
370
    35
100
AcDbLine
 10
336.7713872604
 20
195.0934195159
 30
0.0
 11
336.7713872604
 21
192.5934195159
 31
0.0
  0
LINE
  5
2AC
330
1F
100
AcDbEntity
  8
0
  6
SLD-Durchgehend
 62
     7
370
    35
100
AcDbLine
 10
336.7713872604
 20
228.0934195159
 30
0.0
 11
336.7713872604
 21
227.0934195159
 31
0.0
  0
SPLINE
  5
2AD
330
1F
100
AcDbEntity
  8
0
  6
SLD-Durchgehend
 62
     7
370
    35
100
AcDbSpline
210
0.0
220
0.0
230
1.0
 70
     8
 71
     3
 72
     9
 73
     5
 74
     0
 42
0.00000001
 43
0.00000001
 40
0.0
 40
0.0
 40
0.0
 40
0.0
 40
0.4954579634770078
 40
1.0
 40
1.0
 40
1.0
 40
1.0
 10
321.1286528503554
 20
218.7840184391604
 30
0.0
 10
321.0287978271144
 20
218.5964899953842
 30
0.0
 10
320.827256968753
 20
218.217994830103
 30
0.0
 10
320.7901229392945
 20
217.8267283084429
 30
0.0
 10
320.7713872604473
 20
217.6293179007812
 30
0.0
  0
SPLINE
  5
2AE
330
1F
100
AcDbEntity
  8
0
  6
SLD-Durchgehend
 62
     7
370
    35
100
AcDbSpline
210
0.0
220
0.0
230
1.0
 70
     8
 71
     3
 72
    10
 73
     6
 74
     0
 42
0.00000001
 43
0.00000001
 40
0.0
 40
0.0
 40
0.0
 40
0.0
 40
0.2572432618847625
 40
0.6263798857723031
 40
1.0
 40
1.0
 40
1.0
 40
1.0
 10
321.1286528503554
 20
218.7840184391604
 30
0.0
 10
321.0760048574054
 20
218.9779517166382
 30
0.0
 10
320.9478085207217
 20
219.4501736255971
 30
0.0
 10
320.8043128603442
 20
220.2209060132723
 30
0.0
 10
320.7824065380045
 20
220.8014136454641
 30
0.0
 10
320.7713872604473
 20
221.0934195159189
 30
0.0
  0
SPLINE
  5
2AF
330
1F
100
AcDbEntity
  8
0
  6
SLD-Durchgehend
 62
     7
370
    35
100
AcDbSpline
210
0.0
220
0.0
230
1.0
 70
     8
 71
     3
 72
    10
 73
     6
 74
     0
 42
0.00000001
 43
0.00000001
 40
0.0
 40
0.0
 40
0.0
 40
0.0
 40
0.2572432618847623
 40
0.626379885772304
 40
1.0
 40
1.0
 40
1.0
 40
1.0
 10
323.1141216705391
 20
218.7840184391604
 30
0.0
 10
323.1667696634891
 20
218.9779517166382
 30
0.0
 10
323.2949660001728
 20
219.4501736255971
 30
0.0
 10
323.4384616605503
 20
220.2209060132723
 30
0.0
 10
323.46036798289
 20
220.8014136454641
 30
0.0
 10
323.4713872604472
 20
221.0934195159189
 30
0.0
  0
LINE
  5
2B0
330
1F
100
AcDbEntity
  8
0
  6
SLD-Durchgehend
 62
     7
370
    35
100
AcDbLine
 10
323.4713872604
 20
217.6293179008
 30
0.0
 11
323.4713872604
 21
221.0934195159
 31
0.0
  0
SPLINE
  5
2B1
330
1F
100
AcDbEntity
  8
0
  6
SLD-Durchgehend
 62
     7
370
    35
100
AcDbSpline
210
0.0
220
0.0
230
1.0
 70
     8
 71
     3
 72
     9
 73
     5
 74
     0
 42
0.00000001
 43
0.00000001
 40
0.0
 40
0.0
 40
0.0
 40
0.0
 40
0.4954579634770076
 40
1.0
 40
1.0
 40
1.0
 40
1.0
 10
323.1141216705391
 20
218.7840184391604
 30
0.0
 10
323.2139766937802
 20
218.5964899953842
 30
0.0
 10
323.4155175521415
 20
218.217994830103
 30
0.0
 10
323.4526515816
 20
217.8267283084429
 30
0.0
 10
323.4713872604472
 20
217.6293179007812
 30
0.0
  0
SPLINE
  5
2B2
330
1F
100
AcDbEntity
  8
0
  6
SLD-Durchgehend
 62
     7
370
    35
100
AcDbSpline
210
0.0
220
0.0
230
1.0
 70
     8
 71
     3
 72
    10
 73
     6
 74
     0
 42
0.00000001
 43
0.00000001
 40
0.0
 40
0.0
 40
0.0
 40
0.0
 40
0.2684065359321999
 40
0.6323728964502905
 40
1.0
 40
1.0
 40
1.0
 40
1.0
 10
320.7713872604473
 20
221.0934195159189
 30
0.0
 10
320.7771918638311
 20
221.3031470643544
 30
0.0
 10
320.7908676629016
 20
221.7972707145438
 30
0.0
 10
320.9083316846437
 20
222.5724866101769
 30
0.0
 10
321.0549678826725
 20
223.1251208425471
 30
0.0
 10
321.1286528503554
 20
223.4028205926775
 30
0.0
  0
LINE
  5
2B3
330
1F
100
AcDbEntity
  8
0
  6
SLD-Durchgehend
 62
     7
370
    35
100
AcDbLine
 10
323.1141216705
 20
223.4028205927
 30
0.0
 11
321.1286528504
 21
223.4028205927
 31
0.0
  0
SPLINE
  5
2B4
330
1F
100
AcDbEntity
  8
0
  6
SLD-Durchgehend
 62
     7
370
    35
100
AcDbSpline
210
0.0
220
0.0
230
1.0
 70
     8
 71
     3
 72
    10
 73
     6
 74
     0
 42
0.00000001
 43
0.00000001
 40
0.0
 40
0.0
 40
0.0
 40
0.0
 40
0.2684065359321999
 40
0.6323728964502906
 40
1.0
 40
1.0
 40
1.0
 40
1.0
 10
323.4713872604472
 20
221.0934195159189
 30
0.0
 10
323.4655826570634
 20
221.3031470643544
 30
0.0
 10
323.4519068579929
 20
221.7972707145438
 30
0.0
 10
323.3344428362508
 20
222.5724866101769
 30
0.0
 10
323.187806638222
 20
223.1251208425471
 30
0.0
 10
323.1141216705391
 20
223.4028205926775
 30
0.0
  0
LINE
  5
2B5
330
1F
100
AcDbEntity
  8
0
  6
SLD-Durchgehend
 62
     7
370
    35
100
AcDbLine
 10
323.1141216705
 20
218.7840184392
 30
0.0
 11
321.1286528504
 21
218.7840184392
 31
0.0
  0
SPLINE
  5
2B6
330
1F
100
AcDbEntity
  8
0
  6
SLD-Durchgehend
 62
     7
370
    35
100
AcDbSpline
210
0.0
220
0.0
230
1.0
 70
     8
 71
     3
 72
    10
 73
     6
 74
     0
 42
0.00000001
 43
0.00000001
 40
0.0
 40
0.0
 40
0.0
 40
0.0
 40
0.070047392733713
 40
0.5307624307995957
 40
1.0
 40
1.0
 40
1.0
 40
1.0
 10
323.4713872604472
 20
217.6293179007812
 30
0.0
 10
323.470961190155
 20
217.6019644275637
 30
0.0
 10
323.4677327744333
 20
217.3947019532714
 30
0.0
 10
323.3897138161269
 20
217.0039021104518
 30
0.0
 10
323.2065452671748
 20
216.6521202442596
 30
0.0
 10
323.1141216705391
 20
216.4746173624019
 30
0.0
  0
LINE
  5
2B7
330
1F
100
AcDbEntity
  8
0
  6
SLD-Durchgehend
 62
     7
370
    35
100
AcDbLine
 10
323.1141216705
 20
216.4746173624
 30
0.0
 11
321.1286528504
 21
216.4746173624
 31
0.0
  0
SPLINE
  5
2B8
330
1F
100
AcDbEntity
  8
0
  6
SLD-Durchgehend
 62
     7
370
    35
100
AcDbSpline
210
0.0
220
0.0
230
1.0
 70
     8
 71
     3
 72
    10
 73
     6
 74
     0
 42
0.00000001
 43
0.00000001
 40
0.0
 40
0.0
 40
0.0
 40
0.0
 40
0.070047392733713
 40
0.5307624307995957
 40
1.0
 40
1.0
 40
1.0
 40
1.0
 10
320.7713872604472
 20
217.6293179007812
 30
0.0
 10
320.7718133307395
 20
217.6019644275637
 30
0.0
 10
320.7750417464613
 20
217.3947019532714
 30
0.0
 10
320.8530607047676
 20
217.0039021104518
 30
0.0
 10
321.0362292537198
 20
216.6521202442596
 30
0.0
 10
321.1286528503554
 20
216.4746173624019
 30
0.0
  0
SPLINE
  5
2B9
330
1F
100
AcDbEntity
  8
0
  6
SLD-Durchgehend
 62
     7
370
    35
100
AcDbSpline
210
0.0
220
0.0
230
1.0
 70
     8
 71
     3
 72
    10
 73
     6
 74
     0
 42
0.00000001
 43
0.00000001
 40
0.0
 40
0.0
 40
0.0
 40
0.0
 40
0.0700473927336898
 40
0.5307624307995819
 40
1.0
 40
1.0
 40
1.0
 40
1.0
 10
323.4713872604472
 20
224.5575211310567
 30
0.0
 10
323.470961190155
 20
224.5301676578392
 30
0.0
 10
323.4677327744333
 20
224.322905183547
 30
0.0
 10
323.3897138161269
 20
223.9321053407274
 30
0.0
 10
323.2065452671748
 20
223.5803234745351
 30
0.0
 10
323.1141216705391
 20
223.4028205926775
 30
0.0
  0
LINE
  5
2BA
330
1F
100
AcDbEntity
  8
0
  6
SLD-Durchgehend
 62
     7
370
    35
100
AcDbLine
 10
323.4713872604
 20
221.0934195159
 30
0.0
 11
323.4713872604
 21
224.5575211311
 31
0.0
  0
SPLINE
  5
2BB
330
1F
100
AcDbEntity
  8
0
  6
SLD-Durchgehend
 62
     7
370
    35
100
AcDbSpline
210
0.0
220
0.0
230
1.0
 70
     8
 71
     3
 72
    10
 73
     6
 74
     0
 42
0.00000001
 43
0.00000001
 40
0.0
 40
0.0
 40
0.0
 40
0.0
 40
0.0700473927336898
 40
0.5307624307995819
 40
1.0
 40
1.0
 40
1.0
 40
1.0
 10
320.7713872604473
 20
224.5575211310567
 30
0.0
 10
320.7718133307395
 20
224.5301676578392
 30
0.0
 10
320.7750417464612
 20
224.322905183547
 30
0.0
 10
320.8530607047676
 20
223.9321053407274
 30
0.0
 10
321.0362292537198
 20
223.5803234745351
 30
0.0
 10
321.1286528503554
 20
223.4028205926775
 30
0.0
  0
SPLINE
  5
2BC
330
1F
100
AcDbEntity
  8
0
  6
SLD-Durchgehend
 62
     7
370
    35
100
AcDbSpline
210
0.0
220
0.0
230
1.0
 70
     8
 71
     3
 72
     9
 73
     5
 74
     0
 42
0.00000001
 43
0.00000001
 40
0.0
 40
0.0
 40
0.0
 40
0.0
 40
0.4954579634770064
 40
1.0
 40
1.0
 40
1.0
 40
1.0
 10
323.1141216705391
 20
225.712221669436
 30
0.0
 10
323.2139766937802
 20
225.5246932256598
 30
0.0
 10
323.4155175521415
 20
225.1461980603785
 30
0.0
 10
323.4526515816
 20
224.7549315387184
 30
0.0
 10
323.4713872604472
 20
224.5575211310567
 30
0.0
  0
SPLINE
  5
2BD
330
1F
100
AcDbEntity
  8
0
  6
SLD-Durchgehend
 62
     7
370
    35
100
AcDbSpline
210
0.0
220
0.0
230
1.0
 70
     8
 71
     3
 72
     9
 73
     5
 74
     0
 42
0.00000001
 43
0.00000001
 40
0.0
 40
0.0
 40
0.0
 40
0.0
 40
0.4954579634770058
 40
1.0
 40
1.0
 40
1.0
 40
1.0
 10
321.1286528503554
 20
225.712221669436
 30
0.0
 10
321.0287978271143
 20
225.5246932256598
 30
0.0
 10
320.827256968753
 20
225.1461980603785
 30
0.0
 10
320.7901229392945
 20
224.7549315387184
 30
0.0
 10
320.7713872604473
 20
224.5575211310567
 30
0.0
  0
LINE
  5
2BE
330
1F
100
AcDbEntity
  8
0
  6
SLD-Durchgehend
 62
     7
370
    35
100
AcDbLine
 10
323.1141216705
 20
225.7122216694
 30
0.0
 11
321.1286528504
 21
225.7122216694
 31
0.0
  0
LINE
  5
2BF
330
1F
100
AcDbEntity
  8
0
  6
SLD-Durchgehend
 62
     7
370
    35
100
AcDbLine
 10
323.4713872604
 20
217.0934195159
 30
0.0
 11
323.4713872604
 21
217.6293179008
 31
0.0
  0
LINE
  5
2C0
330
1F
100
AcDbEntity
  8
0
  6
SLD-Durchgehend
 62
     7
370
    35
100
AcDbLine
 10
323.4713872604
 20
224.5575211311
 30
0.0
 11
323.4713872604
 21
225.0934195159
 31
0.0
  0
LINE
  5
2C1
330
1F
100
AcDbEntity
  8
0
  6
SLD-Durchgehend
 62
     7
370
    35
100
AcDbLine
 10
324.7763872604
 20
221.0934195159
 30
0.0
 11
324.7763872604
 21
223.5934195159
 31
0.0
  0
LINE
  5
2C2
330
1F
100
AcDbEntity
  8
0
  6
SLD-Durchgehend
 62
     7
370
    35
100
AcDbLine
 10
324.7763872604
 20
218.5934195159
 30
0.0
 11
324.7763872604
 21
221.0934195159
 31
0.0
  0
LINE
  5
2C3
330
1F
100
AcDbEntity
  8
0
  6
SLD-Durchgehend
 62
     7
370
    35
100
AcDbLine
 10
325.2213872604
 20
221.0934195159
 30
0.0
 11
325.2213872604
 21
223.1484195159
 31
0.0
  0
LINE
  5
2C4
330
1F
100
AcDbEntity
  8
0
  6
SLD-Durchgehend
 62
     7
370
    35
100
AcDbLine
 10
325.2213872604
 20
219.0384195159
 30
0.0
 11
325.2213872604
 21
221.0934195159
 31
0.0
  0
LINE
  5
2C5
330
1F
100
AcDbEntity
  8
0
  6
SLD-Durchgehend
 62
     7
370
    35
100
AcDbLine
 10
332.2168872604
 20
188.0934195159
 30
0.0
 11
327.3258872604
 21
188.0934195159
 31
0.0
  0
LINE
  5
2C6
330
1F
100
AcDbEntity
  8
0
  6
SLD-Durchgehend
 62
     7
370
    35
100
AcDbLine
 10
332.7713872604
 20
188.4135602402
 30
0.0
 11
326.7713872604
 21
188.4135602402
 31
0.0
  0
LINE
  5
2C7
330
1F
100
AcDbEntity
  8
0
  6
SLD-Durchgehend
 62
     7
370
    35
100
AcDbLine
 10
332.7713872604
 20
195.0934195159
 30
0.0
 11
326.7713872604
 21
195.0934195159
 31
0.0
  0
LINE
  5
2C8
330
1F
100
AcDbEntity
  8
0
  6
SLD-Durchgehend
 62
     7
370
    35
100
AcDbLine
 10
35.7713872604
 20
216.3934195159
 30
0.0
 11
35.7713872604
 21
225.7934195019
 31
0.0
  0
LINE
  5
2C9
330
1F
100
AcDbEntity
  8
0
  6
SLD-Durchgehend
 62
     7
370
    35
100
AcDbLine
 10
41.7713872604
 20
216.0934195159
 30
0.0
 11
41.7713872604
 21
226.0934195159
 31
0.0
  0
LINE
  5
2CA
330
1F
100
AcDbEntity
  8
0
  6
SLD-Durchgehend
 62
     7
370
    35
100
AcDbLine
 10
61.2168872604
 20
218.0934195159
 30
0.0
 11
61.2168872604
 21
224.0934195159
 31
0.0
  0
LINE
  5
2CB
330
1F
100
AcDbEntity
  8
0
  6
SLD-Durchgehend
 62
     7
370
    35
100
AcDbLine
 10
61.7713872604
 20
218.6479195159
 30
0.0
 11
61.7713872604
 21
223.5389195159
 31
0.0
  0
LINE
  5
2CC
330
1F
100
AcDbEntity
  8
0
  6
SLD-Durchgehend
 62
     8
370
    18
100
AcDbLine
 10
328.8713872604
 20
205.0611614514
 30
0.0
 11
328.7713872604
 21
205.0611614514
 31
0.0
  0
LINE
  5
2CD
330
1F
100
AcDbEntity
  8
0
  6
SLD-Durchgehend
 62
     8
370
    18
100
AcDbLine
 10
325.2213872604
 20
221.0934195159
 30
0.0
 11
328.460414715
 21
221.0934195159
 31
0.0
  0
LINE
  5
2CE
330
1F
100
AcDbEntity
  8
0
  6
SLD-Durchgehend
 62
     8
370
    18
100
AcDbLine
 10
321.7713872604
 20
228.0934195159
 30
0.0
 11
321.7713872604
 21
225.7122216694
 31
0.0
  0
LINE
  5
2CF
330
1F
100
AcDbEntity
  8
0
  6
SLD-Durchgehend
 62
     8
370
    18
100
AcDbLine
 10
321.7713872604
 20
195.0934195159
 30
0.0
 11
321.7713872604
 21
192.5934195159
 31
0.0
  0
LINE
  5
2D0
330
1F
100
AcDbEntity
  8
0
  6
SLD-Durchgehend
 62
     8
370
    18
100
AcDbLine
 10
321.7713872604
 20
195.0934195159
 30
0.0
 11
325.7713872604
 21
195.0934195159
 31
0.0
  0
LINE
  5
2D1
330
1F
100
AcDbEntity
  8
0
  6
SLD-Durchgehend
 62
     8
370
    18
100
AcDbLine
 10
320.7713872604
 20
195.0934195159
 30
0.0
 11
321.7713872604
 21
195.0934195159
 31
0.0
  0
LINE
  5
2D2
330
1F
100
AcDbEntity
  8
0
  6
SLD-Durchgehend
 62
     8
370
    18
100
AcDbLine
 10
321.7713872604
 20
216.4746173624
 30
0.0
 11
321.7713872604
 21
195.0934195159
 31
0.0
  0
LINE
  5
2D3
330
1F
100
AcDbEntity
  8
0
  6
SLD-Durchgehend
 62
     8
370
    18
100
AcDbLine
 10
36.0713872604
 20
226.0934195159
 30
0.0
 11
36.0713872604
 21
216.0934195159
 31
0.0
  0
LINE
  5
2D4
330
1F
100
AcDbEntity
  8
0
  6
SLD-Durchgehend
 62
     8
370
    18
100
AcDbLine
 10
42.0213872604
 20
224.0934195159
 30
0.0
 11
42.0213872604
 21
218.0934195159
 31
0.0
  0
HATCH
  5
2D5
330
1F
100
AcDbEntity
  8
0
  6
SLD-Durchgehend
 62
     7
370
    18
100
AcDbHatch
 10
0.0
 20
0.0
 30
0.0
210
0.0
220
0.0
230
1.0
  2
ANSI31
 70
     0
 71
     0
 91
        1
 92
        0
 93
        6
 72
     2
 10
336.4713872604472
 20
188.393419515919
 40
0.3
 50
270.0000000000008
 51
360.0000000000008
 73
     1
 72
     1
 10
336.7713872604472
 20
188.393419515919
 11
336.7713872604472
 21
192.593419515919
 72
     1
 10
336.7713872604472
 20
192.593419515919
 11
332.2713872604472
 21
192.593419515919
 72
     1
 10
332.2713872604472
 20
192.593419515919
 11
332.2713872604472
 21
189.093419515919
 72
     1
 10
332.2713872604472
 20
189.093419515919
 11
333.2713872604472
 21
188.093419515919
 72
     1
 10
333.2713872604472
 20
188.093419515919
 11
336.4713872604472
 21
188.093419515919
 97
        0
 75
     0
 76
     1
 52
0.0
 41
1.0
 77
     0
 78
     1
 53
45.0
 43
0.0
 44
0.0
 45
-2.245064030267288
 46
2.245064030267288
 79
     0
 98
        1
 10
0.0
 20
0.0
  0
HATCH
  5
2D6
330
1F
100
AcDbEntity
  8
0
  6
SLD-Durchgehend
 62
     7
370
    18
100
AcDbHatch
 10
0.0
 20
0.0
 30
0.0
210
0.0
220
0.0
230
1.0
  2
ANSI31
 70
     0
 71
     0
 91
        1
 92
        0
 93
       24
 72
     2
 10
317.0713872604473
 20
229.793419515919
 40
0.3
 50
90.0
 51
180.0
 73
     1
 72
     1
 10
316.7713872604473
 20
229.793419515919
 11
316.7713872604472
 21
210.093419515919
 72
     1
 10
316.7713872604472
 20
210.093419515919
 11
313.7713872604473
 21
210.093419515919
 72
     1
 10
313.7713872604473
 20
210.093419515919
 11
312.7713872604472
 21
209.5160692467294
 72
     1
 10
312.7713872604472
 20
209.5160692467294
 11
312.7713872604472
 21
206.593419515919
 72
     1
 10
312.7713872604472
 20
206.593419515919
 11
313.7713872604472
 21
206.593419515919
 72
     2
 10
313.7713872604472
 20
203.593419515919
 40
3.0
 50
270.0000000000008
 51
360.0000000000008
 73
     0
 72
     1
 10
316.7713872604472
 20
203.593419515919
 11
316.7713872604472
 21
188.393419515919
 72
     2
 10
317.0713872604472
 20
188.393419515919
 40
0.3
 50
180.0
 51
269.9999999999899
 73
     1
 72
     1
 10
317.0713872604471
 20
188.093419515919
 11
326.2713872604472
 21
188.093419515919
 72
     1
 10
326.2713872604472
 20
188.093419515919
 11
327.2713872604472
 21
189.093419515919
 72
     1
 10
327.2713872604472
 20
189.093419515919
 11
327.2713872604472
 21
192.593419515919
 72
     1
 10
327.2713872604472
 20
192.593419515919
 11
321.7713872604472
 21
192.593419515919
 72
     2
 10
321.7713872604472
 20
193.593419515919
 40
1.0
 50
90.0
 51
180.0
 73
     0
 72
     1
 10
320.7713872604472
 20
193.593419515919
 11
320.7713872604473
 21
227.093419515919
 72
     2
 10
321.7713872604473
 20
227.093419515919
 40
1.0
 50
180.0000000000024
 51
270.0000000000041
 73
     0
 72
     1
 10
321.7713872604473
 20
228.093419515919
 11
325.7713872604473
 21
228.093419515919
 72
     1
 10
325.7713872604473
 20
228.093419515919
 11
328.7713872604473
 21
225.093419515919
 72
     1
 10
328.7713872604473
 20
225.093419515919
 11
330.7713872604473
 21
225.093419515919
 72
     1
 10
330.7713872604473
 20
225.093419515919
 11
333.7713872604473
 21
228.093419515919
 72
     1
 10
333.7713872604473
 20
228.093419515919
 11
336.7713872604473
 21
228.0934195159189
 72
     1
 10
336.7713872604473
 20
228.0934195159189
 11
336.7713872604473
 21
229.7934195159189
 72
     2
 10
336.4713872604473
 20
229.7934195159189
 40
0.3
 50
0.0
 51
90.0
 73
     1
 72
     1
 10
336.4713872604473
 20
230.093419515919
 11
317.0713872604473
 21
230.093419515919
 97
        0
 75
     0
 76
     1
 52
0.0
 41
1.0
 77
     0
 78
     1
 53
45.0
 43
0.0
 44
0.0
 45
-2.245064030267288
 46
2.245064030267288
 79
     0
 98
        1
 10
0.0
 20
0.0
  0
HATCH
  5
2D7
330
1F
100
AcDbEntity
  8
0
  6
SLD-Durchgehend
 62
     7
370
    18
100
AcDbHatch
 10
0.0
 20
0.0
 30
0.0
210
0.0
220
0.0
230
1.0
  2
NET
 70
     0
 71
     0
 91
        1
 92
        0
 93
        4
 72
     1
 10
315.2713872604473
 20
230.093419515919
 11
315.2713872604472
 21
210.093419515919
 72
     1
 10
315.2713872604472
 20
210.093419515919
 11
316.7713872604472
 21
210.093419515919
 72
     1
 10
316.7713872604472
 20
210.093419515919
 11
316.7713872604473
 21
230.093419515919
 72
     1
 10
316.7713872604473
 20
230.093419515919
 11
315.2713872604473
 21
230.093419515919
 97
        0
 75
     0
 76
     1
 52
134.999991007
 41
1.0
 77
     0
 78
     2
 53
134.9999910069555
 43
0.0
 44
0.0
 45
-2.24506438264855
 46
-2.245063677885971
 79
     0
 53
224.9999910069555
 43
0.0
 44
0.0
 45
2.245063677885971
 46
-2.24506438264855
 79
     0
 98
        1
 10
0.0
 20
0.0
  0
HATCH
  5
2D8
330
1F
100
AcDbEntity
  8
0
  6
SLD-Durchgehend
 62
     7
370
    18
100
AcDbHatch
 10
0.0
 20
0.0
 30
0.0
210
0.0
220
0.0
230
1.0
  2
ANSI31
 70
     0
 71
     0
 91
        1
 92
        0
 93
        7
 72
     2
 10
309.5713872604472
 20
210.393419515919
 40
0.3
 50
180.0
 51
270.0000000000008
 73
     1
 72
     1
 10
309.5713872604472
 20
210.093419515919
 11
314.9713872604473
 21
210.093419515919
 72
     2
 10
314.9713872604473
 20
210.393419515919
 40
0.3
 50
270.0000000000008
 51
360.0000000000008
 73
     1
 72
     1
 10
315.2713872604472
 20
210.393419515919
 11
315.2713872604473
 21
217.693419515919
 72
     1
 10
315.2713872604473
 20
217.693419515919
 11
310.1213872604473
 21
217.693419515919
 72
     1
 10
310.1213872604473
 20
217.693419515919
 11
309.2713872604473
 21
216.843419515919
 72
     1
 10
309.2713872604473
 20
216.843419515919
 11
309.2713872604472
 21
210.393419515919
 97
        0
 75
     0
 76
     1
 52
0.0
 41
1.0
 77
     0
 78
     1
 53
45.0
 43
0.0
 44
0.0
 45
-2.245064030267288
 46
2.245064030267288
 79
     0
 98
        1
 10
0.0
 20
0.0
  0
HATCH
  5
2D9
330
1F
100
AcDbEntity
  8
0
  6
SLD-Durchgehend
 62
     7
370
    18
100
AcDbHatch
 10
0.0
 20
0.0
 30
0.0
210
0.0
220
0.0
230
1.0
  2
ANSI31
 70
     0
 71
     0
 91
        1
 92
        0
 93
        7
 72
     2
 10
314.9713872604473
 20
231.793419515919
 40
0.3
 50
0.0
 51
90.0
 73
     1
 72
     1
 10
314.9713872604473
 20
232.093419515919
 11
309.5713872604473
 21
232.0934195159191
 72
     2
 10
309.5713872604473
 20
231.793419515919
 40
0.3
 50
90.0
 51
180.0
 73
     1
 72
     1
 10
309.2713872604473
 20
231.793419515919
 11
309.2713872604473
 21
225.343419515919
 72
     1
 10
309.2713872604473
 20
225.343419515919
 11
310.1213872604473
 21
224.493419515919
 72
     1
 10
310.1213872604473
 20
224.493419515919
 11
315.2713872604473
 21
224.493419515919
 72
     1
 10
315.2713872604473
 20
224.493419515919
 11
315.2713872604473
 21
231.793419515919
 97
        0
 75
     0
 76
     1
 52
0.0
 41
1.0
 77
     0
 78
     1
 53
45.0
 43
0.0
 44
0.0
 45
-2.245064030267288
 46
2.245064030267288
 79
     0
 98
        1
 10
0.0
 20
0.0
  0
HATCH
  5
2DA
330
1F
100
AcDbEntity
  8
0
  6
SLD-Durchgehend
 62
     7
370
    18
100
AcDbHatch
 10
0.0
 20
0.0
 30
0.0
210
0.0
220
0.0
230
1.0
  2
ANSI32
 70
     0
 71
     0
 91
        1
 92
        0
 93
       25
 72
     1
 10
309.2713872604473
 20
224.2947216059191
 11
309.2713872604473
 21
225.593419515919
 72
     1
 10
309.2713872604473
 20
225.593419515919
 11
304.2713872604473
 21
225.5934195159191
 72
     1
 10
304.2713872604473
 20
225.5934195159191
 11
304.2713872604473
 21
226.0934195159191
 72
     1
 10
304.2713872604473
 20
226.0934195159191
 11
52.27138726044717
 21
226.09341951592
 72
     1
 10
52.27138726044716
 20
226.09341951592
 11
51.77138726044728
 21
225.5934195159201
 72
     1
 10
51.77138726044728
 20
225.5934195159201
 11
51.77138726044728
 21
223.5934195159199
 72
     1
 10
51.77138726044728
 20
223.5934195159199
 11
72.7713872604473
 21
223.5934195159199
 72
     1
 10
72.7713872604473
 20
223.5934195159199
 11
74.27353880801618
 21
221.0934195159199
 72
     1
 10
74.27353880801618
 20
221.0934195159199
 11
72.7713872604473
 21
218.5934195159199
 72
     1
 10
72.7713872604473
 20
218.5934195159199
 11
51.77138726044728
 21
218.59341951592
 72
     1
 10
51.77138726044728
 20
218.59341951592
 11
51.77138726044728
 21
216.5934195159198
 72
     1
 10
51.77138726044728
 20
216.5934195159198
 11
52.27138726044711
 21
216.0934195159199
 72
     1
 10
52.27138726044711
 20
216.0934195159199
 11
304.2713872604473
 21
216.093419515919
 72
     1
 10
304.2713872604473
 20
216.093419515919
 11
304.2713872604473
 21
216.5934195159191
 72
     1
 10
304.2713872604473
 20
216.5934195159191
 11
309.2713872604473
 21
216.5934195159191
 72
     1
 10
309.2713872604473
 20
216.5934195159191
 11
309.2713872604473
 21
217.8921174259191
 72
     1
 10
309.2713872604473
 20
217.8921174259191
 11
310.2713872604473
 21
217.8921174259191
 72
     1
 10
310.2713872604473
 20
217.8921174259191
 11
310.2713872604473
 21
217.093419515919
 72
     1
 10
310.2713872604473
 20
217.093419515919
 11
314.4726893504472
 21
217.093419515919
 72
     1
 10
314.4726893504472
 20
217.093419515919
 11
315.2713872604473
 21
217.892117425919
 72
     1
 10
315.2713872604473
 20
217.892117425919
 11
315.2713872604473
 21
224.2947216059191
 72
     1
 10
315.2713872604473
 20
224.2947216059191
 11
314.4726893504473
 21
225.093419515919
 72
     1
 10
314.4726893504473
 20
225.093419515919
 11
310.2713872604473
 21
225.093419515919
 72
     1
 10
310.2713872604473
 20
225.093419515919
 11
310.2713872604473
 21
224.2947216059191
 72
     1
 10
310.2713872604473
 20
224.2947216059191
 11
309.2713872604473
 21
224.2947216059191
 97
        0
 75
     0
 76
     1
 52
0.0
 41
1.0
 77
     0
 78
     2
 53
45.0
 43
0.0
 44
0.0
 45
-6.735192090801866
 46
6.735192090801866
 79
     0
 53
45.0
 43
4.49013
 44
0.0
 45
-6.735192090801866
 46
6.735192090801866
 79
     0
 98
        1
 10
0.0
 20
0.0
  0
HATCH
  5
2DB
330
1F
100
AcDbEntity
  8
0
  6
SLD-Durchgehend
 62
     7
370
    18
100
AcDbHatch
 10
0.0
 20
0.0
 30
0.0
210
0.0
220
0.0
230
1.0
  2
ANSI34
 70
     0
 71
     0
 91
        1
 92
        0
 93
        6
 72
     1
 10
81.77138726044724
 20
227.2934195159198
 11
41.77138726044727
 21
227.29341951592
 72
     1
 10
41.77138726044727
 20
227.29341951592
 11
41.77138726044727
 21
224.1934195159199
 72
     1
 10
41.77138726044727
 20
224.1934195159199
 11
51.77138726044728
 21
224.1934195159199
 72
     1
 10
51.77138726044728
 20
224.1934195159199
 11
51.77138726044728
 21
226.1934195159199
 72
     1
 10
51.77138726044728
 20
226.1934195159199
 11
81.7713872604472
 21
226.1934195159198
 72
     1
 10
81.7713872604472
 20
226.1934195159198
 11
81.77138726044724
 21
227.2934195159198
 97
        0
 75
     0
 76
     1
 52
90.0
 41
1.0
 77
     0
 78
     4
 53
135.0000000000002
 43
0.0
 44
0.0
 45
-13.47038418160369
 46
-13.47038418160378
 79
     0
 53
135.0000000000002
 43
-0.0000000000000157
 44
4.49013
 45
-13.47038418160369
 46
-13.47038418160378
 79
     0
 53
135.0000000000002
 43
-0.0000000000000314
 44
8.98026
 45
-13.47038418160369
 46
-13.47038418160378
 79
     0
 53
135.0000000000002
 43
-0.000000000000047
 44
13.4704
 45
-13.47038418160369
 46
-13.47038418160378
 79
     0
 98
        1
 10
0.0
 20
0.0
  0
HATCH
  5
2DC
330
1F
100
AcDbEntity
  8
0
  6
SLD-Durchgehend
 62
     7
370
    18
100
AcDbHatch
 10
0.0
 20
0.0
 30
0.0
210
0.0
220
0.0
230
1.0
  2
ANSI34
 70
     0
 71
     0
 91
        1
 92
        0
 93
        6
 72
     1
 10
41.77138726044721
 20
214.89341951592
 11
81.7713872604472
 21
214.8934195159198
 72
     1
 10
81.7713872604472
 20
214.8934195159198
 11
81.77138726044714
 21
215.9934195159198
 72
     1
 10
81.77138726044714
 20
215.9934195159198
 11
51.77138726044722
 21
215.9934195159199
 72
     1
 10
51.77138726044722
 20
215.9934195159199
 11
51.77138726044728
 21
217.99341951592
 72
     1
 10
51.77138726044728
 20
217.99341951592
 11
41.77138726044727
 21
217.99341951592
 72
     1
 10
41.77138726044727
 20
217.99341951592
 11
41.77138726044721
 21
214.89341951592
 97
        0
 75
     0
 76
     1
 52
90.0
 41
1.0
 77
     0
 78
     4
 53
135.0000000000002
 43
0.0
 44
0.0
 45
-13.47038418160369
 46
-13.47038418160378
 79
     0
 53
135.0000000000002
 43
-0.0000000000000157
 44
4.49013
 45
-13.47038418160369
 46
-13.47038418160378
 79
     0
 53
135.0000000000002
 43
-0.0000000000000314
 44
8.98026
 45
-13.47038418160369
 46
-13.47038418160378
 79
     0
 53
135.0000000000002
 43
-0.000000000000047
 44
13.4704
 45
-13.47038418160369
 46
-13.47038418160378
 79
     0
 98
        1
 10
0.0
 20
0.0
  0
HATCH
  5
2DD
330
1F
100
AcDbEntity
  8
0
  6
SLD-Durchgehend
 62
     7
370
    18
100
AcDbHatch
 10
0.0
 20
0.0
 30
0.0
210
0.0
220
0.0
230
1.0
  2
ANSI33
 70
     0
 71
     0
 91
        1
 92
        0
 93
        4
 72
     1
 10
298.2713872604473
 20
227.593419515919
 11
298.2713872604473
 21
228.593419515919
 72
     1
 10
298.2713872604473
 20
228.593419515919
 11
12.27138726044728
 21
228.5934195159201
 72
     1
 10
12.2713872604473
 20
228.5934195159201
 11
12.2713872604473
 21
227.5934195159201
 72
     1
 10
12.2713872604473
 20
227.5934195159201
 11
298.2713872604473
 21
227.593419515919
 97
        0
 75
     0
 76
     1
 52
0.0
 41
1.0
 77
     0
 78
     2
 53
45.0
 43
0.0
 44
0.0
 45
-4.490128060534577
 46
4.490128060534577
 79
     0
 53
45.0
 43
4.49013
 44
0.0
 45
-4.490128060534577
 46
4.490128060534577
 79
     2
 49
3.175
 49
-1.5875
 98
        1
 10
0.0
 20
0.0
  0
HATCH
  5
2DE
330
1F
100
AcDbEntity
  8
0
  6
SLD-Durchgehend
 62
     7
370
    18
100
AcDbHatch
 10
0.0
 20
0.0
 30
0.0
210
0.0
220
0.0
230
1.0
  2
ANSI33
 70
     0
 71
     0
 91
        1
 92
        0
 93
        4
 72
     1
 10
12.27138726044724
 20
214.5934195159201
 11
12.27138726044724
 21
213.5934195159201
 72
     1
 10
12.27138726044724
 20
213.5934195159201
 11
298.2713872604473
 21
213.593419515919
 72
     1
 10
298.2713872604473
 20
213.593419515919
 11
298.2713872604473
 21
214.593419515919
 72
     1
 10
298.2713872604473
 20
214.593419515919
 11
12.27138726044723
 21
214.5934195159201
 97
        0
 75
     0
 76
     1
 52
0.0
 41
1.0
 77
     0
 78
     2
 53
45.0
 43
0.0
 44
0.0
 45
-4.490128060534577
 46
4.490128060534577
 79
     0
 53
45.0
 43
4.49013
 44
0.0
 45
-4.490128060534577
 46
4.490128060534577
 79
     2
 49
3.175
 49
-1.5875
 98
        1
 10
0.0
 20
0.0
  0
HATCH
  5
2DF
330
1F
100
AcDbEntity
  8
0
  6
SLD-Durchgehend
 62
     7
370
    18
100
AcDbHatch
 10
0.0
 20
0.0
 30
0.0
210
0.0
220
0.0
230
1.0
  2
ANSI33
 70
     0
 71
     0
 91
        1
 92
        0
 93
       18
 72
     1
 10
11.56751447482335
 20
221.0934195159201
 11
14.27138726044736
 21
225.5934195159201
 72
     1
 10
14.27138726044736
 20
225.5934195159201
 11
19.27138726044736
 21
225.5934195159201
 72
     1
 10
19.27138726044736
 20
225.5934195159201
 11
19.27138726044736
 21
228.0934195159201
 72
     1
 10
19.27138726044736
 20
228.0934195159201
 11
13.77138726044736
 21
228.0934195159201
 72
     1
 10
13.77138726044736
 20
228.0934195159201
 11
13.77138726044736
 21
227.0934195159201
 72
     1
 10
13.77138726044736
 20
227.0934195159201
 11
12.27138726044735
 21
227.0934195159201
 72
     1
 10
12.27138726044735
 20
227.0934195159201
 11
12.27138726044735
 21
228.5934195159201
 72
     1
 10
12.27138726044735
 20
228.5934195159201
 11
11.27138726044735
 21
228.5934195159201
 72
     2
 10
29.85063489066164
 20
221.1899367209662
 40
20.0
 50
158.2736426693175
 51
180.2765024982261
 73
     1
 72
     2
 10
29.85063489066164
 20
220.9969023108739
 40
20.0
 50
179.7234975017745
 51
201.726357330683
 73
     1
 72
     1
 10
11.2713872604473
 20
213.5934195159201
 11
12.2713872604473
 21
213.5934195159201
 72
     1
 10
12.2713872604473
 20
213.5934195159201
 11
12.2713872604473
 21
215.0934195159201
 72
     1
 10
12.2713872604473
 20
215.0934195159201
 11
13.7713872604473
 21
215.0934195159201
 72
     1
 10
13.7713872604473
 20
215.0934195159201
 11
13.7713872604473
 21
214.0934195159201
 72
     1
 10
13.7713872604473
 20
214.0934195159201
 11
19.27138726044731
 21
214.0934195159201
 72
     1
 10
19.27138726044731
 20
214.0934195159201
 11
19.27138726044736
 21
216.5934195159201
 72
     1
 10
19.27138726044736
 20
216.5934195159201
 11
14.27138726044736
 21
216.5934195159201
 72
     1
 10
14.27138726044736
 20
216.5934195159201
 11
11.56751447482335
 21
221.0934195159201
 97
        0
 75
     0
 76
     1
 52
90.0
 41
1.0
 77
     0
 78
     2
 53
135.0000000000002
 43
0.0
 44
0.0
 45
-4.490128060534562
 46
-4.490128060534592
 79
     0
 53
135.0000000000002
 43
-0.0000000000000157
 44
4.49013
 45
-4.490128060534562
 46
-4.490128060534592
 79
     2
 49
3.175
 49
-1.5875
 98
        1
 10
0.0
 20
0.0
  0
HATCH
  5
2E0
330
1F
100
AcDbEntity
  8
0
  6
SLD-Durchgehend
 62
     7
370
    18
100
AcDbHatch
 10
0.0
 20
0.0
 30
0.0
210
0.0
220
0.0
230
1.0
  2
ANSI33
 70
     0
 71
     0
 91
        1
 92
        0
 93
        6
 72
     1
 10
298.2713872604473
 20
229.0934195159191
 11
298.2713872604473
 21
228.0934195159191
 72
     1
 10
298.2713872604473
 20
228.0934195159191
 11
286.2713872604473
 21
228.0934195159191
 72
     1
 10
286.2713872604473
 20
228.0934195159191
 11
286.2713872604473
 21
226.2434195159191
 72
     1
 10
286.2713872604473
 20
226.2434195159191
 11
302.7713872604473
 21
226.2434195159191
 72
     1
 10
302.7713872604473
 20
226.2434195159191
 11
302.7713872604473
 21
229.0934195159191
 72
     1
 10
302.7713872604473
 20
229.0934195159191
 11
298.2713872604473
 21
229.0934195159191
 97
        0
 75
     0
 76
     1
 52
90.0
 41
1.0
 77
     0
 78
     2
 53
135.0000000000002
 43
0.0
 44
0.0
 45
-4.490128060534562
 46
-4.490128060534592
 79
     0
 53
135.0000000000002
 43
-0.0000000000000157
 44
4.49013
 45
-4.490128060534562
 46
-4.490128060534592
 79
     2
 49
3.175
 49
-1.5875
 98
        1
 10
0.0
 20
0.0
  0
HATCH
  5
2E1
330
1F
100
AcDbEntity
  8
0
  6
SLD-Durchgehend
 62
     7
370
    18
100
AcDbHatch
 10
0.0
 20
0.0
 30
0.0
210
0.0
220
0.0
230
1.0
  2
ANSI33
 70
     0
 71
     0
 91
        1
 92
        0
 93
        6
 72
     1
 10
286.2713872604473
 20
215.9434195159191
 11
286.2713872604473
 21
214.0934195159192
 72
     1
 10
286.2713872604473
 20
214.0934195159192
 11
298.2713872604473
 21
214.0934195159191
 72
     1
 10
298.2713872604473
 20
214.0934195159191
 11
298.2713872604472
 21
213.0934195159191
 72
     1
 10
298.2713872604472
 20
213.0934195159191
 11
302.7713872604472
 21
213.0934195159191
 72
     1
 10
302.7713872604472
 20
213.0934195159191
 11
302.7713872604473
 21
215.9434195159191
 72
     1
 10
302.7713872604473
 20
215.9434195159191
 11
286.2713872604473
 21
215.9434195159191
 97
        0
 75
     0
 76
     1
 52
90.0
 41
1.0
 77
     0
 78
     2
 53
135.0000000000002
 43
0.0
 44
0.0
 45
-4.490128060534562
 46
-4.490128060534592
 79
     0
 53
135.0000000000002
 43
-0.0000000000000157
 44
4.49013
 45
-4.490128060534562
 46
-4.490128060534592
 79
     2
 49
3.175
 49
-1.5875
 98
        1
 10
0.0
 20
0.0
  0
HATCH
  5
2E2
330
1F
100
AcDbEntity
  8
0
  6
SLD-Durchgehend
 62
     7
370
    18
100
AcDbHatch
 10
0.0
 20
0.0
 30
0.0
210
0.0
220
0.0
230
1.0
  2
ANSI34
 70
     0
 71
     0
 91
        1
 92
        0
 93
        4
 72
     1
 10
305.7713872604473
 20
226.1934195159191
 11
305.7713872604473
 21
228.5934195159191
 72
     1
 10
305.7713872604473
 20
228.5934195159191
 11
302.7713872604473
 21
228.5934195159191
 72
     1
 10
302.7713872604473
 20
228.5934195159191
 11
302.7713872604473
 21
226.1934195159191
 72
     1
 10
302.7713872604473
 20
226.1934195159191
 11
305.7713872604473
 21
226.1934195159191
 97
        0
 75
     0
 76
     1
 52
0.0
 41
1.0
 77
     0
 78
     4
 53
45.0
 43
0.0
 44
0.0
 45
-13.47038418160373
 46
13.47038418160373
 79
     0
 53
45.0
 43
4.49013
 44
0.0
 45
-13.47038418160373
 46
13.47038418160373
 79
     0
 53
45.0
 43
8.98026
 44
0.0
 45
-13.47038418160373
 46
13.47038418160373
 79
     0
 53
45.0
 43
13.4704
 44
0.0
 45
-13.47038418160373
 46
13.47038418160373
 79
     0
 98
        1
 10
0.0
 20
0.0
  0
HATCH
  5
2E3
330
1F
100
AcDbEntity
  8
0
  6
SLD-Durchgehend
 62
     7
370
    18
100
AcDbHatch
 10
0.0
 20
0.0
 30
0.0
210
0.0
220
0.0
230
1.0
  2
ANSI34
 70
     0
 71
     0
 91
        1
 92
        0
 93
        4
 72
     1
 10
302.7713872604473
 20
215.9934195159191
 11
302.7713872604473
 21
213.5934195159191
 72
     1
 10
302.7713872604473
 20
213.5934195159191
 11
305.7713872604473
 21
213.5934195159191
 72
     1
 10
305.7713872604473
 20
213.5934195159191
 11
305.7713872604473
 21
215.9934195159191
 72
     1
 10
305.7713872604473
 20
215.9934195159191
 11
302.7713872604473
 21
215.9934195159191
 97
        0
 75
     0
 76
     1
 52
0.0
 41
1.0
 77
     0
 78
     4
 53
45.0
 43
0.0
 44
0.0
 45
-13.47038418160373
 46
13.47038418160373
 79
     0
 53
45.0
 43
4.49013
 44
0.0
 45
-13.47038418160373
 46
13.47038418160373
 79
     0
 53
45.0
 43
8.98026
 44
0.0
 45
-13.47038418160373
 46
13.47038418160373
 79
     0
 53
45.0
 43
13.4704
 44
0.0
 45
-13.47038418160373
 46
13.47038418160373
 79
     0
 98
        1
 10
0.0
 20
0.0
  0
HATCH
  5
2E4
330
1F
100
AcDbEntity
  8
0
  6
SLD-Durchgehend
 62
     7
370
    18
100
AcDbHatch
 10
0.0
 20
0.0
 30
0.0
210
0.0
220
0.0
230
1.0
  2
ANSI33
 70
     0
 71
     0
 91
        1
 92
        0
 93
        8
 72
     1
 10
297.7713872604473
 20
230.5934195159191
 11
297.7713872604473
 21
228.0934195159191
 72
     1
 10
297.7713872604473
 20
228.0934195159191
 11
305.7713872604473
 21
228.0934195159191
 72
     1
 10
305.7713872604473
 20
228.0934195159191
 11
305.7713872604473
 21
226.2434195159191
 72
     1
 10
305.7713872604473
 20
226.2434195159191
 11
307.7713872604473
 21
226.2434195159191
 72
     1
 10
307.7713872604473
 20
226.2434195159191
 11
307.7713872604473
 21
230.593419515919
 72
     2
 10
307.2713872604473
 20
230.593419515919
 40
0.5
 50
0.0
 51
90.0
 73
     1
 72
     1
 10
307.2713872604473
 20
231.093419515919
 11
298.2713872604473
 21
231.0934195159191
 72
     2
 10
298.2713872604473
 20
230.5934195159191
 40
0.5
 50
90.0
 51
180.0
 73
     1
 97
        0
 75
     0
 76
     1
 52
0.0
 41
1.0
 77
     0
 78
     2
 53
45.0
 43
0.0
 44
0.0
 45
-4.490128060534577
 46
4.490128060534577
 79
     0
 53
45.0
 43
4.49013
 44
0.0
 45
-4.490128060534577
 46
4.490128060534577
 79
     2
 49
3.175
 49
-1.5875
 98
        1
 10
0.0
 20
0.0
  0
HATCH
  5
2E5
330
1F
100
AcDbEntity
  8
0
  6
SLD-Durchgehend
 62
     7
370
    18
100
AcDbHatch
 10
0.0
 20
0.0
 30
0.0
210
0.0
220
0.0
230
1.0
  2
ANSI33
 70
     0
 71
     0
 91
        1
 92
        0
 93
        8
 72
     1
 10
297.7713872604473
 20
214.0934195159191
 11
297.7713872604473
 21
211.5934195159191
 72
     2
 10
298.2713872604473
 20
211.5934195159191
 40
0.5
 50
180.0
 51
270.0000000000008
 73
     1
 72
     1
 10
298.2713872604473
 20
211.0934195159191
 11
307.2713872604472
 21
211.0934195159191
 72
     2
 10
307.2713872604473
 20
211.5934195159191
 40
0.5
 50
269.9999999999943
 51
360.0000000000008
 73
     1
 72
     1
 10
307.7713872604473
 20
211.5934195159191
 11
307.7713872604473
 21
215.9434195159191
 72
     1
 10
307.7713872604473
 20
215.9434195159191
 11
305.7713872604473
 21
215.9434195159191
 72
     1
 10
305.7713872604473
 20
215.9434195159191
 11
305.7713872604473
 21
214.0934195159191
 72
     1
 10
305.7713872604473
 20
214.0934195159191
 11
297.7713872604473
 21
214.0934195159191
 97
        0
 75
     0
 76
     1
 52
0.0
 41
1.0
 77
     0
 78
     2
 53
45.0
 43
0.0
 44
0.0
 45
-4.490128060534577
 46
4.490128060534577
 79
     0
 53
45.0
 43
4.49013
 44
0.0
 45
-4.490128060534577
 46
4.490128060534577
 79
     2
 49
3.175
 49
-1.5875
 98
        1
 10
0.0
 20
0.0
  0
HATCH
  5
2E6
330
1F
100
AcDbEntity
  8
0
  6
SLD-Durchgehend
 62
     7
370
    18
100
AcDbHatch
 10
0.0
 20
0.0
 30
0.0
210
0.0
220
0.0
230
1.0
  2
ANSI31
 70
     0
 71
     0
 91
        1
 92
        0
 93
       30
 72
     1
 10
334.2713872604473
 20
226.093419515919
 11
331.7713872604473
 21
226.093419515919
 72
     1
 10
331.7713872604473
 20
226.093419515919
 11
329.7713872604473
 21
224.0934195159189
 72
     1
 10
329.7713872604473
 20
224.0934195159189
 11
327.7713872604473
 21
226.0934195159189
 72
     1
 10
327.7713872604473
 20
226.0934195159189
 11
325.7713872604473
 21
226.093419515919
 72
     1
 10
325.7713872604473
 20
226.093419515919
 11
325.7713872604473
 21
224.8863127347324
 72
     2
 10
328.2713872604473
 20
224.8863127347324
 40
2.5
 50
179.9999999999994
 51
225.0000000000004
 73
     1
 72
     1
 10
326.5036203074809
 20
223.118545781766
 11
328.1856008228204
 21
221.4365652664266
 72
     2
 10
326.7713872604473
 20
220.0223517040535
 40
2.0
 50
315.0000000000008
 51
360.0000000000008
 73
     0
 72
     1
 10
328.7713872604473
 20
220.0223517040535
 11
328.7713872604472
 21
205.9954789980983
 72
     1
 10
328.7713872604472
 20
205.9954789980983
 11
328.8713872604472
 21
205.9954790041383
 72
     1
 10
328.8713872604472
 20
205.9954790041383
 11
328.8713872604472
 21
205.782134313532
 72
     1
 10
328.8713872604472
 20
205.782134313532
 11
328.7713872604472
 21
205.7821343002364
 72
     1
 10
328.7713872604472
 20
205.7821343002364
 11
328.7713872604472
 21
205.0765024327605
 72
     1
 10
328.7713872604472
 20
205.0765024327605
 11
328.8713872604472
 21
205.076502434761
 72
     1
 10
328.8713872604472
 20
205.076502434761
 11
328.8713872604471
 21
204.918589022094
 72
     1
 10
328.8713872604471
 20
204.918589022094
 11
328.7713872604472
 21
204.9185890149994
 72
     1
 10
328.7713872604472
 20
204.9185890149994
 11
328.7713872604472
 21
204.3407404865076
 72
     1
 10
328.7713872604472
 20
204.3407404865076
 11
328.8713872604472
 21
204.3407404837718
 72
     1
 10
328.8713872604472
 20
204.3407404837718
 11
328.871387260447
 21
204.1839921495653
 72
     1
 10
328.871387260447
 20
204.1839921495653
 11
328.7713872604472
 21
204.1839921503944
 72
     1
 10
328.7713872604472
 20
204.1839921503944
 11
328.7713872604472
 21
202.1644873277845
 72
     2
 10
326.7713872604472
 20
202.1644873277845
 40
2.0
 50
0.0000000000008142
 51
45.0
 73
     0
 72
     1
 10
328.1856008228203
 20
200.7502737654114
 11
326.5036203074808
 21
199.0682932500719
 72
     2
 10
328.2713872604472
 20
197.3005262971055
 40
2.5
 50
135.0
 51
180.0
 73
     1
 72
     1
 10
325.7713872604472
 20
197.3005262971055
 11
325.7713872604472
 21
196.093419515919
 72
     1
 10
325.7713872604472
 20
196.093419515919
 11
327.7713872604472
 21
196.093419515919
 72
     1
 10
327.7713872604472
 20
196.093419515919
 11
329.7713872604472
 21
198.093419515919
 72
     1
 10
329.7713872604472
 20
198.093419515919
 11
331.7713872604472
 21
196.0934195159189
 72
     1
 10
331.7713872604472
 20
196.0934195159189
 11
334.2713872604472
 21
196.0934195159189
 72
     1
 10
334.2713872604472
 20
196.0934195159189
 11
334.2713872604473
 21
226.093419515919
 97
        0
 75
     0
 76
     1
 52
90.0
 41
1.0
 77
     0
 78
     1
 53
135.0000000000002
 43
0.0
 44
0.0
 45
-2.245064030267281
 46
-2.245064030267296
 79
     0
 98
        1
 10
0.0
 20
0.0
  0
HATCH
  5
2E7
330
1F
100
AcDbEntity
  8
0
  6
SLD-Durchgehend
 62
     7
370
    18
100
AcDbHatch
 10
0.0
 20
0.0
 30
0.0
210
0.0
220
0.0
230
1.0
  2
ANSI37
 70
     0
 71
     0
 91
        1
 92
        0
 93
        4
 72
     1
 10
337.4713872604473
 20
227.0934195159189
 11
334.2713872604473
 21
227.093419515919
 72
     1
 10
334.2713872604473
 20
227.093419515919
 11
334.2713872604472
 21
195.093419515919
 72
     1
 10
334.2713872604472
 20
195.093419515919
 11
337.4713872604472
 21
195.0934195159189
 72
     1
 10
337.4713872604472
 20
195.0934195159189
 11
337.4713872604473
 21
227.0934195159189
 97
        0
 75
     0
 76
     1
 52
0.0
 41
1.0
 77
     0
 78
     2
 53
45.0
 43
0.0
 44
0.0
 45
-2.245064030267288
 46
2.245064030267288
 79
     0
 53
135.0
 43
0.0
 44
0.0
 45
-2.245064030267288
 46
-2.245064030267288
 79
     0
 98
        1
 10
0.0
 20
0.0
  0
MTEXT
  5
2E8
330
1F
100
AcDbEntity
  8
0
  6
Continuous
 62
     7
370
     0
100
AcDbMText
 10
101.0717125983
 20
247.6229887806
 30
0.0
 40
5.0
 41
0.0
 46
0.0
 71
     2
 72
     1
  1
A-A
  7
SLDTEXTSTYLE0
 73
     1
 44
1.0
  0
LINE
  5
2E9
330
1F
100
AcDbEntity
  8
0
  6
SLD-Durchgehend
 62
     7
370
    35
100
AcDbLine
 10
357.2430806379
 20
220.2216206094
 30
0.0
 11
357.2430806379
 21
221.9652184224
 31
0.0
  0
CIRCLE
  5
2EA
330
1F
100
AcDbEntity
  8
0
  6
SLD-Durchgehend
 62
     7
370
    35
100
AcDbCircle
 10
358.7530806379
 20
221.0934195159
 30
0.0
 40
5.0
  0
LINE
  5
2EB
330
1F
100
AcDbEntity
  8
0
  6
SLD-Durchgehend
 62
     7
370
    35
100
AcDbLine
 10
360.2630806379
 20
221.9652184224
 30
0.0
 11
360.2630806379
 21
220.2216206094
 31
0.0
  0
LINE
  5
2EC
330
1F
100
AcDbEntity
  8
0
  6
SLD-Durchgehend
 62
     7
370
    35
100
AcDbLine
 10
360.2630806379
 20
220.2216206094
 30
0.0
 11
358.7530806379
 21
219.349821703
 31
0.0
  0
LINE
  5
2ED
330
1F
100
AcDbEntity
  8
0
  6
SLD-Durchgehend
 62
     7
370
    35
100
AcDbLine
 10
357.2430806379
 20
221.9652184224
 30
0.0
 11
358.7530806379
 21
222.8370173289
 31
0.0
  0
LINE
  5
2EE
330
1F
100
AcDbEntity
  8
0
  6
SLD-Durchgehend
 62
     7
370
    35
100
AcDbLine
 10
358.7530806379
 20
222.8370173289
 30
0.0
 11
360.2630806379
 21
221.9652184224
 31
0.0
  0
LINE
  5
2EF
330
1F
100
AcDbEntity
  8
0
  6
SLD-Durchgehend
 62
     7
370
    35
100
AcDbLine
 10
358.7530806379
 20
219.349821703
 30
0.0
 11
357.2430806379
 21
220.2216206094
 31
0.0
  0
ARC
  5
2F0
330
1F
100
AcDbEntity
  8
0
  6
SLD-Durchgehend
 62
     7
370
    35
100
AcDbCircle
 10
358.7530806379
 20
221.0934195159
 30
0.0
 40
1.510000000000048
100
AcDbArc
 50
180.0
 51
240.0
  0
ARC
  5
2F1
330
1F
100
AcDbEntity
  8
0
  6
SLD-Durchgehend
 62
     7
370
    35
100
AcDbCircle
 10
358.7530806379
 20
221.0934195159
 30
0.0
 40
1.510000000000048
100
AcDbArc
 50
120.0
 51
180.0
  0
ARC
  5
2F2
330
1F
100
AcDbEntity
  8
0
  6
SLD-Durchgehend
 62
     7
370
    35
100
AcDbCircle
 10
358.7530806379
 20
221.0934195159
 30
0.0
 40
1.510000000000018
100
AcDbArc
 50
60.0
 51
120.0
  0
ARC
  5
2F3
330
1F
100
AcDbEntity
  8
0
  6
SLD-Durchgehend
 62
     7
370
    35
100
AcDbCircle
 10
358.7530806379
 20
221.0934195159
 30
0.0
 40
1.510000000000014
100
AcDbArc
 50
300.0
 51
0.0
  0
ARC
  5
2F4
330
1F
100
AcDbEntity
  8
0
  6
SLD-Durchgehend
 62
     7
370
    35
100
AcDbCircle
 10
358.7530806379
 20
221.0934195159
 30
0.0
 40
1.510000000000043
100
AcDbArc
 50
240.0
 51
300.0
  0
ARC
  5
2F5
330
1F
100
AcDbEntity
  8
0
  6
SLD-Durchgehend
 62
     7
370
    35
100
AcDbCircle
 10
358.7530806379
 20
221.0934195159
 30
0.0
 40
1.509999999999991
100
AcDbArc
 50
0.0
 51
60.0
  0
LINE
  5
2F6
330
1F
100
AcDbEntity
  8
0
  6
SLD-Durchgehend
 62
     7
370
    35
100
AcDbLine
 10
391.2430806379
 20
220.2216206094
 30
0.0
 11
391.2430806379
 21
221.9652184224
 31
0.0
  0
LINE
  5
2F7
330
1F
100
AcDbEntity
  8
0
  6
SLD-Durchgehend
 62
     7
370
    35
100
AcDbLine
 10
392.7530806379
 20
219.349821703
 30
0.0
 11
391.2430806379
 21
220.2216206094
 31
0.0
  0
LINE
  5
2F8
330
1F
100
AcDbEntity
  8
0
  6
SLD-Durchgehend
 62
     7
370
    35
100
AcDbLine
 10
391.2430806379
 20
221.9652184224
 30
0.0
 11
392.7530806379
 21
222.8370173289
 31
0.0
  0
CIRCLE
  5
2F9
330
1F
100
AcDbEntity
  8
0
  6
SLD-Durchgehend
 62
     7
370
    35
100
AcDbCircle
 10
392.7530806379
 20
221.0934195159
 30
0.0
 40
5.0
  0
LINE
  5
2FA
330
1F
100
AcDbEntity
  8
0
  6
SLD-Durchgehend
 62
     7
370
    35
100
AcDbLine
 10
394.2630806379
 20
220.2216206094
 30
0.0
 11
392.7530806379
 21
219.349821703
 31
0.0
  0
LINE
  5
2FB
330
1F
100
AcDbEntity
  8
0
  6
SLD-Durchgehend
 62
     7
370
    35
100
AcDbLine
 10
392.7530806379
 20
222.8370173289
 30
0.0
 11
394.2630806379
 21
221.9652184224
 31
0.0
  0
LINE
  5
2FC
330
1F
100
AcDbEntity
  8
0
  6
SLD-Durchgehend
 62
     7
370
    35
100
AcDbLine
 10
394.2630806379
 20
221.9652184224
 30
0.0
 11
394.2630806379
 21
220.2216206094
 31
0.0
  0
ARC
  5
2FD
330
1F
100
AcDbEntity
  8
0
  6
SLD-Durchgehend
 62
     7
370
    35
100
AcDbCircle
 10
392.7530806379
 20
221.0934195159
 30
0.0
 40
1.509999999999991
100
AcDbArc
 50
120.0
 51
180.0
  0
ARC
  5
2FE
330
1F
100
AcDbEntity
  8
0
  6
SLD-Durchgehend
 62
     7
370
    35
100
AcDbCircle
 10
392.7530806379
 20
221.0934195159
 30
0.0
 40
1.510000000000014
100
AcDbArc
 50
300.0
 51
0.0
  0
ARC
  5
2FF
330
1F
100
AcDbEntity
  8
0
  6
SLD-Durchgehend
 62
     7
370
    35
100
AcDbCircle
 10
392.7530806379
 20
221.0934195159
 30
0.0
 40
1.510000000000014
100
AcDbArc
 50
240.0
 51
300.0
  0
ARC
  5
300
330
1F
100
AcDbEntity
  8
0
  6
SLD-Durchgehend
 62
     7
370
    35
100
AcDbCircle
 10
392.7530806379
 20
221.0934195159
 30
0.0
 40
1.510000000000014
100
AcDbArc
 50
180.0
 51
240.0
  0
ARC
  5
301
330
1F
100
AcDbEntity
  8
0
  6
SLD-Durchgehend
 62
     7
370
    35
100
AcDbCircle
 10
392.7530806379
 20
221.0934195159
 30
0.0
 40
1.50999999999999
100
AcDbArc
 50
60.0
 51
120.0
  0
ARC
  5
302
330
1F
100
AcDbEntity
  8
0
  6
SLD-Durchgehend
 62
     7
370
    35
100
AcDbCircle
 10
392.7530806379
 20
221.0934195159
 30
0.0
 40
1.50999999999999
100
AcDbArc
 50
0.0
 51
60.0
  0
CIRCLE
  5
303
330
1F
100
AcDbEntity
  8
0
  6
SLD-Durchgehend
 62
     7
370
    35
100
AcDbCircle
 10
375.7530806379
 20
221.0934195159
 30
0.0
 40
10.0
  0
CIRCLE
  5
304
330
1F
100
AcDbEntity
  8
0
  6
SLD-Durchgehend
 62
     7
370
    35
100
AcDbCircle
 10
375.7530806379
 20
221.0934195159
 30
0.0
 40
7.5
  0
CIRCLE
  5
305
330
1F
100
AcDbEntity
  8
0
  6
SLD-Durchgehend
 62
     7
370
    35
100
AcDbCircle
 10
392.7530806379
 20
221.0934195159
 30
0.0
 40
5.25
  0
LINE
  5
306
330
1F
100
AcDbEntity
  8
0
  6
SLD-Durchgehend
 62
     7
370
    35
100
AcDbLine
 10
399.7530806379
 20
210.0934195159
 30
0.0
 11
351.7530806379
 21
210.0934195159
 31
0.0
  0
CIRCLE
  5
307
330
1F
100
AcDbEntity
  8
0
  6
SLD-Durchgehend
 62
     7
370
    35
100
AcDbCircle
 10
358.7530806379
 20
221.0934195159
 30
0.0
 40
5.25
  0
LINE
  5
308
330
1F
100
AcDbEntity
  8
0
  6
SLD-Durchgehend
 62
     7
370
    35
100
AcDbLine
 10
399.7530806379
 20
232.0934195159
 30
0.0
 11
401.4530806379
 21
232.0934195159
 31
0.0
  0
ARC
  5
309
330
1F
100
AcDbEntity
  8
0
  6
SLD-Durchgehend
 62
     7
370
    35
100
AcDbCircle
 10
401.4530806379
 20
231.7934195159
 30
0.0
 40
0.3000000000000114
100
AcDbArc
 50
0.0
 51
90.0
  0
LINE
  5
30A
330
1F
100
AcDbEntity
  8
0
  6
SLD-Durchgehend
 62
     7
370
    35
100
AcDbLine
 10
349.7530806379
 20
210.3934195159
 30
0.0
 11
349.7530806379
 21
231.7934195159
 31
0.0
  0
ARC
  5
30B
330
1F
100
AcDbEntity
  8
0
  6
SLD-Durchgehend
 62
     7
370
    35
100
AcDbCircle
 10
350.0530806379
 20
231.7934195159
 30
0.0
 40
0.3000000000000682
100
AcDbArc
 50
90.0
 51
180.0
  0
LINE
  5
30C
330
1F
100
AcDbEntity
  8
0
  6
SLD-Durchgehend
 62
     7
370
    35
100
AcDbLine
 10
350.0530806379
 20
232.0934195159
 30
0.0
 11
351.7530806379
 21
232.0934195159
 31
0.0
  0
LINE
  5
30D
330
1F
100
AcDbEntity
  8
0
  6
SLD-Durchgehend
 62
     7
370
    35
100
AcDbLine
 10
351.7530806379
 20
210.0934195159
 30
0.0
 11
350.0530806379
 21
210.0934195159
 31
0.0
  0
ARC
  5
30E
330
1F
100
AcDbEntity
  8
0
  6
SLD-Durchgehend
 62
     7
370
    35
100
AcDbCircle
 10
350.0530806379
 20
210.3934195159
 30
0.0
 40
0.3000000000000682
100
AcDbArc
 50
180.0
 51
270.0
  0
LINE
  5
30F
330
1F
100
AcDbEntity
  8
0
  6
SLD-Durchgehend
 62
     7
370
    35
100
AcDbLine
 10
351.7530806379
 20
232.0934195159
 30
0.0
 11
399.7530806379
 21
232.0934195159
 31
0.0
  0
LINE
  5
310
330
1F
100
AcDbEntity
  8
0
  6
SLD-Durchgehend
 62
     7
370
    35
100
AcDbLine
 10
401.4530806379
 20
210.0934195159
 30
0.0
 11
399.7530806379
 21
210.0934195159
 31
0.0
  0
ARC
  5
311
330
1F
100
AcDbEntity
  8
0
  6
SLD-Durchgehend
 62
     7
370
    35
100
AcDbCircle
 10
401.4530806379
 20
210.3934195159
 30
0.0
 40
0.3000000000000114
100
AcDbArc
 50
270.0
 51
0.0
  0
LINE
  5
312
330
1F
100
AcDbEntity
  8
0
  6
SLD-Durchgehend
 62
     7
370
    35
100
AcDbLine
 10
401.7530806379
 20
231.7934195159
 30
0.0
 11
401.7530806379
 21
210.3934195159
 31
0.0
  0
ELLIPSE
  5
313
330
1F
100
AcDbEntity
  8
0
  6
SLD-Durchgehend
 62
     7
370
    35
100
AcDbEllipse
 10
350.0530806379
 20
209.342864166
 30
0.0
 11
0.3000000000000114
 21
0.0
 31
0.0
210
0.0
220
0.0
230
1.0
 40
0.5773502692
 41
1.570796326794897
 42
3.141592653589793
  0
LINE
  5
314
330
1F
100
AcDbEntity
  8
0
  6
SLD-Durchgehend
 62
     7
370
    35
100
AcDbLine
 10
349.7530806379
 20
209.342864166
 30
0.0
 11
349.7530806379
 21
209.7934195159
 31
0.0
  0
ARC
  5
315
330
1F
100
AcDbEntity
  8
0
  6
SLD-Durchgehend
 62
     7
370
    35
100
AcDbCircle
 10
350.0530806379
 20
209.7934195159
 30
0.0
 40
0.3000000000000682
100
AcDbArc
 50
90.0
 51
180.0
  0
LINE
  5
316
330
1F
100
AcDbEntity
  8
0
  6
SLD-Durchgehend
 62
     7
370
    35
100
AcDbLine
 10
401.7530806379
 20
209.342864166
 30
0.0
 11
401.7530806379
 21
206.8934195159
 31
0.0
  0
ARC
  5
317
330
1F
100
AcDbEntity
  8
0
  6
SLD-Durchgehend
 62
     7
370
    35
100
AcDbCircle
 10
401.4530806379
 20
206.8934195159
 30
0.0
 40
0.3000000000000114
100
AcDbArc
 50
270.0
 51
0.0
  0
ELLIPSE
  5
318
330
1F
100
AcDbEntity
  8
0
  6
SLD-Durchgehend
 62
     7
370
    35
100
AcDbEllipse
 10
401.4530806379
 20
209.342864166
 30
0.0
 11
0.3000000000000114
 21
0.0
 31
0.0
210
0.0
220
0.0
230
1.0
 40
0.5773502692
 41
0.0
 42
1.570796326794897
  0
ARC
  5
319
330
1F
100
AcDbEntity
  8
0
  6
SLD-Durchgehend
 62
     7
370
    35
100
AcDbCircle
 10
401.4530806379
 20
209.7934195159
 30
0.0
 40
0.3000000000000114
100
AcDbArc
 50
0.0
 51
90.0
  0
LINE
  5
31A
330
1F
100
AcDbEntity
  8
0
  6
SLD-Durchgehend
 62
     7
370
    35
100
AcDbLine
 10
401.7530806379
 20
209.7934195159
 30
0.0
 11
401.7530806379
 21
209.342864166
 31
0.0
  0
ARC
  5
31B
330
1F
100
AcDbEntity
  8
0
  6
SLD-Durchgehend
 62
     7
370
    35
100
AcDbCircle
 10
350.0530806379
 20
206.8934195159
 30
0.0
 40
0.3000000000000682
100
AcDbArc
 50
180.0
 51
270.0
  0
LINE
  5
31C
330
1F
100
AcDbEntity
  8
0
  6
SLD-Durchgehend
 62
     7
370
    35
100
AcDbLine
 10
349.7530806379
 20
206.8934195159
 30
0.0
 11
349.7530806379
 21
209.342864166
 31
0.0
  0
LINE
  5
31D
330
1F
100
AcDbEntity
  8
0
  6
SLD-Durchgehend
 62
     7
370
    35
100
AcDbLine
 10
401.4530806379
 20
209.5160692467
 30
0.0
 11
350.0530806379
 21
209.5160692467
 31
0.0
  0
LINE
  5
31E
330
1F
100
AcDbEntity
  8
0
  6
SLD-Durchgehend
 62
     7
370
    35
100
AcDbLine
 10
350.0530806379
 20
206.5934195159
 30
0.0
 11
401.4530806379
 21
206.5934195159
 31
0.0
  0
LINE
  5
31F
330
1F
100
AcDbEntity
  8
0
  6
SLD-Durchgehend
 62
     7
370
    35
100
AcDbLine
 10
401.7530806379
 20
206.8934195159
 30
0.0
 11
401.7530806379
 21
203.5934195159
 31
0.0
  0
LINE
  5
320
330
1F
100
AcDbEntity
  8
0
  6
SLD-Durchgehend
 62
     7
370
    35
100
AcDbLine
 10
349.7530806379
 20
203.5934195159
 30
0.0
 11
349.7530806379
 21
206.8934195159
 31
0.0
  0
LINE
  5
321
330
1F
100
AcDbEntity
  8
0
  6
SLD-Durchgehend
 62
     7
370
    35
100
AcDbLine
 10
349.7530806379
 20
209.7934195159
 30
0.0
 11
349.7530806379
 21
210.3934195159
 31
0.0
  0
LINE
  5
322
330
1F
100
AcDbEntity
  8
0
  6
SLD-Durchgehend
 62
     7
370
    35
100
AcDbLine
 10
349.7530806379
 20
188.3934195159
 30
0.0
 11
349.7530806379
 21
203.5934195159
 31
0.0
  0
ARC
  5
323
330
1F
100
AcDbEntity
  8
0
  6
SLD-Durchgehend
 62
     7
370
    35
100
AcDbCircle
 10
401.4530806379
 20
188.3934195159
 30
0.0
 40
0.3000000000000114
100
AcDbArc
 50
270.0
 51
0.0
  0
LINE
  5
324
330
1F
100
AcDbEntity
  8
0
  6
SLD-Durchgehend
 62
     7
370
    35
100
AcDbLine
 10
401.7530806379
 20
203.5934195159
 30
0.0
 11
401.7530806379
 21
188.3934195159
 31
0.0
  0
LINE
  5
325
330
1F
100
AcDbEntity
  8
0
  6
SLD-Durchgehend
 62
     7
370
    35
100
AcDbLine
 10
401.7530806379
 20
210.3934195159
 30
0.0
 11
401.7530806379
 21
209.7934195159
 31
0.0
  0
LINE
  5
326
330
1F
100
AcDbEntity
  8
0
  6
SLD-Durchgehend
 62
     7
370
    35
100
AcDbLine
 10
401.4530806379
 20
188.0934195159
 30
0.0
 11
350.0530806379
 21
188.0934195159
 31
0.0
  0
ARC
  5
327
330
1F
100
AcDbEntity
  8
0
  6
SLD-Durchgehend
 62
     7
370
    35
100
AcDbCircle
 10
350.0530806379
 20
188.3934195159
 30
0.0
 40
0.3000000000000682
100
AcDbArc
 50
180.0
 51
270.0
  0
CIRCLE
  5
328
330
1F
100
AcDbEntity
  8
0
  6
SLD-Durchgehend
 62
     8
370
    18
100
AcDbCircle
 10
375.7530806379
 20
221.0934195159
 30
0.0
 40
9.5
  0
LINE
  5
329
330
1F
100
AcDbEntity
  8
0
  6
SLD-Durchgehend
 62
     8
370
    18
100
AcDbLine
 10
351.7530806379
 20
210.0934195159
 30
0.0
 11
351.7530806379
 21
210.3934195159
 31
0.0
  0
LINE
  5
32A
330
1F
100
AcDbEntity
  8
0
  6
SLD-Durchgehend
 62
     8
370
    18
100
AcDbLine
 10
351.7530806379
 20
210.3934195159
 30
0.0
 11
399.7530806379
 21
210.3934195159
 31
0.0
  0
LINE
  5
32B
330
1F
100
AcDbEntity
  8
0
  6
SLD-Durchgehend
 62
     8
370
    18
100
AcDbLine
 10
399.7530806379
 20
210.0934195159
 30
0.0
 11
399.7530806379
 21
210.3934195159
 31
0.0
  0
LINE
  5
32C
330
1F
100
AcDbEntity
  8
0
  6
SLD-Durchgehend
 62
     8
370
    18
100
AcDbLine
 10
399.7530806379
 20
231.7934195159
 30
0.0
 11
351.7530806379
 21
231.7934195159
 31
0.0
  0
LINE
  5
32D
330
1F
100
AcDbEntity
  8
0
  6
SLD-Durchgehend
 62
     8
370
    18
100
AcDbLine
 10
399.7530806379
 20
210.3934195159
 30
0.0
 11
399.7530806379
 21
231.7934195159
 31
0.0
  0
LINE
  5
32E
330
1F
100
AcDbEntity
  8
0
  6
SLD-Durchgehend
 62
     8
370
    18
100
AcDbLine
 10
351.7530806379
 20
231.7934195159
 30
0.0
 11
351.7530806379
 21
210.3934195159
 31
0.0
  0
LINE
  5
32F
330
1F
100
AcDbEntity
  8
0
  6
SLD-Durchgehend
 62
     8
370
    18
100
AcDbLine
 10
401.7530806379
 20
231.7934195159
 30
0.0
 11
399.7530806379
 21
231.7934195159
 31
0.0
  0
LINE
  5
330
330
1F
100
AcDbEntity
  8
0
  6
SLD-Durchgehend
 62
     8
370
    18
100
AcDbLine
 10
399.7530806379
 20
231.7934195159
 30
0.0
 11
399.7530806379
 21
232.0934195159
 31
0.0
  0
LINE
  5
331
330
1F
100
AcDbEntity
  8
0
  6
SLD-Durchgehend
 62
     8
370
    18
100
AcDbLine
 10
351.7530806379
 20
231.7934195159
 30
0.0
 11
349.7530806379
 21
231.7934195159
 31
0.0
  0
LINE
  5
332
330
1F
100
AcDbEntity
  8
0
  6
SLD-Durchgehend
 62
     8
370
    18
100
AcDbLine
 10
349.7530806379
 20
210.3934195159
 30
0.0
 11
351.7530806379
 21
210.3934195159
 31
0.0
  0
LINE
  5
333
330
1F
100
AcDbEntity
  8
0
  6
SLD-Durchgehend
 62
     8
370
    18
100
AcDbLine
 10
351.7530806379
 20
231.7934195159
 30
0.0
 11
351.7530806379
 21
232.0934195159
 31
0.0
  0
LINE
  5
334
330
1F
100
AcDbEntity
  8
0
  6
SLD-Durchgehend
 62
     8
370
    18
100
AcDbLine
 10
399.7530806379
 20
210.3934195159
 30
0.0
 11
401.7530806379
 21
210.3934195159
 31
0.0
  0
LINE
  5
335
330
1F
100
AcDbEntity
  8
0
  6
SLD-Durchgehend
 62
     8
370
    18
100
AcDbLine
 10
350.0530806379
 20
210.0934195159
 30
0.0
 11
350.0530806379
 21
209.5160692467
 31
0.0
  0
LINE
  5
336
330
1F
100
AcDbEntity
  8
0
  6
SLD-Durchgehend
 62
     8
370
    18
100
AcDbLine
 10
401.4530806379
 20
206.5934195159
 30
0.0
 11
401.4530806379
 21
209.5160692467
 31
0.0
  0
LINE
  5
337
330
1F
100
AcDbEntity
  8
0
  6
SLD-Durchgehend
 62
     8
370
    18
100
AcDbLine
 10
401.4530806379
 20
209.5160692467
 30
0.0
 11
401.4530806379
 21
210.0934195159
 31
0.0
  0
LINE
  5
338
330
1F
100
AcDbEntity
  8
0
  6
SLD-Durchgehend
 62
     8
370
    18
100
AcDbLine
 10
350.0530806379
 20
209.5160692467
 30
0.0
 11
350.0530806379
 21
206.5934195159
 31
0.0
  0
LINE
  5
339
330
1F
100
AcDbEntity
  8
0
  6
SLD-Durchgehend
 62
     8
370
    18
100
AcDbLine
 10
401.7530806379
 20
203.5934195159
 30
0.0
 11
401.4530806379
 21
203.5934195159
 31
0.0
  0
LINE
  5
33A
330
1F
100
AcDbEntity
  8
0
  6
SLD-Durchgehend
 62
     8
370
    18
100
AcDbLine
 10
401.4530806379
 20
203.5934195159
 30
0.0
 11
401.4530806379
 21
206.5934195159
 31
0.0
  0
LINE
  5
33B
330
1F
100
AcDbEntity
  8
0
  6
SLD-Durchgehend
 62
     8
370
    18
100
AcDbLine
 10
401.4530806379
 20
203.5934195159
 30
0.0
 11
350.0530806379
 21
203.5934195159
 31
0.0
  0
LINE
  5
33C
330
1F
100
AcDbEntity
  8
0
  6
SLD-Durchgehend
 62
     8
370
    18
100
AcDbLine
 10
350.0530806379
 20
206.5934195159
 30
0.0
 11
350.0530806379
 21
203.5934195159
 31
0.0
  0
LINE
  5
33D
330
1F
100
AcDbEntity
  8
0
  6
SLD-Durchgehend
 62
     8
370
    18
100
AcDbLine
 10
349.7530806379
 20
203.5934195159
 30
0.0
 11
350.0530806379
 21
203.5934195159
 31
0.0
  0
LINE
  5
33E
330
1F
100
AcDbEntity
  8
0
  6
SLD-Durchgehend
 62
     8
370
    18
100
AcDbLine
 10
350.0530806379
 20
203.5934195159
 30
0.0
 11
350.0530806379
 21
188.3934195159
 31
0.0
  0
LINE
  5
33F
330
1F
100
AcDbEntity
  8
0
  6
SLD-Durchgehend
 62
     8
370
    18
100
AcDbLine
 10
349.7530806379
 20
188.3934195159
 30
0.0
 11
350.0530806379
 21
188.3934195159
 31
0.0
  0
LINE
  5
340
330
1F
100
AcDbEntity
  8
0
  6
SLD-Durchgehend
 62
     8
370
    18
100
AcDbLine
 10
401.4530806379
 20
188.0934195159
 30
0.0
 11
401.4530806379
 21
188.3934195159
 31
0.0
  0
LINE
  5
341
330
1F
100
AcDbEntity
  8
0
  6
SLD-Durchgehend
 62
     8
370
    18
100
AcDbLine
 10
401.7530806379
 20
188.3934195159
 30
0.0
 11
401.4530806379
 21
188.3934195159
 31
0.0
  0
LINE
  5
342
330
1F
100
AcDbEntity
  8
0
  6
SLD-Durchgehend
 62
     8
370
    18
100
AcDbLine
 10
401.4530806379
 20
188.3934195159
 30
0.0
 11
401.4530806379
 21
203.5934195159
 31
0.0
  0
LINE
  5
343
330
1F
100
AcDbEntity
  8
0
  6
SLD-Durchgehend
 62
     8
370
    18
100
AcDbLine
 10
350.0530806379
 20
188.0934195159
 30
0.0
 11
350.0530806379
 21
188.3934195159
 31
0.0
  0
LINE
  5
344
330
1F
100
AcDbEntity
  8
0
  6
SLD-Durchgehend
 62
     8
370
    18
100
AcDbLine
 10
350.0530806379
 20
188.3934195159
 30
0.0
 11
401.4530806379
 21
188.3934195159
 31
0.0
  0
DIMENSION
  5
345
330
1F
100
AcDbEntity
  8
0
  6
SLD-Durchgehend
 62
     7
370
    18
100
AcDbDimension
280
     0
  2
_D_3
 10
411.4309125667
 20
188.0934195159
 30
0.0
 11
411.4309125667
 21
211.2035261414
 31
0.0
 70
   160
  1
(<>)
 71
     2
 42
-1.0
 73
     0
 74
     0
 75
     0
  3
SLDDIMSTYLE1
100
AcDbAlignedDimension
 13
399.7530806379
 23
232.0934195159
 33
0.0
 14
401.4530806379
 24
188.0934195159
 34
0.0
 50
90.0
100
AcDbRotatedDimension
  0
ENDSEC
  0
SECTION
  2
OBJECTS
  0
DICTIONARY
  5
C
330
0
100
AcDbDictionary
281
     1
  3
ACAD_DETAILVIEWSTYLE
350
358
  3
ACAD_GROUP
350
D
  3
ACAD_LAYOUT
350
1A
  3
ACAD_MATERIAL
350
43
  3
ACAD_MLEADERSTYLE
350
6B
  3
ACAD_MLINESTYLE
350
17
  3
ACAD_PLOTSETTINGS
350
19
  3
ACAD_PLOTSTYLENAME
350
E
  3
ACAD_SCALELIST
350
47
  3
ACAD_SECTIONVIEWSTYLE
350
359
  3
ACAD_TABLESTYLE
350
69
  3
ACAD_VISUALSTYLE
350
2A
  3
ACDB_RECOMPOSE_DATA
350
355
  3
AcDbVariableDictionary
350
351
  0
SUN
  5
6D
330
29
100
AcDbSun
 90
        1
290
     0
 63
     7
421
 16777215
 40
1.0
291
     1
 91
  2455826
 92
 54000000
292
     0
 70
     2
 71
   256
280
     1
  0
DICTIONARY
  5
358
102
{ACAD_REACTORS
330
C
102
}
330
C
100
AcDbDictionary
281
     1
  0
DICTIONARY
  5
D
102
{ACAD_REACTORS
330
C
102
}
330
C
100
AcDbDictionary
281
     1
  0
DICTIONARY
  5
1A
102
{ACAD_REACTORS
330
C
102
}
330
C
100
AcDbDictionary
281
     1
  3
Layout1
350
1E
  3
Layout2
350
26
  3
Model
350
22
  0
DICTIONARY
  5
43
102
{ACAD_REACTORS
330
C
102
}
330
C
100
AcDbDictionary
281
     1
  3
ByBlock
350
45
  3
ByLayer
350
44
  3
Global
350
46
  0
DICTIONARY
  5
6B
102
{ACAD_REACTORS
330
C
102
}
330
C
100
AcDbDictionary
281
     1
  3
Standard
350
6C
  0
DICTIONARY
  5
17
102
{ACAD_REACTORS
330
C
102
}
330
C
100
AcDbDictionary
281
     1
  3
Standard
350
18
  0
DICTIONARY
  5
19
102
{ACAD_REACTORS
330
C
102
}
330
C
100
AcDbDictionary
281
     1
  0
ACDBDICTIONARYWDFLT
  5
E
102
{ACAD_REACTORS
330
C
102
}
330
C
100
AcDbDictionary
281
     1
  3
Normal
350
F
100
AcDbDictionaryWithDefault
340
F
  0
DICTIONARY
  5
47
102
{ACAD_REACTORS
330
C
102
}
330
C
100
AcDbDictionary
281
     1
  3
A0
350
48
  3
A1
350
49
  3
A2
350
4A
  3
A3
350
4B
  3
A4
350
4C
  3
A5
350
4D
  3
A6
350
4E
  3
A7
350
4F
  3
A8
350
50
  3
A9
350
51
  3
B0
350
52
  3
B1
350
53
  3
B2
350
54
  3
B3
350
55
  3
B4
350
56
  3
B5
350
57
  3
B6
350
58
  3
B7
350
59
  3
B8
350
5A
  3
B9
350
5B
  3
C0
350
5C
  3
C1
350
5D
  3
C2
350
5E
  3
C3
350
5F
  3
C4
350
60
  3
C5
350
61
  3
C6
350
62
  3
C7
350
63
  3
C8
350
64
  3
C9
350
65
  3
D0
350
66
  3
D1
350
67
  3
D2
350
68
  0
DICTIONARY
  5
359
102
{ACAD_REACTORS
330
C
102
}
330
C
100
AcDbDictionary
281
     1
  0
DICTIONARY
  5
69
102
{ACAD_REACTORS
330
C
102
}
330
C
100
AcDbDictionary
281
     1
  3
Standard
350
6A
  0
DICTIONARY
  5
2A
102
{ACAD_REACTORS
330
C
102
}
330
C
100
AcDbDictionary
281
     1
  3
2dWireframe
350
2F
  3
Basic
350
32
  3
Brighten
350
36
  3
ColorChange
350
3A
  3
Conceptual
350
34
  3
Dim
350
35
  3
EdgeColorOff
350
3D
  3
Facepattern
350
39
  3
Flat
350
2B
  3
FlatWithEdges
350
2C
  3
Gouraud
350
2D
  3
GouraudWithEdges
350
2E
  3
Hidden
350
31
  3
JitterOff
350
3B
  3
Linepattern
350
38
  3
OverhangOff
350
3C
  3
Realistic
350
33
  3
Shaded
350
42
  3
Shaded with edges
350
41
  3
Shades of Gray
350
3E
  3
Sketchy
350
3F
  3
Thicken
350
37
  3
Wireframe
350
30
  3
X-Ray
350
40
  0
XRECORD
  5
355
102
{ACAD_REACTORS
330
C
102
}
330
C
100
AcDbXrecord
280
     1
 90
        1
330
6A
  0
DICTIONARY
  5
351
102
{ACAD_REACTORS
330
C
102
}
330
C
100
AcDbDictionary
281
     1
  3
CANNOSCALE
350
352
  3
CENTEREXE
350
35A
  3
CENTERLTYPEFILE
350
35B
  3
CMLEADERSTYLE
350
357
  3
CTABLESTYLE
350
356
  0
LAYOUT
  5
1E
102
{ACAD_REACTORS
330
1A
102
}
330
1A
100
AcDbPlotSettings
  1

  2
none_device
  4

  6

 40
0.0
 41
0.0
 42
0.0
 43
0.0
 44
0.0
 45
0.0
 46
0.0
 47
0.0
 48
0.0
 49
0.0
140
0.0
141
0.0
142
1.0
143
1.0
 70
   688
 72
     1
 73
     0
 74
     5
  7

 75
    16
 76
     0
 77
     2
 78
   300
147
1.0
148
0.0
149
0.0
100
AcDbLayout
  1
Layout1
 70
     1
 71
     1
 10
0.0
 20
0.0
 11
420.0
 21
297.0
 12
0.0
 22
0.0
 32
0.0
 14
1.0000000000E+20
 24
1.0000000000E+20
 34
1.0000000000E+20
 15
-1.0000000000E+20
 25
-1.0000000000E+20
 35
-1.0000000000E+20
146
0.0
 13
0.0
 23
0.0
 33
0.0
 16
1.0
 26
0.0
 36
0.0
 17
0.0
 27
1.0
 37
0.0
 76
     0
330
1B
  0
LAYOUT
  5
26
102
{ACAD_REACTORS
330
1A
102
}
330
1A
100
AcDbPlotSettings
  1

  2
none_device
  4

  6

 40
0.0
 41
0.0
 42
0.0
 43
0.0
 44
0.0
 45
0.0
 46
0.0
 47
0.0
 48
0.0
 49
0.0
140
0.0
141
0.0
142
1.0
143
1.0
 70
   688
 72
     1
 73
     0
 74
     5
  7

 75
    16
 76
     0
 77
     2
 78
   300
147
1.0
148
0.0
149
0.0
100
AcDbLayout
  1
Layout2
 70
     1
 71
     2
 10
0.0
 20
0.0
 11
0.0
 21
0.0
 12
0.0
 22
0.0
 32
0.0
 14
0.0
 24
0.0
 34
0.0
 15
0.0
 25
0.0
 35
0.0
146
0.0
 13
0.0
 23
0.0
 33
0.0
 16
1.0
 26
0.0
 36
0.0
 17
0.0
 27
1.0
 37
0.0
 76
     0
330
23
  0
LAYOUT
  5
22
102
{ACAD_REACTORS
330
1A
102
}
330
1A
100
AcDbPlotSettings
  1

  2
none_device
  4
Letter_(8.50_x_11.00_Inches)
  6

 40
6.35
 41
6.35
 42
6.35000508
 43
6.35000508
 44
215.9
 45
279.4
 46
0.0
 47
0.0
 48
0.0
 49
0.0
140
0.0
141
0.0
142
1.0
143
1.0
 70
  1712
 72
     1
 73
     0
 74
     0
  7

 75
     0
 76
     0
 77
     2
 78
   300
147
1.0
148
0.0
149
0.0
100
AcDbLayout
  1
Model
 70
     1
 71
     0
 10
0.0
 20
0.0
 11
420.0
 21
297.0
 12
0.0
 22
0.0
 32
0.0
 14
0.0
 24
0.0
 34
0.0
 15
420.0
 25
297.0
 35
0.0
146
0.0
 13
0.0
 23
0.0
 33
0.0
 16
1.0
 26
0.0
 36
0.0
 17
0.0
 27
1.0
 37
0.0
 76
     0
330
1F
331
29
  0
MATERIAL
  5
45
102
{ACAD_REACTORS
330
43
102
}
330
43
100
AcDbMaterial
  1
ByBlock
 72
     1
 94
      127
  0
MATERIAL
  5
44
102
{ACAD_REACTORS
330
43
102
}
330
43
100
AcDbMaterial
  1
ByLayer
 72
     1
 94
      127
  0
MATERIAL
  5
46
102
{ACAD_REACTORS
330
43
102
}
330
43
100
AcDbMaterial
  1
Global
 72
     1
 94
      127
  0
MLEADERSTYLE
  5
6C
102
{ACAD_REACTORS
330
6B
102
}
330
6B
100
AcDbMLeaderStyle
179
     2
170
     2
171
     1
172
     0
 90
        2
 40
0.0
 41
0.0
173
     1
 91
-1056964608
340
14
 92
       -2
290
     1
 42
2.0
291
     1
 43
8.0
  3
Standard
341
0
 44
4.0
300

342
11
174
     1
178
     6
175
     1
176
     0
 93
-1056964608
 45
4.0
292
     0
297
     0
 46
4.0
343
0
 94
-1056964608
 47
1.0
 49
1.0
140
1.0
293
     1
141
0.0
294
     1
177
     0
142
1.0
295
     0
296
     0
143
3.75
271
     0
272
     9
273
     9
298
     0
  0
MLINESTYLE
  5
18
102
{ACAD_REACTORS
330
17
102
}
330
17
100
AcDbMlineStyle
  2
Standard
 70
     0
  3

 62
   256
 51
90.0
 52
90.0
 71
     2
 49
0.5
 62
   256
  6
BYLAYER
 49
-0.5
 62
   256
  6
BYLAYER
  0
ACDBPLACEHOLDER
  5
F
102
{ACAD_REACTORS
330
E
102
}
330
E
  0
SCALE
  5
48
102
{ACAD_REACTORS
330
47
102
}
330
47
100
AcDbScale
 70
     0
300
1:1
140
1.0
141
1.0
290
     1
  0
SCALE
  5
49
102
{ACAD_REACTORS
330
47
102
}
330
47
100
AcDbScale
 70
     0
300
1:2
140
1.0
141
2.0
290
     0
  0
SCALE
  5
4A
102
{ACAD_REACTORS
330
47
102
}
330
47
100
AcDbScale
 70
     0
300
1:4
140
1.0
141
4.0
290
     0
  0
SCALE
  5
4B
102
{ACAD_REACTORS
330
47
102
}
330
47
100
AcDbScale
 70
     0
300
1:5
140
1.0
141
5.0
290
     0
  0
SCALE
  5
4C
102
{ACAD_REACTORS
330
47
102
}
330
47
100
AcDbScale
 70
     0
300
1:8
140
1.0
141
8.0
290
     0
  0
SCALE
  5
4D
102
{ACAD_REACTORS
330
47
102
}
330
47
100
AcDbScale
 70
     0
300
1:10
140
1.0
141
10.0
290
     0
  0
SCALE
  5
4E
102
{ACAD_REACTORS
330
47
102
}
330
47
100
AcDbScale
 70
     0
300
1:16
140
1.0
141
16.0
290
     0
  0
SCALE
  5
4F
102
{ACAD_REACTORS
330
47
102
}
330
47
100
AcDbScale
 70
     0
300
1:20
140
1.0
141
20.0
290
     0
  0
SCALE
  5
50
102
{ACAD_REACTORS
330
47
102
}
330
47
100
AcDbScale
 70
     0
300
1:30
140
1.0
141
30.0
290
     0
  0
SCALE
  5
51
102
{ACAD_REACTORS
330
47
102
}
330
47
100
AcDbScale
 70
     0
300
1:40
140
1.0
141
40.0
290
     0
  0
SCALE
  5
52
102
{ACAD_REACTORS
330
47
102
}
330
47
100
AcDbScale
 70
     0
300
1:50
140
1.0
141
50.0
290
     0
  0
SCALE
  5
53
102
{ACAD_REACTORS
330
47
102
}
330
47
100
AcDbScale
 70
     0
300
1:100
140
1.0
141
100.0
290
     0
  0
SCALE
  5
54
102
{ACAD_REACTORS
330
47
102
}
330
47
100
AcDbScale
 70
     0
300
2:1
140
2.0
141
1.0
290
     0
  0
SCALE
  5
55
102
{ACAD_REACTORS
330
47
102
}
330
47
100
AcDbScale
 70
     0
300
4:1
140
4.0
141
1.0
290
     0
  0
SCALE
  5
56
102
{ACAD_REACTORS
330
47
102
}
330
47
100
AcDbScale
 70
     0
300
8:1
140
8.0
141
1.0
290
     0
  0
SCALE
  5
57
102
{ACAD_REACTORS
330
47
102
}
330
47
100
AcDbScale
 70
     0
300
10:1
140
10.0
141
1.0
290
     0
  0
SCALE
  5
58
102
{ACAD_REACTORS
330
47
102
}
330
47
100
AcDbScale
 70
     0
300
100:1
140
100.0
141
1.0
290
     0
  0
SCALE
  5
59
102
{ACAD_REACTORS
330
47
102
}
330
47
100
AcDbScale
 70
     0
300
1/128" = 1'-0"
140
0.0078125
141
12.0
290
     0
  0
SCALE
  5
5A
102
{ACAD_REACTORS
330
47
102
}
330
47
100
AcDbScale
 70
     0
300
1/64" = 1'-0"
140
0.015625
141
12.0
290
     0
  0
SCALE
  5
5B
102
{ACAD_REACTORS
330
47
102
}
330
47
100
AcDbScale
 70
     0
300
1/32" = 1'-0"
140
0.03125
141
12.0
290
     0
  0
SCALE
  5
5C
102
{ACAD_REACTORS
330
47
102
}
330
47
100
AcDbScale
 70
     0
300
1/16" = 1'-0"
140
0.0625
141
12.0
290
     0
  0
SCALE
  5
5D
102
{ACAD_REACTORS
330
47
102
}
330
47
100
AcDbScale
 70
     0
300
3/32" = 1'-0"
140
0.09375
141
12.0
290
     0
  0
SCALE
  5
5E
102
{ACAD_REACTORS
330
47
102
}
330
47
100
AcDbScale
 70
     0
300
1/8" = 1'-0"
140
0.125
141
12.0
290
     0
  0
SCALE
  5
5F
102
{ACAD_REACTORS
330
47
102
}
330
47
100
AcDbScale
 70
     0
300
3/16" = 1'-0"
140
0.1875
141
12.0
290
     0
  0
SCALE
  5
60
102
{ACAD_REACTORS
330
47
102
}
330
47
100
AcDbScale
 70
     0
300
1/4" = 1'-0"
140
0.25
141
12.0
290
     0
  0
SCALE
  5
61
102
{ACAD_REACTORS
330
47
102
}
330
47
100
AcDbScale
 70
     0
300
3/8" = 1'-0"
140
0.375
141
12.0
290
     0
  0
SCALE
  5
62
102
{ACAD_REACTORS
330
47
102
}
330
47
100
AcDbScale
 70
     0
300
1/2" = 1'-0"
140
0.5
141
12.0
290
     0
  0
SCALE
  5
63
102
{ACAD_REACTORS
330
47
102
}
330
47
100
AcDbScale
 70
     0
300
3/4" = 1'-0"
140
0.75
141
12.0
290
     0
  0
SCALE
  5
64
102
{ACAD_REACTORS
330
47
102
}
330
47
100
AcDbScale
 70
     0
300
1" = 1'-0"
140
1.0
141
12.0
290
     0
  0
SCALE
  5
65
102
{ACAD_REACTORS
330
47
102
}
330
47
100
AcDbScale
 70
     0
300
1-1/2" = 1'-0"
140
1.5
141
12.0
290
     0
  0
SCALE
  5
66
102
{ACAD_REACTORS
330
47
102
}
330
47
100
AcDbScale
 70
     0
300
3" = 1'-0"
140
3.0
141
12.0
290
     0
  0
SCALE
  5
67
102
{ACAD_REACTORS
330
47
102
}
330
47
100
AcDbScale
 70
     0
300
6" = 1'-0"
140
6.0
141
12.0
290
     0
  0
SCALE
  5
68
102
{ACAD_REACTORS
330
47
102
}
330
47
100
AcDbScale
 70
     0
300
1'-0" = 1'-0"
140
12.0
141
12.0
290
     0
  0
TABLESTYLE
  5
6A
102
{ACAD_REACTORS
330
69
102
}
102
{ACAD_XDICTIONARY
360
353
102
}
330
69
100
AcDbTableStyle
  3
Standard
 70
     0
 71
     0
 40
0.06
 41
0.06
280
     0
281
     0
  7
Standard
140
4.5
170
     2
 62
     0
 63
   257
283
     0
 90
        4
 91
        0
  1

274
    -2
284
     1
 64
     0
275
    -2
285
     1
 65
     0
276
    -2
286
     1
 66
     0
277
    -2
287
     1
 67
     0
278
    -2
288
     1
 68
     0
279
    -2
289
     1
 69
     0
  7
Standard
140
6.0
170
     5
 62
     0
 63
   257
283
     0
 90
        4
 91
        0
  1

274
    -2
284
     1
 64
     0
275
    -2
285
     1
 65
     0
276
    -2
286
     1
 66
     0
277
    -2
287
     1
 67
     0
278
    -2
288
     1
 68
     0
279
    -2
289
     1
 69
     0
  7
Standard
140
4.5
170
     5
 62
     0
 63
   257
283
     0
 90
        4
 91
        0
  1

274
    -2
284
     1
 64
     0
275
    -2
285
     1
 65
     0
276
    -2
286
     1
 66
     0
277
    -2
287
     1
 67
     0
278
    -2
288
     1
 68
     0
279
    -2
289
     1
 69
     0
  0
VISUALSTYLE
  5
2F
102
{ACAD_REACTORS
330
2A
102
}
330
2A
100
AcDbVisualStyle
  2
2dWireframe
 70
     4
177
     3
291
     0
 70
    58
 90
        0
176
     1
 90
        2
176
     1
 90
        0
176
     1
 90
        0
176
     1
 40
0.6
176
     1
 40
30.0
176
     1
 62
     7
420
 16777215
176
     1
 90
        1
176
     1
 90
        4
176
     1
 62
     7
176
     1
 62
   257
176
     1
 90
        1
176
     1
 90
        1
176
     1
 40
1.0
176
     1
 90
        0
176
     1
 62
   257
176
     1
 40
1.0
176
     1
 90
        1
176
     1
 90
        6
176
     1
 90
        2
176
     1
 62
     7
176
     1
 90
        5
176
     1
 90
        0
176
     1
 90
        0
176
     1
290
     0
176
     1
 90
        1
176
     1
 40
0.0
176
     1
 90
        0
176
     1
290
     1
176
     1
290
     1
176
     1
290
     0
176
     1
290
     0
176
     1
290
     0
176
     1
290
     0
176
     1
290
     0
176
     1
290
     0
176
     1
290
     0
176
     1
 90
       50
176
     1
 40
0.0
176
     1
 40
1.0
176
     1
 90
        0
176
     1
 62
    18
420
        0
176
     1
 90
       50
176
     1
 90
        3
176
     1
 62
     5
420
      255
176
     1
290
     0
176
     1
 90
       50
176
     1
 90
       50
176
     1
 90
       50
176
     1
290
     0
176
     1
 90
       50
176
     1
 62
   256
176
     0
 40
1.0
176
     0
 90
        2
176
     1
  1
strokes_ogs.tif
176
     1
290
     0
176
     1
 40
1.0
176
     1
 40
1.0
176
     1
  0
VISUALSTYLE
  5
32
102
{ACAD_REACTORS
330
2A
102
}
330
2A
100
AcDbVisualStyle
  2
Basic
 70
     7
177
     3
291
     1
 70
    58
 90
        1
176
     1
 90
        0
176
     1
 90
        1
176
     1
 90
        0
176
     1
 40
0.6
176
     1
 40
30.0
176
     1
 62
     7
420
 16777215
176
     1
 90
        0
176
     1
 90
        4
176
     1
 62
     7
176
     1
 62
   257
176
     1
 90
        1
176
     1
 90
        1
176
     1
 40
1.0
176
     1
 90
        8
176
     1
 62
     7
176
     1
 40
1.0
176
     1
 90
        1
176
     1
 90
        6
176
     1
 90
        2
176
     1
 62
     7
176
     1
 90
        5
176
     1
 90
        0
176
     1
 90
        0
176
     1
290
     0
176
     1
 90
        1
176
     1
 40
0.0
176
     1
 90
        0
176
     1
290
     0
176
     1
290
     1
176
     1
290
     1
176
     1
290
     0
176
     1
290
     0
176
     1
290
     0
176
     1
290
     0
176
     1
290
     0
176
     1
290
     0
176
     1
 90
       50
176
     1
 40
0.0
176
     1
 40
1.0
176
     1
 90
        0
176
     1
 62
    18
420
        0
176
     1
 90
       50
176
     1
 90
        3
176
     1
 62
     5
420
      255
176
     1
290
     0
176
     1
 90
       50
176
     1
 90
       50
176
     1
 90
       50
176
     1
290
     0
176
     1
 90
       50
176
     1
 62
   256
176
     0
 40
1.0
176
     0
 90
        2
176
     1
  1
strokes_ogs.tif
176
     1
290
     0
176
     1
 40
1.0
176
     1
 40
1.0
176
     1
  0
VISUALSTYLE
  5
36
102
{ACAD_REACTORS
330
2A
102
}
330
2A
100
AcDbVisualStyle
  2
Brighten
 70
    12
177
     3
291
     1
 70
    58
 90
        2
176
     1
 90
        2
176
     1
 90
        0
176
     1
 90
        0
176
     1
 40
0.6
176
     1
 40
30.0
176
     1
 62
     7
420
 16777215
176
     1
 90
        1
176
     1
 90
        4
176
     1
 62
     7
176
     1
 62
   257
176
     1
 90
        1
176
     1
 90
        1
176
     1
 40
1.0
176
     1
 90
        8
176
     1
 62
     7
176
     1
 40
1.0
176
     1
 90
        1
176
     1
 90
        6
176
     1
 90
        2
176
     1
 62
     7
176
     1
 90
        5
176
     1
 90
        0
176
     1
 90
        0
176
     1
290
     0
176
     1
 90
        1
176
     1
 40
50.0
176
     1
 90
        0
176
     1
290
     0
176
     1
290
     1
176
     1
290
     1
176
     1
290
     0
176
     1
290
     0
176
     1
290
     0
176
     1
290
     0
176
     1
290
     0
176
     1
290
     0
176
     1
 90
       50
176
     1
 40
0.0
176
     1
 40
1.0
176
     1
 90
        0
176
     1
 62
    18
420
        0
176
     1
 90
       50
176
     1
 90
        3
176
     1
 62
     5
420
      255
176
     1
290
     0
176
     1
 90
       50
176
     1
 90
       50
176
     1
 90
       50
176
     1
290
     0
176
     1
 90
       50
176
     1
 62
   256
176
     0
 40
1.0
176
     0
 90
        2
176
     1
  1
strokes_ogs.tif
176
     1
290
     0
176
     1
 40
1.0
176
     1
 40
1.0
176
     1
  0
VISUALSTYLE
  5
3A
102
{ACAD_REACTORS
330
2A
102
}
330
2A
100
AcDbVisualStyle
  2
ColorChange
 70
    16
177
     3
291
     1
 70
    58
 90
        2
176
     1
 90
        2
176
     1
 90
        3
176
     1
 90
        0
176
     1
 40
0.6
176
     1
 40
30.0
176
     1
 62
     8
420
  8421504
176
     1
 90
        1
176
     1
 90
        4
176
     1
 62
     7
176
     1
 62
   257
176
     1
 90
        1
176
     1
 90
        1
176
     1
 40
1.0
176
     1
 90
        8
176
     1
 62
     8
420
  8421504
176
     1
 40
1.0
176
     1
 90
        1
176
     1
 90
        6
176
     1
 90
        2
176
     1
 62
     7
176
     1
 90
        5
176
     1
 90
        0
176
     1
 90
        0
176
     1
290
     0
176
     1
 90
        1
176
     1
 40
0.0
176
     1
 90
        0
176
     1
290
     0
176
     1
290
     1
176
     1
290
     1
176
     1
290
     0
176
     1
290
     0
176
     1
290
     0
176
     1
290
     0
176
     1
290
     0
176
     1
290
     0
176
     1
 90
       50
176
     1
 40
0.0
176
     1
 40
1.0
176
     1
 90
        0
176
     1
 62
    18
420
        0
176
     1
 90
       50
176
     1
 90
        3
176
     1
 62
     5
420
      255
176
     1
290
     0
176
     1
 90
       50
176
     1
 90
       50
176
     1
 90
       50
176
     1
290
     0
176
     1
 90
       50
176
     1
 62
   256
176
     0
 40
1.0
176
     0
 90
        2
176
     1
  1
strokes_ogs.tif
176
     1
290
     0
176
     1
 40
1.0
176
     1
 40
1.0
176
     1
  0
VISUALSTYLE
  5
34
102
{ACAD_REACTORS
330
2A
102
}
330
2A
100
AcDbVisualStyle
  2
Conceptual
 70
     9
177
     3
291
     0
 70
    58
 90
        3
176
     1
 90
        2
176
     1
 90
        0
176
     1
 90
        0
176
     1
 40
0.6
176
     1
 40
30.0
176
     1
 62
     7
420
 16777215
176
     1
 90
        2
176
     1
 90
        2
176
     1
 62
     7
176
     1
 62
   257
176
     1
 90
        1
176
     1
 90
        1
176
     1
 40
179.0
176
     1
 90
        8
176
     1
 62
     7
176
     1
 40
1.0
176
     1
 90
        1
176
     1
 90
        6
176
     1
 90
        2
176
     1
 62
     7
176
     1
 90
        3
176
     1
 90
        0
176
     1
 90
        0
176
     1
290
     0
176
     1
 90
        1
176
     1
 40
0.0
176
     1
 90
        0
176
     1
290
     0
176
     1
290
     1
176
     1
290
     1
176
     1
290
     0
176
     1
290
     0
176
     1
290
     0
176
     1
290
     0
176
     1
290
     0
176
     1
290
     0
176
     1
 90
       50
176
     1
 40
0.0
176
     1
 40
1.0
176
     1
 90
        0
176
     1
 62
    18
420
        0
176
     1
 90
       50
176
     1
 90
        3
176
     1
 62
     5
420
      255
176
     1
290
     0
176
     1
 90
       50
176
     1
 90
       50
176
     1
 90
       50
176
     1
290
     0
176
     1
 90
       50
176
     1
 62
   256
176
     0
 40
1.0
176
     0
 90
        2
176
     1
  1
strokes_ogs.tif
176
     1
290
     0
176
     1
 40
1.0
176
     1
 40
1.0
176
     1
  0
VISUALSTYLE
  5
35
102
{ACAD_REACTORS
330
2A
102
}
330
2A
100
AcDbVisualStyle
  2
Dim
 70
    11
177
     3
291
     1
 70
    58
 90
        2
176
     1
 90
        2
176
     1
 90
        0
176
     1
 90
        0
176
     1
 40
0.6
176
     1
 40
30.0
176
     1
 62
     7
420
 16777215
176
     1
 90
        1
176
     1
 90
        4
176
     1
 62
     7
176
     1
 62
   257
176
     1
 90
        1
176
     1
 90
        1
176
     1
 40
1.0
176
     1
 90
        8
176
     1
 62
     7
176
     1
 40
1.0
176
     1
 90
        1
176
     1
 90
        6
176
     1
 90
        2
176
     1
 62
     7
176
     1
 90
        5
176
     1
 90
        0
176
     1
 90
        0
176
     1
290
     0
176
     1
 90
        1
176
     1
 40
-50.0
176
     1
 90
        0
176
     1
290
     0
176
     1
290
     1
176
     1
290
     1
176
     1
290
     0
176
     1
290
     0
176
     1
290
     0
176
     1
290
     0
176
     1
290
     0
176
     1
290
     0
176
     1
 90
       50
176
     1
 40
0.0
176
     1
 40
1.0
176
     1
 90
        0
176
     1
 62
    18
420
        0
176
     1
 90
       50
176
     1
 90
        3
176
     1
 62
     5
420
      255
176
     1
290
     0
176
     1
 90
       50
176
     1
 90
       50
176
     1
 90
       50
176
     1
290
     0
176
     1
 90
       50
176
     1
 62
   256
176
     0
 40
1.0
176
     0
 90
        2
176
     1
  1
strokes_ogs.tif
176
     1
290
     0
176
     1
 40
1.0
176
     1
 40
1.0
176
     1
  0
VISUALSTYLE
  5
3D
102
{ACAD_REACTORS
330
2A
102
}
330
2A
100
AcDbVisualStyle
  2
EdgeColorOff
 70
    22
177
     3
291
     1
 70
    58
 90
        2
176
     0
 90
        2
176
     0
 90
        0
176
     0
 90
        0
176
     0
 40
0.6
176
     0
 40
30.0
176
     0
 62
     7
420
 16777215
176
     0
 90
        1
176
     0
 90
        4
176
     0
 62
     7
176
     0
 62
   257
176
     0
 90
        1
176
     0
 90
        1
176
     0
 40
1.0
176
     0
 90
        8
176
     2
 62
     7
176
     0
 40
1.0
176
     0
 90
        1
176
     0
 90
        6
176
     0
 90
        2
176
     0
 62
     7
176
     0
 90
        5
176
     0
 90
        0
176
     0
 90
        0
176
     0
290
     0
176
     0
 90
        1
176
     0
 40
0.0
176
     0
 90
        0
176
     0
290
     0
176
     0
290
     1
176
     0
290
     1
176
     0
290
     0
176
     0
290
     0
176
     0
290
     0
176
     0
290
     0
176
     0
290
     0
176
     0
290
     0
176
     0
 90
       50
176
     0
 40
0.0
176
     0
 40
1.0
176
     0
 90
        0
176
     0
 62
    18
420
        0
176
     0
 90
       50
176
     0
 90
        3
176
     0
 62
     5
420
      255
176
     0
290
     0
176
     0
 90
       50
176
     0
 90
       50
176
     0
 90
       50
176
     0
290
     0
176
     0
 90
       50
176
     0
 62
   256
176
     0
 40
1.0
176
     0
 90
        2
176
     0
  1
strokes_ogs.tif
176
     0
290
     0
176
     0
 40
1.0
176
     0
 40
1.0
176
     0
  0
VISUALSTYLE
  5
39
102
{ACAD_REACTORS
330
2A
102
}
330
2A
100
AcDbVisualStyle
  2
Facepattern
 70
    15
177
     3
291
     1
 70
    58
 90
        2
176
     1
 90
        2
176
     1
 90
        0
176
     1
 90
        0
176
     1
 40
0.6
176
     1
 40
30.0
176
     1
 62
     7
420
 16777215
176
     1
 90
        1
176
     1
 90
        4
176
     1
 62
     7
176
     1
 62
   257
176
     1
 90
        1
176
     1
 90
        1
176
     1
 40
1.0
176
     1
 90
        8
176
     1
 62
     7
176
     1
 40
1.0
176
     1
 90
        1
176
     1
 90
        6
176
     1
 90
        2
176
     1
 62
     7
176
     1
 90
        5
176
     1
 90
        0
176
     1
 90
        0
176
     1
290
     0
176
     1
 90
        1
176
     1
 40
0.0
176
     1
 90
        0
176
     1
290
     0
176
     1
290
     1
176
     1
290
     1
176
     1
290
     0
176
     1
290
     0
176
     1
290
     0
176
     1
290
     0
176
     1
290
     0
176
     1
290
     0
176
     1
 90
       50
176
     1
 40
0.0
176
     1
 40
1.0
176
     1
 90
        0
176
     1
 62
    18
420
        0
176
     1
 90
       50
176
     1
 90
        3
176
     1
 62
     5
420
      255
176
     1
290
     0
176
     1
 90
       50
176
     1
 90
       50
176
     1
 90
       50
176
     1
290
     0
176
     1
 90
       50
176
     1
 62
   256
176
     0
 40
1.0
176
     0
 90
        2
176
     1
  1
strokes_ogs.tif
176
     1
290
     0
176
     1
 40
1.0
176
     1
 40
1.0
176
     1
  0
VISUALSTYLE
  5
2B
102
{ACAD_REACTORS
330
2A
102
}
330
2A
100
AcDbVisualStyle
  2
Flat
 70
     0
177
     3
291
     1
 70
    58
 90
        2
176
     1
 90
        1
176
     1
 90
        1
176
     1
 90
        2
176
     1
 40
0.6
176
     1
 40
30.0
176
     1
 62
     7
420
 16777215
176
     1
 90
        0
176
     1
 90
        0
176
     1
 62
     7
176
     1
 62
   257
176
     1
 90
        1
176
     1
 90
        1
176
     1
 40
1.0
176
     1
 90
        8
176
     1
 62
     7
176
     1
 40
1.0
176
     1
 90
        1
176
     1
 90
        6
176
     1
 90
        2
176
     1
 62
     7
176
     1
 90
        5
176
     1
 90
        0
176
     1
 90
        0
176
     1
290
     0
176
     1
 90
       13
176
     1
 40
0.0
176
     1
 90
        0
176
     1
290
     0
176
     1
290
     1
176
     1
290
     1
176
     1
290
     0
176
     1
290
     0
176
     1
290
     0
176
     1
290
     0
176
     1
290
     0
176
     1
290
     0
176
     1
 90
       50
176
     1
 40
0.0
176
     1
 40
1.0
176
     1
 90
        0
176
     1
 62
    18
420
        0
176
     1
 90
       50
176
     1
 90
        3
176
     1
 62
     5
420
      255
176
     1
290
     0
176
     1
 90
       50
176
     1
 90
       50
176
     1
 90
       50
176
     1
290
     0
176
     1
 90
       50
176
     1
 62
   256
176
     0
 40
1.0
176
     0
 90
        2
176
     1
  1
strokes_ogs.tif
176
     1
290
     0
176
     1
 40
1.0
176
     1
 40
1.0
176
     1
  0
VISUALSTYLE
  5
2C
102
{ACAD_REACTORS
330
2A
102
}
330
2A
100
AcDbVisualStyle
  2
FlatWithEdges
 70
     1
177
     3
291
     1
 70
    58
 90
        2
176
     1
 90
        1
176
     1
 90
        1
176
     1
 90
        2
176
     1
 40
0.6
176
     1
 40
30.0
176
     1
 62
     7
420
 16777215
176
     1
 90
        1
176
     1
 90
        0
176
     1
 62
     7
176
     1
 62
   257
176
     1
 90
        1
176
     1
 90
        1
176
     1
 40
1.0
176
     1
 90
        0
176
     1
 62
   257
176
     1
 40
1.0
176
     1
 90
        1
176
     1
 90
        6
176
     1
 90
        2
176
     1
 62
     7
176
     1
 90
        5
176
     1
 90
        0
176
     1
 90
        0
176
     1
290
     0
176
     1
 90
       13
176
     1
 40
0.0
176
     1
 90
        0
176
     1
290
     0
176
     1
290
     1
176
     1
290
     1
176
     1
290
     0
176
     1
290
     0
176
     1
290
     0
176
     1
290
     0
176
     1
290
     0
176
     1
290
     0
176
     1
 90
       50
176
     1
 40
0.0
176
     1
 40
1.0
176
     1
 90
        0
176
     1
 62
    18
420
        0
176
     1
 90
       50
176
     1
 90
        3
176
     1
 62
     5
420
      255
176
     1
290
     0
176
     1
 90
       50
176
     1
 90
       50
176
     1
 90
       50
176
     1
290
     0
176
     1
 90
       50
176
     1
 62
   256
176
     0
 40
1.0
176
     0
 90
        2
176
     1
  1
strokes_ogs.tif
176
     1
290
     0
176
     1
 40
1.0
176
     1
 40
1.0
176
     1
  0
VISUALSTYLE
  5
2D
102
{ACAD_REACTORS
330
2A
102
}
330
2A
100
AcDbVisualStyle
  2
Gouraud
 70
     2
177
     3
291
     1
 70
    58
 90
        2
176
     1
 90
        2
176
     1
 90
        1
176
     1
 90
        2
176
     1
 40
0.6
176
     1
 40
30.0
176
     1
 62
     7
420
 16777215
176
     1
 90
        0
176
     1
 90
        0
176
     1
 62
     7
176
     1
 62
   257
176
     1
 90
        1
176
     1
 90
        1
176
     1
 40
1.0
176
     1
 90
        0
176
     1
 62
     7
176
     1
 40
1.0
176
     1
 90
        1
176
     1
 90
        6
176
     1
 90
        2
176
     1
 62
     7
176
     1
 90
        5
176
     1
 90
        0
176
     1
 90
        0
176
     1
290
     0
176
     1
 90
       13
176
     1
 40
0.0
176
     1
 90
        0
176
     1
290
     0
176
     1
290
     1
176
     1
290
     1
176
     1
290
     0
176
     1
290
     0
176
     1
290
     0
176
     1
290
     0
176
     1
290
     0
176
     1
290
     0
176
     1
 90
       50
176
     1
 40
0.0
176
     1
 40
1.0
176
     1
 90
        0
176
     1
 62
    18
420
        0
176
     1
 90
       50
176
     1
 90
        3
176
     1
 62
     5
420
      255
176
     1
290
     0
176
     1
 90
       50
176
     1
 90
       50
176
     1
 90
       50
176
     1
290
     0
176
     1
 90
       50
176
     1
 62
   256
176
     0
 40
1.0
176
     0
 90
        2
176
     1
  1
strokes_ogs.tif
176
     1
290
     0
176
     1
 40
1.0
176
     1
 40
1.0
176
     1
  0
VISUALSTYLE
  5
2E
102
{ACAD_REACTORS
330
2A
102
}
330
2A
100
AcDbVisualStyle
  2
GouraudWithEdges
 70
     3
177
     3
291
     1
 70
    58
 90
        2
176
     1
 90
        2
176
     1
 90
        1
176
     1
 90
        2
176
     1
 40
0.6
176
     1
 40
30.0
176
     1
 62
     7
420
 16777215
176
     1
 90
        1
176
     1
 90
        0
176
     1
 62
     7
176
     1
 62
   257
176
     1
 90
        1
176
     1
 90
        1
176
     1
 40
1.0
176
     1
 90
        0
176
     1
 62
   257
176
     1
 40
1.0
176
     1
 90
        1
176
     1
 90
        6
176
     1
 90
        2
176
     1
 62
     7
176
     1
 90
        5
176
     1
 90
        0
176
     1
 90
        0
176
     1
290
     0
176
     1
 90
       13
176
     1
 40
0.0
176
     1
 90
        0
176
     1
290
     0
176
     1
290
     1
176
     1
290
     1
176
     1
290
     0
176
     1
290
     0
176
     1
290
     0
176
     1
290
     0
176
     1
290
     0
176
     1
290
     0
176
     1
 90
       50
176
     1
 40
0.0
176
     1
 40
1.0
176
     1
 90
        0
176
     1
 62
    18
420
        0
176
     1
 90
       50
176
     1
 90
        3
176
     1
 62
     5
420
      255
176
     1
290
     0
176
     1
 90
       50
176
     1
 90
       50
176
     1
 90
       50
176
     1
290
     0
176
     1
 90
       50
176
     1
 62
   256
176
     0
 40
1.0
176
     0
 90
        2
176
     1
  1
strokes_ogs.tif
176
     1
290
     0
176
     1
 40
1.0
176
     1
 40
1.0
176
     1
  0
VISUALSTYLE
  5
31
102
{ACAD_REACTORS
330
2A
102
}
330
2A
100
AcDbVisualStyle
  2
Hidden
 70
     6
177
     3
291
     0
 70
    58
 90
        1
176
     1
 90
        2
176
     1
 90
        2
176
     1
 90
        0
176
     1
 40
0.6
176
     1
 40
30.0
176
     1
 62
     7
420
 16777215
176
     1
 90
        2
176
     1
 90
        2
176
     1
 62
     7
176
     1
 62
   257
176
     1
 90
        2
176
     1
 90
        1
176
     1
 40
40.0
176
     1
 90
        0
176
     1
 62
   257
176
     1
 40
1.0
176
     1
 90
        1
176
     1
 90
        6
176
     1
 90
        2
176
     1
 62
     7
176
     1
 90
        3
176
     1
 90
        0
176
     1
 90
        0
176
     1
290
     0
176
     1
 90
        1
176
     1
 40
0.0
176
     1
 90
        0
176
     1
290
     0
176
     1
290
     1
176
     1
290
     1
176
     1
290
     0
176
     1
290
     0
176
     1
290
     0
176
     1
290
     0
176
     1
290
     0
176
     1
290
     0
176
     1
 90
       50
176
     1
 40
0.0
176
     1
 40
1.0
176
     1
 90
        0
176
     1
 62
    18
420
        0
176
     1
 90
       50
176
     1
 90
        3
176
     1
 62
     5
420
      255
176
     1
290
     0
176
     1
 90
       50
176
     1
 90
       50
176
     1
 90
       50
176
     1
290
     0
176
     1
 90
       50
176
     1
 62
   256
176
     0
 40
1.0
176
     0
 90
        2
176
     1
  1
strokes_ogs.tif
176
     1
290
     0
176
     1
 40
1.0
176
     1
 40
1.0
176
     1
  0
VISUALSTYLE
  5
3B
102
{ACAD_REACTORS
330
2A
102
}
330
2A
100
AcDbVisualStyle
  2
JitterOff
 70
    20
177
     3
291
     1
 70
    58
 90
        2
176
     0
 90
        2
176
     0
 90
        0
176
     0
 90
        0
176
     0
 40
0.6
176
     0
 40
30.0
176
     0
 62
     7
420
 16777215
176
     0
 90
        1
176
     0
 90
        4
176
     0
 62
     7
176
     0
 62
   257
176
     0
 90
        1
176
     0
 90
        1
176
     0
 40
1.0
176
     0
 90
       10
176
     2
 62
     7
176
     0
 40
1.0
176
     0
 90
        1
176
     0
 90
        6
176
     0
 90
        2
176
     0
 62
     7
176
     0
 90
        5
176
     0
 90
        0
176
     0
 90
        0
176
     0
290
     0
176
     0
 90
        1
176
     0
 40
0.0
176
     0
 90
        0
176
     0
290
     0
176
     0
290
     1
176
     0
290
     1
176
     0
290
     0
176
     0
290
     0
176
     0
290
     0
176
     0
290
     0
176
     0
290
     0
176
     0
290
     0
176
     0
 90
       50
176
     0
 40
0.0
176
     0
 40
1.0
176
     0
 90
        0
176
     0
 62
    18
420
        0
176
     0
 90
       50
176
     0
 90
        3
176
     0
 62
     5
420
      255
176
     0
290
     0
176
     0
 90
       50
176
     0
 90
       50
176
     0
 90
       50
176
     0
290
     0
176
     0
 90
       50
176
     0
 62
   256
176
     0
 40
1.0
176
     0
 90
        2
176
     0
  1
strokes_ogs.tif
176
     0
290
     0
176
     0
 40
1.0
176
     0
 40
1.0
176
     0
  0
VISUALSTYLE
  5
38
102
{ACAD_REACTORS
330
2A
102
}
330
2A
100
AcDbVisualStyle
  2
Linepattern
 70
    14
177
     3
291
     1
 70
    58
 90
        2
176
     1
 90
        2
176
     1
 90
        0
176
     1
 90
        0
176
     1
 40
0.6
176
     1
 40
30.0
176
     1
 62
     7
420
 16777215
176
     1
 90
        1
176
     1
 90
        4
176
     1
 62
     7
176
     1
 62
   257
176
     1
 90
        7
176
     1
 90
        7
176
     1
 40
1.0
176
     1
 90
        8
176
     1
 62
     7
176
     1
 40
1.0
176
     1
 90
        1
176
     1
 90
        6
176
     1
 90
        2
176
     1
 62
     7
176
     1
 90
        5
176
     1
 90
        0
176
     1
 90
        0
176
     1
290
     0
176
     1
 90
        1
176
     1
 40
0.0
176
     1
 90
        0
176
     1
290
     0
176
     1
290
     1
176
     1
290
     1
176
     1
290
     0
176
     1
290
     0
176
     1
290
     0
176
     1
290
     0
176
     1
290
     0
176
     1
290
     0
176
     1
 90
       50
176
     1
 40
0.0
176
     1
 40
1.0
176
     1
 90
        0
176
     1
 62
    18
420
        0
176
     1
 90
       50
176
     1
 90
        3
176
     1
 62
     5
420
      255
176
     1
290
     0
176
     1
 90
       50
176
     1
 90
       50
176
     1
 90
       50
176
     1
290
     0
176
     1
 90
       50
176
     1
 62
   256
176
     0
 40
1.0
176
     0
 90
        2
176
     1
  1
strokes_ogs.tif
176
     1
290
     0
176
     1
 40
1.0
176
     1
 40
1.0
176
     1
  0
VISUALSTYLE
  5
3C
102
{ACAD_REACTORS
330
2A
102
}
330
2A
100
AcDbVisualStyle
  2
OverhangOff
 70
    21
177
     3
291
     1
 70
    58
 90
        2
176
     0
 90
        2
176
     0
 90
        0
176
     0
 90
        0
176
     0
 40
0.6
176
     0
 40
30.0
176
     0
 62
     7
420
 16777215
176
     0
 90
        1
176
     0
 90
        4
176
     0
 62
     7
176
     0
 62
   257
176
     0
 90
        1
176
     0
 90
        1
176
     0
 40
1.0
176
     0
 90
        9
176
     2
 62
     7
176
     0
 40
1.0
176
     0
 90
        1
176
     0
 90
        6
176
     0
 90
        2
176
     0
 62
     7
176
     0
 90
        5
176
     0
 90
        0
176
     0
 90
        0
176
     0
290
     0
176
     0
 90
        1
176
     0
 40
0.0
176
     0
 90
        0
176
     0
290
     0
176
     0
290
     1
176
     0
290
     1
176
     0
290
     0
176
     0
290
     0
176
     0
290
     0
176
     0
290
     0
176
     0
290
     0
176
     0
290
     0
176
     0
 90
       50
176
     0
 40
0.0
176
     0
 40
1.0
176
     0
 90
        0
176
     0
 62
    18
420
        0
176
     0
 90
       50
176
     0
 90
        3
176
     0
 62
     5
420
      255
176
     0
290
     0
176
     0
 90
       50
176
     0
 90
       50
176
     0
 90
       50
176
     0
290
     0
176
     0
 90
       50
176
     0
 62
   256
176
     0
 40
1.0
176
     0
 90
        2
176
     0
  1
strokes_ogs.tif
176
     0
290
     0
176
     0
 40
1.0
176
     0
 40
1.0
176
     0
  0
VISUALSTYLE
  5
33
102
{ACAD_REACTORS
330
2A
102
}
330
2A
100
AcDbVisualStyle
  2
Realistic
 70
     8
177
     3
291
     0
 70
    58
 90
        2
176
     1
 90
        3
176
     1
 90
        0
176
     1
 90
        2
176
     1
 40
0.6
176
     1
 40
30.0
176
     1
 62
     7
420
 16777215
176
     1
 90
        0
176
     1
 90
        0
176
     1
 62
     7
176
     1
 62
   257
176
     1
 90
        1
176
     1
 90
        1
176
     1
 40
1.0
176
     1
 90
        8
176
     1
 62
   257
176
     1
 40
1.0
176
     1
 90
        1
176
     1
 90
        6
176
     1
 90
        2
176
     1
 62
     7
176
     1
 90
        3
176
     1
 90
        0
176
     1
 90
        0
176
     1
290
     0
176
     1
 90
       13
176
     1
 40
0.0
176
     1
 90
        0
176
     1
290
     0
176
     1
290
     1
176
     1
290
     1
176
     1
290
     0
176
     1
290
     0
176
     1
290
     0
176
     1
290
     0
176
     1
290
     0
176
     1
290
     0
176
     1
 90
       50
176
     1
 40
0.0
176
     1
 40
1.0
176
     1
 90
        0
176
     1
 62
    18
420
        0
176
     1
 90
       50
176
     1
 90
        3
176
     1
 62
     5
420
      255
176
     1
290
     0
176
     1
 90
       50
176
     1
 90
       50
176
     1
 90
       50
176
     1
290
     0
176
     1
 90
       50
176
     1
 62
   256
176
     0
 40
1.0
176
     0
 90
        2
176
     1
  1
strokes_ogs.tif
176
     1
290
     0
176
     1
 40
1.0
176
     1
 40
1.0
176
     1
  0
VISUALSTYLE
  5
42
102
{ACAD_REACTORS
330
2A
102
}
330
2A
100
AcDbVisualStyle
  2
Shaded
 70
    27
177
     3
291
     0
 70
    58
 90
        2
176
     1
 90
        2
176
     1
 90
        1
176
     1
 90
        2
176
     1
 40
0.6
176
     1
 40
30.0
176
     1
 62
     7
420
 16777215
176
     1
 90
        0
176
     1
 90
        4
176
     1
 62
     7
176
     1
 62
   257
176
     1
 90
        1
176
     1
 90
        1
176
     1
 40
1.0
176
     1
 90
        8
176
     1
 62
   257
176
     1
 40
1.0
176
     1
 90
        1
176
     1
 90
        6
176
     1
 90
        2
176
     1
 62
     8
420
  7895160
176
     1
 90
        3
176
     1
 90
        0
176
     1
 90
        0
176
     1
290
     0
176
     1
 90
        5
176
     1
 40
0.0
176
     1
 90
        0
176
     1
290
     0
176
     1
290
     1
176
     1
290
     1
176
     1
290
     0
176
     1
290
     0
176
     1
290
     0
176
     1
290
     0
176
     1
290
     0
176
     1
290
     0
176
     1
 90
       50
176
     1
 40
0.0
176
     1
 40
1.0
176
     1
 90
        0
176
     1
 62
    18
420
        0
176
     1
 90
       50
176
     1
 90
        3
176
     1
 62
     5
420
      255
176
     1
290
     0
176
     1
 90
       50
176
     1
 90
       50
176
     1
 90
       50
176
     1
290
     0
176
     1
 90
       50
176
     1
 62
   256
176
     0
 40
1.0
176
     0
 90
        2
176
     1
  1
strokes_ogs.tif
176
     1
290
     0
176
     1
 40
1.0
176
     1
 40
1.0
176
     1
  0
VISUALSTYLE
  5
41
102
{ACAD_REACTORS
330
2A
102
}
330
2A
100
AcDbVisualStyle
  2
Shaded with edges
 70
    26
177
     3
291
     0
 70
    58
 90
        2
176
     1
 90
        2
176
     1
 90
        1
176
     1
 90
        2
176
     1
 40
0.6
176
     1
 40
30.0
176
     1
 62
     7
420
 16777215
176
     1
 90
        1
176
     1
 90
       10
176
     1
 62
     7
176
     1
 62
   257
176
     1
 90
        2
176
     1
 90
        1
176
     1
 40
1.0
176
     1
 90
        8
176
     1
 62
   257
176
     1
 40
1.0
176
     1
 90
        1
176
     1
 90
        6
176
     1
 90
        2
176
     1
 62
     7
176
     1
 90
        3
176
     1
 90
        0
176
     1
 90
        0
176
     1
290
     0
176
     1
 90
        5
176
     1
 40
0.0
176
     1
 90
        0
176
     1
290
     0
176
     1
290
     1
176
     1
290
     1
176
     1
290
     0
176
     1
290
     0
176
     1
290
     0
176
     1
290
     0
176
     1
290
     0
176
     1
290
     0
176
     1
 90
       50
176
     1
 40
0.0
176
     1
 40
1.0
176
     1
 90
        0
176
     1
 62
    18
420
        0
176
     1
 90
       50
176
     1
 90
        3
176
     1
 62
     5
420
      255
176
     1
290
     0
176
     1
 90
       50
176
     1
 90
       50
176
     1
 90
       50
176
     1
290
     0
176
     1
 90
       50
176
     1
 62
   256
176
     0
 40
1.0
176
     0
 90
        2
176
     1
  1
strokes_ogs.tif
176
     1
290
     0
176
     1
 40
1.0
176
     1
 40
1.0
176
     1
  0
VISUALSTYLE
  5
3E
102
{ACAD_REACTORS
330
2A
102
}
330
2A
100
AcDbVisualStyle
  2
Shades of Gray
 70
    23
177
     3
291
     0
 70
    58
 90
        2
176
     1
 90
        2
176
     1
 90
        3
176
     1
 90
        0
176
     1
 40
0.6
176
     1
 40
30.0
176
     1
 62
     7
420
 16777215
176
     1
 90
        2
176
     1
 90
        2
176
     1
 62
     7
176
     1
 62
     7
176
     1
 90
        1
176
     1
 90
        1
176
     1
 40
40.0
176
     1
 90
        8
176
     1
 62
     7
176
     1
 40
1.0
176
     1
 90
        1
176
     1
 90
        6
176
     1
 90
        2
176
     1
 62
     7
176
     1
 90
        3
176
     1
 90
        0
176
     1
 90
        0
176
     1
290
     0
176
     1
 90
        1
176
     1
 40
0.0
176
     1
 90
        0
176
     1
290
     0
176
     1
290
     1
176
     1
290
     1
176
     1
290
     0
176
     1
290
     0
176
     1
290
     0
176
     1
290
     0
176
     1
290
     0
176
     1
290
     0
176
     1
 90
       50
176
     1
 40
0.0
176
     1
 40
1.0
176
     1
 90
        0
176
     1
 62
    18
420
        0
176
     1
 90
       50
176
     1
 90
        3
176
     1
 62
     5
420
      255
176
     1
290
     0
176
     1
 90
       50
176
     1
 90
       50
176
     1
 90
       50
176
     1
290
     0
176
     1
 90
       50
176
     1
 62
   256
176
     0
 40
1.0
176
     0
 90
        2
176
     1
  1
strokes_ogs.tif
176
     1
290
     0
176
     1
 40
1.0
176
     1
 40
1.0
176
     1
  0
VISUALSTYLE
  5
3F
102
{ACAD_REACTORS
330
2A
102
}
330
2A
100
AcDbVisualStyle
  2
Sketchy
 70
    24
177
     3
291
     0
 70
    58
 90
        1
176
     1
 90
        2
176
     1
 90
        2
176
     1
 90
        0
176
     1
 40
0.6
176
     1
 40
30.0
176
     1
 62
     7
420
 16777215
176
     1
 90
        2
176
     1
 90
        2
176
     1
 62
     7
176
     1
 62
     7
176
     1
 90
        1
176
     1
 90
        1
176
     1
 40
40.0
176
     1
 90
       11
176
     1
 62
     7
176
     1
 40
1.0
176
     1
 90
        1
176
     1
 90
        6
176
     1
 90
        2
176
     1
 62
     7
176
     1
 90
        6
176
     1
 90
        0
176
     1
 90
        0
176
     1
290
     0
176
     1
 90
        1
176
     1
 40
0.0
176
     1
 90
        0
176
     1
290
     0
176
     1
290
     1
176
     1
290
     1
176
     1
290
     0
176
     1
290
     0
176
     1
290
     0
176
     1
290
     0
176
     1
290
     0
176
     1
290
     0
176
     1
 90
       50
176
     1
 40
0.0
176
     1
 40
1.0
176
     1
 90
        0
176
     1
 62
    18
420
        0
176
     1
 90
       50
176
     1
 90
        3
176
     1
 62
     5
420
      255
176
     1
290
     0
176
     1
 90
       50
176
     1
 90
       50
176
     1
 90
       50
176
     1
290
     0
176
     1
 90
       50
176
     1
 62
   256
176
     0
 40
1.0
176
     0
 90
        2
176
     1
  1
strokes_ogs.tif
176
     1
290
     0
176
     1
 40
1.0
176
     1
 40
1.0
176
     1
  0
VISUALSTYLE
  5
37
102
{ACAD_REACTORS
330
2A
102
}
330
2A
100
AcDbVisualStyle
  2
Thicken
 70
    13
177
     3
291
     1
 70
    58
 90
        2
176
     1
 90
        2
176
     1
 90
        0
176
     1
 90
        0
176
     1
 40
0.6
176
     1
 40
30.0
176
     1
 62
     7
420
 16777215
176
     1
 90
        1
176
     1
 90
        4
176
     1
 62
     7
176
     1
 62
   257
176
     1
 90
        1
176
     1
 90
        1
176
     1
 40
1.0
176
     1
 90
       12
176
     1
 62
     7
176
     1
 40
1.0
176
     1
 90
        1
176
     1
 90
        6
176
     1
 90
        2
176
     1
 62
     7
176
     1
 90
        5
176
     1
 90
        0
176
     1
 90
        0
176
     1
290
     0
176
     1
 90
        1
176
     1
 40
0.0
176
     1
 90
        0
176
     1
290
     0
176
     1
290
     1
176
     1
290
     1
176
     1
290
     0
176
     1
290
     0
176
     1
290
     0
176
     1
290
     0
176
     1
290
     0
176
     1
290
     0
176
     1
 90
       50
176
     1
 40
0.0
176
     1
 40
1.0
176
     1
 90
        0
176
     1
 62
    18
420
        0
176
     1
 90
       50
176
     1
 90
        3
176
     1
 62
     5
420
      255
176
     1
290
     0
176
     1
 90
       50
176
     1
 90
       50
176
     1
 90
       50
176
     1
290
     0
176
     1
 90
       50
176
     1
 62
   256
176
     0
 40
1.0
176
     0
 90
        2
176
     1
  1
strokes_ogs.tif
176
     1
290
     0
176
     1
 40
1.0
176
     1
 40
1.0
176
     1
  0
VISUALSTYLE
  5
30
102
{ACAD_REACTORS
330
2A
102
}
330
2A
100
AcDbVisualStyle
  2
Wireframe
 70
     5
177
     3
291
     0
 70
    58
 90
        0
176
     1
 90
        2
176
     1
 90
        0
176
     1
 90
        0
176
     1
 40
0.6
176
     1
 40
30.0
176
     1
 62
     7
420
 16777215
176
     1
 90
        1
176
     1
 90
        4
176
     1
 62
     7
176
     1
 62
   257
176
     1
 90
        1
176
     1
 90
        1
176
     1
 40
1.0
176
     1
 90
        0
176
     1
 62
   257
176
     1
 40
1.0
176
     1
 90
        1
176
     1
 90
        6
176
     1
 90
        2
176
     1
 62
     7
176
     1
 90
        3
176
     1
 90
        0
176
     1
 90
        0
176
     1
290
     0
176
     1
 90
        1
176
     1
 40
0.0
176
     1
 90
        0
176
     1
290
     0
176
     1
290
     1
176
     1
290
     1
176
     1
290
     0
176
     1
290
     0
176
     1
290
     0
176
     1
290
     0
176
     1
290
     0
176
     1
290
     0
176
     1
 90
       50
176
     1
 40
0.0
176
     1
 40
1.0
176
     1
 90
        0
176
     1
 62
    18
420
        0
176
     1
 90
       50
176
     1
 90
        3
176
     1
 62
     5
420
      255
176
     1
290
     0
176
     1
 90
       50
176
     1
 90
       50
176
     1
 90
       50
176
     1
290
     0
176
     1
 90
       50
176
     1
 62
   256
176
     0
 40
1.0
176
     0
 90
        2
176
     1
  1
strokes_ogs.tif
176
     1
290
     0
176
     1
 40
1.0
176
     1
 40
1.0
176
     1
  0
VISUALSTYLE
  5
40
102
{ACAD_REACTORS
330
2A
102
}
330
2A
100
AcDbVisualStyle
  2
X-Ray
 70
    25
177
     3
291
     0
 70
    58
 90
        2
176
     1
 90
        2
176
     1
 90
        1
176
     1
 90
        1
176
     1
 40
0.5
176
     1
 40
30.0
176
     1
 62
     7
420
 16777215
176
     1
 90
        1
176
     1
 90
        0
176
     1
 62
     7
176
     1
 62
   257
176
     1
 90
        1
176
     1
 90
        1
176
     1
 40
1.0
176
     1
 90
        8
176
     1
 62
     7
176
     1
 40
1.0
176
     1
 90
        1
176
     1
 90
        6
176
     1
 90
        2
176
     1
 62
     7
176
     1
 90
        3
176
     1
 90
        0
176
     1
 90
        0
176
     1
290
     0
176
     1
 90
       13
176
     1
 40
0.0
176
     1
 90
        0
176
     1
290
     0
176
     1
290
     1
176
     1
290
     1
176
     1
290
     0
176
     1
290
     0
176
     1
290
     0
176
     1
290
     0
176
     1
290
     0
176
     1
290
     0
176
     1
 90
       50
176
     1
 40
0.0
176
     1
 40
1.0
176
     1
 90
        0
176
     1
 62
    18
420
        0
176
     1
 90
       50
176
     1
 90
        3
176
     1
 62
     5
420
      255
176
     1
290
     0
176
     1
 90
       50
176
     1
 90
       50
176
     1
 90
       50
176
     1
290
     0
176
     1
 90
       50
176
     1
 62
   256
176
     0
 40
1.0
176
     0
 90
        2
176
     1
  1
strokes_ogs.tif
176
     1
290
     0
176
     1
 40
1.0
176
     1
 40
1.0
176
     1
  0
DICTIONARYVAR
  5
352
102
{ACAD_REACTORS
330
351
102
}
330
351
100
DictionaryVariables
280
     0
  1
1:1
  0
DICTIONARYVAR
  5
35A
102
{ACAD_REACTORS
330
351
102
}
330
351
100
DictionaryVariables
280
     0
  1
3.500000
  0
DICTIONARYVAR
  5
35B
102
{ACAD_REACTORS
330
351
102
}
330
351
100
DictionaryVariables
280
     0
  1
acadiso.lin
  0
DICTIONARYVAR
  5
357
102
{ACAD_REACTORS
330
351
102
}
330
351
100
DictionaryVariables
280
     0
  1
Standard
  0
DICTIONARYVAR
  5
356
102
{ACAD_REACTORS
330
351
102
}
330
351
100
DictionaryVariables
280
     0
  1
Standard
  0
DICTIONARY
  5
353
330
6A
100
AcDbDictionary
280
     1
281
     1
  3
ACAD_ROUNDTRIP_2008_TABLESTYLE_CELLSTYLEMAP
360
354
  0
CELLSTYLEMAP
  5
354
102
{ACAD_REACTORS
330
353
102
}
330
353
100
AcDbCellStyleMap
 90
        3
300
CELLSTYLE
  1
TABLEFORMAT_BEGIN
 90
        5
170
     1
 91
        0
 92
    32768
 62
   257
 93
        1
300
CONTENTFORMAT
  1
CONTENTFORMAT_BEGIN
 90
        0
 91
        0
 92
        4
 93
        0
300

 40
0.0
140
1.0
 94
        5
 62
     0
340
11
144
6.0
309
CONTENTFORMAT_END
171
     1
301
MARGIN
  1
CELLMARGIN_BEGIN
 40
1.5
 40
1.5
 40
1.5
 40
1.5
 40
1.5
 40
1.5
309
CELLMARGIN_END
 94
        6
 95
        1
302
GRIDFORMAT
  1
GRIDFORMAT_BEGIN
 90
        0
 91
        1
 62
     0
 92
       -2
340
14
 93
        0
 40
0.045
309
GRIDFORMAT_END
 95
        2
302
GRIDFORMAT
  1
GRIDFORMAT_BEGIN
 90
        0
 91
        1
 62
     0
 92
       -2
340
14
 93
        0
 40
0.045
309
GRIDFORMAT_END
 95
        4
302
GRIDFORMAT
  1
GRIDFORMAT_BEGIN
 90
        0
 91
        1
 62
     0
 92
       -2
340
14
 93
        0
 40
0.045
309
GRIDFORMAT_END
 95
        8
302
GRIDFORMAT
  1
GRIDFORMAT_BEGIN
 90
        0
 91
        1
 62
     0
 92
       -2
340
14
 93
        0
 40
0.045
309
GRIDFORMAT_END
 95
       16
302
GRIDFORMAT
  1
GRIDFORMAT_BEGIN
 90
        0
 91
        1
 62
     0
 92
       -2
340
14
 93
        0
 40
0.045
309
GRIDFORMAT_END
 95
       32
302
GRIDFORMAT
  1
GRIDFORMAT_BEGIN
 90
        0
 91
        1
 62
     0
 92
       -2
340
14
 93
        0
 40
0.045
309
GRIDFORMAT_END
309
TABLEFORMAT_END
  1
CELLSTYLE_BEGIN
 90
        1
 91
        1
300
_TITLE
309
CELLSTYLE_END
300
CELLSTYLE
  1
TABLEFORMAT_BEGIN
 90
        5
170
     1
 91
        0
 92
        0
 62
   257
 93
        1
300
CONTENTFORMAT
  1
CONTENTFORMAT_BEGIN
 90
        0
 91
        0
 92
        4
 93
        0
300

 40
0.0
140
1.0
 94
        5
 62
     0
340
11
144
4.5
309
CONTENTFORMAT_END
171
     1
301
MARGIN
  1
CELLMARGIN_BEGIN
 40
1.5
 40
1.5
 40
1.5
 40
1.5
 40
1.5
 40
1.5
309
CELLMARGIN_END
 94
        6
 95
        1
302
GRIDFORMAT
  1
GRIDFORMAT_BEGIN
 90
        0
 91
        1
 62
     0
 92
       -2
340
14
 93
        0
 40
0.045
309
GRIDFORMAT_END
 95
        2
302
GRIDFORMAT
  1
GRIDFORMAT_BEGIN
 90
        0
 91
        1
 62
     0
 92
       -2
340
14
 93
        0
 40
0.045
309
GRIDFORMAT_END
 95
        4
302
GRIDFORMAT
  1
GRIDFORMAT_BEGIN
 90
        0
 91
        1
 62
     0
 92
       -2
340
14
 93
        0
 40
0.045
309
GRIDFORMAT_END
 95
        8
302
GRIDFORMAT
  1
GRIDFORMAT_BEGIN
 90
        0
 91
        1
 62
     0
 92
       -2
340
14
 93
        0
 40
0.045
309
GRIDFORMAT_END
 95
       16
302
GRIDFORMAT
  1
GRIDFORMAT_BEGIN
 90
        0
 91
        1
 62
     0
 92
       -2
340
14
 93
        0
 40
0.045
309
GRIDFORMAT_END
 95
       32
302
GRIDFORMAT
  1
GRIDFORMAT_BEGIN
 90
        0
 91
        1
 62
     0
 92
       -2
340
14
 93
        0
 40
0.045
309
GRIDFORMAT_END
309
TABLEFORMAT_END
  1
CELLSTYLE_BEGIN
 90
        2
 91
        1
300
_HEADER
309
CELLSTYLE_END
300
CELLSTYLE
  1
TABLEFORMAT_BEGIN
 90
        5
170
     1
 91
        0
 92
        0
 62
   257
 93
        1
300
CONTENTFORMAT
  1
CONTENTFORMAT_BEGIN
 90
        0
 91
        0
 92
        4
 93
        0
300

 40
0.0
140
1.0
 94
        2
 62
     0
340
11
144
4.5
309
CONTENTFORMAT_END
171
     1
301
MARGIN
  1
CELLMARGIN_BEGIN
 40
1.5
 40
1.5
 40
1.5
 40
1.5
 40
1.5
 40
1.5
309
CELLMARGIN_END
 94
        6
 95
        1
302
GRIDFORMAT
  1
GRIDFORMAT_BEGIN
 90
        0
 91
        1
 62
     0
 92
       -2
340
14
 93
        0
 40
0.045
309
GRIDFORMAT_END
 95
        2
302
GRIDFORMAT
  1
GRIDFORMAT_BEGIN
 90
        0
 91
        1
 62
     0
 92
       -2
340
14
 93
        0
 40
0.045
309
GRIDFORMAT_END
 95
        4
302
GRIDFORMAT
  1
GRIDFORMAT_BEGIN
 90
        0
 91
        1
 62
     0
 92
       -2
340
14
 93
        0
 40
0.045
309
GRIDFORMAT_END
 95
        8
302
GRIDFORMAT
  1
GRIDFORMAT_BEGIN
 90
        0
 91
        1
 62
     0
 92
       -2
340
14
 93
        0
 40
0.045
309
GRIDFORMAT_END
 95
       16
302
GRIDFORMAT
  1
GRIDFORMAT_BEGIN
 90
        0
 91
        1
 62
     0
 92
       -2
340
14
 93
        0
 40
0.045
309
GRIDFORMAT_END
 95
       32
302
GRIDFORMAT
  1
GRIDFORMAT_BEGIN
 90
        0
 91
        1
 62
     0
 92
       -2
340
14
 93
        0
 40
0.045
309
GRIDFORMAT_END
309
TABLEFORMAT_END
  1
CELLSTYLE_BEGIN
 90
        3
 91
        2
300
_DATA
309
CELLSTYLE_END
  0
ENDSEC
  0
EOF
