  0
SECTION
  2
HEADER
  9
$ACADVER
  1
AC1015
  9
$ACADMAINTVER
 70
     6
  9
$DWGCODEPAGE
  3
ANSI_1252
  9
$INSBASE
 10
0.0
 20
0.0
 30
0.0
  9
$EXTMIN
 10
0.0
 20
0.0
 30
0.0
  9
$EXTMAX
 10
420.0
 20
297.0
 30
0.0
  9
$LIMMIN
 10
0.0
 20
0.0
  9
$LIMMAX
 10
420.0
 20
297.0
  9
$ORTHOMODE
 70
     0
  9
$REGENMODE
 70
     1
  9
$FILLMODE
 70
     1
  9
$QTEXTMODE
 70
     0
  9
$MIRRTEXT
 70
     1
  9
$LTSCALE
 40
1.0
  9
$ATTMODE
 70
     1
  9
$TEXTSIZE
 40
3.5
  9
$TRACEWID
 40
1.0
  9
$TEXTSTYLE
  7
Standard
  9
$CLAYER
  8
0
  9
$CELTYPE
  6
ByLayer
  9
$CECOLOR
 62
   256
  9
$CELTSCALE
 40
1.0
  9
$DISPSILH
 70
     0
  9
$DIMSCALE
 40
1.0
  9
$DIMASZ
 40
3.302
  9
$DIMEXO
 40
1.0
  9
$DIMDLI
 40
3.75
  9
$DIMRND
 40
0.0
  9
$DIMDLE
 40
0.0
  9
$DIMEXE
 40
1.0
  9
$DIMTP
 40
0.0
  9
$DIMTM
 40
0.0
  9
$DIMTXT
 40
3.5
  9
$DIMCEN
 40
2.5
  9
$DIMTSZ
 40
0.0
  9
$DIMTOL
 70
     0
  9
$DIMLIM
 70
     0
  9
$DIMTIH
 70
     1
  9
$DIMTOH
 70
     1
  9
$DIMSE1
 70
     0
  9
$DIMSE2
 70
     0
  9
$DIMTAD
 70
     1
  9
$DIMZIN
 70
     0
  9
$DIMBLK
  1

  9
$DIMASO
 70
     1
  9
$DIMSHO
 70
     1
  9
$DIMPOST
  1

  9
$DIMAPOST
  1

  9
$DIMALT
 70
     0
  9
$DIMALTD
 70
     3
  9
$DIMALTF
 40
0.0393700787
  9
$DIMLFAC
 40
1.0
  9
$DIMTOFL
 70
     1
  9
$DIMTVP
 40
0.0
  9
$DIMTIX
 70
     0
  9
$DIMSOXD
 70
     0
  9
$DIMSAH
 70
     0
  9
$DIMBLK1
  1

  9
$DIMBLK2
  1

  9
$DIMSTYLE
  2
ISO-25
  9
$DIMCLRD
 70
     0
  9
$DIMCLRE
 70
     0
  9
$DIMCLRT
 70
     0
  9
$DIMTFAC
 40
1.0
  9
$DIMGAP
 40
1.524
  9
$DIMJUST
 70
     0
  9
$DIMSD1
 70
     0
  9
$DIMSD2
 70
     0
  9
$DIMTOLJ
 70
     0
  9
$DIMTZIN
 70
     0
  9
$DIMALTZ
 70
     0
  9
$DIMALTTZ
 70
     0
  9
$DIMUPT
 70
     0
  9
$DIMDEC
 70
     2
  9
$DIMTDEC
 70
     2
  9
$DIMALTU
 70
     2
  9
$DIMALTTD
 70
     3
  9
$DIMTXSTY
  7
Standard
  9
$DIMAUNIT
 70
     0
  9
$DIMADEC
 70
     2
  9
$DIMALTRND
 40
0.0
  9
$DIMAZIN
 70
     0
  9
$DIMDSEP
 70
    44
  9
$DIMATFIT
 70
     3
  9
$DIMFRAC
 70
     0
  9
$DIMLDRBLK
  1

  9
$DIMLUNIT
 70
     2
  9
$DIMLWD
 70
    -2
  9
$DIMLWE
 70
    -2
  9
$DIMTMOVE
 70
     0
  9
$LUNITS
 70
     2
  9
$LUPREC
 70
     2
  9
$SKETCHINC
 40
1.0
  9
$FILLETRAD
 40
10.0
  9
$AUNITS
 70
     0
  9
$AUPREC
 70
     2
  9
$MENU
  1
.
  9
$ELEVATION
 40
0.0
  9
$PELEVATION
 40
0.0
  9
$THICKNESS
 40
0.0
  9
$LIMCHECK
 70
     0
  9
$CHAMFERA
 40
10.0
  9
$CHAMFERB
 40
10.0
  9
$CHAMFERC
 40
20.0
  9
$CHAMFERD
 40
0.0
  9
$SKPOLY
 70
     0
  9
$TDCREATE
 40
2456156.357507963
  9
$TDUCREATE
 40
2456156.27417463
  9
$TDUPDATE
 40
2456156.357507974
  9
$TDUUPDATE
 40
2456156.274174641
  9
$TDINDWG
 40
0.0000000116
  9
$TDUSRTIMER
 40
0.0000000116
  9
$USRTIMER
 70
     1
  9
$ANGBASE
 50
0.0
  9
$ANGDIR
 70
     0
  9
$PDMODE
 70
     0
  9
$PDSIZE
 40
-1.0
  9
$PLINEWID
 40
0.0
  9
$SPLFRAME
 70
     0
  9
$SPLINETYPE
 70
     6
  9
$SPLINESEGS
 70
     8
  9
$HANDSEED
  5
15D
  9
$SURFTAB1
 70
     6
  9
$SURFTAB2
 70
     6
  9
$SURFTYPE
 70
     6
  9
$SURFU
 70
     6
  9
$SURFV
 70
     6
  9
$UCSBASE
  2

  9
$UCSNAME
  2

  9
$UCSORG
 10
0.0
 20
0.0
 30
0.0
  9
$UCSXDIR
 10
1.0
 20
0.0
 30
0.0
  9
$UCSYDIR
 10
0.0
 20
1.0
 30
0.0
  9
$UCSORTHOREF
  2

  9
$UCSORTHOVIEW
 70
     0
  9
$UCSORGTOP
 10
0.0
 20
0.0
 30
0.0
  9
$UCSORGBOTTOM
 10
0.0
 20
0.0
 30
0.0
  9
$UCSORGLEFT
 10
0.0
 20
0.0
 30
0.0
  9
$UCSORGRIGHT
 10
0.0
 20
0.0
 30
0.0
  9
$UCSORGFRONT
 10
0.0
 20
0.0
 30
0.0
  9
$UCSORGBACK
 10
0.0
 20
0.0
 30
0.0
  9
$PUCSBASE
  2

  9
$PUCSNAME
  2

  9
$PUCSORG
 10
0.0
 20
0.0
 30
0.0
  9
$PUCSXDIR
 10
1.0
 20
0.0
 30
0.0
  9
$PUCSYDIR
 10
0.0
 20
1.0
 30
0.0
  9
$PUCSORTHOREF
  2

  9
$PUCSORTHOVIEW
 70
     0
  9
$PUCSORGTOP
 10
0.0
 20
0.0
 30
0.0
  9
$PUCSORGBOTTOM
 10
0.0
 20
0.0
 30
0.0
  9
$PUCSORGLEFT
 10
0.0
 20
0.0
 30
0.0
  9
$PUCSORGRIGHT
 10
0.0
 20
0.0
 30
0.0
  9
$PUCSORGFRONT
 10
0.0
 20
0.0
 30
0.0
  9
$PUCSORGBACK
 10
0.0
 20
0.0
 30
0.0
  9
$USERI1
 70
     0
  9
$USERI2
 70
     0
  9
$USERI3
 70
     0
  9
$USERI4
 70
     0
  9
$USERI5
 70
     0
  9
$USERR1
 40
0.0
  9
$USERR2
 40
0.0
  9
$USERR3
 40
0.0
  9
$USERR4
 40
0.0
  9
$USERR5
 40
0.0
  9
$WORLDVIEW
 70
     1
  9
$SHADEDGE
 70
     3
  9
$SHADEDIF
 70
    70
  9
$TILEMODE
 70
     1
  9
$MAXACTVP
 70
    64
  9
$PINSBASE
 10
0.0
 20
0.0
 30
0.0
  9
$PLIMCHECK
 70
     0
  9
$PEXTMIN
 10
1.0000000000E+20
 20
1.0000000000E+20
 30
1.0000000000E+20
  9
$PEXTMAX
 10
-1.0000000000E+20
 20
-1.0000000000E+20
 30
-1.0000000000E+20
  9
$PLIMMIN
 10
0.0
 20
0.0
  9
$PLIMMAX
 10
420.0
 20
297.0
  9
$UNITMODE
 70
     0
  9
$VISRETAIN
 70
     1
  9
$PLINEGEN
 70
     0
  9
$PSLTSCALE
 70
     1
  9
$TREEDEPTH
 70
  3020
  9
$CMLSTYLE
  2
Standard
  9
$CMLJUST
 70
     0
  9
$CMLSCALE
 40
20.0
  9
$PROXYGRAPHICS
 70
     1
  9
$MEASUREMENT
 70
     1
  9
$CELWEIGHT
370
    -1
  9
$ENDCAPS
280
     0
  9
$JOINSTYLE
280
     0
  9
$LWDISPLAY
290
     1
  9
$INSUNITS
 70
     4
  9
$HYPERLINKBASE
  1

  9
$STYLESHEET
  1

  9
$XEDIT
290
     1
  9
$CEPSNTYPE
380
     0
  9
$PSTYLEMODE
290
     1
  9
$FINGERPRINTGUID
  2
{80BA35F8-8804-435A-BFD1-A4EC73254314}
  9
$VERSIONGUID
  2
{FAEB1C32-E019-11D5-929B-00C0DF256EC4}
  9
$EXTNAMES
290
     1
  9
$PSVPSCALE
 40
0.0
  9
$OLESTARTUP
290
     0
  0
ENDSEC
  0
SECTION
  2
CLASSES
  0
CLASS
  1
ACDBDICTIONARYWDFLT
  2
AcDbDictionaryWithDefault
  3
ObjectDBX Classes
 90
        0
280
     0
281
     0
  0
CLASS
  1
VISUALSTYLE
  2
AcDbVisualStyle
  3
ObjectDBX Classes
 90
     4095
280
     0
281
     0
  0
CLASS
  1
MATERIAL
  2
AcDbMaterial
  3
ObjectDBX Classes
 90
     1153
280
     0
281
     0
  0
CLASS
  1
ACDBPLACEHOLDER
  2
AcDbPlaceHolder
  3
ObjectDBX Classes
 90
        0
280
     0
281
     0
  0
CLASS
  1
LAYOUT
  2
AcDbLayout
  3
ObjectDBX Classes
 90
        0
280
     0
281
     0
  0
ENDSEC
  0
SECTION
  2
TABLES
  0
TABLE
  2
VPORT
  5
8
330
0
100
AcDbSymbolTable
 70
     1
  0
VPORT
  5
29
330
8
100
AcDbSymbolTableRecord
100
AcDbViewportTableRecord
  2
*Active
 70
     0
 10
0.0
 20
0.0
 11
1.0
 21
1.0
 12
210.0
 22
148.5
 13
0.0
 23
0.0
 14
10.0
 24
10.0
 15
10.0
 25
10.0
 16
0.0
 26
0.0
 36
1.0
 17
0.0
 27
0.0
 37
0.0
 40
297.0
 41
1.4141414141
 42
50.0
 43
0.0
 44
0.0
 50
0.0
 51
0.0
 71
     0
 72
  2000
 73
     1
 74
     3
 75
     0
 76
     0
 77
     0
 78
     0
281
     0
 65
     1
110
0.0
120
0.0
130
0.0
111
1.0
121
0.0
131
0.0
112
0.0
122
1.0
132
0.0
 79
     0
146
0.0
  0
ENDTAB
  0
TABLE
  2
LTYPE
  5
5
330
0
100
AcDbSymbolTable
 70
     6
  0
LTYPE
  5
14
330
5
100
AcDbSymbolTableRecord
100
AcDbLinetypeTableRecord
  2
ByBlock
 70
     0
  3

 72
    65
 73
     0
 40
0.0
  0
LTYPE
  5
15
330
5
100
AcDbSymbolTableRecord
100
AcDbLinetypeTableRecord
  2
ByLayer
 70
     0
  3

 72
    65
 73
     0
 40
0.0
  0
LTYPE
  5
16
330
5
100
AcDbSymbolTableRecord
100
AcDbLinetypeTableRecord
  2
Continuous
 70
     0
  3
Solid line
 72
    65
 73
     0
 40
0.0
  0
LTYPE
  5
3F
330
5
100
AcDbSymbolTableRecord
100
AcDbLinetypeTableRecord
  2
HIDDEN
 70
     0
  3
Hidden __ __ __ __ __ __ __ __ __ __ __ __ __ __
 72
    65
 73
     2
 40
1.905
 49
1.27
 74
     0
 49
-0.635
 74
     0
  0
LTYPE
  5
40
330
5
100
AcDbSymbolTableRecord
100
AcDbLinetypeTableRecord
  2
PHANTOM
 70
     0
  3
Phantom ______  __  __  ______  __  __  ______
 72
    65
 73
     6
 40
12.7
 49
6.35
 74
     0
 49
-1.27
 74
     0
 49
1.27
 74
     0
 49
-1.27
 74
     0
 49
1.27
 74
     0
 49
-1.27
 74
     0
  0
LTYPE
  5
41
330
5
100
AcDbSymbolTableRecord
100
AcDbLinetypeTableRecord
  2
CENTER
 70
     0
  3
Center ____ _ ____ _ ____ _ ____ _ ____ _ ____
 72
    65
 73
     4
 40
10.16
 49
6.35
 74
     0
 49
-1.27
 74
     0
 49
1.27
 74
     0
 49
-1.27
 74
     0
  0
LTYPE
  5
42
330
5
100
AcDbSymbolTableRecord
100
AcDbLinetypeTableRecord
  2
CENTERX2
 70
     0
  3
Center (2x) ________  __  ________  __  _____
 72
    65
 73
     4
 40
20.32
 49
12.7
 74
     0
 49
-2.54
 74
     0
 49
2.54
 74
     0
 49
-2.54
 74
     0
  0
LTYPE
  5
43
330
5
100
AcDbSymbolTableRecord
100
AcDbLinetypeTableRecord
  2
DOT2
 70
     0
  3
Dot (.5x) ........................................
 72
    65
 73
     2
 40
0.635
 49
0.0
 74
     0
 49
-0.635
 74
     0
  0
ENDTAB
  0
TABLE
  2
LAYER
  5
2
330
0
100
AcDbSymbolTable
 70
     6
  0
LAYER
  5
10
330
2
100
AcDbSymbolTableRecord
100
AcDbLayerTableRecord
  2
0
 70
     0
 62
     7
  6
Continuous
370
    -3
390
F
  0
LAYER
  5
44
330
2
100
AcDbSymbolTableRecord
100
AcDbLayerTableRecord
  2
FORMAT
 70
     0
 62
     7
  6
Continuous
370
    -3
390
F
  0
LAYER
  5
45
330
2
100
AcDbSymbolTableRecord
100
AcDbLayerTableRecord
  2
VORLAGE
 70
     0
 62
    -1
  6
Continuous
370
    -3
390
F
  0
LAYER
  5
46
330
2
100
AcDbSymbolTableRecord
100
AcDbLayerTableRecord
  2
RAHMEN
 70
     0
 62
   179
  6
Continuous
370
    -3
390
F
  0
LAYER
  5
47
330
2
100
AcDbSymbolTableRecord
100
AcDbLayerTableRecord
  2
KOPF
 70
     0
 62
     7
  6
Continuous
370
    -3
390
F
  0
LAYER
  5
48
330
2
100
AcDbSymbolTableRecord
100
AcDbLayerTableRecord
  2
TEMP
 70
     0
 62
     7
  6
Continuous
370
    -3
390
F
  0
ENDTAB
  0
TABLE
  2
STYLE
  5
3
330
0
100
AcDbSymbolTable
 70
     2
  0
STYLE
  5
11
330
3
100
AcDbSymbolTableRecord
100
AcDbTextStyleTableRecord
  2
Standard
 70
     0
 40
0.0
 41
1.0
 50
0.0
 71
     0
 42
2.5
  3
txt
  4

  0
STYLE
  5
5F
330
3
100
AcDbSymbolTableRecord
100
AcDbTextStyleTableRecord
  2
SLDTEXTSTYLE0
 70
     0
 40
0.0
 41
0.75
 50
0.0
 71
     0
 42
0.2
  3
TXT
  4

  0
ENDTAB
  0
TABLE
  2
VIEW
  5
6
330
0
100
AcDbSymbolTable
 70
     0
  0
ENDTAB
  0
TABLE
  2
UCS
  5
7
330
0
100
AcDbSymbolTable
 70
     0
  0
ENDTAB
  0
TABLE
  2
APPID
  5
9
330
0
100
AcDbSymbolTable
 70
     1
  0
APPID
  5
12
330
9
100
AcDbSymbolTableRecord
100
AcDbRegAppTableRecord
  2
ACAD
 70
     0
  0
ENDTAB
  0
TABLE
  2
DIMSTYLE
  5
A
330
0
100
AcDbSymbolTable
 70
     2
100
AcDbDimStyleTable
  0
DIMSTYLE
105
27
330
A
100
AcDbSymbolTableRecord
100
AcDbDimStyleTableRecord
  2
ISO-25
 70
     0
 41
2.5
 42
0.625
 43
3.75
 44
1.25
 73
     0
 74
     0
 77
     1
 78
     8
140
2.5
141
2.5
143
0.0393700787
147
0.625
171
     3
172
     1
178
     0
271
     2
272
     2
274
     3
278
    44
283
     0
284
     8
340
11
  0
DIMSTYLE
105
60
102
{ACAD_REACTORS
330
5E
330
BC
330
146
330
152
102
}
330
A
100
AcDbSymbolTableRecord
100
AcDbDimStyleTableRecord
  2
SLDDIMSTYLE0
 70
     0
 41
3.302
 44
0.0
 45
0.000000001
 73
     0
 74
     0
 77
     1
 78
    12
 79
     3
140
3.5
147
0.875
173
     1
178
     0
271
     2
272
     2
276
     2
284
    12
340
5F
341
61
343
61
344
61
  0
ENDTAB
  0
TABLE
  2
BLOCK_RECORD
  5
1
330
0
100
AcDbSymbolTable
 70
     7
  0
BLOCK_RECORD
  5
1F
330
1
100
AcDbSymbolTableRecord
100
AcDbBlockTableRecord
  2
*Model_Space
340
22
  0
BLOCK_RECORD
  5
1B
330
1
100
AcDbSymbolTableRecord
100
AcDbBlockTableRecord
  2
*Paper_Space
340
1E
  0
BLOCK_RECORD
  5
23
330
1
100
AcDbSymbolTableRecord
100
AcDbBlockTableRecord
  2
*Paper_Space0
340
26
  0
BLOCK_RECORD
  5
61
330
1
100
AcDbSymbolTableRecord
100
AcDbBlockTableRecord
  2
_CLOSED
340
0
102
{BLKREFS
331
6D
331
6E
331
82
331
84
331
C0
331
C1
331
14C
331
14D
331
156
331
157
102
}
  0
BLOCK_RECORD
  5
68
330
1
100
AcDbSymbolTableRecord
100
AcDbBlockTableRecord
  2
*D2
340
0
  0
BLOCK_RECORD
  5
74
330
1
100
AcDbSymbolTableRecord
100
AcDbBlockTableRecord
  2
SW_CENTERMARKSYMBOL_0
340
0
102
{BLKREFS
331
7F
102
}
  0
BLOCK_RECORD
  5
BD
330
1
100
AcDbSymbolTableRecord
100
AcDbBlockTableRecord
  2
*D4
340
0
  0
BLOCK_RECORD
  5
147
330
1
100
AcDbSymbolTableRecord
100
AcDbBlockTableRecord
  2
*D5
340
0
  0
BLOCK_RECORD
  5
153
330
1
100
AcDbSymbolTableRecord
100
AcDbBlockTableRecord
  2
*D6
340
0
  0
ENDTAB
  0
ENDSEC
  0
SECTION
  2
BLOCKS
  0
BLOCK
  5
20
330
1F
100
AcDbEntity
  8
0
100
AcDbBlockBegin
  2
*Model_Space
 70
     0
 10
0.0
 20
0.0
 30
0.0
  3
*Model_Space
  1

  0
ENDBLK
  5
21
330
1F
100
AcDbEntity
  8
0
100
AcDbBlockEnd
  0
BLOCK
  5
1C
330
1B
100
AcDbEntity
 67
     1
  8
0
100
AcDbBlockBegin
  2
*Paper_Space
 70
     0
 10
0.0
 20
0.0
 30
0.0
  3
*Paper_Space
  1

  0
ENDBLK
  5
1D
330
1B
100
AcDbEntity
 67
     1
  8
0
100
AcDbBlockEnd
  0
BLOCK
  5
24
330
23
100
AcDbEntity
  8
0
100
AcDbBlockBegin
  2
*Paper_Space0
 70
     0
 10
0.0
 20
0.0
 30
0.0
  3
*Paper_Space0
  1

  0
ENDBLK
  5
25
330
23
100
AcDbEntity
  8
0
100
AcDbBlockEnd
  0
BLOCK
  5
62
330
61
100
AcDbEntity
  8
0
100
AcDbBlockBegin
  2
_CLOSED
 70
     0
 10
0.0
 20
0.0
 30
0.0
  3
_CLOSED
  1

  0
LINE
  5
64
330
61
100
AcDbEntity
  8
0
  6
ByBlock
 62
     0
370
    -2
100
AcDbLine
 10
-1.0
 20
0.166667
 30
0.0
 11
0.0
 21
0.0
 31
0.0
  0
LINE
  5
65
330
61
100
AcDbEntity
  8
0
  6
ByBlock
 62
     0
370
    -2
100
AcDbLine
 10
0.0
 20
0.0
 30
0.0
 11
-1.0
 21
-0.166667
 31
0.0
  0
LINE
  5
66
330
61
100
AcDbEntity
  8
0
  6
ByBlock
 62
     0
370
    -2
100
AcDbLine
 10
-1.0
 20
0.166667
 30
0.0
 11
-1.0
 21
-0.166667
 31
0.0
  0
LINE
  5
67
330
61
100
AcDbEntity
  8
0
  6
ByBlock
 62
     0
370
    -2
100
AcDbLine
 10
0.0
 20
0.0
 30
0.0
 11
-1.0
 21
0.0
 31
0.0
  0
ENDBLK
  5
63
330
61
100
AcDbEntity
  8
0
100
AcDbBlockEnd
  0
BLOCK
  5
69
330
68
100
AcDbEntity
  8
0
100
AcDbBlockBegin
  2
*D2
 70
     1
 10
0.0
 20
0.0
 30
0.0
  3
*D2
  1

  0
ARC
  5
6B
330
68
100
AcDbEntity
  8
0
  6
Continuous
 62
     7
370
     0
100
AcDbCircle
 10
98.1347335163
 20
141.9963679043
 30
0.0
 40
6.20892287938091
100
AcDbArc
 50
153.4349488229
 51
206.5650511771
  0
ARC
  5
6C
330
68
100
AcDbEntity
  8
0
  6
Continuous
 62
     7
370
     0
100
AcDbCircle
 10
100.6490815126
 20
141.9963679043
 30
0.0
 40
6.208922879380922
100
AcDbArc
 50
333.4349488229
 51
26.5650511771
  0
INSERT
  5
6D
330
68
100
AcDbEntity
  8
0
  6
Continuous
 62
     7
370
     0
100
AcDbBlockReference
  2
_CLOSED
 10
68.1300578035
 20
139.2196531792
 30
33.775438314
 41
3.302
 42
3.302
 50
180.0
  0
INSERT
  5
6E
330
68
100
AcDbEntity
  8
0
  6
Continuous
 62
     7
370
     0
100
AcDbBlockReference
  2
_CLOSED
 10
133.1300578035
 20
139.2196531792
 30
33.775438314
 41
3.302
 42
3.302
 50
0.0
  0
LINE
  5
6F
330
68
100
AcDbEntity
  8
0
  6
Continuous
 62
     7
370
     0
100
AcDbLine
 10
68.1300578035
 20
91.7196531792
 30
0.0
 11
68.1300578035
 21
140.2196531792
 31
0.0
  0
LINE
  5
70
330
68
100
AcDbEntity
  8
0
  6
Continuous
 62
     7
370
     0
100
AcDbLine
 10
133.1300578035
 20
91.7196531792
 30
0.0
 11
133.1300578035
 21
140.2196531792
 31
0.0
  0
LINE
  5
71
330
68
100
AcDbEntity
  8
0
  6
Continuous
 62
     7
370
     0
100
AcDbLine
 10
68.1300578035
 20
139.2196531792
 30
0.0
 11
133.1300578035
 21
139.2196531792
 31
0.0
  0
MTEXT
  5
72
330
68
100
AcDbEntity
  8
0
  6
Continuous
 62
     7
370
     0
100
AcDbMText
 10
94.1688040662
 20
143.7313902684
 30
0.0
 40
3.5
 41
0.0
 71
     1
 72
     1
  1
%%c
  7
SLDTEXTSTYLE0
 73
     1
 44
1.0
  0
MTEXT
  5
73
330
68
100
AcDbEntity
  8
0
  6
Continuous
 62
     7
370
     0
100
AcDbMText
 10
99.4455501985
 20
143.7313900938
 30
0.0
 40
3.5
 41
0.0
 71
     1
 72
     1
  1
65
  7
SLDTEXTSTYLE0
 73
     1
 44
1.0
  0
ENDBLK
  5
6A
330
68
100
AcDbEntity
  8
0
100
AcDbBlockEnd
  0
BLOCK
  5
75
330
74
100
AcDbEntity
  8
0
100
AcDbBlockBegin
  2
SW_CENTERMARKSYMBOL_0
 70
     0
 10
0.0
 20
0.0
 30
0.0
  3
SW_CENTERMARKSYMBOL_0
  1

  0
LINE
  5
77
330
74
100
AcDbEntity
  8
0
  6
Continuous
 62
     0
370
     0
100
AcDbLine
 10
0.0
 20
0.0
 30
0.0
 11
0.0
 21
2.5
 31
0.0
  0
LINE
  5
78
330
74
100
AcDbEntity
  8
0
  6
Continuous
 62
     0
370
     0
100
AcDbLine
 10
0.0
 20
0.0
 30
0.0
 11
-2.5
 21
0.0
 31
0.0
  0
LINE
  5
79
330
74
100
AcDbEntity
  8
0
  6
Continuous
 62
     0
370
     0
100
AcDbLine
 10
0.0
 20
0.0
 30
0.0
 11
0.0
 21
-2.5
 31
0.0
  0
LINE
  5
7A
330
74
100
AcDbEntity
  8
0
  6
Continuous
 62
     0
370
     0
100
AcDbLine
 10
0.0
 20
0.0
 30
0.0
 11
2.5
 21
0.0
 31
0.0
  0
LINE
  5
7B
330
74
100
AcDbEntity
  8
0
  6
Continuous
 62
     0
370
     0
100
AcDbLine
 10
0.0
 20
5.0
 30
0.0
 11
0.0
 21
35.0
 31
0.0
  0
LINE
  5
7C
330
74
100
AcDbEntity
  8
0
  6
Continuous
 62
     0
370
     0
100
AcDbLine
 10
-5.0
 20
0.0
 30
0.0
 11
-35.0
 21
0.0
 31
0.0
  0
LINE
  5
7D
330
74
100
AcDbEntity
  8
0
  6
Continuous
 62
     0
370
     0
100
AcDbLine
 10
0.0
 20
-5.0
 30
0.0
 11
0.0
 21
-35.0
 31
0.0
  0
LINE
  5
7E
330
74
100
AcDbEntity
  8
0
  6
Continuous
 62
     0
370
     0
100
AcDbLine
 10
5.0
 20
0.0
 30
0.0
 11
35.0
 21
0.0
 31
0.0
  0
ENDBLK
  5
76
330
74
100
AcDbEntity
  8
0
100
AcDbBlockEnd
  0
BLOCK
  5
BE
330
BD
100
AcDbEntity
  8
0
100
AcDbBlockBegin
  2
*D4
 70
     1
 10
0.0
 20
0.0
 30
0.0
  3
*D4
  1

  0
INSERT
  5
C0
330
BD
100
AcDbEntity
  8
0
  6
Continuous
 62
     7
370
     0
100
AcDbBlockReference
  2
_CLOSED
 10
240.7954668323
 20
170.8366039971
 30
0.1
 41
3.302
 42
3.302
 50
0.0
  0
INSERT
  5
C1
330
BD
100
AcDbEntity
  8
0
  6
Continuous
 62
     7
370
     0
100
AcDbBlockReference
  2
_CLOSED
 10
176.7954668323
 20
170.8366039971
 30
0.1
 41
3.302
 42
3.302
 50
180.0
  0
LINE
  5
C2
330
BD
100
AcDbEntity
  8
0
  6
Continuous
 62
     7
370
     0
100
AcDbLine
 10
240.7954668323
 20
242.9100432604
 30
0.0
 11
240.7954668323
 21
169.8366039971
 31
0.0
  0
LINE
  5
C3
330
BD
100
AcDbEntity
  8
0
  6
Continuous
 62
     7
370
     0
100
AcDbLine
 10
176.7954668323
 20
242.9100432604
 30
0.0
 11
176.7954668323
 21
169.8366039971
 31
0.0
  0
LINE
  5
C4
330
BD
100
AcDbEntity
  8
0
  6
Continuous
 62
     7
370
     0
100
AcDbLine
 10
240.7954668323
 20
170.8366039971
 30
0.0
 11
176.7954668323
 21
170.8366039971
 31
0.0
  0
MTEXT
  5
C5
330
BD
100
AcDbEntity
  8
0
  6
Continuous
 62
     7
370
     0
100
AcDbMText
 10
205.797000555
 20
175.3483410863
 30
0.0
 40
3.5
 41
0.0
 71
     1
 72
     1
  1
%%c
  7
SLDTEXTSTYLE0
 73
     1
 44
1.0
  0
MTEXT
  5
C6
330
BD
100
AcDbEntity
  8
0
  6
Continuous
 62
     7
370
     0
100
AcDbMText
 10
211.0737466873
 20
175.3483409117
 30
0.0
 40
3.5
 41
0.0
 71
     1
 72
     1
  1
64
  7
SLDTEXTSTYLE0
 73
     1
 44
1.0
  0
ENDBLK
  5
BF
330
BD
100
AcDbEntity
  8
0
100
AcDbBlockEnd
  0
BLOCK
  5
148
330
147
100
AcDbEntity
  8
0
100
AcDbBlockBegin
  2
*D5
 70
     1
 10
0.0
 20
0.0
 30
0.0
  3
*D5
  1

  0
ARC
  5
14A
330
147
100
AcDbEntity
  8
0
  6
Continuous
 62
     7
370
     0
100
AcDbCircle
 10
55.6033453101
 20
222.6227430339
 30
0.0
 40
6.208922879380929
100
AcDbArc
 50
243.4349488229
 51
296.5650511771
  0
ARC
  5
14B
330
147
100
AcDbEntity
  8
0
  6
Continuous
 62
     7
370
     0
100
AcDbCircle
 10
55.6033453101
 20
219.8603448978
 30
0.0
 40
6.208922879380929
100
AcDbArc
 50
63.4349488229
 51
116.5650511771
  0
INSERT
  5
14C
330
147
100
AcDbEntity
  8
0
  6
Continuous
 62
     7
370
     0
100
AcDbBlockReference
  2
_CLOSED
 10
58.3800600352
 20
183.7100432604
 30
0.1
 41
3.302
 42
3.302
 50
270.0
  0
INSERT
  5
14D
330
147
100
AcDbEntity
  8
0
  6
Continuous
 62
     7
370
     0
100
AcDbBlockReference
  2
_CLOSED
 10
58.3800600352
 20
258.7100432604
 30
0.1
 41
3.302
 42
3.302
 50
90.0
  0
LINE
  5
14E
330
147
100
AcDbEntity
  8
0
  6
Continuous
 62
     7
370
     0
100
AcDbLine
 10
81.130061728
 20
183.7100432604
 30
0.0
 11
57.3800600352
 21
183.7100432604
 31
0.0
  0
LINE
  5
14F
330
147
100
AcDbEntity
  8
0
  6
Continuous
 62
     7
370
     0
100
AcDbLine
 10
67.1300600374
 20
258.7100432604
 30
0.0
 11
57.3800600352
 21
258.7100432604
 31
0.0
  0
LINE
  5
150
330
147
100
AcDbEntity
  8
0
  6
Continuous
 62
     7
370
     0
100
AcDbLine
 10
58.3800600352
 20
183.7100432604
 30
0.0
 11
58.3800600352
 21
258.7100432604
 31
0.0
  0
MTEXT
  5
151
330
147
100
AcDbEntity
  8
0
  6
Continuous
 62
     7
370
     0
100
AcDbMText
 10
53.8683231206
 20
218.6568135837
 30
0.0
 40
3.5
 41
0.0
 71
     1
 72
     1
  1
75
  7
SLDTEXTSTYLE0
 11
6.123233995736766E-17
 21
1.0
 31
0.0
 73
     1
 44
1.0
  0
ENDBLK
  5
149
330
147
100
AcDbEntity
  8
0
100
AcDbBlockEnd
  0
BLOCK
  5
154
330
153
100
AcDbEntity
  8
0
100
AcDbBlockBegin
  2
*D6
 70
     1
 10
0.0
 20
0.0
 30
0.0
  3
*D6
  1

  0
INSERT
  5
156
330
153
100
AcDbEntity
  8
0
  6
Continuous
 62
     7
370
     0
100
AcDbBlockReference
  2
_CLOSED
 10
80.1300613451
 20
167.7100432604
 30
0.1
 41
3.302
 42
3.302
 50
180.0
  0
INSERT
  5
157
330
153
100
AcDbEntity
  8
0
  6
Continuous
 62
     7
370
     0
100
AcDbBlockReference
  2
_CLOSED
 10
121.1300542618
 20
167.7100432604
 30
0.1
 41
3.302
 42
3.302
 50
0.0
  0
LINE
  5
158
330
153
100
AcDbEntity
  8
0
  6
Continuous
 62
     7
370
     0
100
AcDbLine
 10
80.1300613451
 20
184.7100432604
 30
0.0
 11
80.1300613451
 21
166.7100432604
 31
0.0
  0
LINE
  5
159
330
153
100
AcDbEntity
  8
0
  6
Continuous
 62
     7
370
     0
100
AcDbLine
 10
121.1300542618
 20
184.7100432604
 30
0.0
 11
121.1300542618
 21
166.7100432604
 31
0.0
  0
LINE
  5
15A
330
153
100
AcDbEntity
  8
0
  6
Continuous
 62
     7
370
     0
100
AcDbLine
 10
80.1300613451
 20
167.7100432604
 30
0.0
 11
121.1300542618
 21
167.7100432604
 31
0.0
  0
MTEXT
  5
15B
330
153
100
AcDbEntity
  8
0
  6
Continuous
 62
     7
370
     0
100
AcDbMText
 10
98.0453274214
 20
172.221780175
 30
0.0
 40
3.5
 41
0.0
 71
     1
 72
     1
  1
41
  7
SLDTEXTSTYLE0
 73
     1
 44
1.0
  0
ENDBLK
  5
155
330
153
100
AcDbEntity
  8
0
100
AcDbBlockEnd
  0
ENDSEC
  0
SECTION
  2
ENTITIES
  0
ARC
  5
49
330
1F
100
AcDbEntity
  8
0
  6
Continuous
 62
     7
370
    15
100
AcDbCircle
 10
100.6300578035
 20
90.7196531792
 30
0.0
 40
16.50000000000001
100
AcDbArc
 50
146.6936952297
 51
213.3063047703
  0
SPLINE
  5
4A
330
1F
100
AcDbEntity
  8
0
  6
Continuous
 62
     7
370
    15
100
AcDbSpline
210
0.0
220
0.0
230
1.0
 70
     8
 71
     3
 72
    14
 73
    10
 74
     0
 42
0.00000001
 43
0.00000001
 40
0.0
 40
0.0
 40
0.0
 40
0.0
 40
0.25
 40
0.25
 40
0.5
 40
0.5
 40
0.75
 40
0.75
 40
1.0
 40
1.0
 40
1.0
 40
1.0
 10
88.63005780346825
 20
82.19463753462897
 30
0.0
 10
88.63005780346825
 20
81.98433851473592
 30
0.0
 10
88.56178519532918
 20
81.78001871513865
 30
0.0
 10
88.313016013043
 20
81.44554038518174
 30
0.0
 10
88.13535575080047
 20
81.32116544528009
 30
0.0
 10
87.73817479426219
 20
81.20130035749305
 30
0.0
 10
87.51924903110263
 20
81.20710820316268
 30
0.0
 10
87.12884722863025
 20
81.3480275779452
 30
0.0
 10
86.95593370586386
 20
81.48316433535359
 30
0.0
 10
86.84023325409837
 20
81.65925920886058
 30
0.0
  0
LINE
  5
4B
330
1F
100
AcDbEntity
  8
0
  6
Continuous
 62
     7
370
    15
100
AcDbLine
 10
88.6300576992
 20
99.2446689655
 30
0.0
 11
88.6300576992
 21
82.1946373929
 31
0.0
  0
SPLINE
  5
4C
330
1F
100
AcDbEntity
  8
0
  6
Continuous
 62
     7
370
    15
100
AcDbSpline
210
0.0
220
0.0
230
1.0
 70
     8
 71
     3
 72
    14
 73
    10
 74
     0
 42
0.00000001
 43
0.00000001
 40
0.0
 40
0.0
 40
0.0
 40
0.0
 40
0.25
 40
0.25
 40
0.5
 40
0.5
 40
0.75
 40
0.75
 40
1.0
 40
1.0
 40
1.0
 40
1.0
 10
86.84023325409837
 20
99.78004714952097
 30
0.0
 10
86.95592464411396
 20
99.95612823113972
 30
0.0
 10
87.12581611930104
 20
100.0898163852962
 30
0.0
 10
87.5192565371561
 20
100.2325663323622
 30
0.0
 10
87.73622158992123
 20
100.2382212083252
 30
0.0
 10
88.13410066463271
 20
100.1188909280123
 30
0.0
 10
88.31262393484771
 20
99.99371733423241
 30
0.0
 10
88.56025086353634
 20
99.66192193665118
 30
0.0
 10
88.63005780346825
 20
99.45495540448006
 30
0.0
 10
88.63005780346825
 20
99.24466882375258
 30
0.0
  0
LINE
  5
4D
330
1F
100
AcDbEntity
  8
0
  6
Continuous
 62
     7
370
    15
100
AcDbLine
 10
105.6300576917
 20
78.2196529929
 30
0.0
 11
105.6300576917
 21
103.2196533655
 31
0.0
  0
SPLINE
  5
4E
330
1F
100
AcDbEntity
  8
0
  6
Continuous
 62
     7
370
    15
100
AcDbSpline
210
0.0
220
0.0
230
1.0
 70
     8
 71
     3
 72
    34
 73
    30
 74
     0
 42
0.00000001
 43
0.00000001
 40
0.0
 40
0.0
 40
0.0
 40
0.0
 40
0.0625
 40
0.0625
 40
0.125
 40
0.125
 40
0.1875
 40
0.1875
 40
0.25
 40
0.25
 40
0.375
 40
0.375
 40
0.5
 40
0.5
 40
0.5625
 40
0.5625
 40
0.625
 40
0.625
 40
0.6875
 40
0.6875
 40
0.75
 40
0.75
 40
0.8125
 40
0.8125
 40
0.875
 40
0.875
 40
0.9375
 40
0.9375
 40
1.0
 40
1.0
 40
1.0
 40
1.0
 10
109.6300578034682
 20
78.21965317919077
 30
0.0
 10
109.6300578034682
 20
78.08772844960203
 30
0.0
 10
109.6171322976827
 20
77.95793466921074
 30
0.0
 10
109.5664099944131
 20
77.70244740133543
 30
0.0
 10
109.5279967970235
 20
77.57542583377248
 30
0.0
 10
109.4276121714599
 20
77.33308700007262
 30
0.0
 10
109.3661485632787
 20
77.21809549745653
 30
0.0
 10
109.2208208625621
 20
77.00039036668376
 30
0.0
 10
109.1361694818158
 20
76.89726048131219
 30
0.0
 10
108.8586965225447
 20
76.62002002180272
 30
0.0
 10
108.6348458990754
 20
76.47076600225866
 30
0.0
 10
108.1520693887532
 20
76.27139514198429
 30
0.0
 10
107.8882510270243
 20
76.21925099534357
 30
0.0
 10
107.496315998192
 20
76.21985786742029
 30
0.0
 10
107.3637145393733
 20
76.23315977247455
 30
0.0
 10
107.1073585294626
 20
76.28474226180728
 30
0.0
 10
106.982772238326
 20
76.32276396904687
 30
0.0
 10
106.7408287436873
 20
76.42342408532689
 30
0.0
 10
106.6241250603436
 20
76.4861528535368
 30
0.0
 10
106.4080361513907
 20
76.63107294999672
 30
0.0
 10
106.3072562491512
 20
76.71381100724685
 30
0.0
 10
106.1211172090927
 20
76.90038714023056
 30
0.0
 10
106.0387276122103
 20
77.00122948995084
 30
0.0
 10
105.894434926171
 20
77.21740506025388
 30
0.0
 10
105.8320379500291
 20
77.33409238844739
 30
0.0
 10
105.7320528356612
 20
77.57570407433624
 30
0.0
 10
105.694339155529
 20
77.70004660015994
 30
0.0
 10
105.6432637721896
 20
77.95574569875951
 30
0.0
 10
105.6300578034682
 20
78.08772669742757
 30
0.0
 10
105.6300578034682
 20
78.21965317919077
 30
0.0
  0
LINE
  5
4F
330
1F
100
AcDbEntity
  8
0
  6
Continuous
 62
     7
370
    15
100
AcDbLine
 10
109.630057416
 20
103.2196533655
 30
0.0
 11
109.630057416
 21
78.2196529929
 31
0.0
  0
SPLINE
  5
50
330
1F
100
AcDbEntity
  8
0
  6
Continuous
 62
     7
370
    15
100
AcDbSpline
210
0.0
220
0.0
230
1.0
 70
     8
 71
     3
 72
    36
 73
    32
 74
     0
 42
0.00000001
 43
0.00000001
 40
0.0
 40
0.0
 40
0.0
 40
0.0
 40
0.0625000000000001
 40
0.0625000000000001
 40
0.1250000000000001
 40
0.1250000000000001
 40
0.1875000000000002
 40
0.1875000000000002
 40
0.2500000000000003
 40
0.2500000000000003
 40
0.3125000000000003
 40
0.3125000000000003
 40
0.3750000000000004
 40
0.3750000000000004
 40
0.5000000000000002
 40
0.5000000000000002
 40
0.5625
 40
0.5625
 40
0.6249999999999997
 40
0.6249999999999997
 40
0.6874999999999998
 40
0.6874999999999998
 40
0.7499999999999998
 40
0.7499999999999998
 40
0.8124999999999999
 40
0.8124999999999999
 40
0.875
 40
0.875
 40
0.9375
 40
0.9375
 40
1.0
 40
1.0
 40
1.0
 40
1.0
 10
105.6300578034682
 20
103.2196531791908
 30
0.0
 10
105.6300578034682
 20
103.3515852431016
 30
0.0
 10
105.6429841605246
 20
103.4812627690914
 30
0.0
 10
105.6935729060199
 20
103.7363034302928
 30
0.0
 10
105.7318327835304
 20
103.8629611946589
 30
0.0
 10
105.8317704161177
 20
104.1046762871261
 30
0.0
 10
105.8929143003797
 20
104.219309072016
 30
0.0
 10
106.0373096327965
 20
104.4362602312848
 30
0.0
 10
106.1213988524737
 20
104.5390849138493
 30
0.0
 10
106.305196731633
 20
104.7235464843077
 30
0.0
 10
106.4054787721376
 20
104.8063504911552
 30
0.0
 10
106.6231817265121
 20
104.9526859917547
 30
0.0
 10
106.7395069199262
 20
105.0151638327258
 30
0.0
 10
107.0998273541458
 20
105.1655753778287
 30
0.0
 10
107.3630446651218
 20
105.2188657180605
 30
0.0
 10
107.75461703044
 20
105.2200335672375
 30
0.0
 10
107.8872435625316
 20
105.2073796764005
 30
0.0
 10
108.144621363154
 20
105.1567710087041
 30
0.0
 10
108.2696393557606
 20
105.1191666531956
 30
0.0
 10
108.5123240216129
 20
105.019326016203
 30
0.0
 10
108.6300250557222
 20
104.9566474223521
 30
0.0
 10
108.8475863061487
 20
104.8117297638803
 30
0.0
 10
108.9488857397387
 20
104.7290097900813
 30
0.0
 10
109.1360188667858
 20
104.5423571445957
 30
0.0
 10
109.2193940923524
 20
104.4407328711716
 30
0.0
 10
109.3645750213361
 20
104.22388197496
 30
0.0
 10
109.4272244298852
 20
104.1070300894038
 30
0.0
 10
109.5278267989269
 20
103.8644155414312
 30
0.0
 10
109.5656663047046
 20
103.7397172407778
 30
0.0
 10
109.6168516312649
 20
103.4836554216855
 30
0.0
 10
109.6300578034682
 20
103.3515871945187
 30
0.0
 10
109.6300578034682
 20
103.2196531791908
 30
0.0
  0
LINE
  5
51
330
1F
100
AcDbEntity
  8
0
  6
Continuous
 62
     7
370
    15
100
AcDbLine
 10
98.6300577085
 20
76.2196535964
 30
0.0
 11
98.6300577085
 21
105.219652762
 31
0.0
  0
SPLINE
  5
52
330
1F
100
AcDbEntity
  8
0
  6
Continuous
 62
     7
370
    15
100
AcDbSpline
210
0.0
220
0.0
230
1.0
 70
     8
 71
     3
 72
    36
 73
    32
 74
     0
 42
0.00000001
 43
0.00000001
 40
0.0
 40
0.0
 40
0.0
 40
0.0
 40
0.0625000000000006
 40
0.0625000000000006
 40
0.1250000000000011
 40
0.1250000000000011
 40
0.1875000000000017
 40
0.1875000000000017
 40
0.2500000000000015
 40
0.2500000000000015
 40
0.3125000000000014
 40
0.3125000000000014
 40
0.3750000000000013
 40
0.3750000000000013
 40
0.500000000000001
 40
0.500000000000001
 40
0.5625000000000009
 40
0.5625000000000009
 40
0.6250000000000008
 40
0.6250000000000008
 40
0.6875000000000007
 40
0.6875000000000007
 40
0.7500000000000006
 40
0.7500000000000006
 40
0.8125000000000004
 40
0.8125000000000004
 40
0.8750000000000003
 40
0.8750000000000003
 40
0.9375000000000002
 40
0.9375000000000002
 40
1.0
 40
1.0
 40
1.0
 40
1.0
 10
102.6300578034683
 20
76.21965317919077
 30
0.0
 10
102.6300578034683
 20
76.08790344745852
 30
0.0
 10
102.6171664834661
 20
75.95833387702864
 30
0.0
 10
102.5666398566702
 20
75.70337938068718
 30
0.0
 10
102.528406719448
 20
75.57669503962376
 30
0.0
 10
102.4284450811384
 20
75.3348215706057
 30
0.0
 10
102.3672538072722
 20
75.22006368749928
 30
0.0
 10
102.2226359834944
 20
75.00280320978737
 30
0.0
 10
102.1383573812603
 20
74.89978261988205
 30
0.0
 10
101.9540805076196
 20
74.7149971425534
 30
0.0
 10
101.853506072908
 20
74.63205449235737
 30
0.0
 10
101.6350831791
 20
74.4855196051064
 30
0.0
 10
101.518399627778
 20
74.42302444173697
 30
0.0
 10
101.1569480898495
 20
74.27273492349327
 30
0.0
 10
100.8930606044898
 20
74.21985210594102
 30
0.0
 10
100.5008320680613
 20
74.21955457892437
 30
0.0
 10
100.3680410361683
 20
74.23255907518657
 30
0.0
 10
100.1108267149765
 20
74.28378261501086
 30
0.0
 10
99.98589931364167
 20
74.3216855703859
 30
0.0
 10
99.74342034855276
 20
74.42212842897754
 30
0.0
 10
99.62613677031277
 20
74.48495879756598
 30
0.0
 10
99.40928096001608
 20
74.6300853332202
 30
0.0
 10
99.30829076136708
 20
74.71288267748223
 30
0.0
 10
99.1217177100699
 20
74.89967756538157
 30
0.0
 10
99.03895754065604
 20
75.00090745601933
 30
0.0
 10
98.89441739597535
 20
75.21740891757207
 30
0.0
 10
98.83199774190224
 20
75.33415151089359
 30
0.0
 10
98.73192295657658
 20
75.57605602834921
 30
0.0
 10
98.6942337403407
 20
75.70045382653839
 30
0.0
 10
98.64322712588242
 20
75.95605001194487
 30
0.0
 10
98.63005780346826
 20
76.08790138761486
 30
0.0
 10
98.63005780346826
 20
76.21965317919077
 30
0.0
  0
LINE
  5
53
330
1F
100
AcDbEntity
  8
0
  6
Continuous
 62
     7
370
    15
100
AcDbLine
 10
102.6300578985
 20
105.219652762
 30
0.0
 11
102.6300578985
 21
76.2196535964
 31
0.0
  0
SPLINE
  5
54
330
1F
100
AcDbEntity
  8
0
  6
Continuous
 62
     7
370
    15
100
AcDbSpline
210
0.0
220
0.0
230
1.0
 70
     8
 71
     3
 72
    36
 73
    32
 74
     0
 42
0.00000001
 43
0.00000001
 40
0.0
 40
0.0
 40
0.0
 40
0.0
 40
0.0624999999999996
 40
0.0624999999999996
 40
0.1249999999999991
 40
0.1249999999999991
 40
0.1874999999999987
 40
0.1874999999999987
 40
0.249999999999999
 40
0.249999999999999
 40
0.3124999999999993
 40
0.3124999999999993
 40
0.3749999999999996
 40
0.3749999999999996
 40
0.5000000000000001
 40
0.5000000000000001
 40
0.5625000000000003
 40
0.5625000000000003
 40
0.6250000000000006
 40
0.6250000000000006
 40
0.6875000000000008
 40
0.6875000000000008
 40
0.750000000000001
 40
0.750000000000001
 40
0.8125000000000013
 40
0.8125000000000013
 40
0.8750000000000009
 40
0.8750000000000009
 40
0.9375000000000004
 40
0.9375000000000004
 40
1.0
 40
1.0
 40
1.0
 40
1.0
 10
98.63005780346826
 20
105.2196531791908
 30
0.0
 10
98.63005780346826
 20
105.351402910923
 30
0.0
 10
98.64294912347044
 20
105.4809724813529
 30
0.0
 10
98.69347575026634
 20
105.7359269776944
 30
0.0
 10
98.73170888748847
 20
105.8626113187578
 30
0.0
 10
98.8316705257981
 20
106.1044847877758
 30
0.0
 10
98.8928617996643
 20
106.2192426708823
 30
0.0
 10
99.0374796234421
 20
106.4365031485942
 30
0.0
 10
99.1217582256762
 20
106.5395237384995
 30
0.0
 10
99.30603509931687
 20
106.7243092158281
 30
0.0
 10
99.40660953402849
 20
106.8072518660242
 30
0.0
 10
99.62503242783654
 20
106.9537867532751
 30
0.0
 10
99.74171597915853
 20
107.0162819166446
 30
0.0
 10
100.103167517087
 20
107.1665714348883
 30
0.0
 10
100.3670550024468
 20
107.2194542524405
 30
0.0
 10
100.7592835388752
 20
107.2197517794571
 30
0.0
 10
100.8920745707682
 20
107.206747283195
 30
0.0
 10
101.1492888919601
 20
107.1555237433707
 30
0.0
 10
101.2742162932948
 20
107.1176207879956
 30
0.0
 10
101.5166952583837
 20
107.017177929404
 30
0.0
 10
101.6339788366237
 20
106.9543475608156
 30
0.0
 10
101.8508346469204
 20
106.8092210251613
 30
0.0
 10
101.9518248455694
 20
106.7264236808993
 30
0.0
 10
102.1383978968666
 20
106.539628793
 30
0.0
 10
102.2211580662805
 20
106.4383989023622
 30
0.0
 10
102.3656982109612
 20
106.2218974408095
 30
0.0
 10
102.4281178650343
 20
106.105154847488
 30
0.0
 10
102.5281926503599
 20
105.8632503300323
 30
0.0
 10
102.5658818665958
 20
105.7388525318432
 30
0.0
 10
102.6168884810541
 20
105.4832563464367
 30
0.0
 10
102.6300578034683
 20
105.3514049707667
 30
0.0
 10
102.6300578034683
 20
105.2196531791908
 30
0.0
  0
LINE
  5
55
330
1F
100
AcDbEntity
  8
0
  6
Continuous
 62
     7
370
    15
100
AcDbLine
 10
91.6300581909
 20
78.2196529929
 30
0.0
 11
91.6300581909
 21
103.2196533655
 31
0.0
  0
SPLINE
  5
56
330
1F
100
AcDbEntity
  8
0
  6
Continuous
 62
     7
370
    15
100
AcDbSpline
210
0.0
220
0.0
230
1.0
 70
     8
 71
     3
 72
    36
 73
    32
 74
     0
 42
0.00000001
 43
0.00000001
 40
0.0
 40
0.0
 40
0.0
 40
0.0
 40
0.0625000000000002
 40
0.0625000000000002
 40
0.1250000000000004
 40
0.1250000000000004
 40
0.1875000000000006
 40
0.1875000000000006
 40
0.2500000000000008
 40
0.2500000000000008
 40
0.312500000000001
 40
0.312500000000001
 40
0.3750000000000012
 40
0.3750000000000012
 40
0.5000000000000012
 40
0.5000000000000012
 40
0.5625000000000011
 40
0.5625000000000011
 40
0.6250000000000009
 40
0.6250000000000009
 40
0.6875000000000008
 40
0.6875000000000008
 40
0.7500000000000007
 40
0.7500000000000007
 40
0.8125000000000006
 40
0.8125000000000006
 40
0.8750000000000003
 40
0.8750000000000003
 40
0.9375000000000002
 40
0.9375000000000002
 40
1.0
 40
1.0
 40
1.0
 40
1.0
 10
95.63005780346826
 20
78.21965317919077
 30
0.0
 10
95.63005780346826
 20
78.08772111527992
 30
0.0
 10
95.6171314464119
 20
77.95804358929013
 30
0.0
 10
95.56654270091659
 20
77.70300292808871
 30
0.0
 10
95.52828282340606
 20
77.57634516372264
 30
0.0
 10
95.42834519081876
 20
77.33463007125543
 30
0.0
 10
95.36720130655681
 20
77.21999728636555
 30
0.0
 10
95.22280597413996
 20
77.00304612709674
 30
0.0
 10
95.13871675446278
 20
76.90022144453225
 30
0.0
 10
94.95491887530346
 20
76.71575987407384
 30
0.0
 10
94.85463683479887
 20
76.63295586722634
 30
0.0
 10
94.63693388042438
 20
76.48662036662687
 30
0.0
 10
94.5206086870103
 20
76.4241425256558
 30
0.0
 10
94.16028825279074
 20
76.27373098055283
 30
0.0
 10
93.89707094181468
 20
76.2204406403211
 30
0.0
 10
93.50549857649652
 20
76.21927279114405
 30
0.0
 10
93.37287204440493
 20
76.23192668198102
 30
0.0
 10
93.11549424378252
 20
76.28253534967747
 30
0.0
 10
92.99047625117592
 20
76.32013970518592
 30
0.0
 10
92.74779158532365
 20
76.41998034217859
 30
0.0
 10
92.63009055121431
 20
76.48265893602942
 30
0.0
 10
92.41252930078782
 20
76.62757659450125
 30
0.0
 10
92.31122986719782
 20
76.71029656830027
 30
0.0
 10
92.12409674015073
 20
76.8969492137859
 30
0.0
 10
92.04072151458412
 20
76.99857348720994
 30
0.0
 10
91.8955405856004
 20
77.2154243834216
 30
0.0
 10
91.8328911770513
 20
77.33227626897778
 30
0.0
 10
91.7322888080096
 20
77.5748908169503
 30
0.0
 10
91.69444930223187
 20
77.69958911760378
 30
0.0
 10
91.64326397567164
 20
77.95565093669606
 30
0.0
 10
91.63005780346828
 20
78.08771916386281
 30
0.0
 10
91.63005780346828
 20
78.21965317919077
 30
0.0
  0
LINE
  5
57
330
1F
100
AcDbEntity
  8
0
  6
Continuous
 62
     7
370
    15
100
AcDbLine
 10
95.6300579152
 20
103.2196533655
 30
0.0
 11
95.6300579152
 21
78.2196529929
 31
0.0
  0
SPLINE
  5
58
330
1F
100
AcDbEntity
  8
0
  6
Continuous
 62
     7
370
    15
100
AcDbSpline
210
0.0
220
0.0
230
1.0
 70
     8
 71
     3
 72
    34
 73
    30
 74
     0
 42
0.00000001
 43
0.00000001
 40
0.0
 40
0.0
 40
0.0
 40
0.0
 40
0.0625000000000003
 40
0.0625000000000003
 40
0.1250000000000006
 40
0.1250000000000006
 40
0.1875000000000009
 40
0.1875000000000009
 40
0.2500000000000012
 40
0.2500000000000012
 40
0.3750000000000012
 40
0.3750000000000012
 40
0.5000000000000012
 40
0.5000000000000012
 40
0.5625000000000011
 40
0.5625000000000011
 40
0.6250000000000009
 40
0.6250000000000009
 40
0.6875000000000008
 40
0.6875000000000008
 40
0.7500000000000006
 40
0.7500000000000006
 40
0.8125000000000004
 40
0.8125000000000004
 40
0.8750000000000003
 40
0.8750000000000003
 40
0.9375000000000001
 40
0.9375000000000001
 40
1.0
 40
1.0
 40
1.0
 40
1.0
 10
91.63005780346828
 20
103.2196531791908
 30
0.0
 10
91.63005780346828
 20
103.3515779087795
 30
0.0
 10
91.6429833092538
 20
103.4813716891708
 30
0.0
 10
91.69370561252342
 20
103.7368589570461
 30
0.0
 10
91.73211880991305
 20
103.863880524609
 30
0.0
 10
91.8325034354766
 20
104.1062193583089
 30
0.0
 10
91.89396704365782
 20
104.221210860925
 30
0.0
 10
92.03929474437443
 20
104.4389159916978
 30
0.0
 10
92.12394612512077
 20
104.5420458770693
 30
0.0
 10
92.40141908439178
 20
104.8192863365788
 30
0.0
 10
92.62526970786115
 20
104.9685403561229
 30
0.0
 10
93.1080462181833
 20
105.1679112163972
 30
0.0
 10
93.37186457991218
 20
105.220055363038
 30
0.0
 10
93.76379960874452
 20
105.2194484909612
 30
0.0
 10
93.8964010675632
 20
105.206146585907
 30
0.0
 10
94.15275707747386
 20
105.1545640965742
 30
0.0
 10
94.27734336861052
 20
105.1165423893347
 30
0.0
 10
94.51928686324916
 20
105.0158822730546
 30
0.0
 10
94.63599054659288
 20
104.9531535048447
 30
0.0
 10
94.85207945554583
 20
104.8082334083848
 30
0.0
 10
94.95285935778526
 20
104.7254953511347
 30
0.0
 10
95.13899839784384
 20
104.538919218151
 30
0.0
 10
95.22138799472623
 20
104.4380768684307
 30
0.0
 10
95.36568068076552
 20
104.2219012981276
 30
0.0
 10
95.42807765690739
 20
104.1052139699341
 30
0.0
 10
95.52806277127533
 20
103.8636022840453
 30
0.0
 10
95.56577645140754
 20
103.7392597582216
 30
0.0
 10
95.6168518347469
 20
103.483560659622
 30
0.0
 10
95.63005780346826
 20
103.351579660954
 30
0.0
 10
95.63005780346826
 20
103.2196531791908
 30
0.0
  0
LINE
  5
59
330
1F
100
AcDbEntity
  8
0
  6
Continuous
 62
     7
370
    15
100
AcDbLine
 10
112.6300579078
 20
82.1946373929
 30
0.0
 11
112.6300579078
 21
99.2446689655
 31
0.0
  0
SPLINE
  5
5A
330
1F
100
AcDbEntity
  8
0
  6
Continuous
 62
     7
370
    15
100
AcDbSpline
210
0.0
220
0.0
230
1.0
 70
     8
 71
     3
 72
    14
 73
    10
 74
     0
 42
0.00000001
 43
0.00000001
 40
0.0
 40
0.0
 40
0.0
 40
0.0
 40
0.25
 40
0.25
 40
0.5
 40
0.5
 40
0.75
 40
0.75
 40
1.0
 40
1.0
 40
1.0
 40
1.0
 10
114.4198823528381
 20
81.65925920886058
 30
0.0
 10
114.3041909628226
 20
81.48317812724183
 30
0.0
 10
114.1342994876355
 20
81.34948997308533
 30
0.0
 10
113.7408590697804
 20
81.2067400260193
 30
0.0
 10
113.5238940170153
 20
81.20108515005629
 30
0.0
 10
113.1260149423038
 20
81.32041543036922
 30
0.0
 10
112.9474916720888
 20
81.44558902414913
 30
0.0
 10
112.6998647434002
 20
81.77738442173036
 30
0.0
 10
112.6300578034683
 20
81.98435095390148
 30
0.0
 10
112.6300578034683
 20
82.19463753462897
 30
0.0
  0
ARC
  5
5B
330
1F
100
AcDbEntity
  8
0
  6
Continuous
 62
     7
370
    15
100
AcDbCircle
 10
100.6300578035
 20
90.7196531792
 30
0.0
 40
16.5
100
AcDbArc
 50
326.6936952297
 51
33.3063047703
  0
SPLINE
  5
5C
330
1F
100
AcDbEntity
  8
0
  6
Continuous
 62
     7
370
    15
100
AcDbSpline
210
0.0
220
0.0
230
1.0
 70
     8
 71
     3
 72
    14
 73
    10
 74
     0
 42
0.00000001
 43
0.00000001
 40
0.0
 40
0.0
 40
0.0
 40
0.0
 40
0.25
 40
0.25
 40
0.5
 40
0.5
 40
0.75
 40
0.75
 40
1.0
 40
1.0
 40
1.0
 40
1.0
 10
112.6300578034683
 20
99.24466882375258
 30
0.0
 10
112.6300578034683
 20
99.4549678436456
 30
0.0
 10
112.6983304116073
 20
99.65928764324289
 30
0.0
 10
112.9470995938935
 20
99.99376597319979
 30
0.0
 10
113.124759856136
 20
100.1181409131015
 30
0.0
 10
113.5219408126743
 20
100.2380060008885
 30
0.0
 10
113.7408665758339
 20
100.2321981552189
 30
0.0
 10
114.1312683783063
 20
100.0912787804363
 30
0.0
 10
114.3041819010727
 20
99.95614202302795
 30
0.0
 10
114.4198823528381
 20
99.78004714952098
 30
0.0
  0
CIRCLE
  5
5D
330
1F
100
AcDbEntity
  8
0
  6
Continuous
 62
     7
370
    15
100
AcDbCircle
 10
100.6300578035
 20
90.7196531792
 30
0.0
 40
32.5
  0
DIMENSION
  5
5E
330
1F
100
AcDbEntity
  8
0
  6
Continuous
 62
     7
370
     0
100
AcDbDimension
  2
*D2
 10
133.1300578035
 20
139.2196531792
 30
0.0
 11
99.3919075145
 21
139.2196531792
 31
0.0
 70
   160
  1
(%%c<>)
 71
     2
 42
-1.0
  3
SLDDIMSTYLE0
100
AcDbAlignedDimension
 13
68.1300578035
 23
90.7196531792
 33
0.0
 14
133.1300578035
 24
90.7196531792
 34
0.0
100
AcDbRotatedDimension
  0
INSERT
  5
7F
330
1F
100
AcDbEntity
  8
0
  6
Continuous
 62
     7
370
     0
100
AcDbBlockReference
  2
SW_CENTERMARKSYMBOL_0
 10
100.6300578035
 20
90.7196531792
 30
0.0
  0
LINE
  5
80
330
1F
100
AcDbEntity
  8
0
  6
CENTER
 62
     7
370
     0
100
AcDbLine
 10
54.9065841302
 20
90.7317033612
 30
0.0
 11
145.0553911701
 21
90.7317033612
 31
0.0
  0
LINE
  5
81
330
1F
100
AcDbEntity
  8
0
  6
Continuous
 62
     7
370
     0
100
AcDbLine
 10
56.9065841302
 20
78.0317033612
 30
0.0
 11
56.9065841302
 21
90.7317033612
 31
0.0
  0
INSERT
  5
82
330
1F
100
AcDbEntity
  8
0
  6
Continuous
 62
     7
370
     0
100
AcDbBlockReference
  2
_CLOSED
 10
56.9065841302
 20
90.7317033612
 30
0.0
 41
6.35
 42
6.35
 50
90.0
  0
LINE
  5
83
330
1F
100
AcDbEntity
  8
0
  6
Continuous
 62
     7
370
     0
100
AcDbLine
 10
143.0553911701
 20
78.0317033612
 30
0.0
 11
143.0553911701
 21
90.7317033612
 31
0.0
  0
INSERT
  5
84
330
1F
100
AcDbEntity
  8
0
  6
Continuous
 62
     7
370
     0
100
AcDbBlockReference
  2
_CLOSED
 10
143.0553911701
 20
90.7317033612
 30
0.0
 41
6.35
 42
6.35
 50
90.0
  0
MTEXT
  5
85
330
1F
100
AcDbEntity
  8
0
  6
Continuous
 62
     7
100
AcDbMText
 10
58.2866127603
 20
83.5879561105
 30
0.0
 40
3.5
 41
0.0
 71
     1
 72
     1
  1
A
  7
SLDTEXTSTYLE0
 73
     1
 44
1.0
  0
MTEXT
  5
86
330
1F
100
AcDbEntity
  8
0
  6
Continuous
 62
     7
100
AcDbMText
 10
144.4354198001
 20
83.5879561105
 30
0.0
 40
3.5
 41
0.0
 71
     1
 72
     1
  1
A
  7
SLDTEXTSTYLE0
 73
     1
 44
1.0
  0
ARC
  5
87
330
1F
100
AcDbEntity
  8
0
  6
Continuous
 62
     7
370
    15
100
AcDbCircle
 10
179.2954668323
 20
239.2100432604
 30
0.0
 40
0.5
100
AcDbArc
 50
180.0
 51
270.0
  0
ARC
  5
88
330
1F
100
AcDbEntity
  8
0
  6
Continuous
 62
     7
370
    15
100
AcDbCircle
 10
238.2954668323
 20
239.2100432604
 30
0.0
 40
0.5
100
AcDbArc
 50
270.0
 51
0.0
  0
LINE
  5
89
330
1F
100
AcDbEntity
  8
0
  6
Continuous
 62
     7
370
    15
100
AcDbLine
 10
238.7954661618
 20
239.2100430063
 30
0.0
 11
238.7954661618
 21
241.2100433342
 31
0.0
  0
LINE
  5
8A
330
1F
100
AcDbEntity
  8
0
  6
Continuous
 62
     7
370
    15
100
AcDbLine
 10
178.7954675029
 20
241.2100433342
 30
0.0
 11
178.7954675029
 21
239.2100430063
 31
0.0
  0
LINE
  5
8B
330
1F
100
AcDbEntity
  8
0
  6
Continuous
 62
     7
370
    15
100
AcDbLine
 10
240.7954683523
 20
241.2100433342
 30
0.0
 11
240.7954683523
 21
241.9100430764
 31
0.0
  0
LINE
  5
8C
330
1F
100
AcDbEntity
  8
0
  6
Continuous
 62
     7
370
    15
100
AcDbLine
 10
176.7954653124
 20
241.9100430764
 30
0.0
 11
176.7954653124
 21
241.2100433342
 31
0.0
  0
LINE
  5
8D
330
1F
100
AcDbEntity
  8
0
  6
Continuous
 62
     7
370
    15
100
AcDbLine
 10
240.7954683523
 20
241.9100430764
 30
0.0
 11
240.7954683523
 21
243.9100434042
 31
0.0
  0
LINE
  5
8E
330
1F
100
AcDbEntity
  8
0
  6
Continuous
 62
     7
370
    15
100
AcDbLine
 10
176.7954653124
 20
243.9100434042
 30
0.0
 11
176.7954653124
 21
241.9100430764
 31
0.0
  0
LINE
  5
8F
330
1F
100
AcDbEntity
  8
0
  6
Continuous
 62
     7
370
    15
100
AcDbLine
 10
188.2954662661
 20
185.7100444816
 30
0.0
 11
190.2954665939
 21
183.7100404284
 31
0.0
  0
LINE
  5
90
330
1F
100
AcDbEntity
  8
0
  6
Continuous
 62
     7
370
    15
100
AcDbLine
 10
227.2954670708
 20
183.7100404284
 30
0.0
 11
229.2954673986
 21
185.7100444816
 31
0.0
  0
LINE
  5
91
330
1F
100
AcDbEntity
  8
0
  6
Continuous
 62
     7
370
    15
100
AcDbLine
 10
229.2954673986
 20
185.7100444816
 30
0.0
 11
229.2954673986
 21
233.7100430361
 31
0.0
  0
LINE
  5
92
330
1F
100
AcDbEntity
  8
0
  6
Continuous
 62
     7
370
    15
100
AcDbLine
 10
229.2954673986
 20
243.9100434042
 30
0.0
 11
229.2954673986
 21
253.7100432876
 31
0.0
  0
LINE
  5
93
330
1F
100
AcDbEntity
  8
0
  6
Continuous
 62
     7
370
    15
100
AcDbLine
 10
188.2954662661
 20
253.7100432876
 30
0.0
 11
188.2954662661
 21
243.9100434042
 31
0.0
  0
LINE
  5
94
330
1F
100
AcDbEntity
  8
0
  6
Continuous
 62
     7
370
    15
100
AcDbLine
 10
188.2954662661
 20
233.7100430361
 30
0.0
 11
188.2954662661
 21
185.7100444816
 31
0.0
  0
LINE
  5
95
330
1F
100
AcDbEntity
  8
0
  6
Continuous
 62
     7
370
    15
100
AcDbLine
 10
176.2954680244
 20
258.7100431758
 30
0.0
 11
176.2954680244
 21
257.9600432857
 31
0.0
  0
LINE
  5
96
330
1F
100
AcDbEntity
  8
0
  6
Continuous
 62
     7
370
    15
100
AcDbLine
 10
241.2954656403
 20
257.9600432857
 30
0.0
 11
241.2954656403
 21
258.7100431758
 31
0.0
  0
ARC
  5
97
330
1F
100
AcDbEntity
  8
0
  6
Continuous
 62
     7
370
    15
100
AcDbCircle
 10
174.0018249075
 20
234.0698945224
 30
0.0
 40
23.99999999999999
100
AcDbArc
 50
54.9189181885
 51
84.5159636337
  0
ARC
  5
98
330
1F
100
AcDbEntity
  8
0
  6
Continuous
 62
     7
370
    15
100
AcDbCircle
 10
243.5891087572
 20
234.0698945224
 30
0.0
 40
23.99999999999999
100
AcDbArc
 50
95.4840363663
 51
125.0810818115
  0
LINE
  5
99
330
1F
100
AcDbEntity
  8
0
  6
Continuous
 62
     7
370
    15
100
AcDbLine
 10
238.2954670112
 20
238.7100438557
 30
0.0
 11
179.2954666535
 21
238.7100438557
 31
0.0
  0
LINE
  5
9A
330
1F
100
AcDbEntity
  8
0
  6
Continuous
 62
     7
370
    15
100
AcDbLine
 10
209.0454668442
 20
233.7100430361
 30
0.0
 11
208.5454668205
 21
233.7100430361
 31
0.0
  0
LWPOLYLINE
  5
9B
330
1F
100
AcDbEntity
  8
0
  6
Continuous
 62
     7
370
    15
100
AcDbPolyline
 90
        9
 70
   128
 43
0.0
 10
208.5454668205
 20
233.7100430361
 10
208.496694243
 20
233.7196505598
 10
208.4497959814
 20
233.7481043271
 10
208.4065742611
 20
233.7943091027
 10
208.3686901252
 20
233.8564897857
 10
208.3375994344
 20
233.9322584651
 10
208.3144969593
 20
234.0187019638
 10
208.3002705122
 20
234.112497323
 10
208.2954668086
 20
234.2100440494
  0
LINE
  5
9C
330
1F
100
AcDbEntity
  8
0
  6
Continuous
 62
     7
370
    15
100
AcDbLine
 10
208.2954668086
 20
234.2100440494
 30
0.0
 11
209.2954668561
 21
234.2100440494
 31
0.0
  0
LWPOLYLINE
  5
9D
330
1F
100
AcDbEntity
  8
0
  6
Continuous
 62
     7
370
    15
100
AcDbPolyline
 90
        9
 70
   128
 43
0.0
 10
209.0454668442
 20
233.7100430361
 10
209.0942394217
 20
233.7196505598
 10
209.1411376833
 20
233.7481043271
 10
209.1843594036
 20
233.7943091027
 10
209.2222435395
 20
233.8564897857
 10
209.2533342303
 20
233.9322584651
 10
209.2764367054
 20
234.0187019638
 10
209.2906631525
 20
234.112497323
 10
209.2954668561
 20
234.2100440494
  0
LINE
  5
9E
330
1F
100
AcDbEntity
  8
0
  6
Continuous
 62
     7
370
    15
100
AcDbLine
 10
209.2954668561
 20
238.7100438557
 30
0.0
 11
209.2954668561
 21
234.2100440494
 31
0.0
  0
LINE
  5
9F
330
1F
100
AcDbEntity
  8
0
  6
Continuous
 62
     7
370
    15
100
AcDbLine
 10
208.2954668086
 20
234.2100440494
 30
0.0
 11
208.2954668086
 21
238.7100438557
 31
0.0
  0
LINE
  5
A0
330
1F
100
AcDbEntity
  8
0
  6
Continuous
 62
     7
370
    15
100
AcDbLine
 10
231.0454672198
 20
233.7100430361
 30
0.0
 11
209.0454668442
 21
233.7100430361
 31
0.0
  0
LINE
  5
A1
330
1F
100
AcDbEntity
  8
0
  6
Continuous
 62
     7
370
    15
100
AcDbLine
 10
209.2954668561
 20
234.2100440494
 30
0.0
 11
231.2954677264
 21
234.2100440494
 31
0.0
  0
LWPOLYLINE
  5
A2
330
1F
100
AcDbEntity
  8
0
  6
Continuous
 62
     7
370
    15
100
AcDbPolyline
 90
        9
 70
   128
 43
0.0
 10
231.0454672198
 20
233.7100430361
 10
231.0942387204
 20
233.7196505598
 10
231.1411382626
 20
233.7481043271
 10
231.1843590806
 20
233.7943091027
 10
231.2222434203
 20
233.8564897857
 10
231.2533346931
 20
233.9322584651
 10
231.2764370809
 20
234.0187019638
 10
231.2906639646
 20
234.112497323
 10
231.2954677264
 20
234.2100440494
  0
LINE
  5
A3
330
1F
100
AcDbEntity
  8
0
  6
Continuous
 62
     7
370
    15
100
AcDbLine
 10
186.2954659383
 20
234.2100440494
 30
0.0
 11
208.2954668086
 21
234.2100440494
 31
0.0
  0
LINE
  5
A4
330
1F
100
AcDbEntity
  8
0
  6
Continuous
 62
     7
370
    15
100
AcDbLine
 10
186.2954659383
 20
238.7100438557
 30
0.0
 11
186.2954659383
 21
234.2100440494
 31
0.0
  0
LINE
  5
A5
330
1F
100
AcDbEntity
  8
0
  6
Continuous
 62
     7
370
    15
100
AcDbLine
 10
208.5454668205
 20
233.7100430361
 30
0.0
 11
186.5454664449
 21
233.7100430361
 31
0.0
  0
LWPOLYLINE
  5
A6
330
1F
100
AcDbEntity
  8
0
  6
Continuous
 62
     7
370
    15
100
AcDbPolyline
 90
        9
 70
   128
 43
0.0
 10
186.5454664449
 20
233.7100430361
 10
186.4966949443
 20
233.7196505598
 10
186.4497954021
 20
233.7481043271
 10
186.4065745841
 20
233.7943091027
 10
186.3686902444
 20
233.8564897857
 10
186.3375989716
 20
233.9322584651
 10
186.3144965838
 20
234.0187019638
 10
186.3002697001
 20
234.112497323
 10
186.2954659383
 20
234.2100440494
  0
LINE
  5
A7
330
1F
100
AcDbEntity
  8
0
  6
Continuous
 62
     7
370
    15
100
AcDbLine
 10
231.2954677264
 20
234.2100440494
 30
0.0
 11
231.2954677264
 21
238.7100438557
 31
0.0
  0
ARC
  5
A8
330
1F
100
AcDbEntity
  8
0
  6
Continuous
 62
     7
370
    15
100
AcDbCircle
 10
186.2954668323
 20
234.2100432604
 30
0.0
 40
0.5
100
AcDbArc
 50
180.0
 51
270.0
  0
LINE
  5
A9
330
1F
100
AcDbEntity
  8
0
  6
Continuous
 62
     7
370
    15
100
AcDbLine
 10
185.7954667876
 20
234.2100440494
 30
0.0
 11
186.2954659383
 21
234.2100440494
 31
0.0
  0
LINE
  5
AA
330
1F
100
AcDbEntity
  8
0
  6
Continuous
 62
     7
370
    15
100
AcDbLine
 10
186.5454664449
 20
233.7100430361
 30
0.0
 11
186.2954659383
 21
233.7100430361
 31
0.0
  0
LINE
  5
AB
330
1F
100
AcDbEntity
  8
0
  6
Continuous
 62
     7
370
    15
100
AcDbLine
 10
185.7954667876
 20
234.2100440494
 30
0.0
 11
185.7954667876
 21
238.7100438557
 31
0.0
  0
LINE
  5
AC
330
1F
100
AcDbEntity
  8
0
  6
Continuous
 62
     7
370
    15
100
AcDbLine
 10
231.7954668771
 20
238.7100438557
 30
0.0
 11
231.7954668771
 21
234.2100440494
 31
0.0
  0
LINE
  5
AD
330
1F
100
AcDbEntity
  8
0
  6
Continuous
 62
     7
370
    15
100
AcDbLine
 10
231.2954677264
 20
234.2100440494
 30
0.0
 11
231.7954668771
 21
234.2100440494
 31
0.0
  0
ARC
  5
AE
330
1F
100
AcDbEntity
  8
0
  6
Continuous
 62
     7
370
    15
100
AcDbCircle
 10
231.2954668323
 20
234.2100432604
 30
0.0
 40
0.5
100
AcDbArc
 50
270.0
 51
0.0
  0
LINE
  5
AF
330
1F
100
AcDbEntity
  8
0
  6
Continuous
 62
     7
370
    15
100
AcDbLine
 10
231.2954677264
 20
233.7100430361
 30
0.0
 11
231.0454672198
 21
233.7100430361
 31
0.0
  0
LINE
  5
B0
330
1F
100
AcDbEntity
  8
0
  6
Continuous
 62
     7
370
    15
100
AcDbLine
 10
176.7954653124
 20
241.2100433342
 30
0.0
 11
240.7954683523
 21
241.2100433342
 31
0.0
  0
LINE
  5
B1
330
1F
100
AcDbEntity
  8
0
  6
Continuous
 62
     7
370
    15
100
AcDbLine
 10
176.7954653124
 20
241.9100430764
 30
0.0
 11
240.7954683523
 21
241.9100430764
 31
0.0
  0
LINE
  5
B2
330
1F
100
AcDbEntity
  8
0
  6
Continuous
 62
     7
370
    15
100
AcDbLine
 10
176.7954653124
 20
243.9100434042
 30
0.0
 11
240.7954683523
 21
243.9100434042
 31
0.0
  0
LINE
  5
B3
330
1F
100
AcDbEntity
  8
0
  6
Continuous
 62
     7
370
    15
100
AcDbLine
 10
188.2954662661
 20
185.7100444816
 30
0.0
 11
229.2954673986
 21
185.7100444816
 31
0.0
  0
LINE
  5
B4
330
1F
100
AcDbEntity
  8
0
  6
Continuous
 62
     7
370
    15
100
AcDbLine
 10
227.2954670708
 20
183.7100404284
 30
0.0
 11
190.2954665939
 21
183.7100404284
 31
0.0
  0
LINE
  5
B5
330
1F
100
AcDbEntity
  8
0
  6
Continuous
 62
     7
370
    15
100
AcDbLine
 10
208.7954668323
 20
257.9600432857
 30
0.0
 11
241.2954656403
 21
257.9600432857
 31
0.0
  0
LINE
  5
B6
330
1F
100
AcDbEntity
  8
0
  6
Continuous
 62
     7
370
    15
100
AcDbLine
 10
176.2954680244
 20
257.9600432857
 30
0.0
 11
208.7954668323
 21
257.9600432857
 31
0.0
  0
LINE
  5
B7
330
1F
100
AcDbEntity
  8
0
  6
Continuous
 62
     7
370
    15
100
AcDbLine
 10
208.7954668323
 20
258.7100431758
 30
0.0
 11
241.2954656403
 21
258.7100431758
 31
0.0
  0
LINE
  5
B8
330
1F
100
AcDbEntity
  8
0
  6
Continuous
 62
     7
370
    15
100
AcDbLine
 10
176.2954680244
 20
258.7100431758
 30
0.0
 11
208.7954668323
 21
258.7100431758
 31
0.0
  0
LINE
  5
B9
330
1F
100
AcDbEntity
  8
0
  6
Continuous
 62
     7
370
    15
100
AcDbLine
 10
208.7954668323
 20
253.7100432876
 30
0.0
 11
229.7954665492
 21
253.7100432876
 31
0.0
  0
LINE
  5
BA
330
1F
100
AcDbEntity
  8
0
  6
Continuous
 62
     7
370
    15
100
AcDbLine
 10
187.7954671155
 20
253.7100432876
 30
0.0
 11
208.7954668323
 21
253.7100432876
 31
0.0
  0
LINE
  5
BB
330
1F
100
AcDbEntity
  8
0
  6
Continuous
 62
     8
370
    15
100
AcDbLine
 10
178.7954675029
 20
239.2100430063
 30
0.0
 11
238.7954661618
 21
239.2100430063
 31
0.0
  0
DIMENSION
  5
BC
330
1F
100
AcDbEntity
  8
0
  6
Continuous
 62
     7
370
     0
100
AcDbDimension
  2
*D4
 10
176.7954668323
 20
170.8366039971
 30
0.0
 11
211.0201040033
 21
170.8366039971
 31
0.0
 70
   160
  1
%%c<>
 71
     2
 42
-1.0
  3
SLDDIMSTYLE0
100
AcDbAlignedDimension
 13
240.7954668323
 23
243.9100432604
 33
0.0
 14
176.7954668323
 24
243.9100432604
 34
0.0
100
AcDbRotatedDimension
  0
LINE
  5
C7
330
1F
100
AcDbEntity
  8
0
  6
Continuous
 62
     7
370
    15
100
AcDbLine
 10
80.8800606198
 20
233.7100430361
 30
0.0
 11
80.8800606198
 21
239.7100430883
 31
0.0
  0
LINE
  5
C8
330
1F
100
AcDbEntity
  8
0
  6
Continuous
 62
     7
370
    15
100
AcDbLine
 10
120.3800549871
 20
239.7100430883
 30
0.0
 11
120.3800549871
 21
233.7100430361
 31
0.0
  0
SPLINE
  5
C9
330
1F
100
AcDbEntity
  8
0
  6
Continuous
 62
     7
370
    15
100
AcDbSpline
210
0.0
220
0.0
230
1.0
 70
     8
 71
     3
 72
    13
 73
     9
 74
     0
 42
0.00000001
 43
0.00000001
 40
0.0
 40
0.0
 40
0.0
 40
0.0
 40
0.2098889222870538
 40
0.4245104447236786
 40
0.545609236501532
 40
0.7602784969590475
 40
0.9749456206214079
 40
1.0
 40
1.0
 40
1.0
 40
1.0
 10
74.22671822376684
 20
234.2100440494239
 30
0.0
 10
74.23197789604367
 20
234.1550884075702
 30
0.0
 10
74.24261583630758
 20
234.0439379775752
 30
0.0
 10
74.31504427330182
 20
233.9164577215072
 30
0.0
 10
74.41409527984314
 20
233.8121540866258
 30
0.0
 10
74.5393593293435
 20
233.7362582792493
 30
0.0
 10
74.65777059943248
 20
233.7109103495576
 30
0.0
 10
74.72026075154827
 20
233.7101251055505
 30
0.0
 10
74.72679188020662
 20
233.7100430361449
 30
0.0
  0
LINE
  5
CA
330
1F
100
AcDbEntity
  8
0
  6
Continuous
 62
     7
370
    15
100
AcDbLine
 10
127.0333973832
 20
234.2100440494
 30
0.0
 11
127.0333973832
 21
238.7100438557
 31
0.0
  0
SPLINE
  5
CB
330
1F
100
AcDbEntity
  8
0
  6
Continuous
 62
     7
370
    15
100
AcDbSpline
210
0.0
220
0.0
230
1.0
 70
     8
 71
     3
 72
    13
 73
     9
 74
     0
 42
0.00000001
 43
0.00000001
 40
0.0
 40
0.0
 40
0.0
 40
0.0
 40
0.1363532028483216
 40
0.3509791327367116
 40
0.4547647632241323
 40
0.6692697783719121
 40
0.8837746410549319
 40
1.0
 40
1.0
 40
1.0
 40
1.0
 10
126.5333237267299
 20
233.7100430361449
 30
0.0
 10
126.5689370899653
 20
233.7122938388855
 30
0.0
 10
126.660607451065
 20
233.7180875039947
 30
0.0
 10
126.7730953001835
 20
233.7653445169145
 30
0.0
 10
126.8856017743246
 20
233.8474517819147
 30
0.0
 10
126.9753041360161
 20
233.9570638871783
 30
0.0
 10
127.0270047531007
 20
234.0933403314251
 30
0.0
 10
127.0317350575233
 20
234.1796966679296
 30
0.0
 10
127.0333973831697
 20
234.2100440494239
 30
0.0
  0
LINE
  5
CC
330
1F
100
AcDbEntity
  8
0
  6
Continuous
 62
     7
370
    15
100
AcDbLine
 10
121.8800543017
 20
241.2100433342
 30
0.0
 11
120.3800549871
 21
239.7100430883
 31
0.0
  0
LINE
  5
CD
330
1F
100
AcDbEntity
  8
0
  6
Continuous
 62
     7
370
    15
100
AcDbLine
 10
130.6300552703
 20
241.2100433342
 30
0.0
 11
121.8800543017
 21
241.2100433342
 31
0.0
  0
LINE
  5
CE
330
1F
100
AcDbEntity
  8
0
  6
Continuous
 62
     7
370
    15
100
AcDbLine
 10
130.6300552703
 20
241.2100433342
 30
0.0
 11
130.6300552703
 21
239.2100430063
 31
0.0
  0
SPLINE
  5
CF
330
1F
100
AcDbEntity
  8
0
  6
Continuous
 62
     7
370
    15
100
AcDbSpline
210
0.0
220
0.0
230
1.0
 70
     8
 71
     3
 72
    12
 73
     8
 74
     0
 42
0.00000001
 43
0.00000001
 40
0.0
 40
0.0
 40
0.0
 40
0.0
 40
0.1910727043796259
 40
0.4057377729206274
 40
0.6204052850824514
 40
0.8350713999039198
 40
1.0
 40
1.0
 40
1.0
 40
1.0
 10
130.130056119637
 20
238.7100438557088
 30
0.0
 10
130.1800311733998
 20
238.7144334077871
 30
0.0
 10
130.2861518622816
 20
238.7237545041215
 30
0.0
 10
130.4334641286731
 20
238.8011689128035
 30
0.0
 10
130.5511560142324
 20
238.9237700204656
 30
0.0
 10
130.6192047645438
 20
239.0677837667425
 30
0.0
 10
130.6267688017753
 20
239.1669546452182
 30
0.0
 10
130.6300552702708
 20
239.2100430063426
 30
0.0
  0
LINE
  5
D0
330
1F
100
AcDbEntity
  8
0
  6
Continuous
 62
     7
370
    15
100
AcDbLine
 10
130.1300561196
 20
238.7100438557
 30
0.0
 11
127.0333973832
 21
238.7100438557
 31
0.0
  0
LINE
  5
D1
330
1F
100
AcDbEntity
  8
0
  6
Continuous
 62
     7
370
    15
100
AcDbLine
 10
126.5333237267
 20
233.7100430361
 30
0.0
 11
120.3800549871
 21
233.7100430361
 31
0.0
  0
SPLINE
  5
D2
330
1F
100
AcDbEntity
  8
0
  6
Continuous
 62
     7
370
    15
100
AcDbSpline
210
0.0
220
0.0
230
1.0
 70
     8
 71
     3
 72
    13
 73
     9
 74
     0
 42
0.00000001
 43
0.00000001
 40
0.0
 40
0.0
 40
0.0
 40
0.0
 40
0.044226829394774
 40
0.2588183264979669
 40
0.4734102241559259
 40
0.6077197132068066
 40
0.8223114640643305
 40
1.0
 40
1.0
 40
1.0
 40
1.0
 10
70.63006033666566
 20
239.2100430063426
 30
0.0
 10
70.63031193979614
 20
239.1985115312268
 30
0.0
 10
70.63178433793244
 20
239.1310285772742
 30
0.0
 10
70.66221959417115
 20
239.0084972124126
 30
0.0
 10
70.74362669968289
 20
238.8826547962309
 30
0.0
 10
70.85464623336455
 20
238.7854871062874
 30
0.0
 10
70.98101187260542
 20
238.7221990094704
 30
0.0
 10
71.08359369586742
 20
238.7138332410047
 30
0.0
 10
71.13005948729948
 20
238.7100438557088
 30
0.0
  0
LINE
  5
D3
330
1F
100
AcDbEntity
  8
0
  6
Continuous
 62
     7
370
    15
100
AcDbLine
 10
80.8800606198
 20
239.7100430883
 30
0.0
 11
79.3800613052
 21
241.2100433342
 31
0.0
  0
LINE
  5
D4
330
1F
100
AcDbEntity
  8
0
  6
Continuous
 62
     7
370
    15
100
AcDbLine
 10
74.2267182238
 20
238.7100438557
 30
0.0
 11
71.1300594873
 21
238.7100438557
 31
0.0
  0
LINE
  5
D5
330
1F
100
AcDbEntity
  8
0
  6
Continuous
 62
     7
370
    15
100
AcDbLine
 10
79.3800613052
 20
241.2100433342
 30
0.0
 11
70.6300603367
 21
241.2100433342
 31
0.0
  0
LINE
  5
D6
330
1F
100
AcDbEntity
  8
0
  6
Continuous
 62
     7
370
    15
100
AcDbLine
 10
70.6300603367
 20
239.2100430063
 30
0.0
 11
70.6300603367
 21
241.2100433342
 31
0.0
  0
LINE
  5
D7
330
1F
100
AcDbEntity
  8
0
  6
Continuous
 62
     7
370
    15
100
AcDbLine
 10
74.2267182238
 20
238.7100438557
 30
0.0
 11
74.2267182238
 21
234.2100440494
 31
0.0
  0
LINE
  5
D8
330
1F
100
AcDbEntity
  8
0
  6
Continuous
 62
     7
370
    15
100
AcDbLine
 10
80.8800606198
 20
233.7100430361
 30
0.0
 11
74.7267918802
 21
233.7100430361
 31
0.0
  0
LINE
  5
D9
330
1F
100
AcDbEntity
  8
0
  6
Continuous
 62
     7
370
    15
100
AcDbLine
 10
79.6300618119
 20
241.2100433342
 30
0.0
 11
79.6300618119
 21
241.9100430764
 31
0.0
  0
LINE
  5
DA
330
1F
100
AcDbEntity
  8
0
  6
Continuous
 62
     7
370
    15
100
AcDbLine
 10
68.6300600088
 20
241.2100433342
 30
0.0
 11
68.6300600088
 21
241.9100430764
 31
0.0
  0
LINE
  5
DB
330
1F
100
AcDbEntity
  8
0
  6
Continuous
 62
     7
370
    15
100
AcDbLine
 10
79.6300618119
 20
241.2100433342
 30
0.0
 11
68.6300600088
 21
241.2100433342
 31
0.0
  0
LINE
  5
DC
330
1F
100
AcDbEntity
  8
0
  6
Continuous
 62
     7
370
    15
100
AcDbLine
 10
79.6300618119
 20
241.9100430764
 30
0.0
 11
68.6300600088
 21
241.9100430764
 31
0.0
  0
LINE
  5
DD
330
1F
100
AcDbEntity
  8
0
  6
Continuous
 62
     7
370
    15
100
AcDbLine
 10
121.6300537951
 20
241.9100430764
 30
0.0
 11
121.6300537951
 21
241.2100433342
 31
0.0
  0
LINE
  5
DE
330
1F
100
AcDbEntity
  8
0
  6
Continuous
 62
     7
370
    15
100
AcDbLine
 10
132.6300555981
 20
241.9100430764
 30
0.0
 11
132.6300555981
 21
241.2100433342
 31
0.0
  0
LINE
  5
DF
330
1F
100
AcDbEntity
  8
0
  6
Continuous
 62
     7
370
    15
100
AcDbLine
 10
132.6300555981
 20
241.2100433342
 30
0.0
 11
121.6300537951
 21
241.2100433342
 31
0.0
  0
LINE
  5
E0
330
1F
100
AcDbEntity
  8
0
  6
Continuous
 62
     7
370
    15
100
AcDbLine
 10
132.6300555981
 20
241.9100430764
 30
0.0
 11
121.6300537951
 21
241.9100430764
 31
0.0
  0
LINE
  5
E1
330
1F
100
AcDbEntity
  8
0
  6
Continuous
 62
     7
370
    15
100
AcDbLine
 10
121.6300537951
 20
241.2100433342
 30
0.0
 11
121.1300546444
 21
241.2100433342
 31
0.0
  0
LINE
  5
E2
330
1F
100
AcDbEntity
  8
0
  6
Continuous
 62
     7
370
    15
100
AcDbLine
 10
80.1300609625
 20
241.2100433342
 30
0.0
 11
79.6300618119
 21
241.2100433342
 31
0.0
  0
LINE
  5
E3
330
1F
100
AcDbEntity
  8
0
  6
Continuous
 62
     7
370
    15
100
AcDbLine
 10
121.6300537951
 20
241.9100430764
 30
0.0
 11
121.1300546444
 21
241.9100430764
 31
0.0
  0
LINE
  5
E4
330
1F
100
AcDbEntity
  8
0
  6
Continuous
 62
     7
370
    15
100
AcDbLine
 10
80.1300609625
 20
241.9100430764
 30
0.0
 11
79.6300618119
 21
241.9100430764
 31
0.0
  0
LINE
  5
E5
330
1F
100
AcDbEntity
  8
0
  6
Continuous
 62
     7
370
    15
100
AcDbLine
 10
79.6300618119
 20
241.9100430764
 30
0.0
 11
79.6300618119
 21
243.9100434042
 31
0.0
  0
LINE
  5
E6
330
1F
100
AcDbEntity
  8
0
  6
Continuous
 62
     7
370
    15
100
AcDbLine
 10
121.6300537951
 20
243.9100434042
 30
0.0
 11
121.6300537951
 21
241.9100430764
 31
0.0
  0
LINE
  5
E7
330
1F
100
AcDbEntity
  8
0
  6
Continuous
 62
     7
370
    15
100
AcDbLine
 10
121.6300537951
 20
243.9100434042
 30
0.0
 11
121.1300546444
 21
243.9100434042
 31
0.0
  0
LINE
  5
E8
330
1F
100
AcDbEntity
  8
0
  6
Continuous
 62
     7
370
    15
100
AcDbLine
 10
80.1300609625
 20
243.9100434042
 30
0.0
 11
79.6300618119
 21
243.9100434042
 31
0.0
  0
LINE
  5
E9
330
1F
100
AcDbEntity
  8
0
  6
Continuous
 62
     7
370
    15
100
AcDbLine
 10
68.6300600088
 20
241.9100430764
 30
0.0
 11
68.6300600088
 21
243.9100434042
 31
0.0
  0
LINE
  5
EA
330
1F
100
AcDbEntity
  8
0
  6
Continuous
 62
     7
370
    15
100
AcDbLine
 10
79.6300618119
 20
243.9100434042
 30
0.0
 11
68.6300600088
 21
243.9100434042
 31
0.0
  0
LINE
  5
EB
330
1F
100
AcDbEntity
  8
0
  6
Continuous
 62
     7
370
    15
100
AcDbLine
 10
132.6300555981
 20
243.9100434042
 30
0.0
 11
132.6300555981
 21
241.9100430764
 31
0.0
  0
LINE
  5
EC
330
1F
100
AcDbEntity
  8
0
  6
Continuous
 62
     7
370
    15
100
AcDbLine
 10
132.6300555981
 20
243.9100434042
 30
0.0
 11
121.6300537951
 21
243.9100434042
 31
0.0
  0
LINE
  5
ED
330
1F
100
AcDbEntity
  8
0
  6
Continuous
 62
     7
370
    15
100
AcDbLine
 10
119.7300532974
 20
244.7100429765
 30
0.0
 11
119.7300532974
 21
253.2100432056
 31
0.0
  0
LINE
  5
EE
330
1F
100
AcDbEntity
  8
0
  6
Continuous
 62
     7
370
    15
100
AcDbLine
 10
81.5300623096
 20
253.2100432056
 30
0.0
 11
81.5300623096
 21
244.7100429765
 31
0.0
  0
LINE
  5
EF
330
1F
100
AcDbEntity
  8
0
  6
Continuous
 62
     7
370
    15
100
AcDbLine
 10
119.7300532974
 20
253.2100432056
 30
0.0
 11
119.6300534672
 21
253.2100432056
 31
0.0
  0
LINE
  5
F0
330
1F
100
AcDbEntity
  8
0
  6
Continuous
 62
     7
370
    15
100
AcDbLine
 10
81.6300621397
 20
253.2100432056
 30
0.0
 11
81.5300623096
 21
253.2100432056
 31
0.0
  0
LINE
  5
F1
330
1F
100
AcDbEntity
  8
0
  6
Continuous
 62
     7
370
    15
100
AcDbLine
 10
81.5300623096
 20
253.2100432056
 30
0.0
 11
81.0300612963
 21
253.7100432876
 31
0.0
  0
LINE
  5
F2
330
1F
100
AcDbEntity
  8
0
  6
Continuous
 62
     7
370
    15
100
AcDbLine
 10
120.2300543106
 20
253.7100432876
 30
0.0
 11
119.7300532974
 21
253.2100432056
 31
0.0
  0
LINE
  5
F3
330
1F
100
AcDbEntity
  8
0
  6
Continuous
 62
     7
370
    15
100
AcDbLine
 10
121.1300546444
 20
253.7100432876
 30
0.0
 11
120.2300543106
 21
253.7100432876
 31
0.0
  0
LINE
  5
F4
330
1F
100
AcDbEntity
  8
0
  6
Continuous
 62
     7
370
    15
100
AcDbLine
 10
118.6300533033
 20
244.7100429765
 30
0.0
 11
118.6300533033
 21
183.7100404284
 31
0.0
  0
LWPOLYLINE
  5
F5
330
1F
100
AcDbEntity
  8
0
  6
Continuous
 62
     7
370
    15
100
AcDbPolyline
 90
        3
 70
   128
 43
0.0
 10
119.1300543166
 20
183.7100404284
 10
120.6460314012
 20
185.2260249637
 10
121.1300546444
 20
185.7100444816
  0
LINE
  5
F6
330
1F
100
AcDbEntity
  8
0
  6
Continuous
 62
     7
370
    15
100
AcDbLine
 10
119.7300532974
 20
244.7100429765
 30
0.0
 11
118.6300533033
 21
244.7100429765
 31
0.0
  0
LINE
  5
F7
330
1F
100
AcDbEntity
  8
0
  6
Continuous
 62
     7
370
    15
100
AcDbLine
 10
121.1300546444
 20
253.7100432876
 30
0.0
 11
121.1300546444
 21
185.7100444816
 31
0.0
  0
LINE
  5
F8
330
1F
100
AcDbEntity
  8
0
  6
Continuous
 62
     7
370
    15
100
AcDbLine
 10
119.1300543166
 20
183.7100404284
 30
0.0
 11
118.6300533033
 21
183.7100404284
 31
0.0
  0
LINE
  5
F9
330
1F
100
AcDbEntity
  8
0
  6
Continuous
 62
     7
370
    15
100
AcDbLine
 10
82.6300623036
 20
183.7100404284
 30
0.0
 11
82.6300623036
 21
244.7100429765
 31
0.0
  0
LINE
  5
FA
330
1F
100
AcDbEntity
  8
0
  6
Continuous
 62
     7
370
    15
100
AcDbLine
 10
81.0300612963
 20
253.7100432876
 30
0.0
 11
80.1300609625
 21
253.7100432876
 31
0.0
  0
LINE
  5
FB
330
1F
100
AcDbEntity
  8
0
  6
Continuous
 62
     7
370
    15
100
AcDbLine
 10
80.1300609625
 20
185.7100444816
 30
0.0
 11
82.1300612903
 21
183.7100404284
 31
0.0
  0
LINE
  5
FC
330
1F
100
AcDbEntity
  8
0
  6
Continuous
 62
     7
370
    15
100
AcDbLine
 10
82.6300623036
 20
244.7100429765
 30
0.0
 11
81.5300623096
 21
244.7100429765
 31
0.0
  0
LINE
  5
FD
330
1F
100
AcDbEntity
  8
0
  6
Continuous
 62
     7
370
    15
100
AcDbLine
 10
80.1300609625
 20
185.7100444816
 30
0.0
 11
80.1300609625
 21
253.7100432876
 31
0.0
  0
LINE
  5
FE
330
1F
100
AcDbEntity
  8
0
  6
Continuous
 62
     7
370
    15
100
AcDbLine
 10
82.6300623036
 20
183.7100404284
 30
0.0
 11
82.1300612903
 21
183.7100404284
 31
0.0
  0
LINE
  5
FF
330
1F
100
AcDbEntity
  8
0
  6
Continuous
 62
     7
370
    15
100
AcDbLine
 10
118.6300533033
 20
244.7100429765
 30
0.0
 11
82.6300623036
 21
244.7100429765
 31
0.0
  0
LINE
  5
100
330
1F
100
AcDbEntity
  8
0
  6
Continuous
 62
     7
370
    15
100
AcDbLine
 10
118.6300533033
 20
183.7100404284
 30
0.0
 11
82.6300623036
 21
183.7100404284
 31
0.0
  0
LINE
  5
101
330
1F
100
AcDbEntity
  8
0
  6
Continuous
 62
     7
370
    15
100
AcDbLine
 10
86.8402335934
 20
254.8542350617
 30
0.0
 11
86.8402335934
 21
255.8612030901
 31
0.0
  0
LINE
  5
102
330
1F
100
AcDbEntity
  8
0
  6
Continuous
 62
     7
370
    15
100
AcDbLine
 10
114.4198820136
 20
254.8542350617
 30
0.0
 11
114.4198820136
 21
255.8612030901
 31
0.0
  0
LINE
  5
103
330
1F
100
AcDbEntity
  8
0
  6
Continuous
 62
     7
370
    15
100
AcDbLine
 10
114.4198820136
 20
255.8612030901
 30
0.0
 11
117.1300539888
 21
255.8612030901
 31
0.0
  0
LINE
  5
104
330
1F
100
AcDbEntity
  8
0
  6
Continuous
 62
     7
370
    15
100
AcDbLine
 10
117.1300539888
 20
245.7100431405
 30
0.0
 11
117.1300539888
 21
255.8612030901
 31
0.0
  0
LINE
  5
105
330
1F
100
AcDbEntity
  8
0
  6
Continuous
 62
     7
370
    15
100
AcDbLine
 10
117.1300539888
 20
245.7100431405
 30
0.0
 11
84.1300616182
 21
245.7100431405
 31
0.0
  0
LINE
  5
106
330
1F
100
AcDbEntity
  8
0
  6
Continuous
 62
     7
370
    15
100
AcDbLine
 10
84.1300616182
 20
255.8612030901
 30
0.0
 11
84.1300616182
 21
245.7100431405
 31
0.0
  0
LINE
  5
107
330
1F
100
AcDbEntity
  8
0
  6
Continuous
 62
     7
370
    15
100
AcDbLine
 10
84.1300616182
 20
255.8612030901
 30
0.0
 11
86.8402335934
 21
255.8612030901
 31
0.0
  0
ARC
  5
108
330
1F
100
AcDbEntity
  8
0
  6
Continuous
 62
     7
370
    15
100
AcDbCircle
 10
100.6300578035
 20
394.8854815743
 30
0.0
 40
139.999999481404
100
AcDbArc
 50
276.7684464981
 51
283.4232627142
  0
SPLINE
  5
109
330
1F
100
AcDbEntity
  8
0
  6
Continuous
 62
     7
370
    15
100
AcDbSpline
210
0.0
220
0.0
230
1.0
 70
     8
 71
     3
 72
    14
 73
    10
 74
     0
 42
0.00000001
 43
0.00000001
 40
0.0
 40
0.0
 40
0.0
 40
0.0
 40
0.25
 40
0.25
 40
0.5
 40
0.5
 40
0.75
 40
0.75
 40
1.0
 40
1.0
 40
1.0
 40
1.0
 10
112.6300578034683
 20
255.6614746349463
 30
0.0
 10
112.6300578034683
 20
255.6743517419484
 30
0.0
 10
112.6983304116073
 20
255.6932273020777
 30
0.0
 10
112.9470995938935
 20
255.7369090667276
 30
0.0
 10
113.124759856136
 20
255.7610970412172
 30
0.0
 10
113.5219408126743
 20
255.8054907962692
 30
0.0
 10
113.7408665758339
 20
255.8255612434009
 30
0.0
 10
114.1312683783063
 20
255.8533514473885
 30
0.0
 10
114.3041819010727
 20
255.861203119099
 30
0.0
 10
114.4198823528381
 20
255.861203119099
 30
0.0
  0
LINE
  5
10A
330
1F
100
AcDbEntity
  8
0
  6
Continuous
 62
     7
370
    15
100
AcDbLine
 10
112.6300579078
 20
255.4007158817
 30
0.0
 11
112.6300579078
 21
255.6614746193
 31
0.0
  0
ARC
  5
10B
330
1F
100
AcDbEntity
  8
0
  6
Continuous
 62
     7
370
    15
100
AcDbCircle
 10
100.6300578035
 20
394.8854815743
 30
0.0
 40
139.999999481404
100
AcDbArc
 50
273.6858418218
 51
274.9171003538
  0
LINE
  5
10C
330
1F
100
AcDbEntity
  8
0
  6
Continuous
 62
     7
370
    15
100
AcDbLine
 10
109.630057416
 20
255.735382749
 30
0.0
 11
109.630057416
 21
255.1750673067
 31
0.0
  0
SPLINE
  5
10D
330
1F
100
AcDbEntity
  8
0
  6
Continuous
 62
     7
370
    15
100
AcDbSpline
210
0.0
220
0.0
230
1.0
 70
     8
 71
     3
 72
    36
 73
    32
 74
     0
 42
0.00000001
 43
0.00000001
 40
0.0
 40
0.0
 40
0.0
 40
0.0
 40
0.0625000000000001
 40
0.0625000000000001
 40
0.1250000000000001
 40
0.1250000000000001
 40
0.1875000000000002
 40
0.1875000000000002
 40
0.2500000000000003
 40
0.2500000000000003
 40
0.3125000000000003
 40
0.3125000000000003
 40
0.3750000000000004
 40
0.3750000000000004
 40
0.5000000000000002
 40
0.5000000000000002
 40
0.5625
 40
0.5625
 40
0.6249999999999997
 40
0.6249999999999997
 40
0.6874999999999998
 40
0.6874999999999998
 40
0.7499999999999998
 40
0.7499999999999998
 40
0.8124999999999999
 40
0.8124999999999999
 40
0.875
 40
0.875
 40
0.9375
 40
0.9375
 40
1.0
 40
1.0
 40
1.0
 40
1.0
 10
105.6300578034682
 20
255.5343064806208
 30
0.0
 10
105.6300578034682
 20
255.5461409757213
 30
0.0
 10
105.6429841605246
 20
255.5584240698214
 30
0.0
 10
105.6935729060199
 20
255.5838495167778
 30
0.0
 10
105.7318327835304
 20
255.5971380981482
 30
0.0
 10
105.8317704161177
 20
255.6238550429308
 30
0.0
 10
105.8929143003797
 20
255.637218423831
 30
0.0
 10
106.0373096327965
 20
255.6639549457404
 30
0.0
 10
106.1213988524737
 20
255.677415721597
 30
0.0
 10
106.305196731633
 20
255.703223765049
 30
0.0
 10
106.4054787721376
 20
255.7157046154342
 30
0.0
 10
106.6231817265121
 20
255.7398003984035
 30
0.0
 10
106.7395069199262
 20
255.7512655910321
 30
0.0
 10
107.0998273541458
 20
255.7829092891458
 30
0.0
 10
107.3630446651218
 20
255.8009459675453
 30
0.0
 10
107.75461703044
 20
255.8207602941222
 30
0.0
 10
107.8872435625316
 20
255.8262990130554
 30
0.0
 10
108.144621363154
 20
255.8347060206007
 30
0.0
 10
108.2696393557606
 20
255.8376192245513
 30
0.0
 10
108.5123240216129
 20
255.8408612014228
 30
0.0
 10
108.6300250557222
 20
255.8411519399879
 30
0.0
 10
108.8475863061487
 20
255.8390767757182
 30
0.0
 10
108.9488857397387
 20
255.8367400943918
 30
0.0
 10
109.1360188667858
 20
255.8293815300919
 30
0.0
 10
109.2193940923524
 20
255.8244434048805
 30
0.0
 10
109.3645750213361
 20
255.8122595789918
 30
0.0
 10
109.4272244298852
 20
255.8049102692899
 30
0.0
 10
109.5278267989269
 20
255.7881694325453
 30
0.0
 10
109.5656663047046
 20
255.7788678429541
 30
0.0
 10
109.6168516312649
 20
255.7584355526606
 30
0.0
 10
109.6300578034682
 20
255.7472345317612
 30
0.0
 10
109.6300578034682
 20
255.7353827601444
 30
0.0
  0
LINE
  5
10E
330
1F
100
AcDbEntity
  8
0
  6
Continuous
 62
     7
370
    15
100
AcDbLine
 10
105.6300576917
 20
254.9747962969
 30
0.0
 11
105.6300576917
 21
255.5343064798
 31
0.0
  0
ARC
  5
10F
330
1F
100
AcDbEntity
  8
0
  6
Continuous
 62
     7
370
    15
100
AcDbCircle
 10
100.6300578035
 20
394.8854815743
 30
0.0
 40
139.999999481404
100
AcDbArc
 50
270.818538982
 51
272.0467131053
  0
LINE
  5
110
330
1F
100
AcDbEntity
  8
0
  6
Continuous
 62
     7
370
    15
100
AcDbLine
 10
102.6300578985
 20
255.6527627369
 30
0.0
 11
102.6300578985
 21
254.8997685365
 31
0.0
  0
SPLINE
  5
111
330
1F
100
AcDbEntity
  8
0
  6
Continuous
 62
     7
370
    15
100
AcDbSpline
210
0.0
220
0.0
230
1.0
 70
     8
 71
     3
 72
    36
 73
    32
 74
     0
 42
0.00000001
 43
0.00000001
 40
0.0
 40
0.0
 40
0.0
 40
0.0
 40
0.0624999999999996
 40
0.0624999999999996
 40
0.1249999999999991
 40
0.1249999999999991
 40
0.1874999999999987
 40
0.1874999999999987
 40
0.249999999999999
 40
0.249999999999999
 40
0.3124999999999993
 40
0.3124999999999993
 40
0.3749999999999996
 40
0.3749999999999996
 40
0.5000000000000001
 40
0.5000000000000001
 40
0.5625000000000003
 40
0.5625000000000003
 40
0.6250000000000006
 40
0.6250000000000006
 40
0.6875000000000008
 40
0.6875000000000008
 40
0.750000000000001
 40
0.750000000000001
 40
0.8125000000000013
 40
0.8125000000000013
 40
0.8750000000000009
 40
0.8750000000000009
 40
0.9375000000000004
 40
0.9375000000000004
 40
1.0
 40
1.0
 40
1.0
 40
1.0
 10
98.63005780346826
 20
255.6527627184605
 30
0.0
 10
98.63005780346826
 20
255.6664834238077
 30
0.0
 10
98.64294912347044
 20
255.6799791091499
 30
0.0
 10
98.69347575026634
 20
255.7065383530605
 30
0.0
 10
98.73170888748847
 20
255.7197373239722
 30
0.0
 10
98.8316705257981
 20
255.7449409610549
 30
0.0
 10
98.8928617996643
 20
255.7569006395169
 30
0.0
 10
99.0374796234421
 20
255.7795453994809
 30
0.0
 10
99.1217582256762
 20
255.790284509312
 30
0.0
 10
99.30603509931687
 20
255.8095488335654
 30
0.0
 10
99.40660953402849
 20
255.8181967930239
 30
0.0
 10
99.62503242783654
 20
255.8334762500104
 30
0.0
 10
99.74171597915853
 20
255.8399933558854
 30
0.0
 10
100.103167517087
 20
255.8556664994368
 30
0.0
 10
100.3670550024468
 20
255.8611823713713
 30
0.0
 10
100.7592835388752
 20
255.8612134029421
 30
0.0
 10
100.8920745707682
 20
255.859857036561
 30
0.0
 10
101.1492888919601
 20
255.8545146613015
 30
0.0
 10
101.2742162932948
 20
255.8505616197633
 30
0.0
 10
101.5166952583837
 20
255.8400867938054
 30
0.0
 10
101.6339788366237
 20
255.8335347336636
 30
0.0
 10
101.8508346469204
 20
255.8184021136844
 30
0.0
 10
101.9518248455694
 20
255.8097692797113
 30
0.0
 10
102.1383978968666
 20
255.7902954534414
 30
0.0
 10
102.2211580662805
 20
255.7797430107172
 30
0.0
 10
102.3656982109612
 20
255.7571773234939
 30
0.0
 10
102.4281178650343
 20
255.745010788639
 30
0.0
 10
102.5281926503599
 20
255.7198039039002
 30
0.0
 10
102.5658818665958
 20
255.7068431415283
 30
0.0
 10
102.6168884810541
 20
255.6802169993674
 30
0.0
 10
102.6300578034683
 20
255.6664836383243
 30
0.0
 10
102.6300578034683
 20
255.6527627184605
 30
0.0
  0
LINE
  5
112
330
1F
100
AcDbEntity
  8
0
  6
Continuous
 62
     7
370
    15
100
AcDbLine
 10
98.6300577085
 20
254.8997685365
 30
0.0
 11
98.6300577085
 21
255.6527627369
 31
0.0
  0
ARC
  5
113
330
1F
100
AcDbEntity
  8
0
  6
Continuous
 62
     7
370
    15
100
AcDbCircle
 10
100.6300578035
 20
394.8854815743
 30
0.0
 40
139.999999481404
100
AcDbArc
 50
267.9532868947
 51
269.181461018
  0
LINE
  5
114
330
1F
100
AcDbEntity
  8
0
  6
Continuous
 62
     7
370
    15
100
AcDbLine
 10
95.6300579152
 20
255.5343064798
 30
0.0
 11
95.6300579152
 21
254.9747962969
 31
0.0
  0
SPLINE
  5
115
330
1F
100
AcDbEntity
  8
0
  6
Continuous
 62
     7
370
    15
100
AcDbSpline
210
0.0
220
0.0
230
1.0
 70
     8
 71
     3
 72
    34
 73
    30
 74
     0
 42
0.00000001
 43
0.00000001
 40
0.0
 40
0.0
 40
0.0
 40
0.0
 40
0.0625000000000003
 40
0.0625000000000003
 40
0.1250000000000006
 40
0.1250000000000006
 40
0.1875000000000009
 40
0.1875000000000009
 40
0.2500000000000012
 40
0.2500000000000012
 40
0.3750000000000012
 40
0.3750000000000012
 40
0.5000000000000012
 40
0.5000000000000012
 40
0.5625000000000011
 40
0.5625000000000011
 40
0.6250000000000009
 40
0.6250000000000009
 40
0.6875000000000008
 40
0.6875000000000008
 40
0.7500000000000006
 40
0.7500000000000006
 40
0.8125000000000004
 40
0.8125000000000004
 40
0.8750000000000003
 40
0.8750000000000003
 40
0.9375000000000001
 40
0.9375000000000001
 40
1.0
 40
1.0
 40
1.0
 40
1.0
 10
91.63005780346828
 20
255.7353827601445
 30
0.0
 10
91.63005780346828
 20
255.7472336976135
 30
0.0
 10
91.6429833092538
 20
255.7582444911146
 30
0.0
 10
91.69370561252342
 20
255.7786484245594
 30
0.0
 10
91.73211880991305
 20
255.7881299086689
 30
0.0
 10
91.8325034354766
 20
255.8048569197218
 30
0.0
 10
91.89396704365782
 20
255.8120986973316
 30
0.0
 10
92.03929474437443
 20
255.82435190686
 30
0.0
 10
92.12394612512077
 20
255.8293611323075
 30
0.0
 10
92.40141908439178
 20
255.8403152350222
 30
0.0
 10
92.62526970786115
 20
255.8424637797778
 30
0.0
 10
93.1080462181833
 20
255.8360824492212
 30
0.0
 10
93.37186457991218
 20
255.8274885850806
 30
0.0
 10
93.76379960874452
 20
255.8077064053303
 30
0.0
 10
93.8964010675632
 20
255.7998369253871
 30
0.0
 10
94.15275707747386
 20
255.7823001089729
 30
0.0
 10
94.27734336861052
 20
255.7726141601262
 30
0.0
 10
94.51928686324916
 20
255.7513966345361
 30
0.0
 10
94.63599054659288
 20
255.7398898622208
 30
0.0
 10
94.85207945554583
 20
255.7160023770225
 30
0.0
 10
94.95285935778526
 20
255.7035023601846
 30
0.0
 10
95.13899839784384
 20
255.6773866665546
 30
0.0
 10
95.22138799472623
 20
255.6641893516355
 30
0.0
 10
95.36568068076552
 20
255.6375275677485
 30
0.0
 10
95.42807765690739
 20
255.6239167528257
 30
0.0
 10
95.52806277127533
 20
255.5972066898933
 30
0.0
 10
95.56577645140754
 20
255.5841532990025
 30
0.0
 10
95.6168518347469
 20
255.558644274037
 30
0.0
 10
95.63005780346826
 20
255.5461404749946
 30
0.0
 10
95.63005780346826
 20
255.5343064806208
 30
0.0
  0
LINE
  5
116
330
1F
100
AcDbEntity
  8
0
  6
Continuous
 62
     7
370
    15
100
AcDbLine
 10
91.6300581909
 20
255.1750673067
 30
0.0
 11
91.6300581909
 21
255.735382749
 31
0.0
  0
ARC
  5
117
330
1F
100
AcDbEntity
  8
0
  6
Continuous
 62
     7
370
    15
100
AcDbCircle
 10
100.6300578035
 20
394.8854815743
 30
0.0
 40
139.999999481404
100
AcDbArc
 50
265.0828996462
 51
266.3141581782
  0
LINE
  5
118
330
1F
100
AcDbEntity
  8
0
  6
Continuous
 62
     7
370
    15
100
AcDbLine
 10
88.6300576992
 20
255.6614746193
 30
0.0
 11
88.6300576992
 21
255.4007158817
 31
0.0
  0
SPLINE
  5
119
330
1F
100
AcDbEntity
  8
0
  6
Continuous
 62
     7
370
    15
100
AcDbSpline
210
0.0
220
0.0
230
1.0
 70
     8
 71
     3
 72
    14
 73
    10
 74
     0
 42
0.00000001
 43
0.00000001
 40
0.0
 40
0.0
 40
0.0
 40
0.0
 40
0.25
 40
0.25
 40
0.5
 40
0.5
 40
0.75
 40
0.75
 40
1.0
 40
1.0
 40
1.0
 40
1.0
 10
86.84023325409837
 20
255.8612031190991
 30
0.0
 10
86.95592464411396
 20
255.8612031190991
 30
0.0
 10
87.12581611930104
 20
255.8535446435891
 30
0.0
 10
87.5192565371561
 20
255.825583105424
 30
0.0
 10
87.73622158992123
 20
255.8056862025369
 30
0.0
 10
88.13410066463271
 20
255.7612600483413
 30
0.0
 10
88.31262393484771
 20
255.7369426675681
 30
0.0
 10
88.56025086353634
 20
255.6935316891143
 30
0.0
 10
88.63005780346825
 20
255.6743509802688
 30
0.0
 10
88.63005780346825
 20
255.6614746349463
 30
0.0
  0
ARC
  5
11A
330
1F
100
AcDbEntity
  8
0
  6
Continuous
 62
     7
370
    15
100
AcDbCircle
 10
100.6300578035
 20
394.8854815743
 30
0.0
 40
139.999999481404
100
AcDbArc
 50
256.5767372858
 51
263.2315535019
  0
LINE
  5
11B
330
1F
100
AcDbEntity
  8
0
  6
Continuous
 62
     7
370
    15
100
AcDbLine
 10
133.1300566114
 20
258.7100431758
 30
0.0
 11
68.1300589956
 21
258.7100431758
 31
0.0
  0
SPLINE
  5
11C
330
1F
100
AcDbEntity
  8
0
  6
Continuous
 62
     7
370
    15
100
AcDbSpline
210
0.0
220
0.0
230
1.0
 70
     8
 71
     3
 72
    17
 73
    13
 74
     0
 42
0.00000001
 43
0.00000001
 40
0.0
 40
0.0
 40
0.0
 40
0.0
 40
0.2500000000000002
 40
0.2500000000000002
 40
0.3750000000000002
 40
0.3750000000000002
 40
0.5000000000000003
 40
0.6250000000000004
 40
0.6250000000000004
 40
0.7500000000000004
 40
0.7500000000000004
 40
1.0
 40
1.0
 40
1.0
 40
1.0
 10
133.1300555695161
 20
257.9600432603754
 30
0.0
 10
132.1088274066747
 20
257.8619973422081
 30
0.0
 10
131.092000694655
 20
257.6985748703477
 30
0.0
 10
129.5736052636632
 20
257.3517749622706
 30
0.0
 10
129.0704115307322
 20
257.2194956861729
 30
0.0
 10
128.0775966622761
 20
256.9238456278422
 30
0.0
 10
127.0960055673963
 20
256.596584994771
 30
0.0
 10
126.1367772938242
 20
256.2063418336257
 30
0.0
 10
125.1888292990325
 20
255.7843289567905
 30
0.0
 10
124.7198888605204
 20
255.5570071146158
 30
0.0
 10
123.3462610760095
 20
254.8353849639157
 30
0.0
 10
122.4692735831532
 20
254.2994423023385
 30
0.0
 10
121.630056656808
 20
253.7100448831852
 30
0.0
  0
SPLINE
  5
11D
330
1F
100
AcDbEntity
  8
0
  6
Continuous
 62
     7
370
    15
100
AcDbSpline
210
0.0
220
0.0
230
1.0
 70
     8
 71
     3
 72
    18
 73
    14
 74
     0
 42
0.00000001
 43
0.00000001
 40
0.0
 40
0.0
 40
0.0
 40
0.0
 40
0.2499999999999996
 40
0.2499999999999996
 40
0.3749999999999993
 40
0.3749999999999993
 40
0.4999999999999991
 40
0.4999999999999991
 40
0.7499999999999996
 40
0.7499999999999996
 40
0.8749999999999998
 40
0.8749999999999998
 40
1.0
 40
1.0
 40
1.0
 40
1.0
 10
79.63005884689365
 20
253.7100449556889
 30
0.0
 10
78.78131461898647
 20
254.3061335665772
 30
0.0
 10
77.89741434746686
 20
254.8451021208627
 30
0.0
 10
76.51874383337721
 20
255.5677350709636
 30
0.0
 10
76.04905908554029
 20
255.7947767071613
 30
0.0
 10
75.10183319555577
 20
256.2153369775207
 30
0.0
 10
74.62357783647772
 20
256.4093357558964
 30
0.0
 10
73.17517339798461
 20
256.943501151824
 30
0.0
 10
72.19144084943187
 20
257.2360293417001
 30
0.0
 10
70.68876659334569
 20
257.5798656873557
 30
0.0
 10
70.18334881212755
 20
257.6786034488662
 30
0.0
 10
69.16331022664227
 20
257.8438031560796
 30
0.0
 10
68.64705481162686
 20
257.910407704709
 30
0.0
 10
68.13006003742045
 20
257.9600432603754
 30
0.0
  0
LINE
  5
11E
330
1F
100
AcDbEntity
  8
0
  6
Continuous
 62
     7
370
    15
100
AcDbLine
 10
81.6300584144
 20
245.7100431405
 30
0.0
 11
81.6300621397
 21
253.7100432876
 31
0.0
  0
LINE
  5
11F
330
1F
100
AcDbEntity
  8
0
  6
Continuous
 62
     7
370
    15
100
AcDbLine
 10
68.1300589956
 20
257.9600432857
 30
0.0
 11
68.1300589956
 21
258.7100431758
 31
0.0
  0
LINE
  5
120
330
1F
100
AcDbEntity
  8
0
  6
Continuous
 62
     7
370
    15
100
AcDbLine
 10
81.6300621397
 20
253.7100432876
 30
0.0
 11
79.6300580866
 21
253.7100432876
 31
0.0
  0
LINE
  5
121
330
1F
100
AcDbEntity
  8
0
  6
Continuous
 62
     7
370
    15
100
AcDbLine
 10
84.1300616182
 20
245.7100431405
 30
0.0
 11
81.6300584144
 21
245.7100431405
 31
0.0
  0
LINE
  5
122
330
1F
100
AcDbEntity
  8
0
  6
Continuous
 62
     7
370
    15
100
AcDbLine
 10
88.6300576992
 20
255.4007158817
 30
0.0
 11
88.6300576992
 21
254.3970478785
 31
0.0
  0
LINE
  5
123
330
1F
100
AcDbEntity
  8
0
  6
Continuous
 62
     7
370
    15
100
AcDbLine
 10
91.6300581909
 20
254.1730092692
 30
0.0
 11
91.6300581909
 21
255.1750673067
 31
0.0
  0
ARC
  5
124
330
1F
100
AcDbEntity
  8
0
  6
Continuous
 62
     7
370
    15
100
AcDbCircle
 10
100.6300578035
 20
394.8854815743
 30
0.0
 40
141.0000000000026
100
AcDbArc
 50
265.1178576675
 51
266.340334636
  0
LINE
  5
125
330
1F
100
AcDbEntity
  8
0
  6
Continuous
 62
     7
370
    15
100
AcDbLine
 10
112.6300579078
 20
254.3970484023
 30
0.0
 11
112.6300579078
 21
255.4007158817
 31
0.0
  0
LINE
  5
126
330
1F
100
AcDbEntity
  8
0
  6
Continuous
 62
     7
370
    15
100
AcDbLine
 10
109.630057416
 20
255.1750673067
 30
0.0
 11
109.630057416
 21
254.1730092692
 31
0.0
  0
ARC
  5
127
330
1F
100
AcDbEntity
  8
0
  6
Continuous
 62
     7
370
    15
100
AcDbCircle
 10
100.6300578035
 20
394.8854815743
 30
0.0
 40
140.9999994850845
100
AcDbArc
 50
273.659665364
 51
274.8821423503
  0
LINE
  5
128
330
1F
100
AcDbEntity
  8
0
  6
Continuous
 62
     7
370
    15
100
AcDbLine
 10
105.6300576917
 20
253.9741624698
 30
0.0
 11
105.6300576917
 21
254.9747962969
 31
0.0
  0
LINE
  5
129
330
1F
100
AcDbEntity
  8
0
  6
Continuous
 62
     7
370
    15
100
AcDbLine
 10
102.6300578985
 20
254.8997685365
 30
0.0
 11
102.6300578985
 21
253.8996671995
 31
0.0
  0
ARC
  5
12A
330
1F
100
AcDbEntity
  8
0
  6
Continuous
 62
     7
370
    15
100
AcDbCircle
 10
100.6300578035
 20
394.8854815743
 30
0.0
 40
140.9999994850845
100
AcDbArc
 50
270.8127333502
 51
272.0321912976
  0
LINE
  5
12B
330
1F
100
AcDbEntity
  8
0
  6
Continuous
 62
     7
370
    15
100
AcDbLine
 10
95.6300579152
 20
254.9747962969
 30
0.0
 11
95.6300579152
 21
253.974161946
 31
0.0
  0
LINE
  5
12C
330
1F
100
AcDbEntity
  8
0
  6
Continuous
 62
     7
370
    15
100
AcDbLine
 10
98.6300577085
 20
253.8996671995
 30
0.0
 11
98.6300577085
 21
254.8997685365
 31
0.0
  0
ARC
  5
12D
330
1F
100
AcDbEntity
  8
0
  6
Continuous
 62
     7
370
    15
100
AcDbCircle
 10
100.6300578035
 20
394.8854815743
 30
0.0
 40
141.0000000000026
100
AcDbArc
 50
267.9678087099
 51
269.1872666498
  0
LINE
  5
12E
330
1F
100
AcDbEntity
  8
0
  6
Continuous
 62
     7
370
    15
100
AcDbLine
 10
119.6300534672
 20
253.7100432876
 30
0.0
 11
119.6300571925
 21
245.7100431405
 31
0.0
  0
LINE
  5
12F
330
1F
100
AcDbEntity
  8
0
  6
Continuous
 62
     7
370
    15
100
AcDbLine
 10
133.1300566114
 20
258.7100431758
 30
0.0
 11
133.1300566114
 21
257.9600432857
 31
0.0
  0
LINE
  5
130
330
1F
100
AcDbEntity
  8
0
  6
Continuous
 62
     7
370
    15
100
AcDbLine
 10
121.6300575203
 20
253.7100432876
 30
0.0
 11
119.6300534672
 21
253.7100432876
 31
0.0
  0
LINE
  5
131
330
1F
100
AcDbEntity
  8
0
  6
Continuous
 62
     7
370
    15
100
AcDbLine
 10
119.6300571925
 20
245.7100431405
 30
0.0
 11
117.1300539888
 21
245.7100431405
 31
0.0
  0
SPLINE
  5
132
330
1F
100
AcDbEntity
  8
0
  6
Continuous
 62
     7
370
    15
100
AcDbSpline
210
0.0
220
0.0
230
1.0
 70
     8
 71
     3
 72
    14
 73
    10
 74
     0
 42
0.00000001
 43
0.00000001
 40
0.0
 40
0.0
 40
0.0
 40
0.0
 40
0.25
 40
0.25
 40
0.5
 40
0.5
 40
0.75
 40
0.75
 40
1.0
 40
1.0
 40
1.0
 40
1.0
 10
88.63005780346825
 20
254.6559407911642
 30
0.0
 10
88.63005780346825
 20
254.6687252219027
 30
0.0
 10
88.56178816211457
 20
254.6874652373747
 30
0.0
 10
88.31301250375975
 20
254.730834646845
 30
0.0
 10
88.13534389269773
 20
254.7548499600348
 30
0.0
 10
87.73814656134385
 20
254.7989260837005
 30
0.0
 10
87.51922104232096
 20
254.8188517586387
 30
0.0
 10
87.12882758846635
 20
254.8464408972583
 30
0.0
 10
86.95592745572347
 20
254.8542350612835
 30
0.0
 10
86.84023325409837
 20
254.8542350612835
 30
0.0
  0
SPLINE
  5
133
330
1F
100
AcDbEntity
  8
0
  6
Continuous
 62
     7
370
    15
100
AcDbSpline
210
0.0
220
0.0
230
1.0
 70
     8
 71
     3
 72
    14
 73
    10
 74
     0
 42
0.00000001
 43
0.00000001
 40
0.0
 40
0.0
 40
0.0
 40
0.0
 40
0.25
 40
0.25
 40
0.5
 40
0.5
 40
0.75
 40
0.75
 40
1.0
 40
1.0
 40
1.0
 40
1.0
 10
114.4198823528381
 20
254.8542350612835
 30
0.0
 10
114.3041971212938
 20
254.8542350612835
 30
0.0
 10
114.1343162940317
 20
254.8466324818469
 30
0.0
 10
113.7408922060336
 20
254.8188738441051
 30
0.0
 10
113.5239207727219
 20
254.7991198924073
 30
0.0
 10
113.1260320352102
 20
254.7550124021913
 30
0.0
 10
112.9474958448188
 20
254.7308680965279
 30
0.0
 10
112.6998624580997
 20
254.6877675840662
 30
0.0
 10
112.6300578034683
 20
254.6687244789054
 30
0.0
 10
112.6300578034683
 20
254.6559407911642
 30
0.0
  0
SPLINE
  5
134
330
1F
100
AcDbEntity
  8
0
  6
Continuous
 62
     7
370
    15
100
AcDbSpline
210
0.0
220
0.0
230
1.0
 70
     8
 71
     3
 72
    34
 73
    30
 74
     0
 42
0.00000001
 43
0.00000001
 40
0.0
 40
0.0
 40
0.0
 40
0.0
 40
0.0624999999999999
 40
0.0624999999999999
 40
0.1249999999999998
 40
0.1249999999999998
 40
0.1874999999999997
 40
0.1874999999999997
 40
0.2499999999999996
 40
0.2499999999999996
 40
0.3749999999999993
 40
0.3749999999999993
 40
0.4999999999999991
 40
0.4999999999999991
 40
0.5624999999999992
 40
0.5624999999999992
 40
0.6249999999999993
 40
0.6249999999999993
 40
0.6874999999999994
 40
0.6874999999999994
 40
0.7499999999999996
 40
0.7499999999999996
 40
0.8124999999999997
 40
0.8124999999999997
 40
0.8749999999999998
 40
0.8749999999999998
 40
0.9374999999999999
 40
0.9374999999999999
 40
1.0
 40
1.0
 40
1.0
 40
1.0
 10
109.6300578034682
 20
254.7293186702408
 30
0.0
 10
109.6300578034682
 20
254.74108478171
 30
0.0
 10
109.6171317751413
 20
254.752016637666
 30
0.0
 10
109.5664085006635
 20
254.7722741184876
 30
0.0
 10
109.5279948545195
 20
254.7816874470367
 30
0.0
 10
109.4276104520879
 20
254.7982941012746
 30
0.0
 10
109.3661474573326
 20
254.8054837136545
 30
0.0
 10
109.2208228235667
 20
254.8176486233919
 30
0.0
 10
109.1361741264201
 20
254.8226217237992
 30
0.0
 10
108.8587114107872
 20
254.833496967254
 30
0.0
 10
108.6348715796121
 20
254.8356302976879
 30
0.0
 10
108.1521168434542
 20
254.8292961245266
 30
0.0
 10
107.8883079254304
 20
254.8207650332708
 30
0.0
 10
107.4963825272026
 20
254.8011266021513
 30
0.0
 10
107.3637827992331
 20
254.7933141924345
 30
0.0
 10
107.1074248546588
 20
254.7759040427274
 30
0.0
 10
106.9828374261791
 20
254.7662879904155
 30
0.0
 10
106.7408912329797
 20
254.745223464879
 30
0.0
 10
106.6241810783889
 20
254.7337991437494
 30
0.0
 10
106.4080825129184
 20
254.7100829089964
 30
0.0
 10
106.3073016165559
 20
254.6976729411971
 30
0.0
 10
106.1211480216895
 20
254.6717434593626
 30
0.0
 10
106.0387528280383
 20
254.6586402871913
 30
0.0
 10
105.8944511430114
 20
254.6321687831785
 30
0.0
 10
105.8320507325151
 20
254.6186551901922
 30
0.0
 10
105.7320581309632
 20
254.5921352506577
 30
0.0
 10
105.6943422937676
 20
254.5791748782253
 30
0.0
 10
105.6432643278787
 20
254.5538478133936
 30
0.0
 10
105.6300578034682
 20
254.5414332186651
 30
0.0
 10
105.6300578034682
 20
254.5296836891069
 30
0.0
  0
SPLINE
  5
135
330
1F
100
AcDbEntity
  8
0
  6
Continuous
 62
     7
370
    15
100
AcDbSpline
210
0.0
220
0.0
230
1.0
 70
     8
 71
     3
 72
    36
 73
    32
 74
     0
 42
0.00000001
 43
0.00000001
 40
0.0
 40
0.0
 40
0.0
 40
0.0
 40
0.0625000000000001
 40
0.0625000000000001
 40
0.1250000000000003
 40
0.1250000000000003
 40
0.1875000000000004
 40
0.1875000000000004
 40
0.2500000000000006
 40
0.2500000000000006
 40
0.3125000000000007
 40
0.3125000000000007
 40
0.3750000000000008
 40
0.3750000000000008
 40
0.5000000000000007
 40
0.5000000000000007
 40
0.5625000000000007
 40
0.5625000000000007
 40
0.6250000000000006
 40
0.6250000000000006
 40
0.6875000000000006
 40
0.6875000000000006
 40
0.7500000000000004
 40
0.7500000000000004
 40
0.8125000000000003
 40
0.8125000000000003
 40
0.8750000000000002
 40
0.8750000000000002
 40
0.9375000000000002
 40
0.9375000000000002
 40
1.0
 40
1.0
 40
1.0
 40
1.0
 10
95.63005780346826
 20
254.5296836891069
 30
0.0
 10
95.63005780346826
 20
254.541433707056
 30
0.0
 10
95.61713094029787
 20
254.5536291779408
 30
0.0
 10
95.56653935434474
 20
254.5788733705151
 30
0.0
 10
95.52827686981026
 20
254.5920673248392
 30
0.0
 10
95.42833316119649
 20
254.6185937264527
 30
0.0
 10
95.36718538062632
 20
254.6318618155383
 30
0.0
 10
95.22277995044145
 20
254.658407712937
 30
0.0
 10
95.13868539488173
 20
254.6717723603906
 30
0.0
 10
94.95487755060802
 20
254.6973958114218
 30
0.0
 10
94.8545899943407
 20
254.7097873635609
 30
0.0
 10
94.63687453009621
 20
254.7337106757866
 30
0.0
 10
94.52054811893126
 20
254.7450931973944
 30
0.0
 10
94.16021898950858
 20
254.7765091279504
 30
0.0
 10
93.89700229919339
 20
254.7944152551098
 30
0.0
 10
93.5054345768558
 20
254.814085813757
 30
0.0
 10
93.37280988197334
 20
254.8195842448361
 30
0.0
 10
93.11544486736689
 20
254.8279297312703
 30
0.0
 10
92.99043195716116
 20
254.8308215940917
 30
0.0
 10
92.74775527609809
 20
254.8340396073966
 30
0.0
 10
92.63006189129914
 20
254.8343279723258
 30
0.0
 10
92.41251198207314
 20
254.8322674463748
 30
0.0
 10
92.31121636568476
 20
254.8299475235521
 30
0.0
 10
92.12408817120497
 20
254.8226417866314
 30
0.0
 10
92.04071857503102
 20
254.8177393966747
 30
0.0
 10
91.89554121021493
 20
254.8056433849897
 30
0.0
 10
91.83289197758515
 20
254.7983469327392
 30
0.0
 10
91.7322907992055
 20
254.7817266772081
 30
0.0
 10
91.69445090079631
 20
254.7724919891504
 30
0.0
 10
91.64326453004628
 20
254.7522063470408
 30
0.0
 10
91.63005780346826
 20
254.7410855998384
 30
0.0
 10
91.63005780346828
 20
254.7293186702408
 30
0.0
  0
SPLINE
  5
136
330
1F
100
AcDbEntity
  8
0
  6
Continuous
 62
     7
370
    15
100
AcDbSpline
210
0.0
220
0.0
230
1.0
 70
     8
 71
     3
 72
    20
 73
    16
 74
     0
 42
0.00000001
 43
0.00000001
 40
0.0
 40
0.0
 40
0.0
 40
0.0
 40
0.1249999999999998
 40
0.1249999999999998
 40
0.2499999999999997
 40
0.2499999999999997
 40
0.3749999999999995
 40
0.3749999999999995
 40
0.4999999999999993
 40
0.4999999999999993
 40
0.6249999999999991
 40
0.6249999999999991
 40
0.749999999999999
 40
0.749999999999999
 40
1.0
 40
1.0
 40
1.0
 40
1.0
 10
102.6300578034683
 20
254.6472913407221
 30
0.0
 10
102.6300578034683
 20
254.6609207834667
 30
0.0
 10
102.617153149137
 20
254.6743265396418
 30
0.0
 10
102.5665742614388
 20
254.7007084887984
 30
0.0
 10
102.5283001800554
 20
254.7138194027021
 30
0.0
 10
102.4282407887385
 20
254.7388521827971
 30
0.0
 10
102.3669902640043
 20
254.7507303802743
 30
0.0
 10
102.2222305560096
 20
254.7732198667101
 30
0.0
 10
102.1378744879083
 20
254.7838838798162
 30
0.0
 10
101.9534396240736
 20
254.8030109771848
 30
0.0
 10
101.852778909989
 20
254.8115965001963
 30
0.0
 10
101.6341639592217
 20
254.8267632246849
 30
0.0
 10
101.5174093824977
 20
254.833228898607
 30
0.0
 10
101.1557065775439
 20
254.8487746483962
 30
0.0
 10
100.8916700647674
 20
254.8542350612835
 30
0.0
 10
100.6300578034683
 20
254.8542350612835
 30
0.0
  0
SPLINE
  5
137
330
1F
100
AcDbEntity
  8
0
  6
Continuous
 62
     7
370
    15
100
AcDbSpline
210
0.0
220
0.0
230
1.0
 70
     8
 71
     3
 72
    20
 73
    16
 74
     0
 42
0.00000001
 43
0.00000001
 40
0.0
 40
0.0
 40
0.0
 40
0.0
 40
0.1250000000000007
 40
0.1250000000000007
 40
0.2500000000000014
 40
0.2500000000000014
 40
0.3750000000000021
 40
0.3750000000000021
 40
0.5000000000000014
 40
0.5000000000000014
 40
0.6250000000000008
 40
0.6250000000000008
 40
0.75
 40
0.75
 40
1.0
 40
1.0
 40
1.0
 40
1.0
 10
98.63005780346826
 20
254.6472913407221
 30
0.0
 10
98.63005780346826
 20
254.6609207834667
 30
0.0
 10
98.64296245779956
 20
254.6743265396418
 30
0.0
 10
98.69354134549768
 20
254.7007084887984
 30
0.0
 10
98.73181542688116
 20
254.7138194027021
 30
0.0
 10
98.83187481819805
 20
254.7388521827971
 30
0.0
 10
98.89312534293221
 20
254.7507303802743
 30
0.0
 10
99.03788505092687
 20
254.7732198667102
 30
0.0
 10
99.12224111902825
 20
254.7838838798162
 30
0.0
 10
99.30667598286288
 20
254.8030109771847
 30
0.0
 10
99.40733669694754
 20
254.8115965001963
 30
0.0
 10
99.62595164771477
 20
254.8267632246849
 30
0.0
 10
99.74270622443878
 20
254.833228898607
 30
0.0
 10
100.1044090293926
 20
254.8487746483963
 30
0.0
 10
100.3684455421692
 20
254.8542350612835
 30
0.0
 10
100.6300578034683
 20
254.8542350612835
 30
0.0
  0
HATCH
  5
138
330
1F
100
AcDbEntity
  8
0
  6
Continuous
 62
     7
370
     0
100
AcDbHatch
 10
0.0
 20
0.0
 30
0.0
210
0.0
220
0.0
230
1.0
  2
ANSI33
 70
     0
 71
     0
 91
        1
 92
        0
 93
        4
 72
     2
 10
100.6300578034683
 20
394.8854815743412
 40
140.9999994850845
 50
265.1178576675278
 51
266.340334635971
 73
     1
 72
     1
 10
91.63005780346828
 20
254.1730092956059
 11
91.63005780346828
 21
255.1750673068506
 72
     2
 10
100.6300578034682
 20
394.8854815743386
 40
139.999999481404
 50
93.68584182176144
 51
94.91710035378786
 73
     0
 72
     1
 10
88.63005780346826
 20
255.4007159015487
 11
88.63005780346826
 21
254.3970478867215
 97
        0
 75
     0
 76
     1
 52
0.0
 41
1.0
 77
     0
 78
     2
 53
45.0
 43
0.0
 44
0.0
 45
-4.490128060534576
 46
4.490128060534577
 79
     0
 53
45.0
 43
4.49013
 44
0.0
 45
-4.490128060534576
 46
4.490128060534577
 79
     2
 49
3.175
 49
-1.5875
 98
        1
 10
0.0
 20
0.0
  0
HATCH
  5
139
330
1F
100
AcDbEntity
  8
0
  6
Continuous
 62
     7
370
     0
100
AcDbHatch
 10
0.0
 20
0.0
 30
0.0
210
0.0
220
0.0
230
1.0
  2
ANSI33
 70
     0
 71
     0
 91
        1
 92
        0
 93
        4
 72
     2
 10
100.6300578034682
 20
394.8854815743386
 40
139.999999481404
 50
85.08289964621213
 51
86.31415817823857
 73
     0
 72
     1
 10
109.6300578034682
 20
255.1750673068506
 11
109.6300578034682
 21
254.1730092956059
 72
     2
 10
100.6300578034683
 20
394.8854815743412
 40
140.9999994850845
 50
273.6596653640306
 51
274.8821423503462
 73
     1
 72
     1
 10
112.6300578034683
 20
254.3970484035145
 11
112.6300578034683
 21
255.4007159015487
 97
        0
 75
     0
 76
     1
 52
0.0
 41
1.0
 77
     0
 78
     2
 53
45.0
 43
0.0
 44
0.0
 45
-4.490128060534576
 46
4.490128060534577
 79
     0
 53
45.0
 43
4.49013
 44
0.0
 45
-4.490128060534576
 46
4.490128060534577
 79
     2
 49
3.175
 49
-1.5875
 98
        1
 10
0.0
 20
0.0
  0
HATCH
  5
13A
330
1F
100
AcDbEntity
  8
0
  6
Continuous
 62
     7
370
     0
100
AcDbHatch
 10
0.0
 20
0.0
 30
0.0
210
0.0
220
0.0
230
1.0
  2
ANSI33
 70
     0
 71
     0
 91
        1
 92
        0
 93
        4
 72
     2
 10
100.6300578034682
 20
394.8854815743386
 40
139.999999481404
 50
87.95328689474265
 51
89.18146101799461
 73
     0
 72
     1
 10
102.6300578034683
 20
254.8997685362107
 11
102.6300578034683
 21
253.8996672000083
 72
     2
 10
100.6300578034683
 20
394.8854815743412
 40
140.9999994850845
 50
270.8127333501754
 51
272.0321912975629
 73
     1
 72
     1
 10
105.6300578034682
 20
253.9741624591124
 11
105.6300578034682
 21
254.9747962969334
 97
        0
 75
     0
 76
     1
 52
0.0
 41
1.0
 77
     0
 78
     2
 53
45.0
 43
0.0
 44
0.0
 45
-4.490128060534576
 46
4.490128060534577
 79
     0
 53
45.0
 43
4.49013
 44
0.0
 45
-4.490128060534576
 46
4.490128060534577
 79
     2
 49
3.175
 49
-1.5875
 98
        1
 10
0.0
 20
0.0
  0
HATCH
  5
13B
330
1F
100
AcDbEntity
  8
0
  6
Continuous
 62
     7
370
     0
100
AcDbHatch
 10
0.0
 20
0.0
 30
0.0
210
0.0
220
0.0
230
1.0
  2
ANSI33
 70
     0
 71
     0
 91
        1
 92
        0
 93
        4
 72
     2
 10
100.6300578034683
 20
394.8854815743412
 40
140.9999994850845
 50
267.9678087098632
 51
269.1872666498261
 73
     1
 72
     1
 10
98.63005780346826
 20
253.8996672000083
 11
98.63005780346826
 21
254.8997685362107
 72
     2
 10
100.6300578034682
 20
394.8854815743386
 40
139.999999481404
 50
90.81853898200536
 51
92.04671310525735
 73
     0
 72
     1
 10
95.63005780346826
 20
254.9747962969334
 11
95.63005780346826
 21
253.9741619438703
 97
        0
 75
     0
 76
     1
 52
0.0
 41
1.0
 77
     0
 78
     2
 53
45.0
 43
0.0
 44
0.0
 45
-4.490128060534576
 46
4.490128060534577
 79
     0
 53
45.0
 43
4.49013
 44
0.0
 45
-4.490128060534576
 46
4.490128060534577
 79
     2
 49
3.175
 49
-1.5875
 98
        1
 10
0.0
 20
0.0
  0
HATCH
  5
13C
330
1F
100
AcDbEntity
  8
0
  6
Continuous
 62
     7
370
     0
100
AcDbHatch
 10
0.0
 20
0.0
 30
0.0
210
0.0
220
0.0
230
1.0
  2
ANSI33
 70
     0
 71
     0
 91
        1
 92
        0
 93
        7
 72
     2
 10
100.6300578034682
 20
394.8854815743386
 40
139.999999481404
 50
76.57673728580808
 51
83.23155350186433
 73
     0
 72
     1
 10
117.130053403259
 20
255.861203119099
 11
117.130053403259
 21
245.7100432603754
 72
     1
 10
117.130053403259
 20
245.7100432603754
 11
119.6300578034683
 21
245.7100432603754
 72
     1
 10
119.6300578034683
 20
245.7100432603754
 11
119.630053982234
 21
253.7100432603754
 72
     1
 10
119.630053982234
 20
253.7100432603754
 11
121.6300578034682
 21
253.7100432603754
 72
     4
 94
        3
 73
     1
 74
     0
 95
       14
 96
       10
 40
0.1473752984576517
 40
0.1473752984576517
 40
0.1473752984576517
 40
0.1473752984576517
 40
0.1513708317588157
 40
0.1513708317588157
 40
0.1513708317588157
 40
0.1564145258397852
 40
0.1564145258397852
 40
0.1564145258397852
 40
0.1597894649334161
 40
0.1597894649334161
 40
0.1597894649334161
 40
0.1597894649334161
 10
121.630056656808
 20
253.7100448831852
 42
1.0
 10
122.7144554688552
 20
254.4716380316181
 42
1.0
 10
123.866062659034
 20
255.1454026298899
 42
1.0
 10
125.0613022843179
 20
255.7175452217853
 42
1.0
 10
126.5777485367484
 20
256.4434444230684
 42
1.0
 10
128.1796165113087
 20
257.0122098990123
 42
1.0
 10
129.8142821279819
 20
257.4051567256956
 42
1.0
 10
130.9038710901059
 20
257.6670760568963
 42
1.0
 10
132.0145574004039
 20
257.852946681781
 42
1.0
 10
133.1300555695161
 20
257.9600432603754
 42
1.0
 72
     1
 10
133.1300555695161
 20
257.9600432603754
 11
133.1300555695161
 21
258.7100432603754
 97
        0
 75
     0
 76
     1
 52
0.0
 41
1.0
 77
     0
 78
     2
 53
45.0
 43
0.0
 44
0.0
 45
-4.490128060534576
 46
4.490128060534577
 79
     0
 53
45.0
 43
4.49013
 44
0.0
 45
-4.490128060534576
 46
4.490128060534577
 79
     2
 49
3.175
 49
-1.5875
 98
        1
 10
0.0
 20
0.0
  0
HATCH
  5
13D
330
1F
100
AcDbEntity
  8
0
  6
Continuous
 62
     7
370
     0
100
AcDbHatch
 10
0.0
 20
0.0
 30
0.0
210
0.0
220
0.0
230
1.0
  2
ANSI33
 70
     0
 71
     0
 91
        1
 92
        0
 93
        7
 72
     2
 10
100.6300578034682
 20
394.8854815743386
 40
139.999999481404
 50
96.76844649813567
 51
103.4232627141919
 73
     0
 72
     1
 10
68.13006003742045
 20
258.7100432603754
 11
68.13006003742045
 21
257.9600432603754
 72
     4
 94
        3
 73
     1
 74
     0
 95
       14
 96
       10
 40
0.1429221662541068
 40
0.1429221662541068
 40
0.1429221662541068
 40
0.1429221662541068
 40
0.1432415441256392
 40
0.1432415441256392
 40
0.1432415441256392
 40
0.1513708308322654
 40
0.1513708308322654
 40
0.1513708308322654
 40
0.1553451994376105
 40
0.1553451994376105
 40
0.1553451994376105
 40
0.1553451994376105
 10
68.13006003742045
 20
257.9600432603754
 42
1.0
 10
68.23650319212737
 20
257.9498238821643
 42
1.0
 10
68.34288042188332
 20
257.9388928538544
 42
1.0
 10
68.44917747272845
 20
257.9272516401458
 42
1.0
 10
71.11938388731893
 20
257.6348216689343
 42
1.0
 10
73.77592562656172
 20
256.8773438236464
 42
1.0
 10
76.19881332261862
 20
255.7175452217853
 42
1.0
 10
77.39405291010382
 20
255.1454026479836
 42
1.0
 10
78.54566006513663
 20
254.4716380743371
 42
1.0
 10
79.63005884689365
 20
253.7100449556889
 42
1.0
 72
     1
 10
79.63005780346826
 20
253.7100432603754
 11
81.63006162470252
 21
253.7100432603754
 72
     1
 10
81.63006162470252
 20
253.7100432603754
 11
81.63005780346826
 21
245.7100432603754
 72
     1
 10
81.63005780346826
 20
245.7100432603754
 11
84.13006220367755
 21
245.7100432603754
 72
     1
 10
84.13006220367755
 20
245.7100432603754
 11
84.13006220367754
 21
255.861203119099
 97
        0
 75
     0
 76
     1
 52
0.0
 41
1.0
 77
     0
 78
     2
 53
45.0
 43
0.0
 44
0.0
 45
-4.490128060534576
 46
4.490128060534577
 79
     0
 53
45.0
 43
4.49013
 44
0.0
 45
-4.490128060534576
 46
4.490128060534577
 79
     2
 49
3.175
 49
-1.5875
 98
        1
 10
0.0
 20
0.0
  0
HATCH
  5
13E
330
1F
100
AcDbEntity
  8
0
  6
Continuous
 62
     7
370
     0
100
AcDbHatch
 10
0.0
 20
0.0
 30
0.0
210
0.0
220
0.0
230
1.0
  2
ANSI33
 70
     0
 71
     0
 91
        1
 92
        0
 93
        8
 72
     1
 10
119.7300540022405
 20
253.2100432603754
 11
119.7300540022405
 21
244.7100432603754
 72
     1
 10
119.7300540022405
 20
244.7100432603754
 11
118.6300537699432
 21
244.7100432603754
 72
     1
 10
118.6300537699432
 20
244.7100432603754
 11
118.6300537699432
 21
183.7100432603754
 72
     1
 10
118.6300537699432
 20
183.7100432603754
 11
119.1300538789574
 21
183.7100432603754
 72
     4
 94
        3
 73
     1
 74
     0
 95
       11
 96
        7
 40
0.0901278274484035
 40
0.0901278274484035
 40
0.0901278274484035
 40
0.0901278274484035
 40
0.0922845881717609
 40
0.0922845881717609
 40
0.0922845881717609
 40
0.0929731995034931
 40
0.0929731995034931
 40
0.0929731995034931
 40
0.0929731995034931
 10
119.1300538789574
 20
183.7100432603754
 42
1.0
 10
119.6353799820253
 20
184.2153692562456
 42
1.0
 10
120.1407060807263
 20
184.7206952564827
 42
1.0
 10
120.6460321759826
 20
185.2260212601645
 42
1.0
 10
120.8073728716124
 20
185.3873619265563
 42
1.0
 10
120.9687135668889
 20
185.5487025933014
 42
1.0
 10
121.1300542618365
 20
185.7100432603754
 42
1.0
 72
     1
 10
121.1300542618365
 20
185.7100432603754
 11
121.1300542618365
 21
253.7100432603754
 72
     1
 10
121.1300542618365
 20
253.7100432603754
 11
120.2300540992106
 21
253.7100432603754
 72
     4
 94
        3
 73
     1
 74
     0
 95
        8
 96
        4
 40
0.0332652952952695
 40
0.0332652952952695
 40
0.0332652952952695
 40
0.0332652952952695
 40
0.0339724021450243
 40
0.0339724021450243
 40
0.0339724021450243
 40
0.0339724021450243
 10
120.2300540992106
 20
253.7100432603754
 42
1.0
 10
120.0633874006328
 20
253.5433765932964
 42
1.0
 10
119.8967207016536
 20
253.376709926619
 42
1.0
 10
119.7300540022405
 20
253.2100432603754
 42
1.0
 97
        0
 75
     0
 76
     1
 52
90.0
 41
1.0
 77
     0
 78
     2
 53
135.0000000000002
 43
0.0
 44
0.0
 45
-4.490128060534562
 46
-4.490128060534592
 79
     0
 53
135.0000000000002
 43
-0.0000000000000157
 44
4.49013
 45
-4.490128060534562
 46
-4.490128060534592
 79
     2
 49
3.175
 49
-1.5875
 98
        1
 10
0.0
 20
0.0
  0
HATCH
  5
13F
330
1F
100
AcDbEntity
  8
0
  6
Continuous
 62
     7
370
     0
100
AcDbHatch
 10
0.0
 20
0.0
 30
0.0
210
0.0
220
0.0
230
1.0
  2
ANSI33
 70
     0
 71
     0
 91
        1
 92
        0
 93
        8
 72
     1
 10
81.53006160469606
 20
244.7100432603754
 11
81.53006160469606
 21
253.2100432603754
 72
     4
 94
        3
 73
     1
 74
     0
 95
        8
 96
        4
 40
0.0880006693643171
 40
0.0880006693643171
 40
0.0880006693643171
 40
0.0880006693643171
 40
0.0887082952314581
 40
0.0887082952314581
 40
0.0887082952314581
 40
0.0887082952314581
 10
81.53006160469606
 20
253.2100432603754
 42
1.0
 10
81.36339490528293
 20
253.376709926619
 42
1.0
 10
81.19672820630369
 20
253.5433765932964
 42
1.0
 10
81.03006150772593
 20
253.7100432603754
 42
1.0
 72
     1
 10
81.03006150772593
 20
253.7100432603754
 11
80.13006134509996
 21
253.7100432603754
 72
     1
 10
80.13006134509996
 20
253.7100432603754
 11
80.13006134509996
 21
185.7100432603754
 72
     4
 94
        3
 73
     1
 74
     0
 95
        8
 96
        4
 40
0.0348313071414848
 40
0.0348313071414848
 40
0.0348313071414848
 40
0.0348313071414848
 40
0.0376597345369675
 40
0.0376597345369675
 40
0.0376597345369675
 40
0.0376597345369675
 10
80.13006134509997
 20
185.7100432603754
 42
1.0
 10
80.79672813316735
 20
185.043376587483
 42
1.0
 10
81.46339492678736
 20
184.3767099201433
 42
1.0
 10
82.13006172797915
 20
183.7100432603754
 42
1.0
 72
     1
 10
82.13006172797915
 20
183.7100432603754
 11
82.63006183699336
 21
183.7100432603754
 72
     1
 10
82.63006183699336
 20
183.7100432603754
 11
82.63006183699336
 21
244.7100432603754
 72
     1
 10
82.63006183699336
 20
244.7100432603754
 11
81.53006160469606
 21
244.7100432603754
 97
        0
 75
     0
 76
     1
 52
90.0
 41
1.0
 77
     0
 78
     2
 53
135.0000000000002
 43
0.0
 44
0.0
 45
-4.490128060534562
 46
-4.490128060534592
 79
     0
 53
135.0000000000002
 43
-0.0000000000000157
 44
4.49013
 45
-4.490128060534562
 46
-4.490128060534592
 79
     2
 49
3.175
 49
-1.5875
 98
        1
 10
0.0
 20
0.0
  0
HATCH
  5
140
330
1F
100
AcDbEntity
  8
0
  6
Continuous
 62
     7
370
     0
100
AcDbHatch
 10
0.0
 20
0.0
 30
0.0
210
0.0
220
0.0
230
1.0
  2
ANSI31
 70
     0
 71
     0
 91
        1
 92
        0
 93
        4
 72
     1
 10
68.63006007232595
 20
243.9100432603754
 11
68.63006007232595
 21
241.9100432603754
 72
     1
 10
68.63006007232595
 20
241.9100432603754
 11
79.63006126077539
 21
241.9100432603754
 72
     1
 10
79.63006126077539
 20
241.9100432603754
 11
79.63006126077539
 21
243.9100432603754
 72
     1
 10
79.63006126077539
 20
243.9100432603754
 11
68.63006007232595
 21
243.9100432603754
 97
        0
 75
     0
 76
     1
 52
0.0
 41
1.0
 77
     0
 78
     1
 53
45.0
 43
0.0
 44
0.0
 45
-2.245064030267288
 46
2.245064030267288
 79
     0
 98
        1
 10
0.0
 20
0.0
  0
HATCH
  5
141
330
1F
100
AcDbEntity
  8
0
  6
Continuous
 62
     7
370
     0
100
AcDbHatch
 10
0.0
 20
0.0
 30
0.0
210
0.0
220
0.0
230
1.0
  2
ANSI31
 70
     0
 71
     0
 91
        1
 92
        0
 93
        4
 72
     1
 10
132.6300555346106
 20
241.9100432603754
 11
132.6300555346106
 21
243.9100432603754
 72
     1
 10
132.6300555346106
 20
243.9100432603754
 11
121.6300543461611
 21
243.9100432603754
 72
     1
 10
121.6300543461611
 20
243.9100432603754
 11
121.6300543461611
 21
241.9100432603754
 72
     1
 10
121.6300543461611
 20
241.9100432603754
 11
132.6300555346106
 21
241.9100432603754
 97
        0
 75
     0
 76
     1
 52
0.0
 41
1.0
 77
     0
 78
     1
 53
45.0
 43
0.0
 44
0.0
 45
-2.245064030267288
 46
2.245064030267288
 79
     0
 98
        1
 10
0.0
 20
0.0
  0
HATCH
  5
142
330
1F
100
AcDbEntity
  8
0
  6
Continuous
 62
     7
370
     0
100
AcDbHatch
 10
0.0
 20
0.0
 30
0.0
210
0.0
220
0.0
230
1.0
  2
ANSI31
 70
     0
 71
     0
 91
        1
 92
        0
 93
        4
 72
     1
 10
68.63006007232595
 20
241.9100432603754
 11
68.63006007232595
 21
241.2100432603754
 72
     1
 10
68.63006007232595
 20
241.2100432603754
 11
79.63006126077539
 21
241.2100432603754
 72
     1
 10
79.63006126077539
 20
241.2100432603754
 11
79.63006126077539
 21
241.9100432603754
 72
     1
 10
79.63006126077539
 20
241.9100432603754
 11
68.63006007232595
 21
241.9100432603754
 97
        0
 75
     0
 76
     1
 52
90.0
 41
1.0
 77
     0
 78
     1
 53
135.0000000000002
 43
0.0
 44
0.0
 45
-2.245064030267281
 46
-2.245064030267296
 79
     0
 98
        1
 10
0.0
 20
0.0
  0
HATCH
  5
143
330
1F
100
AcDbEntity
  8
0
  6
Continuous
 62
     7
370
     0
100
AcDbHatch
 10
0.0
 20
0.0
 30
0.0
210
0.0
220
0.0
230
1.0
  2
ANSI31
 70
     0
 71
     0
 91
        1
 92
        0
 93
        4
 72
     1
 10
132.6300555346106
 20
241.2100432603754
 11
132.6300555346106
 21
241.9100432603754
 72
     1
 10
132.6300555346106
 20
241.9100432603754
 11
121.6300543461611
 21
241.9100432603754
 72
     1
 10
121.6300543461611
 20
241.9100432603754
 11
121.6300543461611
 21
241.2100432603754
 72
     1
 10
121.6300543461611
 20
241.2100432603754
 11
132.6300555346106
 21
241.2100432603754
 97
        0
 75
     0
 76
     1
 52
90.0
 41
1.0
 77
     0
 78
     1
 53
135.0000000000002
 43
0.0
 44
0.0
 45
-2.245064030267281
 46
-2.245064030267296
 79
     0
 98
        1
 10
0.0
 20
0.0
  0
HATCH
  5
144
330
1F
100
AcDbEntity
  8
0
  6
Continuous
 62
     7
370
     0
100
AcDbHatch
 10
0.0
 20
0.0
 30
0.0
210
0.0
220
0.0
230
1.0
  2
ANSI33
 70
     0
 71
     0
 91
        1
 92
        0
 93
        9
 72
     1
 10
127.0333970417323
 20
238.7100432603754
 11
130.1300553423345
 21
238.7100432603754
 72
     4
 94
        3
 73
     1
 74
     0
 95
       20
 96
       16
 40
0.0006900198882106
 40
0.0006900198882106
 40
0.0006900198882106
 40
0.0006900198882106
 40
0.0008394284634727
 40
0.0008394284634727
 40
0.0008394284634727
 40
0.0010073141768054
 40
0.0010073141768054
 40
0.0010073141768054
 40
0.0011751998823641
 40
0.0011751998823641
 40
0.0011751998823641
 40
0.0013430855748948
 40
0.0013430855748948
 40
0.0013430855748948
 40
0.0014719734949501
 40
0.0014719734949501
 40
0.0014719734949501
 40
0.0014719734949501
 10
130.1300553423345
 20
238.7100432603754
 42
1.0
 10
130.1798668986068
 20
238.7100432603754
 42
1.0
 10
130.2302251985542
 20
238.717653991261
 42
1.0
 10
130.2778120996747
 20
238.7323739769952
 42
1.0
 10
130.3312746655169
 20
238.7489114734065
 42
1.0
 10
130.3826192901987
 20
238.7749074227357
 42
1.0
 10
130.4275941023436
 20
238.8082090894585
 42
1.0
 10
130.4725689123983
 20
238.8415107546337
 42
1.0
 10
130.5124143713958
 20
238.8830366377175
 42
1.0
 10
130.5438308585088
 20
238.9293479622547
 42
1.0
 10
130.5752473432086
 20
238.9756592832346
 42
1.0
 10
130.5991013628091
 20
239.0280333684993
 42
1.0
 10
130.6134175547861
 20
239.0821330968635
 42
1.0
 10
130.6244167809861
 20
239.1236982805795
 42
1.0
 10
130.6300553833534
 20
239.1670473597063
 42
1.0
 10
130.6300553833534
 20
239.2100432603754
 42
1.0
 72
     1
 10
130.6300553833534
 20
239.2100432603754
 11
130.6300553833534
 21
241.2100432603754
 72
     1
 10
130.6300553833534
 20
241.2100432603754
 11
121.8800543868353
 21
241.2100432603754
 72
     4
 94
        3
 73
     1
 74
     0
 95
        8
 96
        4
 40
0.0360851862454182
 40
0.0360851862454182
 40
0.0360851862454182
 40
0.0360851862454182
 40
0.0382065067724658
 40
0.0382065067724658
 40
0.0382065067724658
 40
0.0382065067724658
 10
121.8800543868353
 20
241.2100432603754
 42
1.0
 10
121.3800543033911
 20
240.7100432573225
 42
1.0
 10
120.8800542171259
 20
240.2100432570907
 42
1.0
 10
120.3800541273442
 20
239.7100432603754
 42
1.0
 72
     1
 10
120.3800541273442
 20
239.7100432603754
 11
120.3800541273442
 21
233.7100432603754
 72
     1
 10
120.3800541273442
 20
233.7100432603754
 11
126.5333244198332
 21
233.7100432603754
 72
     4
 94
        3
 73
     1
 74
     0
 95
       23
 96
       19
 40
0.0054917129104014
 40
0.0054917129104014
 40
0.0054917129104014
 40
0.0054917129104014
 40
0.0055993531076212
 40
0.0055993531076212
 40
0.0055993531076212
 40
0.0057691083514063
 40
0.0057691083514063
 40
0.0057691083514063
 40
0.0058502969390174
 40
0.0058502969390174
 40
0.0058502969390174
 40
0.0060181787886279
 40
0.0060181787886279
 40
0.0060181787886279
 40
0.0061860610617609
 40
0.0061860610617609
 40
0.0061860610617609
 40
0.0062767496430407
 40
0.0062767496430407
 40
0.0062767496430407
 40
0.0062767496430407
 10
126.5333244198332
 20
233.7100432603754
 42
1.0
 10
126.568896069345
 20
233.7100432603754
 42
1.0
 10
126.6046684111712
 20
233.7138804378916
 42
1.0
 10
126.6394305681541
 20
233.7214259458856
 42
1.0
 10
126.6941485685035
 20
233.7333030888732
 42
1.0
 10
126.7475706876551
 20
233.7547939557334
 42
1.0
 10
126.7952691468982
 20
233.7841194237369
 42
1.0
 10
126.8183340828006
 20
233.7982999664744
 42
1.0
 10
126.840315376737
 20
233.8144127571933
 42
1.0
 10
126.8607800647096
 20
233.8321405773272
 42
1.0
 10
126.9030773223475
 20
233.868781164106
 42
1.0
 10
126.9396321485046
 20
233.913229422775
 42
1.0
 10
126.9674170174027
 20
233.9618050510622
 42
1.0
 10
126.9952019304009
 20
234.0103807564488
 42
1.0
 10
127.0149831790082
 20
234.0644236417877
 42
1.0
 10
127.0251223148843
 20
234.1194581624798
 42
1.0
 10
127.0306159233861
 20
234.1492770853604
 42
1.0
 10
127.0333970417323
 20
234.1797225101187
 42
1.0
 10
127.0333970417323
 20
234.2100432603754
 42
1.0
 72
     1
 10
127.0333970417323
 20
234.2100432603754
 11
127.0333970417323
 21
238.7100432603754
 97
        0
 75
     0
 76
     1
 52
0.0
 41
1.0
 77
     0
 78
     2
 53
45.0
 43
0.0
 44
0.0
 45
-4.490128060534576
 46
4.490128060534577
 79
     0
 53
45.0
 43
4.49013
 44
0.0
 45
-4.490128060534576
 46
4.490128060534577
 79
     2
 49
3.175
 49
-1.5875
 98
        1
 10
0.0
 20
0.0
  0
HATCH
  5
145
330
1F
100
AcDbEntity
  8
0
  6
Continuous
 62
     7
370
     0
100
AcDbHatch
 10
0.0
 20
0.0
 30
0.0
210
0.0
220
0.0
230
1.0
  2
ANSI33
 70
     0
 71
     0
 91
        1
 92
        0
 93
        9
 72
     1
 10
71.13006026460205
 20
238.7100432603754
 11
74.22671856520425
 21
238.7100432603754
 72
     1
 10
74.22671856520425
 20
238.7100432603754
 11
74.22671856520425
 21
234.2100432603754
 72
     4
 94
        3
 73
     1
 74
     0
 95
       23
 96
       19
 40
0.0053669778310926
 40
0.0053669778310926
 40
0.0053669778310926
 40
0.0053669778310926
 40
0.0055289918257377
 40
0.0055289918257377
 40
0.0055289918257377
 40
0.0056946641805355
 40
0.0056946641805355
 40
0.0056946641805355
 40
0.0057872314851815
 40
0.0057872314851815
 40
0.0057872314851815
 40
0.0059551397600723
 40
0.0059551397600723
 40
0.0059551397600723
 40
0.0061230462920719
 40
0.0061230462920719
 40
0.0061230462920719
 40
0.0061424251312446
 40
0.0061424251312446
 40
0.0061424251312446
 40
0.0061424251312446
 10
74.22671856520425
 20
234.2100432603754
 42
1.0
 10
74.22671856520425
 20
234.1553205473038
 42
1.0
 10
74.2359467876927
 20
234.0998754355616
 42
1.0
 10
74.25367164589
 20
234.0481028102872
 42
1.0
 10
74.27179662256682
 20
233.9951614769828
 42
1.0
 10
74.29931185298702
 20
233.9446193993969
 42
1.0
 10
74.3339385697365
 20
233.9006615782642
 42
1.0
 10
74.35347610433675
 20
233.875859127095
 42
1.0
 10
74.3754711447617
 20
233.8528134430182
 42
1.0
 10
74.39933554222691
 20
233.8321405773272
 42
1.0
 10
74.44163945762378
 20
233.7954942231723
 42
1.0
 10
74.49085450716723
 20
233.7656472021165
 42
1.0
 10
74.54290414565664
 20
233.7450702328578
 42
1.0
 10
74.59495347755743
 20
233.7244933848037
 42
1.0
 10
74.65127256297318
 20
233.7126190014348
 42
1.0
 10
74.70719871973986
 20
233.710427057899
 42
1.0
 10
74.71372578381636
 20
233.7101712392135
 42
1.0
 10
74.72025911173185
 20
233.7100432603754
 42
1.0
 10
74.7267911871033
 20
233.7100432603754
 42
1.0
 72
     1
 10
74.7267911871033
 20
233.7100432603754
 11
80.88006147959234
 21
233.7100432603754
 72
     1
 10
80.88006147959234
 20
233.7100432603754
 11
80.88006147959234
 21
239.7100432603754
 72
     4
 94
        3
 73
     1
 74
     0
 95
        8
 96
        4
 40
0.0942549129150342
 40
0.0942549129150342
 40
0.0942549129150342
 40
0.0942549129150342
 40
0.096391539210591
 40
0.096391539210591
 40
0.096391539210591
 40
0.096391539210591
 10
80.88006147959234
 20
239.7100432603754
 42
1.0
 10
80.38006138981059
 20
240.2100432570907
 42
1.0
 10
79.8800613035454
 20
240.7100432573225
 42
1.0
 10
79.38006122010118
 20
241.2100432603754
 42
1.0
 72
     1
 10
79.38006122010118
 20
241.2100432603754
 11
70.63006022358314
 21
241.2100432603754
 72
     1
 10
70.63006022358314
 20
241.2100432603754
 11
70.63006022358314
 21
239.2100432603754
 72
     4
 94
        3
 73
     1
 74
     0
 95
       23
 96
       19
 40
0.0026518813382251
 40
0.0026518813382251
 40
0.0026518813382251
 40
0.0026518813382251
 40
0.0026861711491999
 40
0.0026861711491999
 40
0.0026861711491999
 40
0.0028540568219941
 40
0.0028540568219941
 40
0.0028540568219941
 40
0.0030219424961981
 40
0.0030219424961981
 40
0.0030219424961981
 40
0.0031261046591738
 40
0.0031261046591738
 40
0.0031261046591738
 40
0.0032939903669859
 40
0.0032939903669859
 40
0.0032939903669859
 40
0.0034329454618907
 40
0.0034329454618907
 40
0.0034329454618907
 40
0.0034329454618907
 10
70.63006022358314
 20
239.2100432603754
 42
1.0
 10
70.63006022358314
 20
239.1985098118211
 42
1.0
 10
70.63045976281505
 20
239.1869694656387
 42
1.0
 10
70.63125740759949
 20
239.1754636324072
 42
1.0
 10
70.63512769065716
 20
239.1196357347148
 42
1.0
 10
70.64869011580099
 20
239.0637061459453
 42
1.0
 10
70.67082157241038
 20
239.0123064194865
 42
1.0
 10
70.69295302922437
 20
238.9609066925525
 42
1.0
 10
70.72426393046152
 20
238.9126191601739
 42
1.0
 10
70.76216140651292
 20
238.8714425330836
 42
1.0
 10
70.78588082734149
 20
238.8456707443521
 42
1.0
 10
70.81246810620085
 20
238.8222778242409
 42
1.0
 10
70.84104980566622
 20
238.802032269802
 42
1.0
 10
70.8867159495461
 20
238.7696851239278
 42
1.0
 10
70.93859664016578
 20
238.7447762180624
 42
1.0
 10
70.99239561460055
 20
238.7293682690481
 42
1.0
 10
71.03694278825243
 20
238.716610022491
 42
1.0
 10
71.08372212118239
 20
238.7100432603754
 42
1.0
 10
71.13006026460205
 20
238.7100432603754
 42
1.0
 97
        0
 75
     0
 76
     1
 52
0.0
 41
1.0
 77
     0
 78
     2
 53
45.0
 43
0.0
 44
0.0
 45
-4.490128060534576
 46
4.490128060534577
 79
     0
 53
45.0
 43
4.49013
 44
0.0
 45
-4.490128060534576
 46
4.490128060534577
 79
     2
 49
3.175
 49
-1.5875
 98
        1
 10
0.0
 20
0.0
  0
DIMENSION
  5
146
330
1F
100
AcDbEntity
  8
0
  6
Continuous
 62
     7
370
     0
100
AcDbDimension
  2
*D5
 10
58.3800600352
 20
258.7100432604
 30
0.0
 11
58.3800600352
 21
221.2415439659
 31
0.0
 70
   160
  1
(<>)
 71
     2
 42
-1.0
  3
SLDDIMSTYLE0
100
AcDbAlignedDimension
 13
82.130061728
 23
183.7100432604
 33
0.0
 14
68.1300600374
 24
258.7100432604
 34
0.0
 50
90.0
100
AcDbRotatedDimension
  0
DIMENSION
  5
152
330
1F
100
AcDbEntity
  8
0
  6
Continuous
 62
     7
370
     0
100
AcDbDimension
  2
*D6
 10
121.1300542618
 20
167.7100432604
 30
0.0
 11
100.6300578035
 21
167.7100432604
 31
0.0
 70
   160
 71
     2
 42
-1.0
  3
SLDDIMSTYLE0
100
AcDbAlignedDimension
 13
80.1300613451
 23
185.7100432604
 33
0.0
 14
121.1300542618
 24
185.7100432604
 34
0.0
100
AcDbRotatedDimension
  0
MTEXT
  5
15C
330
1F
100
AcDbEntity
  8
0
  6
Continuous
 62
     7
370
     0
100
AcDbMText
 10
100.3165159292
 20
277.2269011426
 30
0.0
 40
3.5
 41
0.0
 71
     2
 72
     1
  1
SCHNITT A-A
  7
SLDTEXTSTYLE0
 73
     1
 44
1.0
  0
ENDSEC
  0
SECTION
  2
OBJECTS
  0
DICTIONARY
  5
C
330
0
100
AcDbDictionary
281
     1
  3
ACAD_GROUP
350
D
  3
ACAD_LAYOUT
350
1A
  3
ACAD_MLINESTYLE
350
17
  3
ACAD_PLOTSETTINGS
350
19
  3
ACAD_PLOTSTYLENAME
350
E
  0
DICTIONARY
  5
D
102
{ACAD_REACTORS
330
C
102
}
330
C
100
AcDbDictionary
281
     1
  0
DICTIONARY
  5
1A
102
{ACAD_REACTORS
330
C
102
}
330
C
100
AcDbDictionary
281
     1
  3
Layout1
350
1E
  3
Layout2
350
26
  3
Model
350
22
  0
DICTIONARY
  5
17
102
{ACAD_REACTORS
330
C
102
}
330
C
100
AcDbDictionary
281
     1
  3
Standard
350
18
  0
DICTIONARY
  5
19
102
{ACAD_REACTORS
330
C
102
}
330
C
100
AcDbDictionary
281
     1
  0
ACDBDICTIONARYWDFLT
  5
E
102
{ACAD_REACTORS
330
C
102
}
330
C
100
AcDbDictionary
281
     1
  3
Normal
350
F
100
AcDbDictionaryWithDefault
340
F
  0
LAYOUT
  5
1E
102
{ACAD_REACTORS
330
1A
102
}
330
1A
100
AcDbPlotSettings
  1

  2
none_device
  4

  6

 40
0.0
 41
0.0
 42
0.0
 43
0.0
 44
0.0
 45
0.0
 46
0.0
 47
0.0
 48
0.0
 49
0.0
140
0.0
141
0.0
142
1.0
143
1.0
 70
   688
 72
     0
 73
     0
 74
     5
  7

 75
    16
147
1.0
148
0.0
149
0.0
100
AcDbLayout
  1
Layout1
 70
     1
 71
     1
 10
0.0
 20
0.0
 11
420.0
 21
297.0
 12
0.0
 22
0.0
 32
0.0
 14
1.0000000000E+20
 24
1.0000000000E+20
 34
1.0000000000E+20
 15
-1.0000000000E+20
 25
-1.0000000000E+20
 35
-1.0000000000E+20
146
0.0
 13
0.0
 23
0.0
 33
0.0
 16
1.0
 26
0.0
 36
0.0
 17
0.0
 27
1.0
 37
0.0
 76
     0
330
1B
  0
LAYOUT
  5
26
102
{ACAD_REACTORS
330
1A
102
}
330
1A
100
AcDbPlotSettings
  1

  2
none_device
  4

  6

 40
0.0
 41
0.0
 42
0.0
 43
0.0
 44
0.0
 45
0.0
 46
0.0
 47
0.0
 48
0.0
 49
0.0
140
0.0
141
0.0
142
1.0
143
1.0
 70
   688
 72
     0
 73
     0
 74
     5
  7

 75
    16
147
1.0
148
0.0
149
0.0
100
AcDbLayout
  1
Layout2
 70
     1
 71
     2
 10
0.0
 20
0.0
 11
0.0
 21
0.0
 12
0.0
 22
0.0
 32
0.0
 14
0.0
 24
0.0
 34
0.0
 15
0.0
 25
0.0
 35
0.0
146
0.0
 13
0.0
 23
0.0
 33
0.0
 16
1.0
 26
0.0
 36
0.0
 17
0.0
 27
1.0
 37
0.0
 76
     0
330
23
  0
LAYOUT
  5
22
102
{ACAD_REACTORS
330
1A
102
}
330
1A
100
AcDbPlotSettings
  1

  2
none_device
  4

  6

 40
0.0
 41
0.0
 42
0.0
 43
0.0
 44
0.0
 45
0.0
 46
0.0
 47
0.0
 48
0.0
 49
0.0
140
0.0
141
0.0
142
1.0
143
1.0
 70
  1712
 72
     0
 73
     0
 74
     0
  7

 75
     0
147
1.0
148
0.0
149
0.0
100
AcDbLayout
  1
Model
 70
     1
 71
     0
 10
0.0
 20
0.0
 11
420.0
 21
297.0
 12
0.0
 22
0.0
 32
0.0
 14
0.0
 24
0.0
 34
0.0
 15
420.0
 25
297.0
 35
0.0
146
0.0
 13
0.0
 23
0.0
 33
0.0
 16
1.0
 26
0.0
 36
0.0
 17
0.0
 27
1.0
 37
0.0
 76
     0
330
1F
331
29
  0
MLINESTYLE
  5
18
102
{ACAD_REACTORS
330
17
102
}
330
17
100
AcDbMlineStyle
  2
Standard
 70
     0
  3

 62
   256
 51
90.0
 52
90.0
 71
     2
 49
0.5
 62
   256
  6
BYLAYER
 49
-0.5
 62
   256
  6
BYLAYER
  0
ACDBPLACEHOLDER
  5
F
102
{ACAD_REACTORS
330
E
102
}
330
E
  0
ENDSEC
  0
EOF
