  0
SECTION
  2
HEADER
  9
$ACADVER
  1
AC1032
  9
$ACADMAINTVER
 90
       55
  9
$DWGCODEPAGE
  3
ANSI_1252
  9
$LASTSAVEDBY
  1
f.studer
  9
$REQUIREDVERSIONS
160
                 0
  9
$INSBASE
 10
0.0
 20
0.0
 30
0.0
  9
$EXTMIN
 10
0.0
 20
0.0
 30
0.0
  9
$EXTMAX
 10
210.0
 20
297.0
 30
0.0
  9
$LIMMIN
 10
0.0
 20
0.0
  9
$LIMMAX
 10
210.0
 20
297.0
  9
$ORTHOMODE
 70
     0
  9
$REGENMODE
 70
     1
  9
$FILLMODE
 70
     1
  9
$QTEXTMODE
 70
     0
  9
$MIRRTEXT
 70
     1
  9
$LTSCALE
 40
1.0
  9
$ATTMODE
 70
     1
  9
$TEXTSIZE
 40
3.5
  9
$TRACEWID
 40
1.0
  9
$TEXTSTYLE
  7
STANDARD
  9
$CLAYER
  8
0
  9
$CELTYPE
  6
ByLayer
  9
$CECOLOR
 62
   256
  9
$CELTSCALE
 40
1.0
  9
$DISPSILH
 70
     0
  9
$DIMSCALE
 40
1.0
  9
$DIMASZ
 40
3.302
  9
$DIMEXO
 40
1.0
  9
$DIMDLI
 40
3.75
  9
$DIMRND
 40
0.0
  9
$DIMDLE
 40
0.0
  9
$DIMEXE
 40
1.0
  9
$DIMTP
 40
0.0
  9
$DIMTM
 40
0.0
  9
$DIMTXT
 40
3.5
  9
$DIMCEN
 40
2.5
  9
$DIMTSZ
 40
0.0
  9
$DIMTOL
 70
     0
  9
$DIMLIM
 70
     0
  9
$DIMTIH
 70
     1
  9
$DIMTOH
 70
     1
  9
$DIMSE1
 70
     0
  9
$DIMSE2
 70
     0
  9
$DIMTAD
 70
     1
  9
$DIMZIN
 70
     1
  9
$DIMBLK
  1

  9
$DIMASO
 70
     1
  9
$DIMSHO
 70
     1
  9
$DIMPOST
  1

  9
$DIMAPOST
  1

  9
$DIMALT
 70
     0
  9
$DIMALTD
 70
     3
  9
$DIMALTF
 40
0.0393700787
  9
$DIMLFAC
 40
1.0
  9
$DIMTOFL
 70
     1
  9
$DIMTVP
 40
0.0
  9
$DIMTIX
 70
     0
  9
$DIMSOXD
 70
     0
  9
$DIMSAH
 70
     0
  9
$DIMBLK1
  1

  9
$DIMBLK2
  1

  9
$DIMSTYLE
  2
ISO-25
  9
$DIMCLRD
 70
     0
  9
$DIMCLRE
 70
     0
  9
$DIMCLRT
 70
     0
  9
$DIMTFAC
 40
1.0
  9
$DIMGAP
 40
1.524
  9
$DIMJUST
 70
     0
  9
$DIMSD1
 70
     0
  9
$DIMSD2
 70
     0
  9
$DIMTOLJ
 70
     0
  9
$DIMTZIN
 70
     1
  9
$DIMALTZ
 70
     0
  9
$DIMALTTZ
 70
     0
  9
$DIMUPT
 70
     0
  9
$DIMDEC
 70
     2
  9
$DIMTDEC
 70
     2
  9
$DIMALTU
 70
     2
  9
$DIMALTTD
 70
     3
  9
$DIMTXSTY
  7
STANDARD
  9
$DIMAUNIT
 70
     0
  9
$DIMADEC
 70
     2
  9
$DIMALTRND
 40
0.0
  9
$DIMAZIN
 70
     0
  9
$DIMDSEP
 70
    44
  9
$DIMATFIT
 70
     3
  9
$DIMFRAC
 70
     0
  9
$DIMLDRBLK
  1

  9
$DIMLUNIT
 70
     2
  9
$DIMLWD
 70
    -2
  9
$DIMLWE
 70
    -2
  9
$DIMTMOVE
 70
     0
  9
$DIMFXL
 40
1.0
  9
$DIMFXLON
 70
     0
  9
$DIMJOGANG
 40
0.7853981634
  9
$DIMTFILL
 70
     0
  9
$DIMTFILLCLR
 70
     0
  9
$DIMARCSYM
 70
     0
  9
$DIMLTYPE
  6

  9
$DIMLTEX1
  6

  9
$DIMLTEX2
  6

  9
$DIMTXTDIRECTION
 70
     0
  9
$LUNITS
 70
     2
  9
$LUPREC
 70
     2
  9
$SKETCHINC
 40
1.0
  9
$FILLETRAD
 40
0.0
  9
$AUNITS
 70
     0
  9
$AUPREC
 70
     2
  9
$MENU
  1
.
  9
$ELEVATION
 40
0.0
  9
$PELEVATION
 40
0.0
  9
$THICKNESS
 40
0.0
  9
$LIMCHECK
 70
     0
  9
$CHAMFERA
 40
0.0
  9
$CHAMFERB
 40
0.0
  9
$CHAMFERC
 40
0.0
  9
$CHAMFERD
 40
0.0
  9
$SKPOLY
 70
     0
  9
$TDCREATE
 40
2460336.720617801
  9
$TDUCREATE
 40
2460336.678951135
  9
$TDUPDATE
 40
2460336.720618183
  9
$TDUUPDATE
 40
2460336.678951517
  9
$TDINDWG
 40
0.0000000116
  9
$TDUSRTIMER
 40
0.0000000116
  9
$USRTIMER
 70
     1
  9
$ANGBASE
 50
0.0
  9
$ANGDIR
 70
     0
  9
$PDMODE
 70
     0
  9
$PDSIZE
 40
-1.0
  9
$PLINEWID
 40
0.0
  9
$SPLFRAME
 70
     0
  9
$SPLINETYPE
 70
     6
  9
$SPLINESEGS
 70
     8
  9
$HANDSEED
  5
2E9
  9
$SURFTAB1
 70
     6
  9
$SURFTAB2
 70
     6
  9
$SURFTYPE
 70
     6
  9
$SURFU
 70
     6
  9
$SURFV
 70
     6
  9
$UCSBASE
  2

  9
$UCSNAME
  2

  9
$UCSORG
 10
0.0
 20
0.0
 30
0.0
  9
$UCSXDIR
 10
1.0
 20
0.0
 30
0.0
  9
$UCSYDIR
 10
0.0
 20
1.0
 30
0.0
  9
$UCSORTHOREF
  2

  9
$UCSORTHOVIEW
 70
     0
  9
$UCSORGTOP
 10
0.0
 20
0.0
 30
0.0
  9
$UCSORGBOTTOM
 10
0.0
 20
0.0
 30
0.0
  9
$UCSORGLEFT
 10
0.0
 20
0.0
 30
0.0
  9
$UCSORGRIGHT
 10
0.0
 20
0.0
 30
0.0
  9
$UCSORGFRONT
 10
0.0
 20
0.0
 30
0.0
  9
$UCSORGBACK
 10
0.0
 20
0.0
 30
0.0
  9
$PUCSBASE
  2

  9
$PUCSNAME
  2

  9
$PUCSORG
 10
0.0
 20
0.0
 30
0.0
  9
$PUCSXDIR
 10
1.0
 20
0.0
 30
0.0
  9
$PUCSYDIR
 10
0.0
 20
1.0
 30
0.0
  9
$PUCSORTHOREF
  2

  9
$PUCSORTHOVIEW
 70
     0
  9
$PUCSORGTOP
 10
0.0
 20
0.0
 30
0.0
  9
$PUCSORGBOTTOM
 10
0.0
 20
0.0
 30
0.0
  9
$PUCSORGLEFT
 10
0.0
 20
0.0
 30
0.0
  9
$PUCSORGRIGHT
 10
0.0
 20
0.0
 30
0.0
  9
$PUCSORGFRONT
 10
0.0
 20
0.0
 30
0.0
  9
$PUCSORGBACK
 10
0.0
 20
0.0
 30
0.0
  9
$USERI1
 70
     0
  9
$USERI2
 70
     0
  9
$USERI3
 70
     0
  9
$USERI4
 70
     0
  9
$USERI5
 70
     0
  9
$USERR1
 40
0.0
  9
$USERR2
 40
0.0
  9
$USERR3
 40
0.0
  9
$USERR4
 40
0.0
  9
$USERR5
 40
0.0
  9
$WORLDVIEW
 70
     1
  9
$SHADEDGE
 70
     3
  9
$SHADEDIF
 70
    70
  9
$TILEMODE
 70
     1
  9
$MAXACTVP
 70
    64
  9
$PINSBASE
 10
0.0
 20
0.0
 30
0.0
  9
$PLIMCHECK
 70
     0
  9
$PEXTMIN
 10
1.0000000000E+20
 20
1.0000000000E+20
 30
1.0000000000E+20
  9
$PEXTMAX
 10
-1.0000000000E+20
 20
-1.0000000000E+20
 30
-1.0000000000E+20
  9
$PLIMMIN
 10
0.0
 20
0.0
  9
$PLIMMAX
 10
420.0
 20
297.0
  9
$UNITMODE
 70
     0
  9
$VISRETAIN
 70
     1
  9
$PLINEGEN
 70
     0
  9
$PSLTSCALE
 70
     1
  9
$TREEDEPTH
 70
  3020
  9
$CMLSTYLE
  2
Standard
  9
$CMLJUST
 70
     0
  9
$CMLSCALE
 40
20.0
  9
$PROXYGRAPHICS
 70
     1
  9
$MEASUREMENT
 70
     1
  9
$CELWEIGHT
370
    -1
  9
$ENDCAPS
280
     0
  9
$JOINSTYLE
280
     0
  9
$LWDISPLAY
290
     1
  9
$INSUNITS
 70
     4
  9
$HYPERLINKBASE
  1

  9
$STYLESHEET
  1

  9
$XEDIT
290
     1
  9
$CEPSNTYPE
380
     0
  9
$PSTYLEMODE
290
     1
  9
$FINGERPRINTGUID
  2
{6b9e3884-9444-4e89-96c3-027330365f10}
  9
$VERSIONGUID
  2
{FAEB1C32-E019-11D5-929B-00C0DF256EC4}
  9
$EXTNAMES
290
     1
  9
$PSVPSCALE
 40
0.0
  9
$OLESTARTUP
290
     0
  9
$SORTENTS
280
   127
  9
$INDEXCTL
280
     0
  9
$HIDETEXT
280
     1
  9
$XCLIPFRAME
280
     2
  9
$HALOGAP
280
     0
  9
$OBSCOLOR
 70
   257
  9
$OBSLTYPE
280
     0
  9
$INTERSECTIONDISPLAY
280
     0
  9
$INTERSECTIONCOLOR
 70
   257
  9
$DIMASSOC
280
     2
  9
$PROJECTNAME
  1

  9
$CAMERADISPLAY
290
     0
  9
$LENSLENGTH
 40
50.0
  9
$CAMERAHEIGHT
 40
0.0
  9
$STEPSPERSEC
 40
2.0
  9
$STEPSIZE
 40
6.0
  9
$3DDWFPREC
 40
2.0
  9
$PSOLWIDTH
 40
5.0
  9
$PSOLHEIGHT
 40
80.0
  9
$LOFTANG1
 40
1.5707963268
  9
$LOFTANG2
 40
1.5707963268
  9
$LOFTMAG1
 40
0.0
  9
$LOFTMAG2
 40
0.0
  9
$LOFTPARAM
 70
     7
  9
$LOFTNORMALS
280
     1
  9
$LATITUDE
 40
37.795
  9
$LONGITUDE
 40
-122.394
  9
$NORTHDIRECTION
 40
0.0
  9
$TIMEZONE
 70
 -8000
  9
$LIGHTGLYPHDISPLAY
280
     1
  9
$TILEMODELIGHTSYNCH
280
     1
  9
$CMATERIAL
347
44
  9
$SOLIDHIST
280
     0
  9
$SHOWHIST
280
     1
  9
$DWFFRAME
280
     2
  9
$DGNFRAME
280
     2
  9
$REALWORLDSCALE
290
     1
  9
$INTERFERECOLOR
 62
   256
  9
$CSHADOW
280
     0
  9
$SHADOWPLANELOCATION
 40
0.0
  0
ENDSEC
  0
SECTION
  2
CLASSES
  0
CLASS
  1
ACDBDICTIONARYWDFLT
  2
AcDbDictionaryWithDefault
  3
ObjectDBX Classes
 90
        0
 91
        3
280
     0
281
     0
  0
CLASS
  1
VISUALSTYLE
  2
AcDbVisualStyle
  3
ObjectDBX Classes
 90
     4095
 91
        3
280
     0
281
     0
  0
CLASS
  1
MATERIAL
  2
AcDbMaterial
  3
ObjectDBX Classes
 90
     1153
 91
        3
280
     0
281
     0
  0
CLASS
  1
SCALE
  2
AcDbScale
  3
ObjectDBX Classes
 90
     1153
 91
        3
280
     0
281
     0
  0
CLASS
  1
TABLESTYLE
  2
AcDbTableStyle
  3
ObjectDBX Classes
 90
     4095
 91
        3
280
     0
281
     0
  0
CLASS
  1
MLEADERSTYLE
  2
AcDbMLeaderStyle
  3
ACDB_MLEADERSTYLE_CLASS
 90
     4095
 91
        3
280
     0
281
     0
  0
CLASS
  1
SUN
  2
AcDbSun
  3
SCENEOE
 90
     1153
 91
        3
280
     0
281
     0
  0
CLASS
  1
DICTIONARYVAR
  2
AcDbDictionaryVar
  3
ObjectDBX Classes
 90
        0
 91
        3
280
     0
281
     0
  0
CLASS
  1
CELLSTYLEMAP
  2
AcDbCellStyleMap
  3
ObjectDBX Classes
 90
     1152
 91
        3
280
     0
281
     0
  0
ENDSEC
  0
SECTION
  2
TABLES
  0
TABLE
  2
VPORT
  5
8
330
0
100
AcDbSymbolTable
 70
     1
  0
VPORT
  5
29
330
8
100
AcDbSymbolTableRecord
100
AcDbViewportTableRecord
  2
*Active
 70
     0
 10
0.0
 20
0.0
 11
1.0
 21
1.0
 12
105.0
 22
148.5
 13
0.0
 23
0.0
 14
10.0
 24
10.0
 15
10.0
 25
10.0
 16
0.0
 26
0.0
 36
1.0
 17
0.0
 27
0.0
 37
0.0
 40
297.0
 41
0.7070707071
 42
50.0
 43
0.0
 44
0.0
 50
0.0
 51
0.0
 71
     0
 72
  2000
 73
     1
 74
     3
 75
     0
 76
     0
 77
     0
 78
     0
281
     0
 65
     1
110
0.0
120
0.0
130
0.0
111
1.0
121
0.0
131
0.0
112
0.0
122
1.0
132
0.0
 79
     0
146
0.0
348
2F
 60
     3
 61
     5
292
     1
282
     1
141
0.0
142
0.0
 63
   250
361
5D
  0
ENDTAB
  0
TABLE
  2
LTYPE
  5
5
330
0
100
AcDbSymbolTable
 70
     8
  0
LTYPE
  5
14
330
5
100
AcDbSymbolTableRecord
100
AcDbLinetypeTableRecord
  2
ByBlock
 70
     0
  3

 72
    65
 73
     0
 40
0.0
  0
LTYPE
  5
15
330
5
100
AcDbSymbolTableRecord
100
AcDbLinetypeTableRecord
  2
ByLayer
 70
     0
  3

 72
    65
 73
     0
 40
0.0
  0
LTYPE
  5
16
330
5
100
AcDbSymbolTableRecord
100
AcDbLinetypeTableRecord
  2
Continuous
 70
     0
  3
Solid line
 72
    65
 73
     0
 40
0.0
  0
LTYPE
  5
5E
330
5
100
AcDbSymbolTableRecord
100
AcDbLinetypeTableRecord
  2
SLD-Durchgehend
 70
     0
  3
SolidWorks Line Style
 72
    65
 73
     0
 40
0.0
  0
LTYPE
  5
5F
330
5
100
AcDbSymbolTableRecord
100
AcDbLinetypeTableRecord
  2
SLD-Gestrichelt
 70
     0
  3
SolidWorks Line Style
 72
    65
 73
     2
 40
1.905
 49
1.27
 74
     0
 49
-0.635
 74
     0
  0
LTYPE
  5
60
330
5
100
AcDbSymbolTableRecord
100
AcDbLinetypeTableRecord
  2
SLD-Phantom
 70
     0
  3
SolidWorks Line Style
 72
    65
 73
     6
 40
12.7
 49
6.35
 74
     0
 49
-1.27
 74
     0
 49
1.27
 74
     0
 49
-1.27
 74
     0
 49
1.27
 74
     0
 49
-1.27
 74
     0
  0
LTYPE
  5
61
330
5
100
AcDbSymbolTableRecord
100
AcDbLinetypeTableRecord
  2
SLD-Kette
 70
     0
  3
SolidWorks Line Style
 72
    65
 73
     4
 40
10.16
 49
6.35
 74
     0
 49
-1.27
 74
     0
 49
1.27
 74
     0
 49
-1.27
 74
     0
  0
LTYPE
  5
62
330
5
100
AcDbSymbolTableRecord
100
AcDbLinetypeTableRecord
  2
SLD-Punktstrich
 70
     0
  3
SolidWorks Line Style
 72
    65
 73
     4
 40
19.05
 49
15.24
 74
     0
 49
-1.27
 74
     0
 49
1.27
 74
     0
 49
-1.27
 74
     0
  0
LTYPE
  5
63
330
5
100
AcDbSymbolTableRecord
100
AcDbLinetypeTableRecord
  2
SLD-Naht
 70
     0
  3
SolidWorks Line Style
 72
    65
 73
     2
 40
0.635
 49
0.0
 74
     0
 49
-0.635
 74
     0
  0
LTYPE
  5
64
330
5
100
AcDbSymbolTableRecord
100
AcDbLinetypeTableRecord
  2
SLD-Dicke-Dünne-Kette
 70
     0
  3
SolidWorks Line Style
 72
    65
 73
     4
 40
10.16
 49
6.35
 74
     0
 49
-1.27
 74
     0
 49
1.27
 74
     0
 49
-1.27
 74
     0
  0
ENDTAB
  0
TABLE
  2
LAYER
  5
2
330
0
100
AcDbSymbolTable
 70
     5
  0
LAYER
  5
10
330
2
100
AcDbSymbolTableRecord
100
AcDbLayerTableRecord
  2
0
 70
     0
 62
     7
  6
Continuous
370
    -3
390
F
347
46
348
0
  0
LAYER
  5
65
330
2
100
AcDbSymbolTableRecord
100
AcDbLayerTableRecord
  2
RAHMEN
 70
     0
 62
   179
  6
SLD-Durchgehend
370
    -3
390
F
347
46
348
0
  0
LAYER
  5
66
330
2
100
AcDbSymbolTableRecord
100
AcDbLayerTableRecord
  2
KOPF
 70
     0
 62
     7
  6
SLD-Durchgehend
370
    -3
390
F
347
46
348
0
  0
LAYER
  5
67
330
2
100
AcDbSymbolTableRecord
100
AcDbLayerTableRecord
  2
TEMP
 70
     0
 62
     7
  6
SLD-Durchgehend
370
    -3
390
F
347
46
348
0
  0
LAYER
  5
68
330
2
100
AcDbSymbolTableRecord
100
AcDbLayerTableRecord
  2
ZEICHNUNG
 70
     0
 62
     7
  6
SLD-Durchgehend
370
    -3
390
F
347
46
348
0
  0
ENDTAB
  0
TABLE
  2
STYLE
  5
3
330
0
100
AcDbSymbolTable
 70
     2
  0
STYLE
  5
11
330
3
100
AcDbSymbolTableRecord
100
AcDbTextStyleTableRecord
  2
STANDARD
 70
     0
 40
0.0
 41
1.0
 50
0.0
 71
     0
 42
3.5
  3
GOTHIC.TTF
  4

1001
ACAD
1000
CENTURY GOTHIC
1071
       34
  0
STYLE
  5
9D
330
3
100
AcDbSymbolTableRecord
100
AcDbTextStyleTableRecord
  2
SLDTEXTSTYLE0
 70
     0
 40
0.0
 41
0.913
 50
0.0
 71
     0
 42
3.5
  3
GOTHIC.TTF
  4

1001
ACAD
1000
Century Gothic
1071
      290
  0
ENDTAB
  0
TABLE
  2
VIEW
  5
6
330
0
100
AcDbSymbolTable
 70
     0
  0
ENDTAB
  0
TABLE
  2
UCS
  5
7
330
0
100
AcDbSymbolTable
 70
     0
  0
ENDTAB
  0
TABLE
  2
APPID
  5
9
330
0
100
AcDbSymbolTable
 70
     1
  0
APPID
  5
12
330
9
100
AcDbSymbolTableRecord
100
AcDbRegAppTableRecord
  2
ACAD
 70
     0
  0
ENDTAB
  0
TABLE
  2
DIMSTYLE
  5
A
330
0
100
AcDbSymbolTable
 70
     4
100
AcDbDimStyleTable
  0
DIMSTYLE
105
27
330
A
100
AcDbSymbolTableRecord
100
AcDbDimStyleTableRecord
  2
ISO-25
 70
     0
 41
2.5
 42
0.625
 43
3.75
 44
1.25
 73
     0
 74
     0
 77
     1
 78
     8
140
2.5
141
2.5
143
0.0393700787
147
0.625
171
     3
172
     1
178
     0
271
     2
272
     2
274
     3
278
    44
283
     0
284
     8
340
11
  0
DIMSTYLE
105
9E
102
{ACAD_REACTORS
330
9C
102
}
330
A
100
AcDbSymbolTableRecord
100
AcDbDimStyleTableRecord
  2
SLDDIMSTYLE0
 70
     0
 41
3.302
 44
0.0
 45
0.000000001
 73
     0
 74
     0
 77
     1
 78
    12
 79
     3
140
3.5
147
0.875
173
     1
178
     0
271
     0
272
     0
276
     2
284
    12
340
9D
  0
DIMSTYLE
105
C8
102
{ACAD_REACTORS
330
C7
102
}
330
A
100
AcDbSymbolTableRecord
100
AcDbDimStyleTableRecord
  2
SLDDIMSTYLE1
 70
     0
 41
3.302
 44
0.0
 45
0.000000001
 73
     0
 74
     0
 77
     1
 78
    12
 79
     3
140
3.5
147
0.875
172
     1
173
     1
178
     0
271
     0
272
     0
276
     2
284
    12
289
     0
340
9D
  0
DIMSTYLE
105
2D4
102
{ACAD_REACTORS
330
2D3
102
}
330
A
100
AcDbSymbolTableRecord
100
AcDbDimStyleTableRecord
  2
SLDDIMSTYLE2
 70
     0
 41
3.302
 44
0.0
 45
0.000000001
 73
     0
 74
     0
 77
     1
 78
    12
 79
     3
140
3.5
147
0.875
173
     1
178
     0
271
     0
272
     2
276
     2
284
    12
340
9D
  0
ENDTAB
  0
TABLE
  2
BLOCK_RECORD
  5
1
330
0
100
AcDbSymbolTable
 70
     4
  0
BLOCK_RECORD
  5
1F
330
1
100
AcDbSymbolTableRecord
100
AcDbBlockTableRecord
  2
*Model_Space
340
22
 70
     0
280
     1
281
     0
  0
BLOCK_RECORD
  5
1B
330
1
100
AcDbSymbolTableRecord
100
AcDbBlockTableRecord
  2
*Paper_Space
340
1E
 70
     0
280
     1
281
     0
  0
BLOCK_RECORD
  5
23
330
1
100
AcDbSymbolTableRecord
100
AcDbBlockTableRecord
  2
*Paper_Space0
340
26
 70
     0
280
     1
281
     0
  0
BLOCK_RECORD
  5
9F
330
1
100
AcDbSymbolTableRecord
100
AcDbBlockTableRecord
  2
_D
340
0
 70
     0
280
     1
281
     0
  0
BLOCK_RECORD
  5
C9
330
1
100
AcDbSymbolTableRecord
100
AcDbBlockTableRecord
  2
_D_1
340
0
 70
     0
280
     1
281
     0
  0
BLOCK_RECORD
  5
2D5
330
1
100
AcDbSymbolTableRecord
100
AcDbBlockTableRecord
  2
_D_2
340
0
 70
     0
280
     1
281
     0
  0
ENDTAB
  0
ENDSEC
  0
SECTION
  2
BLOCKS
  0
BLOCK
  5
20
330
1F
100
AcDbEntity
  8
0
100
AcDbBlockBegin
  2
*Model_Space
 70
     0
 10
0.0
 20
0.0
 30
0.0
  3
*Model_Space
  1

  0
ENDBLK
  5
21
330
1F
100
AcDbEntity
  8
0
100
AcDbBlockEnd
  0
BLOCK
  5
1C
330
1B
100
AcDbEntity
 67
     1
  8
0
100
AcDbBlockBegin
  2
*Paper_Space
 70
     0
 10
0.0
 20
0.0
 30
0.0
  3
*Paper_Space
  1

  0
ENDBLK
  5
1D
330
1B
100
AcDbEntity
 67
     1
  8
0
100
AcDbBlockEnd
  0
BLOCK
  5
24
330
23
100
AcDbEntity
  8
0
100
AcDbBlockBegin
  2
*Paper_Space0
 70
     0
 10
0.0
 20
0.0
 30
0.0
  3
*Paper_Space0
  1

  0
ENDBLK
  5
25
330
23
100
AcDbEntity
  8
0
100
AcDbBlockEnd
  0
BLOCK
  5
A0
330
9F
100
AcDbEntity
  8
0
100
AcDbBlockBegin
  2
_D
 70
     0
 10
0.0
 20
0.0
 30
0.0
  3
_D
  1

  0
SOLID
  5
A2
330
9F
100
AcDbEntity
  8
0
  6
SLD-Durchgehend
 62
     7
370
    18
100
AcDbTrace
 10
194.5791846652
 20
273.9491181519
 30
0.0
 11
194.0711846652
 21
270.6471181519
 31
0.0
 12
195.0871846652
 22
270.6471181519
 32
0.0
 13
195.0871846652
 23
270.6471181519
 33
0.0
  0
SOLID
  5
A3
330
9F
100
AcDbEntity
  8
0
  6
SLD-Durchgehend
 62
     7
370
    18
100
AcDbTrace
 10
194.5791846652
 20
194.0554216845
 30
0.0
 11
195.0871846652
 21
197.3574216845
 31
0.0
 12
194.0711846652
 22
197.3574216845
 32
0.0
 13
194.0711846652
 23
197.3574216845
 33
0.0
  0
LINE
  5
A4
330
9F
100
AcDbEntity
  8
0
  6
SLD-Durchgehend
 62
     7
370
     0
100
AcDbLine
 10
180.0845060618
 20
273.9491181519
 30
0.0
 11
195.5791846652
 21
273.9491181519
 31
0.0
  0
LINE
  5
A5
330
9F
100
AcDbEntity
  8
0
  6
SLD-Durchgehend
 62
     7
370
     0
100
AcDbLine
 10
182.0845060618
 20
194.0554216845
 30
0.0
 11
195.5791846652
 21
194.0554216845
 31
0.0
  0
LINE
  5
A6
330
9F
100
AcDbEntity
  8
0
  6
SLD-Durchgehend
 62
     7
370
     0
100
AcDbLine
 10
194.5791846652
 20
273.9491181519
 30
0.0
 11
194.5791846652
 21
194.0554216845
 31
0.0
  0
MTEXT
  5
A7
330
9F
100
AcDbEntity
  8
0
  6
SLD-Durchgehend
 62
     7
370
    18
100
AcDbMText
 10
190.1084817148
 20
234.0737273334
 30
0.0
 40
3.5
 41
0.0
 46
0.0
 71
     1
 72
     1
  1
80
  7
SLDTEXTSTYLE0
 11
-7.044195017643634E-15
 21
1.0
 31
0.0
 73
     1
 44
1.0
  0
ENDBLK
  5
A1
330
9F
100
AcDbEntity
  8
0
100
AcDbBlockEnd
  0
BLOCK
  5
CA
330
C9
100
AcDbEntity
  8
0
100
AcDbBlockBegin
  2
_D_1
 70
     0
 10
0.0
 20
0.0
 30
0.0
  3
_D_1
  1

  0
SOLID
  5
CC
330
C9
100
AcDbEntity
  8
0
  6
SLD-Durchgehend
 62
     7
370
    18
100
AcDbTrace
 10
106.2827934998
 20
281.0665859031
 30
0.0
 11
102.9807934998
 21
281.5745859031
 31
0.0
 12
102.9807934998
 22
280.5585859031
 32
0.0
 13
102.9807934998
 23
280.5585859031
 33
0.0
  0
SOLID
  5
CD
330
C9
100
AcDbEntity
  8
0
  6
SLD-Durchgehend
 62
     7
370
    18
100
AcDbTrace
 10
118.2376456693
 20
281.0665859031
 30
0.0
 11
121.5396456693
 21
280.5585859031
 31
0.0
 12
121.5396456693
 22
281.5745859031
 32
0.0
 13
121.5396456693
 23
281.5745859031
 33
0.0
  0
LINE
  5
CE
330
C9
100
AcDbEntity
  8
0
  6
SLD-Durchgehend
 62
     7
370
     0
100
AcDbLine
 10
106.2827934998
 20
274.9491181519
 30
0.0
 11
106.2827934998
 21
282.0665859031
 31
0.0
  0
LINE
  5
CF
330
C9
100
AcDbEntity
  8
0
  6
SLD-Durchgehend
 62
     7
370
     0
100
AcDbLine
 10
118.2376456693
 20
253.0554216845
 30
0.0
 11
118.2376456693
 21
282.0665859031
 31
0.0
  0
LINE
  5
D0
330
C9
100
AcDbEntity
  8
0
  6
SLD-Durchgehend
 62
     7
370
     0
100
AcDbLine
 10
106.2827934998
 20
281.0665859031
 30
0.0
 11
99.9327934998
 21
281.0665859031
 31
0.0
  0
LINE
  5
D1
330
C9
100
AcDbEntity
  8
0
  6
SLD-Durchgehend
 62
     7
370
     0
100
AcDbLine
 10
106.2827934998
 20
281.0665859031
 30
0.0
 11
118.2376456693
 21
281.0665859031
 31
0.0
  0
LINE
  5
D2
330
C9
100
AcDbEntity
  8
0
  6
SLD-Durchgehend
 62
     7
370
     0
100
AcDbLine
 10
118.2376456693
 20
281.0665859031
 30
0.0
 11
124.5876456693
 21
281.0665859031
 31
0.0
  0
MTEXT
  5
D3
330
C9
100
AcDbEntity
  8
0
  6
SLD-Durchgehend
 62
     7
370
    18
100
AcDbMText
 10
110.0136702186
 20
285.5372888535
 30
0.0
 40
3.5
 41
0.0
 46
0.0
 71
     1
 72
     1
  1
12
  7
SLDTEXTSTYLE0
 73
     1
 44
1.0
  0
ENDBLK
  5
CB
330
C9
100
AcDbEntity
  8
0
100
AcDbBlockEnd
  0
BLOCK
  5
2D6
330
2D5
100
AcDbEntity
  8
0
100
AcDbBlockBegin
  2
_D_2
 70
     0
 10
0.0
 20
0.0
 30
0.0
  3
_D_2
  1

  0
SOLID
  5
2D8
330
2D5
100
AcDbEntity
  8
0
  6
SLD-Durchgehend
 62
     7
370
    18
100
AcDbTrace
 10
51.1187244094
 20
282.8427874016
 30
0.0
 11
54.4207244094
 21
282.3347874016
 31
0.0
 12
54.4207244094
 22
283.3507874016
 32
0.0
 13
54.4207244094
 23
283.3507874016
 33
0.0
  0
SOLID
  5
2D9
330
2D5
100
AcDbEntity
  8
0
  6
SLD-Durchgehend
 62
     7
370
    18
100
AcDbTrace
 10
81.1187244094
 20
282.8427874016
 30
0.0
 11
77.8167244094
 21
283.3507874016
 31
0.0
 12
77.8167244094
 22
282.3347874016
 32
0.0
 13
77.8167244094
 23
282.3347874016
 33
0.0
  0
LINE
  5
2DA
330
2D5
100
AcDbEntity
  8
0
  6
SLD-Durchgehend
 62
     7
370
     0
100
AcDbLine
 10
51.1187244094
 20
272.9491181519
 30
0.0
 11
51.1187244094
 21
283.8427874016
 31
0.0
  0
LINE
  5
2DB
330
2D5
100
AcDbEntity
  8
0
  6
SLD-Durchgehend
 62
     7
370
     0
100
AcDbLine
 10
81.1187244094
 20
272.9491181519
 30
0.0
 11
81.1187244094
 21
283.8427874016
 31
0.0
  0
LINE
  5
2DC
330
2D5
100
AcDbEntity
  8
0
  6
SLD-Durchgehend
 62
     7
370
     0
100
AcDbLine
 10
51.1187244094
 20
282.8427874016
 30
0.0
 11
81.1187244094
 21
282.8427874016
 31
0.0
  0
MTEXT
  5
2DD
330
2D5
100
AcDbEntity
  8
0
  6
SLD-Durchgehend
 62
     7
370
    18
100
AcDbMText
 10
63.85066046
 20
287.313490352
 30
0.0
 40
3.5
 41
0.0
 46
0.0
 71
     1
 72
     1
  1
30
  7
SLDTEXTSTYLE0
 73
     1
 44
1.0
  0
ENDBLK
  5
2D7
330
2D5
100
AcDbEntity
  8
0
100
AcDbBlockEnd
  0
ENDSEC
  0
SECTION
  2
ENTITIES
  0
LINE
  5
69
330
1F
100
AcDbEntity
  8
0
  6
SLD-Durchgehend
 62
     7
370
    25
100
AcDbLine
 10
150.5845060618
 20
252.0554216845
 30
0.0
 11
151.0845060618
 21
252.0554216845
 31
0.0
  0
LINE
  5
6A
330
1F
100
AcDbEntity
  8
0
  6
SLD-Durchgehend
 62
     7
370
    25
100
AcDbLine
 10
150.5845060618
 20
249.0554216845
 30
0.0
 11
150.5845060618
 21
252.0554216845
 31
0.0
  0
LINE
  5
6B
330
1F
100
AcDbEntity
  8
0
  6
SLD-Durchgehend
 62
     7
370
    25
100
AcDbLine
 10
181.0845060618
 20
262.9364976962
 30
0.0
 11
181.0845060618
 21
260.8792493132
 31
0.0
  0
LINE
  5
6C
330
1F
100
AcDbEntity
  8
0
  6
SLD-Durchgehend
 62
     7
370
    25
100
AcDbLine
 10
151.0845060618
 20
260.8792493132
 30
0.0
 11
151.0845060618
 21
262.9364976962
 31
0.0
  0
SPLINE
  5
6D
330
1F
100
AcDbEntity
  8
0
  6
SLD-Durchgehend
 62
     7
370
    25
100
AcDbSpline
210
0.0
220
0.0
230
1.0
 70
     8
 71
     3
 72
    14
 73
    10
 74
     0
 42
0.00000001
 43
0.00000001
 40
0.0
 40
0.0
 40
0.0
 40
0.0
 40
0.25
 40
0.25
 40
0.5
 40
0.5
 40
0.75
 40
0.75
 40
1.0
 40
1.0
 40
1.0
 40
1.0
 10
164.8439912175002
 20
262.9364976962427
 30
0.0
 10
165.0357379069618
 20
262.8324655907865
 30
0.0
 10
165.2341137476468
 20
262.7487957183902
 30
0.0
 10
165.6476886505142
 20
262.6325577405569
 30
0.0
 10
165.8670747901598
 20
262.6004700305459
 30
0.0
 10
166.2982088797333
 20
262.6000348146726
 30
0.0
 10
166.511239005019
 20
262.630138252925
 30
0.0
 10
166.9325578325333
 20
262.7473694799861
 30
0.0
 10
167.1329278194522
 20
262.8321255617748
 30
0.0
 10
167.3250209060723
 20
262.9364976962427
 30
0.0
  0
SPLINE
  5
6E
330
1F
100
AcDbEntity
  8
0
  6
SLD-Durchgehend
 62
     7
370
    25
100
AcDbSpline
210
0.0
220
0.0
230
1.0
 70
     8
 71
     3
 72
    10
 73
     6
 74
     0
 42
0.00000001
 43
0.00000001
 40
0.0
 40
0.0
 40
0.0
 40
0.0
 40
0.5
 40
0.5
 40
1.0
 40
1.0
 40
1.0
 40
1.0
 10
164.8439912175002
 20
262.9364976962427
 30
0.0
 10
165.2511763725468
 20
262.8418184777331
 30
0.0
 10
165.6678727262473
 20
262.7923860600875
 30
0.0
 10
166.5021983913757
 20
262.7923980967911
 30
0.0
 10
166.9178949987695
 20
262.8416941060592
 30
0.0
 10
167.3250209060723
 20
262.9364976962427
 30
0.0
  0
ARC
  5
6F
330
1F
100
AcDbEntity
  8
0
  6
SLD-Durchgehend
 62
     7
370
    25
100
AcDbCircle
 10
159.6602946992
 20
271.9491181519
 30
0.0
 40
2.000000000000028
100
AcDbArc
 50
2.5
 51
90.0
  0
LINE
  5
70
330
1F
100
AcDbEntity
  8
0
  6
SLD-Durchgehend
 62
     7
370
    25
100
AcDbLine
 10
161.8885035311
 20
266.765916725
 30
0.0
 11
161.6583911424
 21
272.0363569266
 31
0.0
  0
LINE
  5
71
330
1F
100
AcDbEntity
  8
0
  6
SLD-Durchgehend
 62
     7
370
    25
100
AcDbLine
 10
151.0845060618
 20
271.9491181519
 30
0.0
 11
151.0845060618
 21
262.9364976962
 31
0.0
  0
ARC
  5
72
330
1F
100
AcDbEntity
  8
0
  6
SLD-Durchgehend
 62
     7
370
    25
100
AcDbCircle
 10
153.0845060618
 20
271.9491181519
 30
0.0
 40
2.0
100
AcDbArc
 50
90.0
 51
180.0
  0
LINE
  5
73
330
1F
100
AcDbEntity
  8
0
  6
SLD-Durchgehend
 62
     7
370
    25
100
AcDbLine
 10
159.6602946992
 20
273.9491181519
 30
0.0
 11
153.0845060618
 21
273.9491181519
 31
0.0
  0
ARC
  5
74
330
1F
100
AcDbEntity
  8
0
  6
SLD-Durchgehend
 62
     7
370
    25
100
AcDbCircle
 10
166.0845060618
 20
266.9491181519
 30
0.0
 40
4.200000000000027
100
AcDbArc
 50
182.5
 51
252.8208335899
  0
ARC
  5
75
330
1F
100
AcDbEntity
  8
0
  6
SLD-Durchgehend
 62
     7
370
    25
100
AcDbCircle
 10
166.0845060618
 20
266.9491181519
 30
0.0
 40
4.200000000000018
100
AcDbArc
 50
287.1791664101
 51
357.5
  0
LINE
  5
76
330
1F
100
AcDbEntity
  8
0
  6
SLD-Durchgehend
 62
     7
370
    25
100
AcDbLine
 10
170.5106209812
 20
272.0363569266
 30
0.0
 11
170.2805085924
 21
266.765916725
 31
0.0
  0
ARC
  5
77
330
1F
100
AcDbEntity
  8
0
  6
SLD-Durchgehend
 62
     7
370
    25
100
AcDbCircle
 10
172.5087174243
 20
271.9491181519
 30
0.0
 40
2.0
100
AcDbArc
 50
90.0
 51
177.5
  0
LINE
  5
78
330
1F
100
AcDbEntity
  8
0
  6
SLD-Durchgehend
 62
     7
370
    25
100
AcDbLine
 10
179.0845060618
 20
273.9491181519
 30
0.0
 11
172.5087174243
 21
273.9491181519
 31
0.0
  0
ARC
  5
79
330
1F
100
AcDbEntity
  8
0
  6
SLD-Durchgehend
 62
     7
370
    25
100
AcDbCircle
 10
179.0845060618
 20
271.9491181519
 30
0.0
 40
2.0
100
AcDbArc
 50
0.0
 51
90.0
  0
LINE
  5
7A
330
1F
100
AcDbEntity
  8
0
  6
SLD-Durchgehend
 62
     7
370
    25
100
AcDbLine
 10
181.0845060618
 20
262.9364976962
 30
0.0
 11
181.0845060618
 21
271.9491181519
 31
0.0
  0
LINE
  5
7B
330
1F
100
AcDbEntity
  8
0
  6
SLD-Durchgehend
 62
     7
370
    25
100
AcDbLine
 10
181.0845060618
 20
260.8792493132
 30
0.0
 11
181.0845060618
 21
249.937099563
 31
0.0
  0
ARC
  5
7C
330
1F
100
AcDbEntity
  8
0
  6
SLD-Durchgehend
 62
     7
370
    25
100
AcDbCircle
 10
155.9046629456
 20
253.9948931156
 30
0.0
 40
1.831637173697309
100
AcDbArc
 50
186.4183209766
 51
275.6347843497
  0
LINE
  5
7D
330
1F
100
AcDbEntity
  8
0
  6
SLD-Durchgehend
 62
     7
370
    25
100
AcDbLine
 10
156.0845060618
 20
252.1721064606
 30
0.0
 11
176.0845060618
 21
252.1721064606
 31
0.0
  0
ARC
  5
7E
330
1F
100
AcDbEntity
  8
0
  6
SLD-Durchgehend
 62
     7
370
    25
100
AcDbCircle
 10
176.2501544484
 20
254.0124387662
 30
0.0
 40
1.847772275777999
100
AcDbArc
 50
264.8566647473
 51
353.0902299264
  0
LINE
  5
7F
330
1F
100
AcDbEntity
  8
0
  6
SLD-Durchgehend
 62
     7
370
    25
100
AcDbLine
 10
178.0845060618
 20
253.7901404493
 30
0.0
 11
178.0845060618
 21
257.0262084268
 31
0.0
  0
ARC
  5
80
330
1F
100
AcDbEntity
  8
0
  6
SLD-Durchgehend
 62
     7
370
    25
100
AcDbCircle
 10
176.264349178
 20
256.8214557606
 30
0.0
 40
1.831637173697283
100
AcDbArc
 50
6.4183209766
 51
95.6347843497
  0
LINE
  5
81
330
1F
100
AcDbEntity
  8
0
  6
SLD-Durchgehend
 62
     7
370
    25
100
AcDbLine
 10
176.0845060618
 20
258.6442424156
 30
0.0
 11
156.0845060618
 21
258.6442424156
 31
0.0
  0
ARC
  5
82
330
1F
100
AcDbEntity
  8
0
  6
SLD-Durchgehend
 62
     7
370
    25
100
AcDbCircle
 10
155.9188576751
 20
256.80391011
 30
0.0
 40
1.847772275778053
100
AcDbArc
 50
84.8566647473
 51
173.0902299264
  0
LINE
  5
83
330
1F
100
AcDbEntity
  8
0
  6
SLD-Durchgehend
 62
     7
370
    25
100
AcDbLine
 10
154.0845060618
 20
257.0262084268
 30
0.0
 11
154.0845060618
 21
253.7901404493
 31
0.0
  0
LINE
  5
84
330
1F
100
AcDbEntity
  8
0
  6
SLD-Durchgehend
 62
     7
370
    25
100
AcDbLine
 10
151.0845060618
 20
249.937099563
 30
0.0
 11
151.0845060618
 21
260.8792493132
 31
0.0
  0
ARC
  5
85
330
1F
100
AcDbEntity
  8
0
  6
SLD-Durchgehend
 62
     7
370
    25
100
AcDbCircle
 10
176.264349178
 20
255.1704636202
 30
0.0
 40
1.831637173697226
100
AcDbArc
 50
264.3652156503
 51
353.5816790234
  0
ARC
  5
86
330
1F
100
AcDbEntity
  8
0
  6
SLD-Durchgehend
 62
     7
370
    25
100
AcDbCircle
 10
155.9188576751
 20
255.1880092708
 30
0.0
 40
1.847772275777954
100
AcDbArc
 50
186.9097700736
 51
275.1433352527
  0
LINE
  5
87
330
1F
100
AcDbEntity
  8
0
  6
SLD-Durchgehend
 62
     7
370
    25
100
AcDbLine
 10
156.0845060618
 20
253.3476769652
 30
0.0
 11
176.0845060618
 21
253.3476769652
 31
0.0
  0
LINE
  5
88
330
1F
100
AcDbEntity
  8
0
  6
SLD-Durchgehend
 62
     7
370
    25
100
AcDbLine
 10
151.0845060618
 20
249.937099563
 30
0.0
 11
151.0845060618
 21
249.0554216845
 31
0.0
  0
LINE
  5
89
330
1F
100
AcDbEntity
  8
0
  6
SLD-Durchgehend
 62
     7
370
    25
100
AcDbLine
 10
181.0845060618
 20
249.0554216845
 30
0.0
 11
181.0845060618
 21
249.937099563
 31
0.0
  0
LINE
  5
8A
330
1F
100
AcDbEntity
  8
0
  6
SLD-Durchgehend
 62
     7
370
    25
100
AcDbLine
 10
181.0845060618
 20
249.0554216845
 30
0.0
 11
182.0845060618
 21
249.0554216845
 31
0.0
  0
ARC
  5
8B
330
1F
100
AcDbEntity
  8
0
  6
SLD-Durchgehend
 62
     7
370
    25
100
AcDbCircle
 10
182.0845060618
 20
248.0554216845
 30
0.0
 40
1.000000000000028
100
AcDbArc
 50
0.0
 51
90.0
  0
LINE
  5
8C
330
1F
100
AcDbEntity
  8
0
  6
SLD-Durchgehend
 62
     7
370
    25
100
AcDbLine
 10
183.0845060618
 20
248.0554216845
 30
0.0
 11
183.0845060618
 21
196.0554216845
 31
0.0
  0
ARC
  5
8D
330
1F
100
AcDbEntity
  8
0
  6
SLD-Durchgehend
 62
     7
370
    25
100
AcDbCircle
 10
181.0845060618
 20
196.0554216845
 30
0.0
 40
2.0
100
AcDbArc
 50
270.0
 51
0.0
  0
LINE
  5
8E
330
1F
100
AcDbEntity
  8
0
  6
SLD-Durchgehend
 62
     7
370
    25
100
AcDbLine
 10
151.0845060618
 20
194.0554216845
 30
0.0
 11
181.0845060618
 21
194.0554216845
 31
0.0
  0
ARC
  5
8F
330
1F
100
AcDbEntity
  8
0
  6
SLD-Durchgehend
 62
     7
370
    25
100
AcDbCircle
 10
151.0845060618
 20
196.0554216845
 30
0.0
 40
2.0
100
AcDbArc
 50
180.0
 51
270.0
  0
LINE
  5
90
330
1F
100
AcDbEntity
  8
0
  6
SLD-Durchgehend
 62
     7
370
    25
100
AcDbLine
 10
149.0845060618
 20
248.0554216845
 30
0.0
 11
149.0845060618
 21
196.0554216845
 31
0.0
  0
ARC
  5
91
330
1F
100
AcDbEntity
  8
0
  6
SLD-Durchgehend
 62
     7
370
    25
100
AcDbCircle
 10
150.0845060618
 20
248.0554216845
 30
0.0
 40
1.000000000000028
100
AcDbArc
 50
90.0
 51
180.0
  0
CIRCLE
  5
92
330
1F
100
AcDbEntity
  8
0
  6
SLD-Durchgehend
 62
     7
370
    25
100
AcDbCircle
 10
174.0845060618
 20
240.0554216845
 30
0.0
 40
1.5
  0
CIRCLE
  5
93
330
1F
100
AcDbEntity
  8
0
  6
SLD-Durchgehend
 62
     7
370
    25
100
AcDbCircle
 10
157.0845060618
 20
202.0554216845
 30
0.0
 40
0.75
  0
LINE
  5
94
330
1F
100
AcDbEntity
  8
0
  6
SLD-Durchgehend
 62
     7
370
    25
100
AcDbLine
 10
150.0845060618
 20
249.0554216845
 30
0.0
 11
151.0845060618
 21
249.0554216845
 31
0.0
  0
LINE
  5
95
330
1F
100
AcDbEntity
  8
0
  6
SLD-Durchgehend
 62
     8
370
    18
100
AcDbLine
 10
181.0845060618
 20
260.8792493132
 30
0.0
 11
151.0845060618
 21
260.8792493132
 31
0.0
  0
LINE
  5
96
330
1F
100
AcDbEntity
  8
0
  6
SLD-Durchgehend
 62
     8
370
    18
100
AcDbLine
 10
164.8439912175
 20
262.9364976962
 30
0.0
 11
151.0845060618
 21
262.9364976962
 31
0.0
  0
LINE
  5
97
330
1F
100
AcDbEntity
  8
0
  6
SLD-Durchgehend
 62
     8
370
    18
100
AcDbLine
 10
181.0845060618
 20
262.9364976962
 30
0.0
 11
167.3250209061
 21
262.9364976962
 31
0.0
  0
LINE
  5
98
330
1F
100
AcDbEntity
  8
0
  6
SLD-Durchgehend
 62
     8
370
    18
100
AcDbLine
 10
181.0845060618
 20
249.937099563
 30
0.0
 11
151.0845060618
 21
249.937099563
 31
0.0
  0
LINE
  5
99
330
1F
100
AcDbEntity
  8
0
  6
SLD-Durchgehend
 62
     8
370
    18
100
AcDbLine
 10
176.0845060618
 20
252.1721064606
 30
0.0
 11
176.0845060618
 21
253.3476769652
 31
0.0
  0
LINE
  5
9A
330
1F
100
AcDbEntity
  8
0
  6
SLD-Durchgehend
 62
     8
370
    18
100
AcDbLine
 10
156.0845060618
 20
253.3476769652
 30
0.0
 11
156.0845060618
 21
252.1721064606
 31
0.0
  0
LINE
  5
9B
330
1F
100
AcDbEntity
  8
0
  6
SLD-Durchgehend
 62
     8
370
    18
100
AcDbLine
 10
151.0845060618
 20
249.0554216845
 30
0.0
 11
181.0845060618
 21
249.0554216845
 31
0.0
  0
DIMENSION
  5
9C
330
1F
100
AcDbEntity
  8
0
  6
SLD-Durchgehend
 62
     7
370
    18
100
AcDbDimension
280
     0
  2
_D
 10
194.5791846652
 20
194.0554216845
 30
0.0
 11
194.5791846652
 21
236.6598385269
 31
0.0
 70
   160
  1
<>
 71
     2
 42
-1.0
 73
     0
 74
     0
 75
     0
  3
SLDDIMSTYLE0
100
AcDbAlignedDimension
 13
179.0845060618
 23
273.9491181519
 33
0.0
 14
181.0845060618
 24
194.0554216845
 34
0.0
 50
90.0
100
AcDbRotatedDimension
  0
LINE
  5
A8
330
1F
100
AcDbEntity
  8
0
  6
SLD-Durchgehend
 62
     7
370
    25
100
AcDbLine
 10
118.2376456693
 20
196.5554216845
 30
0.0
 11
117.1876456693
 21
196.5554216845
 31
0.0
  0
LINE
  5
A9
330
1F
100
AcDbEntity
  8
0
  6
SLD-Durchgehend
 62
     7
370
    25
100
AcDbLine
 10
118.2376456693
 20
247.0554216845
 30
0.0
 11
117.1876456693
 21
247.0554216845
 31
0.0
  0
LINE
  5
AA
330
1F
100
AcDbEntity
  8
0
  6
SLD-Durchgehend
 62
     7
370
    25
100
AcDbLine
 10
118.2376456693
 20
247.0554216845
 30
0.0
 11
118.2376456693
 21
196.5554216845
 31
0.0
  0
LINE
  5
AB
330
1F
100
AcDbEntity
  8
0
  6
SLD-Durchgehend
 62
     7
370
    25
100
AcDbLine
 10
118.2376456693
 20
252.0554216845
 30
0.0
 11
118.1876456693
 21
252.0554216845
 31
0.0
  0
LINE
  5
AC
330
1F
100
AcDbEntity
  8
0
  6
SLD-Durchgehend
 62
     7
370
    25
100
AcDbLine
 10
118.1876456693
 20
252.0554216845
 30
0.0
 11
118.1876456693
 21
247.0554216845
 31
0.0
  0
LINE
  5
AD
330
1F
100
AcDbEntity
  8
0
  6
SLD-Durchgehend
 62
     7
370
    25
100
AcDbLine
 10
118.2376456693
 20
252.0554216845
 30
0.0
 11
118.2376456693
 21
247.0554216845
 31
0.0
  0
LINE
  5
AE
330
1F
100
AcDbEntity
  8
0
  6
SLD-Durchgehend
 62
     7
370
    25
100
AcDbLine
 10
117.1876456693
 20
194.0554216845
 30
0.0
 11
115.1876456693
 21
194.0554216845
 31
0.0
  0
LINE
  5
AF
330
1F
100
AcDbEntity
  8
0
  6
SLD-Durchgehend
 62
     7
370
    25
100
AcDbLine
 10
115.1876456693
 20
194.0554216845
 30
0.0
 11
115.1876456693
 21
196.0554216845
 31
0.0
  0
LINE
  5
B0
330
1F
100
AcDbEntity
  8
0
  6
SLD-Durchgehend
 62
     7
370
    25
100
AcDbLine
 10
117.1876456693
 20
196.0554216845
 30
0.0
 11
117.1876456693
 21
194.0554216845
 31
0.0
  0
LINE
  5
B1
330
1F
100
AcDbEntity
  8
0
  6
SLD-Durchgehend
 62
     7
370
    25
100
AcDbLine
 10
115.1876456693
 20
248.0554216845
 30
0.0
 11
115.1876456693
 21
249.0554216845
 31
0.0
  0
LINE
  5
B2
330
1F
100
AcDbEntity
  8
0
  6
SLD-Durchgehend
 62
     7
370
    25
100
AcDbLine
 10
115.1876456693
 20
249.0554216845
 30
0.0
 11
117.1876456693
 21
249.0554216845
 31
0.0
  0
LINE
  5
B3
330
1F
100
AcDbEntity
  8
0
  6
SLD-Durchgehend
 62
     7
370
    25
100
AcDbLine
 10
117.1876456693
 20
249.0554216845
 30
0.0
 11
117.1876456693
 21
248.0554216845
 31
0.0
  0
LINE
  5
B4
330
1F
100
AcDbEntity
  8
0
  6
SLD-Durchgehend
 62
     7
370
    25
100
AcDbLine
 10
115.1876456693
 20
248.0554216845
 30
0.0
 11
115.1876456693
 21
196.0554216845
 31
0.0
  0
LINE
  5
B5
330
1F
100
AcDbEntity
  8
0
  6
SLD-Durchgehend
 62
     7
370
    25
100
AcDbLine
 10
117.1876456693
 20
248.0554216845
 30
0.0
 11
117.1876456693
 21
196.0554216845
 31
0.0
  0
ARC
  5
B6
330
1F
100
AcDbEntity
  8
0
  6
SLD-Durchgehend
 62
     7
370
    25
100
AcDbCircle
 10
113.6876456693
 20
249.0554216845
 30
0.0
 40
3.500000000000017
100
AcDbArc
 50
0.0
 51
36.0
  0
ARC
  5
B7
330
1F
100
AcDbEntity
  8
0
  6
SLD-Durchgehend
 62
     7
370
    25
100
AcDbCircle
 10
113.6876456693
 20
249.0554216845
 30
0.0
 40
1.499999999999991
100
AcDbArc
 50
0.0
 51
36.0
  0
LINE
  5
B8
330
1F
100
AcDbEntity
  8
0
  6
SLD-Durchgehend
 62
     7
370
    25
100
AcDbLine
 10
108.5692680082
 20
262.0548198178
 30
0.0
 11
116.5192051496
 21
251.1126700675
 31
0.0
  0
LINE
  5
B9
330
1F
100
AcDbEntity
  8
0
  6
SLD-Durchgehend
 62
     7
370
    25
100
AcDbLine
 10
106.9512340195
 20
260.8792493132
 30
0.0
 11
114.9011711609
 21
249.937099563
 31
0.0
  0
ARC
  5
BA
330
1F
100
AcDbEntity
  8
0
  6
SLD-Durchgehend
 62
     7
370
    25
100
AcDbCircle
 10
109.7827934998
 20
262.9364976962
 30
0.0
 40
1.500000000000014
100
AcDbArc
 50
180.0
 51
216.0
  0
ARC
  5
BB
330
1F
100
AcDbEntity
  8
0
  6
SLD-Durchgehend
 62
     7
370
    25
100
AcDbCircle
 10
109.7827934998
 20
262.9364976962
 30
0.0
 40
3.500000000000028
100
AcDbArc
 50
180.0
 51
216.0
  0
LINE
  5
BC
330
1F
100
AcDbEntity
  8
0
  6
SLD-Durchgehend
 62
     7
370
    25
100
AcDbLine
 10
108.2827934998
 20
262.9364976962
 30
0.0
 11
108.2827934998
 21
271.9491181519
 31
0.0
  0
LINE
  5
BD
330
1F
100
AcDbEntity
  8
0
  6
SLD-Durchgehend
 62
     7
370
    25
100
AcDbLine
 10
106.2827934998
 20
262.9364976962
 30
0.0
 11
106.2827934998
 21
271.9491181519
 31
0.0
  0
LINE
  5
BE
330
1F
100
AcDbEntity
  8
0
  6
SLD-Durchgehend
 62
     7
370
    25
100
AcDbLine
 10
106.2827934998
 20
273.9491181519
 30
0.0
 11
108.2827934998
 21
273.9491181519
 31
0.0
  0
LINE
  5
BF
330
1F
100
AcDbEntity
  8
0
  6
SLD-Durchgehend
 62
     7
370
    25
100
AcDbLine
 10
108.2827934998
 20
273.9491181519
 30
0.0
 11
108.2827934998
 21
271.9491181519
 31
0.0
  0
LINE
  5
C0
330
1F
100
AcDbEntity
  8
0
  6
SLD-Durchgehend
 62
     7
370
    25
100
AcDbLine
 10
106.2827934998
 20
271.9491181519
 30
0.0
 11
106.2827934998
 21
273.9491181519
 31
0.0
  0
LINE
  5
C1
330
1F
100
AcDbEntity
  8
0
  6
SLD-Durchgehend
 62
     8
370
    18
100
AcDbLine
 10
115.1876456693
 20
196.0554216845
 30
0.0
 11
117.1876456693
 21
196.0554216845
 31
0.0
  0
LINE
  5
C2
330
1F
100
AcDbEntity
  8
0
  6
SLD-Durchgehend
 62
     8
370
    18
100
AcDbLine
 10
117.1876456693
 20
248.0554216845
 30
0.0
 11
115.1876456693
 21
248.0554216845
 31
0.0
  0
LINE
  5
C3
330
1F
100
AcDbEntity
  8
0
  6
SLD-Durchgehend
 62
     8
370
    18
100
AcDbLine
 10
114.9011711609
 20
249.937099563
 30
0.0
 11
116.5192051496
 21
251.1126700675
 31
0.0
  0
LINE
  5
C4
330
1F
100
AcDbEntity
  8
0
  6
SLD-Durchgehend
 62
     8
370
    18
100
AcDbLine
 10
108.5692680082
 20
262.0548198178
 30
0.0
 11
106.9512340195
 21
260.8792493132
 31
0.0
  0
LINE
  5
C5
330
1F
100
AcDbEntity
  8
0
  6
SLD-Durchgehend
 62
     8
370
    18
100
AcDbLine
 10
108.2827934998
 20
262.9364976962
 30
0.0
 11
106.2827934998
 21
262.9364976962
 31
0.0
  0
LINE
  5
C6
330
1F
100
AcDbEntity
  8
0
  6
SLD-Durchgehend
 62
     8
370
    18
100
AcDbLine
 10
108.2827934998
 20
271.9491181519
 30
0.0
 11
106.2827934998
 21
271.9491181519
 31
0.0
  0
DIMENSION
  5
C7
330
1F
100
AcDbEntity
  8
0
  6
SLD-Durchgehend
 62
     7
370
    18
100
AcDbDimension
280
     0
  2
_D_1
 10
118.2376456693
 20
281.0665859031
 30
0.0
 11
112.5997814121
 21
281.0665859031
 31
0.0
 70
   160
  1
<>
 71
     2
 42
-1.0
 73
     0
 74
     0
 75
     0
  3
SLDDIMSTYLE1
100
AcDbAlignedDimension
 13
106.2827934998
 23
273.9491181519
 33
0.0
 14
118.2376456693
 24
252.0554216845
 34
0.0
100
AcDbRotatedDimension
  0
SPLINE
  5
D4
330
1F
100
AcDbEntity
  8
0
  6
SLD-Durchgehend
 62
     7
370
    25
100
AcDbSpline
210
0.0
220
0.0
230
1.0
 70
     8
 71
     3
 72
    11
 73
     7
 74
     0
 42
0.00000001
 43
0.00000001
 40
0.0
 40
0.0
 40
0.0
 40
0.0
 40
0.2797467444255961
 40
0.5591708920400806
 40
0.7794436172783868
 40
1.0
 40
1.0
 40
1.0
 40
1.0
 10
52.48401072036198
 20
227.2984016869662
 30
0.0
 10
52.55345909584859
 20
227.3055127699365
 30
0.0
 10
52.69227576072638
 20
227.3197267355576
 30
0.0
 10
52.8486447643856
 20
227.4457713691049
 30
0.0
 10
52.93697366830042
 20
227.6037475480991
 30
0.0
 10
52.94515954125481
 20
227.7126602802177
 30
0.0
 10
52.94925511138762
 20
227.7671516869662
 30
0.0
  0
SPLINE
  5
D5
330
1F
100
AcDbEntity
  8
0
  6
SLD-Durchgehend
 62
     7
370
    25
100
AcDbSpline
210
0.0
220
0.0
230
1.0
 70
     8
 71
     3
 72
    11
 73
     7
 74
     0
 42
0.00000001
 43
0.00000001
 40
0.0
 40
0.0
 40
0.0
 40
0.0
 40
0.279883126821091
 40
0.5589931949970932
 40
0.7793189944462585
 40
1.0
 40
1.0
 40
1.0
 40
1.0
 10
51.98571344472096
 20
227.7911901485046
 30
0.0
 10
51.99261186300689
 20
227.7171864706083
 30
0.0
 10
52.00638964561879
 20
227.5693835186454
 30
0.0
 10
52.14234414424308
 20
227.4044319608669
 30
0.0
 10
52.31034879838313
 20
227.3115129477071
 30
0.0
 10
52.42609233807163
 20
227.3027744533346
 30
0.0
 10
52.48401072036198
 20
227.2984016869662
 30
0.0
  0
SPLINE
  5
D6
330
1F
100
AcDbEntity
  8
0
  6
SLD-Durchgehend
 62
     7
370
    25
100
AcDbSpline
210
0.0
220
0.0
230
1.0
 70
     8
 71
     3
 72
    11
 73
     7
 74
     0
 42
0.00000001
 43
0.00000001
 40
0.0
 40
0.0
 40
0.0
 40
0.0
 40
0.2808810668244301
 40
0.560072719837839
 40
0.7796532013274983
 40
1.0
 40
1.0
 40
1.0
 40
1.0
 10
52.43443139343891
 20
228.2599401485047
 30
0.0
 10
52.36965525698572
 20
228.2434845844735
 30
0.0
 10
52.24049259275176
 20
228.2106724316018
 30
0.0
 10
52.0791858560335
 20
228.1058286213465
 30
0.0
 10
51.99621583977992
 20
227.9488496310796
 30
0.0
 10
51.98921830611688
 20
227.8438043028071
 30
0.0
 10
51.98571344472096
 20
227.7911901485046
 30
0.0
  0
LINE
  5
D7
330
1F
100
AcDbEntity
  8
0
  6
SLD-Durchgehend
 62
     7
370
    25
100
AcDbLine
 10
52.4023801114
 20
228.580452969
 30
0.0
 11
52.4344313934
 21
228.2599401485
 31
0.0
  0
SPLINE
  5
D8
330
1F
100
AcDbEntity
  8
0
  6
SLD-Durchgehend
 62
     7
370
    25
100
AcDbSpline
210
0.0
220
0.0
230
1.0
 70
     8
 71
     3
 72
    11
 73
     7
 74
     0
 42
0.00000001
 43
0.00000001
 40
0.0
 40
0.0
 40
0.0
 40
0.0
 40
0.2799105182553527
 40
0.5592490543357274
 40
0.7794762652099549
 40
1.0
 40
1.0
 40
1.0
 40
1.0
 10
51.69725190625942
 20
227.8027085779918
 30
0.0
 10
51.70713704007915
 20
227.9116854192651
 30
0.0
 10
51.72688710797628
 20
228.1294164134644
 30
0.0
 10
51.91223288882097
 20
228.3821520193945
 30
0.0
 10
52.14905016470511
 20
228.5376074999606
 30
0.0
 10
52.31789893037793
 20
228.5661647418487
 30
0.0
 10
52.40238011138763
 20
228.5804529690175
 30
0.0
  0
SPLINE
  5
D9
330
1F
100
AcDbEntity
  8
0
  6
SLD-Durchgehend
 62
     7
370
    25
100
AcDbSpline
210
0.0
220
0.0
230
1.0
 70
     8
 71
     3
 72
    11
 73
     7
 74
     0
 42
0.00000001
 43
0.00000001
 40
0.0
 40
0.0
 40
0.0
 40
0.0
 40
0.279400678980353
 40
0.5590642144451518
 40
0.7793783406070218
 40
1.0
 40
1.0
 40
1.0
 40
1.0
 10
52.48150671395173
 20
226.9778888664534
 30
0.0
 10
52.36240561072261
 20
226.9924739278602
 30
0.0
 10
52.12409135551273
 20
227.0216577721079
 30
0.0
 10
51.86465563883399
 20
227.2492269038614
 30
0.0
 10
51.71746923632314
 20
227.5219864092394
 30
0.0
 10
51.70399414904003
 20
227.7090910226736
 30
0.0
 10
51.69725190625942
 20
227.8027085779918
 30
0.0
  0
SPLINE
  5
DA
330
1F
100
AcDbEntity
  8
0
  6
SLD-Durchgehend
 62
     7
370
    25
100
AcDbSpline
210
0.0
220
0.0
230
1.0
 70
     8
 71
     3
 72
    11
 73
     7
 74
     0
 42
0.00000001
 43
0.00000001
 40
0.0
 40
0.0
 40
0.0
 40
0.0
 40
0.2798072354267279
 40
0.5591854150511271
 40
0.7794081502159199
 40
1.0
 40
1.0
 40
1.0
 40
1.0
 10
53.09799309215686
 20
227.4471396677354
 30
0.0
 10
53.07323754682972
 20
227.3717300168771
 30
0.0
 10
53.02376441627445
 20
227.2210263481539
 30
0.0
 10
52.85662739735447
 20
227.0669897753547
 30
0.0
 10
52.6674809985862
 20
226.9881122985729
 30
0.0
 10
52.54353273805044
 20
226.981298578975
 30
0.0
 10
52.48150671395173
 20
226.9778888664534
 30
0.0
  0
SPLINE
  5
DB
330
1F
100
AcDbEntity
  8
0
  6
SLD-Durchgehend
 62
     7
370
    25
100
AcDbSpline
210
0.0
220
0.0
230
1.0
 70
     8
 71
     3
 72
     9
 73
     5
 74
     0
 42
0.00000001
 43
0.00000001
 40
0.0
 40
0.0
 40
0.0
 40
0.0
 40
0.5598588263588148
 40
1.0
 40
1.0
 40
1.0
 40
1.0
 10
53.11872441360204
 20
227.4056882164394
 30
0.0
 10
53.11479690518171
 20
227.4133945896491
 30
0.0
 10
53.10778172879186
 20
227.4271594404416
 30
0.0
 10
53.10098473082098
 20
227.4410332381355
 30
0.0
 10
53.09799309215686
 20
227.4471396677354
 30
0.0
  0
LINE
  5
DC
330
1F
100
AcDbEntity
  8
0
  6
SLD-Durchgehend
 62
     7
370
    25
100
AcDbLine
 10
53.1187244136
 20
227.4056882164
 30
0.0
 11
53.1187244094
 21
226.5932734818
 31
0.0
  0
LINE
  5
DD
330
1F
100
AcDbEntity
  8
0
  6
SLD-Durchgehend
 62
     7
370
    25
100
AcDbLine
 10
51.7293031883
 20
226.5932734818
 30
0.0
 11
53.1187244094
 21
226.5932734818
 31
0.0
  0
LINE
  5
DE
330
1F
100
AcDbEntity
  8
0
  6
SLD-Durchgehend
 62
     7
370
    25
100
AcDbLine
 10
51.7293031883
 20
226.2407093793
 30
0.0
 11
51.7293031883
 21
226.5932734818
 31
0.0
  0
LINE
  5
DF
330
1F
100
AcDbEntity
  8
0
  6
SLD-Durchgehend
 62
     7
370
    25
100
AcDbLine
 10
53.1187244094
 20
226.2407093793
 30
0.0
 11
51.7293031883
 21
226.2407093793
 31
0.0
  0
LINE
  5
E0
330
1F
100
AcDbEntity
  8
0
  6
SLD-Durchgehend
 62
     7
370
    25
100
AcDbLine
 10
53.1187244094
 20
226.2407093793
 30
0.0
 11
53.1187244094
 21
226.0131583532
 31
0.0
  0
LINE
  5
E1
330
1F
100
AcDbEntity
  8
0
  6
SLD-Durchgehend
 62
     7
370
    25
100
AcDbLine
 10
51.7293031883
 20
225.5776484818
 30
0.0
 11
53.1187244094
 21
226.0131583532
 31
0.0
  0
LINE
  5
E2
330
1F
100
AcDbEntity
  8
0
  6
SLD-Durchgehend
 62
     7
370
    25
100
AcDbLine
 10
51.7293031883
 20
225.2090587382
 30
0.0
 11
51.7293031883
 21
225.5776484818
 31
0.0
  0
LINE
  5
E3
330
1F
100
AcDbEntity
  8
0
  6
SLD-Durchgehend
 62
     7
370
    25
100
AcDbLine
 10
53.1187244094
 20
224.7709173873
 30
0.0
 11
51.7293031883
 21
225.2090587382
 31
0.0
  0
LINE
  5
E4
330
1F
100
AcDbEntity
  8
0
  6
SLD-Durchgehend
 62
     7
370
    25
100
AcDbLine
 10
53.1187244094
 20
224.7709173873
 30
0.0
 11
53.1187244094
 21
224.5419914306
 31
0.0
  0
LINE
  5
E5
330
1F
100
AcDbEntity
  8
0
  6
SLD-Durchgehend
 62
     7
370
    25
100
AcDbLine
 10
51.7293031883
 20
224.5419914306
 30
0.0
 11
53.1187244094
 21
224.5419914306
 31
0.0
  0
LINE
  5
E6
330
1F
100
AcDbEntity
  8
0
  6
SLD-Durchgehend
 62
     7
370
    25
100
AcDbLine
 10
51.7293031883
 20
224.189427328
 30
0.0
 11
51.7293031883
 21
224.5419914306
 31
0.0
  0
LINE
  5
E7
330
1F
100
AcDbEntity
  8
0
  6
SLD-Durchgehend
 62
     7
370
    25
100
AcDbLine
 10
53.1187244094
 20
224.189427328
 30
0.0
 11
51.7293031883
 21
224.189427328
 31
0.0
  0
LINE
  5
E8
330
1F
100
AcDbEntity
  8
0
  6
SLD-Durchgehend
 62
     7
370
    25
100
AcDbLine
 10
53.1187244094
 20
224.189427328
 30
0.0
 11
53.1187244094
 21
222.5852416145
 31
0.0
  0
LINE
  5
E9
330
1F
100
AcDbEntity
  8
0
  6
SLD-Durchgehend
 62
     7
370
    25
100
AcDbLine
 10
51.7293031883
 20
222.024964187
 30
0.0
 11
53.1187244094
 21
222.5852416145
 31
0.0
  0
LINE
  5
EA
330
1F
100
AcDbEntity
  8
0
  6
SLD-Durchgehend
 62
     7
370
    25
100
AcDbLine
 10
51.7293031883
 20
221.6428528088
 30
0.0
 11
51.7293031883
 21
222.024964187
 31
0.0
  0
LINE
  5
EB
330
1F
100
AcDbEntity
  8
0
  6
SLD-Durchgehend
 62
     7
370
    25
100
AcDbLine
 10
53.1187244094
 20
221.0822970517
 30
0.0
 11
51.7293031883
 21
221.6428528088
 31
0.0
  0
LINE
  5
EC
330
1F
100
AcDbEntity
  8
0
  6
SLD-Durchgehend
 62
     7
370
    25
100
AcDbLine
 10
53.1187244094
 20
221.0822970517
 30
0.0
 11
53.1187244094
 21
220.4073760459
 31
0.0
  0
LINE
  5
ED
330
1F
100
AcDbEntity
  8
0
  6
SLD-Durchgehend
 62
     7
370
    25
100
AcDbLine
 10
51.7293031883
 20
220.4073760459
 30
0.0
 11
53.1187244094
 21
220.4073760459
 31
0.0
  0
LINE
  5
EE
330
1F
100
AcDbEntity
  8
0
  6
SLD-Durchgehend
 62
     7
370
    25
100
AcDbLine
 10
51.7293031883
 20
220.0548119434
 30
0.0
 11
51.7293031883
 21
220.4073760459
 31
0.0
  0
LINE
  5
EF
330
1F
100
AcDbEntity
  8
0
  6
SLD-Durchgehend
 62
     7
370
    25
100
AcDbLine
 10
52.9152006242
 20
220.0548119434
 30
0.0
 11
51.7293031883
 21
220.0548119434
 31
0.0
  0
LINE
  5
F0
330
1F
100
AcDbEntity
  8
0
  6
SLD-Durchgehend
 62
     7
370
    25
100
AcDbLine
 10
52.9152006242
 20
218.8368632254
 30
0.0
 11
52.9152006242
 21
220.0548119434
 31
0.0
  0
LINE
  5
F1
330
1F
100
AcDbEntity
  8
0
  6
SLD-Durchgehend
 62
     7
370
    25
100
AcDbLine
 10
51.7293031883
 20
218.8368632254
 30
0.0
 11
52.9152006242
 21
218.8368632254
 31
0.0
  0
LINE
  5
F2
330
1F
100
AcDbEntity
  8
0
  6
SLD-Durchgehend
 62
     7
370
    25
100
AcDbLine
 10
51.7293031883
 20
218.4842991229
 30
0.0
 11
51.7293031883
 21
218.8368632254
 31
0.0
  0
LINE
  5
F3
330
1F
100
AcDbEntity
  8
0
  6
SLD-Durchgehend
 62
     7
370
    25
100
AcDbLine
 10
53.1187244094
 20
218.4842991229
 30
0.0
 11
51.7293031883
 21
218.4842991229
 31
0.0
  0
LINE
  5
F4
330
1F
100
AcDbEntity
  8
0
  6
SLD-Durchgehend
 62
     7
370
    25
100
AcDbLine
 10
53.1187244094
 20
218.4842991229
 30
0.0
 11
53.1187244094
 21
217.9073760459
 31
0.0
  0
LINE
  5
F5
330
1F
100
AcDbEntity
  8
0
  6
SLD-Durchgehend
 62
     7
370
    25
100
AcDbLine
 10
51.7293031883
 20
217.9073760459
 30
0.0
 11
53.1187244094
 21
217.9073760459
 31
0.0
  0
LINE
  5
F6
330
1F
100
AcDbEntity
  8
0
  6
SLD-Durchgehend
 62
     7
370
    25
100
AcDbLine
 10
51.7293031883
 20
216.9688744434
 30
0.0
 11
51.7293031883
 21
217.9073760459
 31
0.0
  0
SPLINE
  5
F7
330
1F
100
AcDbEntity
  8
0
  6
SLD-Durchgehend
 62
     7
370
    25
100
AcDbSpline
210
0.0
220
0.0
230
1.0
 70
     8
 71
     3
 72
    12
 73
     8
 74
     0
 42
0.00000001
 43
0.00000001
 40
0.0
 40
0.0
 40
0.0
 40
0.0
 40
0.1866200114219015
 40
0.373273284701735
 40
0.5592200851609213
 40
0.779288171421968
 40
1.0
 40
1.0
 40
1.0
 40
1.0
 10
52.44544902164404
 20
216.0484016869662
 30
0.0
 10
52.36298499739291
 20
216.0561663233412
 30
0.0
 10
52.19804225107426
 20
216.0716969800062
 30
0.0
 10
51.97495357050332
 20
216.1940473923621
 30
0.0
 10
51.80952919402669
 20
216.4047942358936
 30
0.0
 10
51.73784382792901
 20
216.6775951542493
 30
0.0
 10
51.73215283867466
 20
216.8716868591474
 30
0.0
 10
51.7293031883107
 20
216.9688744433764
 30
0.0
  0
SPLINE
  5
F8
330
1F
100
AcDbEntity
  8
0
  6
SLD-Durchgehend
 62
     7
370
    25
100
AcDbSpline
210
0.0
220
0.0
230
1.0
 70
     8
 71
     3
 72
    11
 73
     7
 74
     0
 42
0.00000001
 43
0.00000001
 40
0.0
 40
0.0
 40
0.0
 40
0.0
 40
0.2802111301844241
 40
0.5596695371223307
 40
0.7797087448035144
 40
1.0
 40
1.0
 40
1.0
 40
1.0
 10
53.04340575241327
 20
216.5196556933764
 30
0.0
 10
53.01702296139386
 20
216.4469908674123
 30
0.0
 10
52.96432825070158
 20
216.301856412954
 30
0.0
 10
52.8074430146351
 20
216.1479326780806
 30
0.0
 10
52.62687211737693
 20
216.0608337254488
 30
0.0
 10
52.5059464597197
 20
216.0525472808621
 30
0.0
 10
52.44544902164404
 20
216.0484016869662
 30
0.0
  0
SPLINE
  5
F9
330
1F
100
AcDbEntity
  8
0
  6
SLD-Durchgehend
 62
     7
370
    25
100
AcDbSpline
210
0.0
220
0.0
230
1.0
 70
     8
 71
     3
 72
     9
 73
     5
 74
     0
 42
0.00000001
 43
0.00000001
 40
0.0
 40
0.0
 40
0.0
 40
0.0
 40
0.5597367173169951
 40
1.0
 40
1.0
 40
1.0
 40
1.0
 10
53.11872441180125
 20
216.3896810324341
 30
0.0
 10
53.10326744878064
 20
216.4131268688858
 30
0.0
 10
53.07565274611348
 20
216.4550141271742
 30
0.0
 10
53.05326309410476
 20
216.4998958977362
 30
0.0
 10
53.04340575241326
 20
216.5196556933764
 30
0.0
  0
LINE
  5
FA
330
1F
100
AcDbEntity
  8
0
  6
SLD-Durchgehend
 62
     7
370
    25
100
AcDbLine
 10
53.1187244118
 20
216.3896810324
 30
0.0
 11
53.1187244094
 21
207.951162984
 31
0.0
  0
LINE
  5
FB
330
1F
100
AcDbEntity
  8
0
  6
SLD-Durchgehend
 62
     7
370
    25
100
AcDbLine
 10
52.9152006242
 20
207.9744834177
 30
0.0
 11
53.1187244094
 21
207.951162984
 31
0.0
  0
SPLINE
  5
FC
330
1F
100
AcDbEntity
  8
0
  6
SLD-Durchgehend
 62
     7
370
    25
100
AcDbSpline
210
0.0
220
0.0
230
1.0
 70
     8
 71
     3
 72
     9
 73
     5
 74
     0
 42
0.00000001
 43
0.00000001
 40
0.0
 40
0.0
 40
0.0
 40
0.0
 40
0.5597720928168267
 40
1.0
 40
1.0
 40
1.0
 40
1.0
 10
52.94925511138764
 20
207.7671516869662
 30
0.0
 10
52.94634151631336
 20
207.8064291405993
 30
0.0
 10
52.94113654966414
 20
207.8765960069672
 30
0.0
 10
52.92312834045875
 20
207.9445626185569
 30
0.0
 10
52.91520062420815
 20
207.9744834177354
 30
0.0
  0
SPLINE
  5
FD
330
1F
100
AcDbEntity
  8
0
  6
SLD-Durchgehend
 62
     7
370
    25
100
AcDbSpline
210
0.0
220
0.0
230
1.0
 70
     8
 71
     3
 72
    11
 73
     7
 74
     0
 42
0.00000001
 43
0.00000001
 40
0.0
 40
0.0
 40
0.0
 40
0.0
 40
0.2797467444255944
 40
0.5591708920400796
 40
0.7794436172783874
 40
1.0
 40
1.0
 40
1.0
 40
1.0
 10
52.48401072036199
 20
207.2984016869662
 30
0.0
 10
52.5534590958486
 20
207.3055127699365
 30
0.0
 10
52.6922757607264
 20
207.3197267355576
 30
0.0
 10
52.84864476438561
 20
207.4457713691049
 30
0.0
 10
52.93697366830042
 20
207.6037475480991
 30
0.0
 10
52.94515954125481
 20
207.7126602802177
 30
0.0
 10
52.94925511138763
 20
207.7671516869662
 30
0.0
  0
SPLINE
  5
FE
330
1F
100
AcDbEntity
  8
0
  6
SLD-Durchgehend
 62
     7
370
    25
100
AcDbSpline
210
0.0
220
0.0
230
1.0
 70
     8
 71
     3
 72
    11
 73
     7
 74
     0
 42
0.00000001
 43
0.00000001
 40
0.0
 40
0.0
 40
0.0
 40
0.0
 40
0.2798831268210908
 40
0.558993194997093
 40
0.7793189944462542
 40
1.0
 40
1.0
 40
1.0
 40
1.0
 10
51.98571344472096
 20
207.7911901485046
 30
0.0
 10
51.99261186300689
 20
207.7171864706083
 30
0.0
 10
52.0063896456188
 20
207.5693835186453
 30
0.0
 10
52.14234414424309
 20
207.4044319608669
 30
0.0
 10
52.31034879838314
 20
207.3115129477072
 30
0.0
 10
52.42609233807163
 20
207.3027744533346
 30
0.0
 10
52.48401072036199
 20
207.2984016869662
 30
0.0
  0
SPLINE
  5
FF
330
1F
100
AcDbEntity
  8
0
  6
SLD-Durchgehend
 62
     7
370
    25
100
AcDbSpline
210
0.0
220
0.0
230
1.0
 70
     8
 71
     3
 72
    11
 73
     7
 74
     0
 42
0.00000001
 43
0.00000001
 40
0.0
 40
0.0
 40
0.0
 40
0.0
 40
0.2808810668244295
 40
0.5600727198378347
 40
0.7796532013275043
 40
1.0
 40
1.0
 40
1.0
 40
1.0
 10
52.43443139343891
 20
208.2599401485046
 30
0.0
 10
52.36965525698573
 20
208.2434845844735
 30
0.0
 10
52.24049259275178
 20
208.2106724316018
 30
0.0
 10
52.07918585603351
 20
208.1058286213465
 30
0.0
 10
51.99621583977992
 20
207.9488496310796
 30
0.0
 10
51.98921830611688
 20
207.8438043028071
 30
0.0
 10
51.98571344472096
 20
207.7911901485046
 30
0.0
  0
LINE
  5
100
330
1F
100
AcDbEntity
  8
0
  6
SLD-Durchgehend
 62
     7
370
    25
100
AcDbLine
 10
52.4023801114
 20
208.580452969
 30
0.0
 11
52.4344313934
 21
208.2599401485
 31
0.0
  0
SPLINE
  5
101
330
1F
100
AcDbEntity
  8
0
  6
SLD-Durchgehend
 62
     7
370
    25
100
AcDbSpline
210
0.0
220
0.0
230
1.0
 70
     8
 71
     3
 72
    11
 73
     7
 74
     0
 42
0.00000001
 43
0.00000001
 40
0.0
 40
0.0
 40
0.0
 40
0.0
 40
0.2799105182553507
 40
0.5592490543357288
 40
0.7794762652099544
 40
1.0
 40
1.0
 40
1.0
 40
1.0
 10
51.69725190625943
 20
207.8027085779918
 30
0.0
 10
51.70713704007915
 20
207.9116854192651
 30
0.0
 10
51.72688710797629
 20
208.1294164134644
 30
0.0
 10
51.91223288882098
 20
208.3821520193945
 30
0.0
 10
52.14905016470512
 20
208.5376074999605
 30
0.0
 10
52.31789893037794
 20
208.5661647418487
 30
0.0
 10
52.40238011138764
 20
208.5804529690174
 30
0.0
  0
SPLINE
  5
102
330
1F
100
AcDbEntity
  8
0
  6
SLD-Durchgehend
 62
     7
370
    25
100
AcDbSpline
210
0.0
220
0.0
230
1.0
 70
     8
 71
     3
 72
    11
 73
     7
 74
     0
 42
0.00000001
 43
0.00000001
 40
0.0
 40
0.0
 40
0.0
 40
0.0
 40
0.2794006789803541
 40
0.5590642144451525
 40
0.7793783406070159
 40
1.0
 40
1.0
 40
1.0
 40
1.0
 10
52.48150671395174
 20
206.9778888664534
 30
0.0
 10
52.36240561072262
 20
206.9924739278602
 30
0.0
 10
52.12409135551274
 20
207.0216577721079
 30
0.0
 10
51.864655638834
 20
207.2492269038614
 30
0.0
 10
51.71746923632315
 20
207.5219864092394
 30
0.0
 10
51.70399414904004
 20
207.7090910226736
 30
0.0
 10
51.69725190625943
 20
207.8027085779918
 30
0.0
  0
SPLINE
  5
103
330
1F
100
AcDbEntity
  8
0
  6
SLD-Durchgehend
 62
     7
370
    25
100
AcDbSpline
210
0.0
220
0.0
230
1.0
 70
     8
 71
     3
 72
    11
 73
     7
 74
     0
 42
0.00000001
 43
0.00000001
 40
0.0
 40
0.0
 40
0.0
 40
0.0
 40
0.2798072354267284
 40
0.5591854150511281
 40
0.7794081502159216
 40
1.0
 40
1.0
 40
1.0
 40
1.0
 10
53.09799309215686
 20
207.4471396677354
 30
0.0
 10
53.07323754682972
 20
207.3717300168771
 30
0.0
 10
53.02376441627447
 20
207.2210263481539
 30
0.0
 10
52.85662739735449
 20
207.0669897753546
 30
0.0
 10
52.6674809985862
 20
206.9881122985729
 30
0.0
 10
52.54353273805045
 20
206.981298578975
 30
0.0
 10
52.48150671395174
 20
206.9778888664534
 30
0.0
  0
SPLINE
  5
104
330
1F
100
AcDbEntity
  8
0
  6
SLD-Durchgehend
 62
     7
370
    25
100
AcDbSpline
210
0.0
220
0.0
230
1.0
 70
     8
 71
     3
 72
     9
 73
     5
 74
     0
 42
0.00000001
 43
0.00000001
 40
0.0
 40
0.0
 40
0.0
 40
0.0
 40
0.5598588263588808
 40
1.0
 40
1.0
 40
1.0
 40
1.0
 10
53.11872441360204
 20
207.4056882164394
 30
0.0
 10
53.11479690518171
 20
207.4133945896491
 30
0.0
 10
53.10778172879186
 20
207.4271594404416
 30
0.0
 10
53.10098473082099
 20
207.4410332381355
 30
0.0
 10
53.09799309215686
 20
207.4471396677354
 30
0.0
  0
LINE
  5
105
330
1F
100
AcDbEntity
  8
0
  6
SLD-Durchgehend
 62
     7
370
    25
100
AcDbLine
 10
53.1187244136
 20
207.4056882164
 30
0.0
 11
53.1187244094
 21
206.5932734818
 31
0.0
  0
LINE
  5
106
330
1F
100
AcDbEntity
  8
0
  6
SLD-Durchgehend
 62
     7
370
    25
100
AcDbLine
 10
51.7293031883
 20
206.5932734818
 30
0.0
 11
53.1187244094
 21
206.5932734818
 31
0.0
  0
LINE
  5
107
330
1F
100
AcDbEntity
  8
0
  6
SLD-Durchgehend
 62
     7
370
    25
100
AcDbLine
 10
51.7293031883
 20
206.2407093793
 30
0.0
 11
51.7293031883
 21
206.5932734818
 31
0.0
  0
LINE
  5
108
330
1F
100
AcDbEntity
  8
0
  6
SLD-Durchgehend
 62
     7
370
    25
100
AcDbLine
 10
53.1187244094
 20
206.2407093793
 30
0.0
 11
51.7293031883
 21
206.2407093793
 31
0.0
  0
LINE
  5
109
330
1F
100
AcDbEntity
  8
0
  6
SLD-Durchgehend
 62
     7
370
    25
100
AcDbLine
 10
53.1187244094
 20
206.2407093793
 30
0.0
 11
53.1187244094
 21
206.0131583532
 31
0.0
  0
LINE
  5
10A
330
1F
100
AcDbEntity
  8
0
  6
SLD-Durchgehend
 62
     7
370
    25
100
AcDbLine
 10
51.7293031883
 20
205.5776484818
 30
0.0
 11
53.1187244094
 21
206.0131583532
 31
0.0
  0
LINE
  5
10B
330
1F
100
AcDbEntity
  8
0
  6
SLD-Durchgehend
 62
     7
370
    25
100
AcDbLine
 10
51.7293031883
 20
205.2090587382
 30
0.0
 11
51.7293031883
 21
205.5776484818
 31
0.0
  0
LINE
  5
10C
330
1F
100
AcDbEntity
  8
0
  6
SLD-Durchgehend
 62
     7
370
    25
100
AcDbLine
 10
53.1187244094
 20
204.7709173873
 30
0.0
 11
51.7293031883
 21
205.2090587382
 31
0.0
  0
LINE
  5
10D
330
1F
100
AcDbEntity
  8
0
  6
SLD-Durchgehend
 62
     7
370
    25
100
AcDbLine
 10
53.1187244094
 20
204.7709173873
 30
0.0
 11
53.1187244094
 21
204.5419914306
 31
0.0
  0
LINE
  5
10E
330
1F
100
AcDbEntity
  8
0
  6
SLD-Durchgehend
 62
     7
370
    25
100
AcDbLine
 10
51.7293031883
 20
204.5419914306
 30
0.0
 11
53.1187244094
 21
204.5419914306
 31
0.0
  0
LINE
  5
10F
330
1F
100
AcDbEntity
  8
0
  6
SLD-Durchgehend
 62
     7
370
    25
100
AcDbLine
 10
51.7293031883
 20
204.189427328
 30
0.0
 11
51.7293031883
 21
204.5419914306
 31
0.0
  0
LINE
  5
110
330
1F
100
AcDbEntity
  8
0
  6
SLD-Durchgehend
 62
     7
370
    25
100
AcDbLine
 10
53.1187244094
 20
204.189427328
 30
0.0
 11
51.7293031883
 21
204.189427328
 31
0.0
  0
LINE
  5
111
330
1F
100
AcDbEntity
  8
0
  6
SLD-Durchgehend
 62
     7
370
    25
100
AcDbLine
 10
53.1187244094
 20
204.189427328
 30
0.0
 11
53.1187244094
 21
202.5852416145
 31
0.0
  0
LINE
  5
112
330
1F
100
AcDbEntity
  8
0
  6
SLD-Durchgehend
 62
     7
370
    25
100
AcDbLine
 10
51.7293031883
 20
202.024964187
 30
0.0
 11
53.1187244094
 21
202.5852416145
 31
0.0
  0
LINE
  5
113
330
1F
100
AcDbEntity
  8
0
  6
SLD-Durchgehend
 62
     7
370
    25
100
AcDbLine
 10
51.7293031883
 20
201.6428528088
 30
0.0
 11
51.7293031883
 21
202.024964187
 31
0.0
  0
LINE
  5
114
330
1F
100
AcDbEntity
  8
0
  6
SLD-Durchgehend
 62
     7
370
    25
100
AcDbLine
 10
53.1187244094
 20
201.0822970517
 30
0.0
 11
51.7293031883
 21
201.6428528088
 31
0.0
  0
LINE
  5
115
330
1F
100
AcDbEntity
  8
0
  6
SLD-Durchgehend
 62
     7
370
    25
100
AcDbLine
 10
53.1187244094
 20
201.0822970517
 30
0.0
 11
53.1187244094
 21
200.4073760459
 31
0.0
  0
LINE
  5
116
330
1F
100
AcDbEntity
  8
0
  6
SLD-Durchgehend
 62
     7
370
    25
100
AcDbLine
 10
51.7293031883
 20
200.4073760459
 30
0.0
 11
53.1187244094
 21
200.4073760459
 31
0.0
  0
LINE
  5
117
330
1F
100
AcDbEntity
  8
0
  6
SLD-Durchgehend
 62
     7
370
    25
100
AcDbLine
 10
51.7293031883
 20
200.0548119434
 30
0.0
 11
51.7293031883
 21
200.4073760459
 31
0.0
  0
LINE
  5
118
330
1F
100
AcDbEntity
  8
0
  6
SLD-Durchgehend
 62
     7
370
    25
100
AcDbLine
 10
52.9152006242
 20
200.0548119434
 30
0.0
 11
51.7293031883
 21
200.0548119434
 31
0.0
  0
LINE
  5
119
330
1F
100
AcDbEntity
  8
0
  6
SLD-Durchgehend
 62
     7
370
    25
100
AcDbLine
 10
52.9152006242
 20
198.8368632254
 30
0.0
 11
52.9152006242
 21
200.0548119434
 31
0.0
  0
LINE
  5
11A
330
1F
100
AcDbEntity
  8
0
  6
SLD-Durchgehend
 62
     7
370
    25
100
AcDbLine
 10
51.7293031883
 20
198.8368632254
 30
0.0
 11
52.9152006242
 21
198.8368632254
 31
0.0
  0
LINE
  5
11B
330
1F
100
AcDbEntity
  8
0
  6
SLD-Durchgehend
 62
     7
370
    25
100
AcDbLine
 10
51.7293031883
 20
198.4842991229
 30
0.0
 11
51.7293031883
 21
198.8368632254
 31
0.0
  0
LINE
  5
11C
330
1F
100
AcDbEntity
  8
0
  6
SLD-Durchgehend
 62
     7
370
    25
100
AcDbLine
 10
54.2293031883
 20
198.4842991229
 30
0.0
 11
51.7293031883
 21
198.4842991229
 31
0.0
  0
LINE
  5
11D
330
1F
100
AcDbEntity
  8
0
  6
SLD-Durchgehend
 62
     7
370
    25
100
AcDbLine
 10
54.2293031883
 20
198.8368632254
 30
0.0
 11
54.2293031883
 21
198.4842991229
 31
0.0
  0
LINE
  5
11E
330
1F
100
AcDbEntity
  8
0
  6
SLD-Durchgehend
 62
     7
370
    25
100
AcDbLine
 10
53.2036621627
 20
198.8368632254
 30
0.0
 11
54.2293031883
 21
198.8368632254
 31
0.0
  0
LINE
  5
11F
330
1F
100
AcDbEntity
  8
0
  6
SLD-Durchgehend
 62
     7
370
    25
100
AcDbLine
 10
53.2036621627
 20
199.9021090458
 30
0.0
 11
53.2036621627
 21
198.8368632254
 31
0.0
  0
ARC
  5
120
330
1F
100
AcDbEntity
  8
0
  6
SLD-Durchgehend
 62
     7
370
    25
100
AcDbCircle
 10
54.1187244094
 20
200.3054216845
 30
0.0
 40
1.000000000000004
100
AcDbArc
 50
203.7854315378
 51
270.0
  0
LINE
  5
121
330
1F
100
AcDbEntity
  8
0
  6
SLD-Durchgehend
 62
     7
370
    25
100
AcDbLine
 10
54.1187244094
 20
199.3054216845
 30
0.0
 11
65.9152006242
 21
199.3054216845
 31
0.0
  0
LINE
  5
122
330
1F
100
AcDbEntity
  8
0
  6
SLD-Durchgehend
 62
     7
370
    25
100
AcDbLine
 10
65.9152006242
 20
198.8368632254
 30
0.0
 11
65.9152006242
 21
199.3054216845
 31
0.0
  0
LINE
  5
123
330
1F
100
AcDbEntity
  8
0
  6
SLD-Durchgehend
 62
     7
370
    25
100
AcDbLine
 10
64.7293031883
 20
198.8368632254
 30
0.0
 11
65.9152006242
 21
198.8368632254
 31
0.0
  0
LINE
  5
124
330
1F
100
AcDbEntity
  8
0
  6
SLD-Durchgehend
 62
     7
370
    25
100
AcDbLine
 10
64.7293031883
 20
198.4842991229
 30
0.0
 11
64.7293031883
 21
198.8368632254
 31
0.0
  0
LINE
  5
125
330
1F
100
AcDbEntity
  8
0
  6
SLD-Durchgehend
 62
     7
370
    25
100
AcDbLine
 10
67.2293031883
 20
198.4842991229
 30
0.0
 11
64.7293031883
 21
198.4842991229
 31
0.0
  0
LINE
  5
126
330
1F
100
AcDbEntity
  8
0
  6
SLD-Durchgehend
 62
     7
370
    25
100
AcDbLine
 10
67.2293031883
 20
198.8368632254
 30
0.0
 11
67.2293031883
 21
198.4842991229
 31
0.0
  0
LINE
  5
127
330
1F
100
AcDbEntity
  8
0
  6
SLD-Durchgehend
 62
     7
370
    25
100
AcDbLine
 10
66.2036621627
 20
198.8368632254
 30
0.0
 11
67.2293031883
 21
198.8368632254
 31
0.0
  0
LINE
  5
128
330
1F
100
AcDbEntity
  8
0
  6
SLD-Durchgehend
 62
     7
370
    25
100
AcDbLine
 10
66.2036621627
 20
199.3054216845
 30
0.0
 11
66.2036621627
 21
198.8368632254
 31
0.0
  0
LINE
  5
129
330
1F
100
AcDbEntity
  8
0
  6
SLD-Durchgehend
 62
     7
370
    25
100
AcDbLine
 10
66.2036621627
 20
199.3054216845
 30
0.0
 11
78.1187244094
 21
199.3054216845
 31
0.0
  0
ARC
  5
12A
330
1F
100
AcDbEntity
  8
0
  6
SLD-Durchgehend
 62
     7
370
    25
100
AcDbCircle
 10
78.1187244094
 20
200.3054216845
 30
0.0
 40
1.000000000000006
100
AcDbArc
 50
270.0
 51
322.794911024
  0
LINE
  5
12B
330
1F
100
AcDbEntity
  8
0
  6
SLD-Durchgehend
 62
     7
370
    25
100
AcDbLine
 10
78.9152006242
 20
198.8368632254
 30
0.0
 11
78.9152006242
 21
199.7007518247
 31
0.0
  0
LINE
  5
12C
330
1F
100
AcDbEntity
  8
0
  6
SLD-Durchgehend
 62
     7
370
    25
100
AcDbLine
 10
77.7293031883
 20
198.8368632254
 30
0.0
 11
78.9152006242
 21
198.8368632254
 31
0.0
  0
LINE
  5
12D
330
1F
100
AcDbEntity
  8
0
  6
SLD-Durchgehend
 62
     7
370
    25
100
AcDbLine
 10
77.7293031883
 20
198.4842991229
 30
0.0
 11
77.7293031883
 21
198.8368632254
 31
0.0
  0
LINE
  5
12E
330
1F
100
AcDbEntity
  8
0
  6
SLD-Durchgehend
 62
     7
370
    25
100
AcDbLine
 10
80.2293031883
 20
198.4842991229
 30
0.0
 11
77.7293031883
 21
198.4842991229
 31
0.0
  0
LINE
  5
12F
330
1F
100
AcDbEntity
  8
0
  6
SLD-Durchgehend
 62
     7
370
    25
100
AcDbLine
 10
80.2293031883
 20
198.8368632254
 30
0.0
 11
80.2293031883
 21
198.4842991229
 31
0.0
  0
LINE
  5
130
330
1F
100
AcDbEntity
  8
0
  6
SLD-Durchgehend
 62
     7
370
    25
100
AcDbLine
 10
79.2036621627
 20
198.8368632254
 30
0.0
 11
80.2293031883
 21
198.8368632254
 31
0.0
  0
LINE
  5
131
330
1F
100
AcDbEntity
  8
0
  6
SLD-Durchgehend
 62
     7
370
    25
100
AcDbLine
 10
79.2036621627
 20
200.0548119434
 30
0.0
 11
79.2036621627
 21
198.8368632254
 31
0.0
  0
LINE
  5
132
330
1F
100
AcDbEntity
  8
0
  6
SLD-Durchgehend
 62
     7
370
    25
100
AcDbLine
 10
80.2293031883
 20
200.0548119434
 30
0.0
 11
79.2036621627
 21
200.0548119434
 31
0.0
  0
LINE
  5
133
330
1F
100
AcDbEntity
  8
0
  6
SLD-Durchgehend
 62
     7
370
    25
100
AcDbLine
 10
80.2293031883
 20
200.4073760459
 30
0.0
 11
80.2293031883
 21
200.0548119434
 31
0.0
  0
LINE
  5
134
330
1F
100
AcDbEntity
  8
0
  6
SLD-Durchgehend
 62
     7
370
    25
100
AcDbLine
 10
79.1187244094
 20
200.4073760459
 30
0.0
 11
80.2293031883
 21
200.4073760459
 31
0.0
  0
LINE
  5
135
330
1F
100
AcDbEntity
  8
0
  6
SLD-Durchgehend
 62
     7
370
    25
100
AcDbLine
 10
79.1187244094
 20
200.4073760459
 30
0.0
 11
79.1187244094
 21
201.0822970517
 31
0.0
  0
LINE
  5
136
330
1F
100
AcDbEntity
  8
0
  6
SLD-Durchgehend
 62
     7
370
    25
100
AcDbLine
 10
80.2293031883
 20
200.6342390267
 30
0.0
 11
79.1187244094
 21
201.0822970517
 31
0.0
  0
LINE
  5
137
330
1F
100
AcDbEntity
  8
0
  6
SLD-Durchgehend
 62
     7
370
    25
100
AcDbLine
 10
80.2293031883
 20
201.0163504049
 30
0.0
 11
80.2293031883
 21
200.6342390267
 31
0.0
  0
LINE
  5
138
330
1F
100
AcDbEntity
  8
0
  6
SLD-Durchgehend
 62
     7
370
    25
100
AcDbLine
 10
79.1187244094
 20
201.4387924726
 30
0.0
 11
80.2293031883
 21
201.0163504049
 31
0.0
  0
LINE
  5
139
330
1F
100
AcDbEntity
  8
0
  6
SLD-Durchgehend
 62
     7
370
    25
100
AcDbLine
 10
79.1187244094
 20
201.4387924726
 30
0.0
 11
79.1187244094
 21
202.2294548947
 31
0.0
  0
LINE
  5
13A
330
1F
100
AcDbEntity
  8
0
  6
SLD-Durchgehend
 62
     7
370
    25
100
AcDbLine
 10
80.2293031883
 20
202.6509657895
 30
0.0
 11
79.1187244094
 21
202.2294548947
 31
0.0
  0
LINE
  5
13B
330
1F
100
AcDbEntity
  8
0
  6
SLD-Durchgehend
 62
     7
370
    25
100
AcDbLine
 10
80.2293031883
 20
203.0330771677
 30
0.0
 11
80.2293031883
 21
202.6509657895
 31
0.0
  0
LINE
  5
13C
330
1F
100
AcDbEntity
  8
0
  6
SLD-Durchgehend
 62
     7
370
    25
100
AcDbLine
 10
79.1187244094
 20
202.5852416145
 30
0.0
 11
80.2293031883
 21
203.0330771677
 31
0.0
  0
LINE
  5
13D
330
1F
100
AcDbEntity
  8
0
  6
SLD-Durchgehend
 62
     7
370
    25
100
AcDbLine
 10
79.1187244094
 20
202.5852416145
 30
0.0
 11
79.1187244094
 21
204.189427328
 31
0.0
  0
LINE
  5
13E
330
1F
100
AcDbEntity
  8
0
  6
SLD-Durchgehend
 62
     7
370
    25
100
AcDbLine
 10
80.2293031883
 20
204.189427328
 30
0.0
 11
79.1187244094
 21
204.189427328
 31
0.0
  0
LINE
  5
13F
330
1F
100
AcDbEntity
  8
0
  6
SLD-Durchgehend
 62
     7
370
    25
100
AcDbLine
 10
80.2293031883
 20
204.7152686741
 30
0.0
 11
80.2293031883
 21
204.189427328
 31
0.0
  0
LINE
  5
140
330
1F
100
AcDbEntity
  8
0
  6
SLD-Durchgehend
 62
     7
370
    25
100
AcDbLine
 10
79.1187244094
 20
205.0716989822
 30
0.0
 11
80.2293031883
 21
204.7152686741
 31
0.0
  0
LINE
  5
141
330
1F
100
AcDbEntity
  8
0
  6
SLD-Durchgehend
 62
     7
370
    25
100
AcDbLine
 10
79.1187244094
 20
205.0716989822
 30
0.0
 11
79.1187244094
 21
205.7091122158
 31
0.0
  0
LINE
  5
142
330
1F
100
AcDbEntity
  8
0
  6
SLD-Durchgehend
 62
     7
370
    25
100
AcDbLine
 10
80.2293031883
 20
206.0629249241
 30
0.0
 11
79.1187244094
 21
205.7091122158
 31
0.0
  0
LINE
  5
143
330
1F
100
AcDbEntity
  8
0
  6
SLD-Durchgehend
 62
     7
370
    25
100
AcDbLine
 10
80.2293031883
 20
206.5932734818
 30
0.0
 11
80.2293031883
 21
206.0629249241
 31
0.0
  0
LINE
  5
144
330
1F
100
AcDbEntity
  8
0
  6
SLD-Durchgehend
 62
     7
370
    25
100
AcDbLine
 10
79.1187244094
 20
206.5932734818
 30
0.0
 11
80.2293031883
 21
206.5932734818
 31
0.0
  0
LINE
  5
145
330
1F
100
AcDbEntity
  8
0
  6
SLD-Durchgehend
 62
     7
370
    25
100
AcDbLine
 10
79.1187244094
 20
206.5932734818
 30
0.0
 11
79.1187244136
 21
207.4056882164
 31
0.0
  0
SPLINE
  5
146
330
1F
100
AcDbEntity
  8
0
  6
SLD-Durchgehend
 62
     7
370
    25
100
AcDbSpline
210
0.0
220
0.0
230
1.0
 70
     8
 71
     3
 72
    10
 73
     6
 74
     0
 42
0.00000001
 43
0.00000001
 40
0.0
 40
0.0
 40
0.0
 40
0.0
 40
0.2806120468099101
 40
0.5612201988538158
 40
1.0
 40
1.0
 40
1.0
 40
1.0
 10
79.59378636138763
 20
207.1060939946585
 30
0.0
 10
79.53863363929526
 20
207.1109344488526
 30
0.0
 10
79.42832896060489
 20
207.1206152900575
 30
0.0
 10
79.24751286910696
 20
207.2137801447245
 30
0.0
 10
79.16751680372411
 20
207.3329825265856
 30
0.0
 10
79.11872441360204
 20
207.4056882164394
 30
0.0
  0
SPLINE
  5
147
330
1F
100
AcDbEntity
  8
0
  6
SLD-Durchgehend
 62
     7
370
    25
100
AcDbSpline
210
0.0
220
0.0
230
1.0
 70
     8
 71
     3
 72
    11
 73
     7
 74
     0
 42
0.00000001
 43
0.00000001
 40
0.0
 40
0.0
 40
0.0
 40
0.0
 40
0.280184196335852
 40
0.5598553103459284
 40
0.7799999387581312
 40
1.0
 40
1.0
 40
1.0
 40
1.0
 10
80.22930318831071
 20
207.8172318151713
 30
0.0
 10
80.21930850224773
 20
207.7180255976608
 30
0.0
 10
80.19933743271288
 20
207.5197948322608
 30
0.0
 10
80.04536930567053
 20
207.2790045062229
 30
0.0
 10
79.82747507198926
 20
207.1334547410633
 30
0.0
 10
79.67166553951353
 20
207.1152122461882
 30
0.0
 10
79.59378636138763
 20
207.1060939946585
 30
0.0
  0
SPLINE
  5
148
330
1F
100
AcDbEntity
  8
0
  6
SLD-Durchgehend
 62
     7
370
    25
100
AcDbSpline
210
0.0
220
0.0
230
1.0
 70
     8
 71
     3
 72
    11
 73
     7
 74
     0
 42
0.00000001
 43
0.00000001
 40
0.0
 40
0.0
 40
0.0
 40
0.0
 40
0.28025318238555
 40
0.5595227689760502
 40
0.7795924159936096
 40
1.0
 40
1.0
 40
1.0
 40
1.0
 10
79.58827754728506
 20
208.5484016869662
 30
0.0
 10
79.68548280127932
 20
208.5237599266506
 30
0.0
 10
79.87955215103989
 20
208.4745628904319
 30
0.0
 10
80.09614078428159
 20
208.286119057181
 30
0.0
 10
80.21315735778406
 20
208.0525934312761
 30
0.0
 10
80.22391849279762
 20
207.8957258038267
 30
0.0
 10
80.22930318831071
 20
207.8172318151713
 30
0.0
  0
LINE
  5
149
330
1F
100
AcDbEntity
  8
0
  6
SLD-Durchgehend
 62
     7
370
    25
100
AcDbLine
 10
79.5562262652
 20
208.2278888665
 30
0.0
 11
79.5882775473
 21
208.548401687
 31
0.0
  0
SPLINE
  5
14A
330
1F
100
AcDbEntity
  8
0
  6
SLD-Durchgehend
 62
     7
370
    25
100
AcDbSpline
210
0.0
220
0.0
230
1.0
 70
     8
 71
     3
 72
    11
 73
     7
 74
     0
 42
0.00000001
 43
0.00000001
 40
0.0
 40
0.0
 40
0.0
 40
0.0
 40
0.2800014393778849
 40
0.5591307790850941
 40
0.7793200501372479
 40
1.0
 40
1.0
 40
1.0
 40
1.0
 10
79.94084164984918
 20
207.8072157895303
 30
0.0
 10
79.93551144200207
 20
207.8661948707458
 30
0.0
 10
79.92486762791002
 20
207.9839693354165
 30
0.0
 10
79.82420833132399
 20
208.122407408854
 30
0.0
 10
79.69164959148272
 20
208.1986525036344
 30
0.0
 10
79.60140085567538
 20
208.2181361838622
 30
0.0
 10
79.55622626523379
 20
208.2278888664534
 30
0.0
  0
SPLINE
  5
14B
330
1F
100
AcDbEntity
  8
0
  6
SLD-Durchgehend
 62
     7
370
    25
100
AcDbSpline
210
0.0
220
0.0
230
1.0
 70
     8
 71
     3
 72
    11
 73
     7
 74
     0
 42
0.00000001
 43
0.00000001
 40
0.0
 40
0.0
 40
0.0
 40
0.0
 40
0.2794599904729789
 40
0.5589522577374987
 40
0.7792552783908684
 40
1.0
 40
1.0
 40
1.0
 40
1.0
 10
79.58326953446455
 20
207.4266068151713
 30
0.0
 10
79.63819605941151
 20
207.4328240381182
 30
0.0
 10
79.74805545315446
 20
207.4452592020827
 30
0.0
 10
79.86760775945646
 20
207.5508908764707
 30
0.0
 10
79.93190994907377
 20
207.6781016448369
 30
0.0
 10
79.93786242915871
 20
207.7641490163618
 30
0.0
 10
79.94084164984918
 20
207.8072157895303
 30
0.0
  0
SPLINE
  5
14C
330
1F
100
AcDbEntity
  8
0
  6
SLD-Durchgehend
 62
     7
370
    25
100
AcDbSpline
210
0.0
220
0.0
230
1.0
 70
     8
 71
     3
 72
    11
 73
     7
 74
     0
 42
0.00000001
 43
0.00000001
 40
0.0
 40
0.0
 40
0.0
 40
0.0
 40
0.2806803348029471
 40
0.5609514120692173
 40
0.7800568087021009
 40
1.0
 40
1.0
 40
1.0
 40
1.0
 10
79.20015655369532
 20
207.8953568151713
 30
0.0
 10
79.20584898440008
 20
207.8319727169076
 30
0.0
 10
79.21722554572624
 20
207.7052969401783
 30
0.0
 10
79.29684942534085
 20
207.5419721061408
 30
0.0
 10
79.43227924513073
 20
207.4381499667356
 30
0.0
 10
79.53287545196181
 20
207.4304594240698
 30
0.0
 10
79.58326953446455
 20
207.4266068151713
 30
0.0
  0
SPLINE
  5
14D
330
1F
100
AcDbEntity
  8
0
  6
SLD-Durchgehend
 62
     7
370
    25
100
AcDbSpline
210
0.0
220
0.0
230
1.0
 70
     8
 71
     3
 72
     9
 73
     5
 74
     0
 42
0.00000001
 43
0.00000001
 40
0.0
 40
0.0
 40
0.0
 40
0.0
 40
0.5600031377095583
 40
0.9999999999999999
 40
0.9999999999999999
 40
0.9999999999999999
 40
0.9999999999999999
 10
79.20366216266967
 20
207.94143053312
 30
0.0
 10
79.20272345963072
 20
207.9328509030334
 30
0.0
 10
79.20104721359611
 20
207.9175302208643
 30
0.0
 10
79.2004286984284
 20
207.9021319889142
 30
0.0
 10
79.20015655369532
 20
207.8953568151713
 30
0.0
  0
LINE
  5
14E
330
1F
100
AcDbEntity
  8
0
  6
SLD-Durchgehend
 62
     7
370
    25
100
AcDbLine
 10
79.1187244094
 20
207.951162984
 30
0.0
 11
79.2036621627
 21
207.9414305331
 31
0.0
  0
LINE
  5
14F
330
1F
100
AcDbEntity
  8
0
  6
SLD-Durchgehend
 62
     7
370
    25
100
AcDbLine
 10
79.1187244094
 20
207.951162984
 30
0.0
 11
79.1187244118
 21
216.3896810324
 31
0.0
  0
SPLINE
  5
150
330
1F
100
AcDbEntity
  8
0
  6
SLD-Durchgehend
 62
     7
370
    25
100
AcDbSpline
210
0.0
220
0.0
230
1.0
 70
     8
 71
     3
 72
     9
 73
     5
 74
     0
 42
0.00000001
 43
0.00000001
 40
0.0
 40
0.0
 40
0.0
 40
0.0
 40
0.5585381401842396
 40
1.0
 40
1.0
 40
1.0
 40
1.0
 10
79.58126632933634
 20
216.14455553312
 30
0.0
 10
79.4784015935545
 20
216.160641635969
 30
0.0
 10
79.29423380199077
 20
216.1894420019453
 30
0.0
 10
79.17247588727774
 20
216.3283558615977
 30
0.0
 10
79.11872441180125
 20
216.3896810324341
 30
0.0
  0
SPLINE
  5
151
330
1F
100
AcDbEntity
  8
0
  6
SLD-Durchgehend
 62
     7
370
    25
100
AcDbSpline
210
0.0
220
0.0
230
1.0
 70
     8
 71
     3
 72
    11
 73
     7
 74
     0
 42
0.00000001
 43
0.00000001
 40
0.0
 40
0.0
 40
0.0
 40
0.0
 40
0.2811160895129204
 40
0.5600262415244301
 40
0.7801115153812285
 40
1.0
 40
1.0
 40
1.0
 40
1.0
 10
80.22930318831071
 20
216.9713784497867
 30
0.0
 10
80.225665577626
 20
216.8604248948566
 30
0.0
 10
80.21841890084058
 20
216.639388445257
 30
0.0
 10
80.08085570762881
 20
216.3506062885145
 30
0.0
 10
79.84108790998403
 20
216.1790463281089
 30
0.0
 10
79.66784769421632
 20
216.1560490360788
 30
0.0
 10
79.58126632933634
 20
216.14455553312
 30
0.0
  0
LINE
  5
152
330
1F
100
AcDbEntity
  8
0
  6
SLD-Durchgehend
 62
     7
370
    25
100
AcDbLine
 10
80.2293031883
 20
217.9073760459
 30
0.0
 11
80.2293031883
 21
216.9713784498
 31
0.0
  0
LINE
  5
153
330
1F
100
AcDbEntity
  8
0
  6
SLD-Durchgehend
 62
     7
370
    25
100
AcDbLine
 10
79.1187244094
 20
217.9073760459
 30
0.0
 11
80.2293031883
 21
217.9073760459
 31
0.0
  0
LINE
  5
154
330
1F
100
AcDbEntity
  8
0
  6
SLD-Durchgehend
 62
     7
370
    25
100
AcDbLine
 10
79.1187244094
 20
217.9073760459
 30
0.0
 11
79.1187244094
 21
218.4842991229
 31
0.0
  0
LINE
  5
155
330
1F
100
AcDbEntity
  8
0
  6
SLD-Durchgehend
 62
     7
370
    25
100
AcDbLine
 10
80.2293031883
 20
218.4842991229
 30
0.0
 11
79.1187244094
 21
218.4842991229
 31
0.0
  0
LINE
  5
156
330
1F
100
AcDbEntity
  8
0
  6
SLD-Durchgehend
 62
     7
370
    25
100
AcDbLine
 10
80.2293031883
 20
218.8368632254
 30
0.0
 11
80.2293031883
 21
218.4842991229
 31
0.0
  0
LINE
  5
157
330
1F
100
AcDbEntity
  8
0
  6
SLD-Durchgehend
 62
     7
370
    25
100
AcDbLine
 10
79.2036621627
 20
218.8368632254
 30
0.0
 11
80.2293031883
 21
218.8368632254
 31
0.0
  0
LINE
  5
158
330
1F
100
AcDbEntity
  8
0
  6
SLD-Durchgehend
 62
     7
370
    25
100
AcDbLine
 10
79.2036621627
 20
220.0548119434
 30
0.0
 11
79.2036621627
 21
218.8368632254
 31
0.0
  0
LINE
  5
159
330
1F
100
AcDbEntity
  8
0
  6
SLD-Durchgehend
 62
     7
370
    25
100
AcDbLine
 10
80.2293031883
 20
220.0548119434
 30
0.0
 11
79.2036621627
 21
220.0548119434
 31
0.0
  0
LINE
  5
15A
330
1F
100
AcDbEntity
  8
0
  6
SLD-Durchgehend
 62
     7
370
    25
100
AcDbLine
 10
80.2293031883
 20
220.4073760459
 30
0.0
 11
80.2293031883
 21
220.0548119434
 31
0.0
  0
LINE
  5
15B
330
1F
100
AcDbEntity
  8
0
  6
SLD-Durchgehend
 62
     7
370
    25
100
AcDbLine
 10
79.1187244094
 20
220.4073760459
 30
0.0
 11
80.2293031883
 21
220.4073760459
 31
0.0
  0
LINE
  5
15C
330
1F
100
AcDbEntity
  8
0
  6
SLD-Durchgehend
 62
     7
370
    25
100
AcDbLine
 10
79.1187244094
 20
220.4073760459
 30
0.0
 11
79.1187244094
 21
221.0822970517
 31
0.0
  0
LINE
  5
15D
330
1F
100
AcDbEntity
  8
0
  6
SLD-Durchgehend
 62
     7
370
    25
100
AcDbLine
 10
80.2293031883
 20
220.6342390267
 30
0.0
 11
79.1187244094
 21
221.0822970517
 31
0.0
  0
LINE
  5
15E
330
1F
100
AcDbEntity
  8
0
  6
SLD-Durchgehend
 62
     7
370
    25
100
AcDbLine
 10
80.2293031883
 20
221.0163504049
 30
0.0
 11
80.2293031883
 21
220.6342390267
 31
0.0
  0
LINE
  5
15F
330
1F
100
AcDbEntity
  8
0
  6
SLD-Durchgehend
 62
     7
370
    25
100
AcDbLine
 10
79.1187244094
 20
221.4387924726
 30
0.0
 11
80.2293031883
 21
221.0163504049
 31
0.0
  0
LINE
  5
160
330
1F
100
AcDbEntity
  8
0
  6
SLD-Durchgehend
 62
     7
370
    25
100
AcDbLine
 10
79.1187244094
 20
221.4387924726
 30
0.0
 11
79.1187244094
 21
222.2294548947
 31
0.0
  0
LINE
  5
161
330
1F
100
AcDbEntity
  8
0
  6
SLD-Durchgehend
 62
     7
370
    25
100
AcDbLine
 10
80.2293031883
 20
222.6509657895
 30
0.0
 11
79.1187244094
 21
222.2294548947
 31
0.0
  0
LINE
  5
162
330
1F
100
AcDbEntity
  8
0
  6
SLD-Durchgehend
 62
     7
370
    25
100
AcDbLine
 10
80.2293031883
 20
223.0330771677
 30
0.0
 11
80.2293031883
 21
222.6509657895
 31
0.0
  0
LINE
  5
163
330
1F
100
AcDbEntity
  8
0
  6
SLD-Durchgehend
 62
     7
370
    25
100
AcDbLine
 10
79.1187244094
 20
222.5852416145
 30
0.0
 11
80.2293031883
 21
223.0330771677
 31
0.0
  0
LINE
  5
164
330
1F
100
AcDbEntity
  8
0
  6
SLD-Durchgehend
 62
     7
370
    25
100
AcDbLine
 10
79.1187244094
 20
222.5852416145
 30
0.0
 11
79.1187244094
 21
224.189427328
 31
0.0
  0
LINE
  5
165
330
1F
100
AcDbEntity
  8
0
  6
SLD-Durchgehend
 62
     7
370
    25
100
AcDbLine
 10
80.2293031883
 20
224.189427328
 30
0.0
 11
79.1187244094
 21
224.189427328
 31
0.0
  0
LINE
  5
166
330
1F
100
AcDbEntity
  8
0
  6
SLD-Durchgehend
 62
     7
370
    25
100
AcDbLine
 10
80.2293031883
 20
224.7152686741
 30
0.0
 11
80.2293031883
 21
224.189427328
 31
0.0
  0
LINE
  5
167
330
1F
100
AcDbEntity
  8
0
  6
SLD-Durchgehend
 62
     7
370
    25
100
AcDbLine
 10
79.1187244094
 20
225.0716989822
 30
0.0
 11
80.2293031883
 21
224.7152686741
 31
0.0
  0
LINE
  5
168
330
1F
100
AcDbEntity
  8
0
  6
SLD-Durchgehend
 62
     7
370
    25
100
AcDbLine
 10
79.1187244094
 20
225.0716989822
 30
0.0
 11
79.1187244094
 21
225.7091122158
 31
0.0
  0
LINE
  5
169
330
1F
100
AcDbEntity
  8
0
  6
SLD-Durchgehend
 62
     7
370
    25
100
AcDbLine
 10
80.2293031883
 20
226.0629249241
 30
0.0
 11
79.1187244094
 21
225.7091122158
 31
0.0
  0
LINE
  5
16A
330
1F
100
AcDbEntity
  8
0
  6
SLD-Durchgehend
 62
     7
370
    25
100
AcDbLine
 10
80.2293031883
 20
226.5932734818
 30
0.0
 11
80.2293031883
 21
226.0629249241
 31
0.0
  0
LINE
  5
16B
330
1F
100
AcDbEntity
  8
0
  6
SLD-Durchgehend
 62
     7
370
    25
100
AcDbLine
 10
79.1187244094
 20
226.5932734818
 30
0.0
 11
80.2293031883
 21
226.5932734818
 31
0.0
  0
LINE
  5
16C
330
1F
100
AcDbEntity
  8
0
  6
SLD-Durchgehend
 62
     7
370
    25
100
AcDbLine
 10
79.1187244094
 20
226.5932734818
 30
0.0
 11
79.1187244136
 21
227.4056882164
 31
0.0
  0
SPLINE
  5
16D
330
1F
100
AcDbEntity
  8
0
  6
SLD-Durchgehend
 62
     7
370
    25
100
AcDbSpline
210
0.0
220
0.0
230
1.0
 70
     8
 71
     3
 72
    10
 73
     6
 74
     0
 42
0.00000001
 43
0.00000001
 40
0.0
 40
0.0
 40
0.0
 40
0.0
 40
0.2806120468099086
 40
0.5612201988538092
 40
1.0
 40
1.0
 40
1.0
 40
1.0
 10
79.59378636138763
 20
227.1060939946585
 30
0.0
 10
79.53863363929526
 20
227.1109344488526
 30
0.0
 10
79.42832896060489
 20
227.1206152900575
 30
0.0
 10
79.24751286910696
 20
227.2137801447245
 30
0.0
 10
79.16751680372411
 20
227.3329825265856
 30
0.0
 10
79.11872441360204
 20
227.4056882164394
 30
0.0
  0
SPLINE
  5
16E
330
1F
100
AcDbEntity
  8
0
  6
SLD-Durchgehend
 62
     7
370
    25
100
AcDbSpline
210
0.0
220
0.0
230
1.0
 70
     8
 71
     3
 72
    11
 73
     7
 74
     0
 42
0.00000001
 43
0.00000001
 40
0.0
 40
0.0
 40
0.0
 40
0.0
 40
0.2801841963358516
 40
0.5598553103459274
 40
0.7799999387581327
 40
1.0
 40
1.0
 40
1.0
 40
1.0
 10
80.22930318831071
 20
227.8172318151713
 30
0.0
 10
80.21930850224773
 20
227.7180255976608
 30
0.0
 10
80.19933743271288
 20
227.5197948322608
 30
0.0
 10
80.04536930567052
 20
227.2790045062229
 30
0.0
 10
79.82747507198926
 20
227.1334547410633
 30
0.0
 10
79.67166553951351
 20
227.1152122461882
 30
0.0
 10
79.59378636138763
 20
227.1060939946585
 30
0.0
  0
SPLINE
  5
16F
330
1F
100
AcDbEntity
  8
0
  6
SLD-Durchgehend
 62
     7
370
    25
100
AcDbSpline
210
0.0
220
0.0
230
1.0
 70
     8
 71
     3
 72
    11
 73
     7
 74
     0
 42
0.00000001
 43
0.00000001
 40
0.0
 40
0.0
 40
0.0
 40
0.0
 40
0.2802531823855509
 40
0.5595227689760519
 40
0.7795924159936105
 40
0.9999999999999999
 40
0.9999999999999999
 40
0.9999999999999999
 40
0.9999999999999999
 10
79.58827754728506
 20
228.5484016869662
 30
0.0
 10
79.68548280127932
 20
228.5237599266506
 30
0.0
 10
79.87955215103989
 20
228.4745628904319
 30
0.0
 10
80.09614078428159
 20
228.2861190571811
 30
0.0
 10
80.21315735778406
 20
228.0525934312761
 30
0.0
 10
80.22391849279762
 20
227.8957258038267
 30
0.0
 10
80.22930318831071
 20
227.8172318151713
 30
0.0
  0
LINE
  5
170
330
1F
100
AcDbEntity
  8
0
  6
SLD-Durchgehend
 62
     7
370
    25
100
AcDbLine
 10
79.5562262652
 20
228.2278888665
 30
0.0
 11
79.5882775473
 21
228.548401687
 31
0.0
  0
SPLINE
  5
171
330
1F
100
AcDbEntity
  8
0
  6
SLD-Durchgehend
 62
     7
370
    25
100
AcDbSpline
210
0.0
220
0.0
230
1.0
 70
     8
 71
     3
 72
    11
 73
     7
 74
     0
 42
0.00000001
 43
0.00000001
 40
0.0
 40
0.0
 40
0.0
 40
0.0
 40
0.2800014393778853
 40
0.5591307790850927
 40
0.7793200501372498
 40
1.0
 40
1.0
 40
1.0
 40
1.0
 10
79.94084164984916
 20
227.8072157895303
 30
0.0
 10
79.93551144200207
 20
227.8661948707458
 30
0.0
 10
79.92486762791002
 20
227.9839693354165
 30
0.0
 10
79.82420833132397
 20
228.122407408854
 30
0.0
 10
79.69164959148272
 20
228.1986525036344
 30
0.0
 10
79.60140085567538
 20
228.2181361838622
 30
0.0
 10
79.55622626523379
 20
228.2278888664534
 30
0.0
  0
SPLINE
  5
172
330
1F
100
AcDbEntity
  8
0
  6
SLD-Durchgehend
 62
     7
370
    25
100
AcDbSpline
210
0.0
220
0.0
230
1.0
 70
     8
 71
     3
 72
    11
 73
     7
 74
     0
 42
0.00000001
 43
0.00000001
 40
0.0
 40
0.0
 40
0.0
 40
0.0
 40
0.2794599904729789
 40
0.5589522577374987
 40
0.7792552783908684
 40
1.0
 40
1.0
 40
1.0
 40
1.0
 10
79.58326953446453
 20
227.4266068151713
 30
0.0
 10
79.6381960594115
 20
227.4328240381182
 30
0.0
 10
79.74805545315446
 20
227.4452592020827
 30
0.0
 10
79.86760775945646
 20
227.5508908764707
 30
0.0
 10
79.93190994907377
 20
227.6781016448369
 30
0.0
 10
79.9378624291587
 20
227.7641490163618
 30
0.0
 10
79.94084164984916
 20
227.8072157895303
 30
0.0
  0
SPLINE
  5
173
330
1F
100
AcDbEntity
  8
0
  6
SLD-Durchgehend
 62
     7
370
    25
100
AcDbSpline
210
0.0
220
0.0
230
1.0
 70
     8
 71
     3
 72
    11
 73
     7
 74
     0
 42
0.00000001
 43
0.00000001
 40
0.0
 40
0.0
 40
0.0
 40
0.0
 40
0.2806803348029325
 40
0.560951412069217
 40
0.780056808702101
 40
1.0
 40
1.0
 40
1.0
 40
1.0
 10
79.20015655369532
 20
227.8953568151713
 30
0.0
 10
79.20584898440006
 20
227.8319727169076
 30
0.0
 10
79.21722554572624
 20
227.7052969401783
 30
0.0
 10
79.29684942534085
 20
227.5419721061409
 30
0.0
 10
79.43227924513073
 20
227.4381499667356
 30
0.0
 10
79.5328754519618
 20
227.4304594240698
 30
0.0
 10
79.58326953446453
 20
227.4266068151713
 30
0.0
  0
SPLINE
  5
174
330
1F
100
AcDbEntity
  8
0
  6
SLD-Durchgehend
 62
     7
370
    25
100
AcDbSpline
210
0.0
220
0.0
230
1.0
 70
     8
 71
     3
 72
     9
 73
     5
 74
     0
 42
0.00000001
 43
0.00000001
 40
0.0
 40
0.0
 40
0.0
 40
0.0
 40
0.5600031377095538
 40
1.0
 40
1.0
 40
1.0
 40
1.0
 10
79.20366216266967
 20
227.94143053312
 30
0.0
 10
79.20272345963072
 20
227.9328509030335
 30
0.0
 10
79.20104721359613
 20
227.9175302208643
 30
0.0
 10
79.2004286984284
 20
227.9021319889142
 30
0.0
 10
79.20015655369532
 20
227.8953568151713
 30
0.0
  0
LINE
  5
175
330
1F
100
AcDbEntity
  8
0
  6
SLD-Durchgehend
 62
     7
370
    25
100
AcDbLine
 10
79.1187244094
 20
227.951162984
 30
0.0
 11
79.2036621627
 21
227.9414305331
 31
0.0
  0
LINE
  5
176
330
1F
100
AcDbEntity
  8
0
  6
SLD-Durchgehend
 62
     7
370
    25
100
AcDbLine
 10
79.1187244094
 20
227.951162984
 30
0.0
 11
79.1187244118
 21
236.3896810324
 31
0.0
  0
SPLINE
  5
177
330
1F
100
AcDbEntity
  8
0
  6
SLD-Durchgehend
 62
     7
370
    25
100
AcDbSpline
210
0.0
220
0.0
230
1.0
 70
     8
 71
     3
 72
     9
 73
     5
 74
     0
 42
0.00000001
 43
0.00000001
 40
0.0
 40
0.0
 40
0.0
 40
0.0
 40
0.5585381401842467
 40
1.0
 40
1.0
 40
1.0
 40
1.0
 10
79.58126632933633
 20
236.14455553312
 30
0.0
 10
79.4784015935545
 20
236.160641635969
 30
0.0
 10
79.29423380199077
 20
236.1894420019453
 30
0.0
 10
79.17247588727774
 20
236.3283558615977
 30
0.0
 10
79.11872441180124
 20
236.3896810324341
 30
0.0
  0
SPLINE
  5
178
330
1F
100
AcDbEntity
  8
0
  6
SLD-Durchgehend
 62
     7
370
    25
100
AcDbSpline
210
0.0
220
0.0
230
1.0
 70
     8
 71
     3
 72
    11
 73
     7
 74
     0
 42
0.00000001
 43
0.00000001
 40
0.0
 40
0.0
 40
0.0
 40
0.0
 40
0.2811160895129158
 40
0.5600262415244315
 40
0.7801115153812267
 40
1.0
 40
1.0
 40
1.0
 40
1.0
 10
80.22930318831071
 20
236.9713784497867
 30
0.0
 10
80.22566557762599
 20
236.8604248948566
 30
0.0
 10
80.21841890084058
 20
236.6393884452569
 30
0.0
 10
80.0808557076288
 20
236.3506062885145
 30
0.0
 10
79.84108790998403
 20
236.1790463281089
 30
0.0
 10
79.66784769421632
 20
236.1560490360788
 30
0.0
 10
79.58126632933634
 20
236.14455553312
 30
0.0
  0
LINE
  5
179
330
1F
100
AcDbEntity
  8
0
  6
SLD-Durchgehend
 62
     7
370
    25
100
AcDbLine
 10
80.2293031883
 20
237.9073760459
 30
0.0
 11
80.2293031883
 21
236.9713784498
 31
0.0
  0
LINE
  5
17A
330
1F
100
AcDbEntity
  8
0
  6
SLD-Durchgehend
 62
     7
370
    25
100
AcDbLine
 10
79.1187244094
 20
237.9073760459
 30
0.0
 11
80.2293031883
 21
237.9073760459
 31
0.0
  0
LINE
  5
17B
330
1F
100
AcDbEntity
  8
0
  6
SLD-Durchgehend
 62
     7
370
    25
100
AcDbLine
 10
79.1187244094
 20
237.9073760459
 30
0.0
 11
79.1187244094
 21
238.4842991229
 31
0.0
  0
LINE
  5
17C
330
1F
100
AcDbEntity
  8
0
  6
SLD-Durchgehend
 62
     7
370
    25
100
AcDbLine
 10
80.2293031883
 20
238.4842991229
 30
0.0
 11
79.1187244094
 21
238.4842991229
 31
0.0
  0
LINE
  5
17D
330
1F
100
AcDbEntity
  8
0
  6
SLD-Durchgehend
 62
     7
370
    25
100
AcDbLine
 10
80.2293031883
 20
238.8368632254
 30
0.0
 11
80.2293031883
 21
238.4842991229
 31
0.0
  0
LINE
  5
17E
330
1F
100
AcDbEntity
  8
0
  6
SLD-Durchgehend
 62
     7
370
    25
100
AcDbLine
 10
79.2036621627
 20
238.8368632254
 30
0.0
 11
80.2293031883
 21
238.8368632254
 31
0.0
  0
LINE
  5
17F
330
1F
100
AcDbEntity
  8
0
  6
SLD-Durchgehend
 62
     7
370
    25
100
AcDbLine
 10
79.2036621627
 20
240.0548119434
 30
0.0
 11
79.2036621627
 21
238.8368632254
 31
0.0
  0
LINE
  5
180
330
1F
100
AcDbEntity
  8
0
  6
SLD-Durchgehend
 62
     7
370
    25
100
AcDbLine
 10
80.2293031883
 20
240.0548119434
 30
0.0
 11
79.2036621627
 21
240.0548119434
 31
0.0
  0
LINE
  5
181
330
1F
100
AcDbEntity
  8
0
  6
SLD-Durchgehend
 62
     7
370
    25
100
AcDbLine
 10
80.2293031883
 20
240.4073760459
 30
0.0
 11
80.2293031883
 21
240.0548119434
 31
0.0
  0
LINE
  5
182
330
1F
100
AcDbEntity
  8
0
  6
SLD-Durchgehend
 62
     7
370
    25
100
AcDbLine
 10
79.1187244094
 20
240.4073760459
 30
0.0
 11
80.2293031883
 21
240.4073760459
 31
0.0
  0
LINE
  5
183
330
1F
100
AcDbEntity
  8
0
  6
SLD-Durchgehend
 62
     7
370
    25
100
AcDbLine
 10
79.1187244094
 20
240.4073760459
 30
0.0
 11
79.1187244094
 21
241.0822970517
 31
0.0
  0
LINE
  5
184
330
1F
100
AcDbEntity
  8
0
  6
SLD-Durchgehend
 62
     7
370
    25
100
AcDbLine
 10
80.2293031883
 20
240.6342390267
 30
0.0
 11
79.1187244094
 21
241.0822970517
 31
0.0
  0
LINE
  5
185
330
1F
100
AcDbEntity
  8
0
  6
SLD-Durchgehend
 62
     7
370
    25
100
AcDbLine
 10
80.2293031883
 20
241.0163504049
 30
0.0
 11
80.2293031883
 21
240.6342390267
 31
0.0
  0
LINE
  5
186
330
1F
100
AcDbEntity
  8
0
  6
SLD-Durchgehend
 62
     7
370
    25
100
AcDbLine
 10
79.1187244094
 20
241.4387924726
 30
0.0
 11
80.2293031883
 21
241.0163504049
 31
0.0
  0
LINE
  5
187
330
1F
100
AcDbEntity
  8
0
  6
SLD-Durchgehend
 62
     7
370
    25
100
AcDbLine
 10
79.1187244094
 20
241.4387924726
 30
0.0
 11
79.1187244094
 21
242.2294548947
 31
0.0
  0
LINE
  5
188
330
1F
100
AcDbEntity
  8
0
  6
SLD-Durchgehend
 62
     7
370
    25
100
AcDbLine
 10
80.2293031883
 20
242.6509657895
 30
0.0
 11
79.1187244094
 21
242.2294548947
 31
0.0
  0
LINE
  5
189
330
1F
100
AcDbEntity
  8
0
  6
SLD-Durchgehend
 62
     7
370
    25
100
AcDbLine
 10
80.2293031883
 20
243.0330771677
 30
0.0
 11
80.2293031883
 21
242.6509657895
 31
0.0
  0
LINE
  5
18A
330
1F
100
AcDbEntity
  8
0
  6
SLD-Durchgehend
 62
     7
370
    25
100
AcDbLine
 10
79.1187244094
 20
242.5852416145
 30
0.0
 11
80.2293031883
 21
243.0330771677
 31
0.0
  0
LINE
  5
18B
330
1F
100
AcDbEntity
  8
0
  6
SLD-Durchgehend
 62
     7
370
    25
100
AcDbLine
 10
79.1187244094
 20
242.5852416145
 30
0.0
 11
79.1187244094
 21
243.3054216845
 31
0.0
  0
ARC
  5
18C
330
1F
100
AcDbEntity
  8
0
  6
SLD-Durchgehend
 62
     7
370
    25
100
AcDbCircle
 10
78.1187244094
 20
243.3054216845
 30
0.0
 40
1.0
100
AcDbArc
 50
360.0
 51
62.1294027467
  0
LINE
  5
18D
330
1F
100
AcDbEntity
  8
0
  6
SLD-Durchgehend
 62
     7
370
    25
100
AcDbLine
 10
80.2293031883
 20
244.189427328
 30
0.0
 11
78.5862006359
 21
244.189427328
 31
0.0
  0
LINE
  5
18E
330
1F
100
AcDbEntity
  8
0
  6
SLD-Durchgehend
 62
     7
370
    25
100
AcDbLine
 10
80.2293031883
 20
244.7152686741
 30
0.0
 11
80.2293031883
 21
244.189427328
 31
0.0
  0
LINE
  5
18F
330
1F
100
AcDbEntity
  8
0
  6
SLD-Durchgehend
 62
     7
370
    25
100
AcDbLine
 10
78.5050443742
 20
245.2686540908
 30
0.0
 11
80.2293031883
 21
244.7152686741
 31
0.0
  0
SPLINE
  5
190
330
1F
100
AcDbEntity
  8
0
  6
SLD-Durchgehend
 62
     7
370
    25
100
AcDbSpline
210
0.0
220
0.0
230
1.0
 70
     8
 71
     3
 72
     9
 73
     5
 74
     0
 42
0.00000001
 43
0.00000001
 40
0.0
 40
0.0
 40
0.0
 40
0.0
 40
0.5599969211803146
 40
1.0
 40
1.0
 40
1.0
 40
1.0
 10
78.10790895754147
 20
245.3913504049149
 30
0.0
 10
78.18217451342079
 20
245.3688802552244
 30
0.0
 10
78.31479230660936
 20
245.3287547673143
 30
0.0
 10
78.44691151551737
 20
245.2870182756457
 30
0.0
 10
78.50504437420813
 20
245.2686540908123
 30
0.0
  0
SPLINE
  5
191
330
1F
100
AcDbEntity
  8
0
  6
SLD-Durchgehend
 62
     7
370
    25
100
AcDbSpline
210
0.0
220
0.0
230
1.0
 70
     8
 71
     3
 72
     9
 73
     5
 74
     0
 42
0.00000001
 43
0.00000001
 40
0.0
 40
0.0
 40
0.0
 40
0.0
 40
0.5600018537205603
 40
1.0
 40
1.0
 40
1.0
 40
1.0
 10
78.47499629728505
 20
245.5040306933764
 30
0.0
 10
78.40659826105544
 20
245.4825885011012
 30
0.0
 10
78.2844593149516
 20
245.4442989987848
 30
0.0
 10
78.16185474225387
 20
245.4075290945966
 30
0.0
 10
78.10790895754147
 20
245.3913504049149
 30
0.0
  0
LINE
  5
192
330
1F
100
AcDbEntity
  8
0
  6
SLD-Durchgehend
 62
     7
370
    25
100
AcDbLine
 10
80.2293031883
 20
246.0629249241
 30
0.0
 11
78.4749962973
 21
245.5040306934
 31
0.0
  0
LINE
  5
193
330
1F
100
AcDbEntity
  8
0
  6
SLD-Durchgehend
 62
     7
370
    25
100
AcDbLine
 10
80.2293031883
 20
246.5932734818
 30
0.0
 11
80.2293031883
 21
246.0629249241
 31
0.0
  0
LINE
  5
194
330
1F
100
AcDbEntity
  8
0
  6
SLD-Durchgehend
 62
     7
370
    25
100
AcDbLine
 10
77.7293031883
 20
246.5932734818
 30
0.0
 11
80.2293031883
 21
246.5932734818
 31
0.0
  0
LINE
  5
195
330
1F
100
AcDbEntity
  8
0
  6
SLD-Durchgehend
 62
     7
370
    25
100
AcDbLine
 10
77.7293031883
 20
246.2407093793
 30
0.0
 11
77.7293031883
 21
246.5932734818
 31
0.0
  0
LINE
  5
196
330
1F
100
AcDbEntity
  8
0
  6
SLD-Durchgehend
 62
     7
370
    25
100
AcDbLine
 10
79.8446878037
 20
246.2407093793
 30
0.0
 11
77.7293031883
 21
246.2407093793
 31
0.0
  0
LINE
  5
197
330
1F
100
AcDbEntity
  8
0
  6
SLD-Durchgehend
 62
     7
370
    25
100
AcDbLine
 10
77.7293031883
 20
245.5776484818
 30
0.0
 11
79.8446878037
 21
246.2407093793
 31
0.0
  0
LINE
  5
198
330
1F
100
AcDbEntity
  8
0
  6
SLD-Durchgehend
 62
     7
370
    25
100
AcDbLine
 10
77.7293031883
 20
245.2090587382
 30
0.0
 11
77.7293031883
 21
245.5776484818
 31
0.0
  0
LINE
  5
199
330
1F
100
AcDbEntity
  8
0
  6
SLD-Durchgehend
 62
     7
370
    25
100
AcDbLine
 10
79.8446878037
 20
244.5419914306
 30
0.0
 11
77.7293031883
 21
245.2090587382
 31
0.0
  0
LINE
  5
19A
330
1F
100
AcDbEntity
  8
0
  6
SLD-Durchgehend
 62
     7
370
    25
100
AcDbLine
 10
77.7293031883
 20
244.5419914306
 30
0.0
 11
79.8446878037
 21
244.5419914306
 31
0.0
  0
LINE
  5
19B
330
1F
100
AcDbEntity
  8
0
  6
SLD-Durchgehend
 62
     7
370
    25
100
AcDbLine
 10
77.7293031883
 20
244.3054216845
 30
0.0
 11
77.7293031883
 21
244.5419914306
 31
0.0
  0
LINE
  5
19C
330
1F
100
AcDbEntity
  8
0
  6
SLD-Durchgehend
 62
     7
370
    25
100
AcDbLine
 10
77.7293031883
 20
244.3054216845
 30
0.0
 11
67.2293031883
 21
244.3054216845
 31
0.0
  0
LINE
  5
19D
330
1F
100
AcDbEntity
  8
0
  6
SLD-Durchgehend
 62
     7
370
    25
100
AcDbLine
 10
67.2293031883
 20
244.7152686741
 30
0.0
 11
67.2293031883
 21
244.3054216845
 31
0.0
  0
LINE
  5
19E
330
1F
100
AcDbEntity
  8
0
  6
SLD-Durchgehend
 62
     7
370
    25
100
AcDbLine
 10
65.5050443742
 20
245.2686540908
 30
0.0
 11
67.2293031883
 21
244.7152686741
 31
0.0
  0
SPLINE
  5
19F
330
1F
100
AcDbEntity
  8
0
  6
SLD-Durchgehend
 62
     7
370
    25
100
AcDbSpline
210
0.0
220
0.0
230
1.0
 70
     8
 71
     3
 72
     9
 73
     5
 74
     0
 42
0.00000001
 43
0.00000001
 40
0.0
 40
0.0
 40
0.0
 40
0.0
 40
0.559996921180306
 40
1.0
 40
1.0
 40
1.0
 40
1.0
 10
65.10790895754147
 20
245.3913504049149
 30
0.0
 10
65.18217451342079
 20
245.3688802552244
 30
0.0
 10
65.31479230660936
 20
245.3287547673143
 30
0.0
 10
65.44691151551737
 20
245.2870182756457
 30
0.0
 10
65.50504437420814
 20
245.2686540908123
 30
0.0
  0
SPLINE
  5
1A0
330
1F
100
AcDbEntity
  8
0
  6
SLD-Durchgehend
 62
     7
370
    25
100
AcDbSpline
210
0.0
220
0.0
230
1.0
 70
     8
 71
     3
 72
     9
 73
     5
 74
     0
 42
0.00000001
 43
0.00000001
 40
0.0
 40
0.0
 40
0.0
 40
0.0
 40
0.560001853720563
 40
1.0
 40
1.0
 40
1.0
 40
1.0
 10
65.47499629728505
 20
245.5040306933764
 30
0.0
 10
65.40659826105544
 20
245.4825885011012
 30
0.0
 10
65.2844593149516
 20
245.4442989987848
 30
0.0
 10
65.16185474225387
 20
245.4075290945966
 30
0.0
 10
65.10790895754147
 20
245.3913504049149
 30
0.0
  0
LINE
  5
1A1
330
1F
100
AcDbEntity
  8
0
  6
SLD-Durchgehend
 62
     7
370
    25
100
AcDbLine
 10
67.2293031883
 20
246.0629249241
 30
0.0
 11
65.4749962973
 21
245.5040306934
 31
0.0
  0
LINE
  5
1A2
330
1F
100
AcDbEntity
  8
0
  6
SLD-Durchgehend
 62
     7
370
    25
100
AcDbLine
 10
67.2293031883
 20
246.5932734818
 30
0.0
 11
67.2293031883
 21
246.0629249241
 31
0.0
  0
LINE
  5
1A3
330
1F
100
AcDbEntity
  8
0
  6
SLD-Durchgehend
 62
     7
370
    25
100
AcDbLine
 10
64.7293031883
 20
246.5932734818
 30
0.0
 11
67.2293031883
 21
246.5932734818
 31
0.0
  0
LINE
  5
1A4
330
1F
100
AcDbEntity
  8
0
  6
SLD-Durchgehend
 62
     7
370
    25
100
AcDbLine
 10
64.7293031883
 20
246.2407093793
 30
0.0
 11
64.7293031883
 21
246.5932734818
 31
0.0
  0
LINE
  5
1A5
330
1F
100
AcDbEntity
  8
0
  6
SLD-Durchgehend
 62
     7
370
    25
100
AcDbLine
 10
66.8446878037
 20
246.2407093793
 30
0.0
 11
64.7293031883
 21
246.2407093793
 31
0.0
  0
LINE
  5
1A6
330
1F
100
AcDbEntity
  8
0
  6
SLD-Durchgehend
 62
     7
370
    25
100
AcDbLine
 10
64.7293031883
 20
245.5776484818
 30
0.0
 11
66.8446878037
 21
246.2407093793
 31
0.0
  0
LINE
  5
1A7
330
1F
100
AcDbEntity
  8
0
  6
SLD-Durchgehend
 62
     7
370
    25
100
AcDbLine
 10
64.7293031883
 20
245.2090587382
 30
0.0
 11
64.7293031883
 21
245.5776484818
 31
0.0
  0
LINE
  5
1A8
330
1F
100
AcDbEntity
  8
0
  6
SLD-Durchgehend
 62
     7
370
    25
100
AcDbLine
 10
66.8446878037
 20
244.5419914306
 30
0.0
 11
64.7293031883
 21
245.2090587382
 31
0.0
  0
LINE
  5
1A9
330
1F
100
AcDbEntity
  8
0
  6
SLD-Durchgehend
 62
     7
370
    25
100
AcDbLine
 10
64.7293031883
 20
244.5419914306
 30
0.0
 11
66.8446878037
 21
244.5419914306
 31
0.0
  0
LINE
  5
1AA
330
1F
100
AcDbEntity
  8
0
  6
SLD-Durchgehend
 62
     7
370
    25
100
AcDbLine
 10
64.7293031883
 20
244.3054216845
 30
0.0
 11
64.7293031883
 21
244.5419914306
 31
0.0
  0
LINE
  5
1AB
330
1F
100
AcDbEntity
  8
0
  6
SLD-Durchgehend
 62
     7
370
    25
100
AcDbLine
 10
64.7293031883
 20
244.3054216845
 30
0.0
 11
54.2293031883
 21
244.3054216845
 31
0.0
  0
LINE
  5
1AC
330
1F
100
AcDbEntity
  8
0
  6
SLD-Durchgehend
 62
     7
370
    25
100
AcDbLine
 10
54.2293031883
 20
244.7152686741
 30
0.0
 11
54.2293031883
 21
244.3054216845
 31
0.0
  0
LINE
  5
1AD
330
1F
100
AcDbEntity
  8
0
  6
SLD-Durchgehend
 62
     7
370
    25
100
AcDbLine
 10
52.5050443742
 20
245.2686540908
 30
0.0
 11
54.2293031883
 21
244.7152686741
 31
0.0
  0
SPLINE
  5
1AE
330
1F
100
AcDbEntity
  8
0
  6
SLD-Durchgehend
 62
     7
370
    25
100
AcDbSpline
210
0.0
220
0.0
230
1.0
 70
     8
 71
     3
 72
     9
 73
     5
 74
     0
 42
0.00000001
 43
0.00000001
 40
0.0
 40
0.0
 40
0.0
 40
0.0
 40
0.559996921180306
 40
0.9999999999999999
 40
0.9999999999999999
 40
0.9999999999999999
 40
0.9999999999999999
 10
52.10790895754146
 20
245.3913504049149
 30
0.0
 10
52.18217451342079
 20
245.3688802552244
 30
0.0
 10
52.31479230660936
 20
245.3287547673143
 30
0.0
 10
52.44691151551738
 20
245.2870182756457
 30
0.0
 10
52.50504437420813
 20
245.2686540908123
 30
0.0
  0
SPLINE
  5
1AF
330
1F
100
AcDbEntity
  8
0
  6
SLD-Durchgehend
 62
     7
370
    25
100
AcDbSpline
210
0.0
220
0.0
230
1.0
 70
     8
 71
     3
 72
     9
 73
     5
 74
     0
 42
0.00000001
 43
0.00000001
 40
0.0
 40
0.0
 40
0.0
 40
0.0
 40
0.5600018537205675
 40
1.0
 40
1.0
 40
1.0
 40
1.0
 10
52.47499629728505
 20
245.5040306933764
 30
0.0
 10
52.40659826105544
 20
245.4825885011012
 30
0.0
 10
52.2844593149516
 20
245.4442989987848
 30
0.0
 10
52.16185474225386
 20
245.4075290945966
 30
0.0
 10
52.10790895754146
 20
245.3913504049149
 30
0.0
  0
LINE
  5
1B0
330
1F
100
AcDbEntity
  8
0
  6
SLD-Durchgehend
 62
     7
370
    25
100
AcDbLine
 10
54.2293031883
 20
246.0629249241
 30
0.0
 11
52.4749962973
 21
245.5040306934
 31
0.0
  0
LINE
  5
1B1
330
1F
100
AcDbEntity
  8
0
  6
SLD-Durchgehend
 62
     7
370
    25
100
AcDbLine
 10
54.2293031883
 20
246.5932734818
 30
0.0
 11
54.2293031883
 21
246.0629249241
 31
0.0
  0
LINE
  5
1B2
330
1F
100
AcDbEntity
  8
0
  6
SLD-Durchgehend
 62
     7
370
    25
100
AcDbLine
 10
51.7293031883
 20
246.5932734818
 30
0.0
 11
54.2293031883
 21
246.5932734818
 31
0.0
  0
LINE
  5
1B3
330
1F
100
AcDbEntity
  8
0
  6
SLD-Durchgehend
 62
     7
370
    25
100
AcDbLine
 10
51.7293031883
 20
246.2407093793
 30
0.0
 11
51.7293031883
 21
246.5932734818
 31
0.0
  0
LINE
  5
1B4
330
1F
100
AcDbEntity
  8
0
  6
SLD-Durchgehend
 62
     7
370
    25
100
AcDbLine
 10
53.8446878037
 20
246.2407093793
 30
0.0
 11
51.7293031883
 21
246.2407093793
 31
0.0
  0
LINE
  5
1B5
330
1F
100
AcDbEntity
  8
0
  6
SLD-Durchgehend
 62
     7
370
    25
100
AcDbLine
 10
51.7293031883
 20
245.5776484818
 30
0.0
 11
53.8446878037
 21
246.2407093793
 31
0.0
  0
LINE
  5
1B6
330
1F
100
AcDbEntity
  8
0
  6
SLD-Durchgehend
 62
     7
370
    25
100
AcDbLine
 10
51.7293031883
 20
245.2090587382
 30
0.0
 11
51.7293031883
 21
245.5776484818
 31
0.0
  0
LINE
  5
1B7
330
1F
100
AcDbEntity
  8
0
  6
SLD-Durchgehend
 62
     7
370
    25
100
AcDbLine
 10
53.8446878037
 20
244.5419914306
 30
0.0
 11
51.7293031883
 21
245.2090587382
 31
0.0
  0
LINE
  5
1B8
330
1F
100
AcDbEntity
  8
0
  6
SLD-Durchgehend
 62
     7
370
    25
100
AcDbLine
 10
51.7293031883
 20
244.5419914306
 30
0.0
 11
53.8446878037
 21
244.5419914306
 31
0.0
  0
LINE
  5
1B9
330
1F
100
AcDbEntity
  8
0
  6
SLD-Durchgehend
 62
     7
370
    25
100
AcDbLine
 10
51.7293031883
 20
244.189427328
 30
0.0
 11
51.7293031883
 21
244.5419914306
 31
0.0
  0
LINE
  5
1BA
330
1F
100
AcDbEntity
  8
0
  6
SLD-Durchgehend
 62
     7
370
    25
100
AcDbLine
 10
53.651248183
 20
244.189427328
 30
0.0
 11
51.7293031883
 21
244.189427328
 31
0.0
  0
ARC
  5
1BB
330
1F
100
AcDbEntity
  8
0
  6
SLD-Durchgehend
 62
     7
370
    25
100
AcDbCircle
 10
54.1187244094
 20
243.3054216845
 30
0.0
 40
1.0
100
AcDbArc
 50
117.8705972533
 51
180.0
  0
LINE
  5
1BC
330
1F
100
AcDbEntity
  8
0
  6
SLD-Durchgehend
 62
     7
370
    25
100
AcDbLine
 10
53.1187244094
 20
243.3054216845
 30
0.0
 11
53.1187244094
 21
242.5852416145
 31
0.0
  0
LINE
  5
1BD
330
1F
100
AcDbEntity
  8
0
  6
SLD-Durchgehend
 62
     7
370
    25
100
AcDbLine
 10
51.7293031883
 20
242.024964187
 30
0.0
 11
53.1187244094
 21
242.5852416145
 31
0.0
  0
LINE
  5
1BE
330
1F
100
AcDbEntity
  8
0
  6
SLD-Durchgehend
 62
     7
370
    25
100
AcDbLine
 10
51.7293031883
 20
241.6428528088
 30
0.0
 11
51.7293031883
 21
242.024964187
 31
0.0
  0
LINE
  5
1BF
330
1F
100
AcDbEntity
  8
0
  6
SLD-Durchgehend
 62
     7
370
    25
100
AcDbLine
 10
53.1187244094
 20
241.0822970517
 30
0.0
 11
51.7293031883
 21
241.6428528088
 31
0.0
  0
LINE
  5
1C0
330
1F
100
AcDbEntity
  8
0
  6
SLD-Durchgehend
 62
     7
370
    25
100
AcDbLine
 10
53.1187244094
 20
241.0822970517
 30
0.0
 11
53.1187244094
 21
240.4073760459
 31
0.0
  0
LINE
  5
1C1
330
1F
100
AcDbEntity
  8
0
  6
SLD-Durchgehend
 62
     7
370
    25
100
AcDbLine
 10
51.7293031883
 20
240.4073760459
 30
0.0
 11
53.1187244094
 21
240.4073760459
 31
0.0
  0
LINE
  5
1C2
330
1F
100
AcDbEntity
  8
0
  6
SLD-Durchgehend
 62
     7
370
    25
100
AcDbLine
 10
51.7293031883
 20
240.0548119434
 30
0.0
 11
51.7293031883
 21
240.4073760459
 31
0.0
  0
LINE
  5
1C3
330
1F
100
AcDbEntity
  8
0
  6
SLD-Durchgehend
 62
     7
370
    25
100
AcDbLine
 10
52.9152006242
 20
240.0548119434
 30
0.0
 11
51.7293031883
 21
240.0548119434
 31
0.0
  0
LINE
  5
1C4
330
1F
100
AcDbEntity
  8
0
  6
SLD-Durchgehend
 62
     7
370
    25
100
AcDbLine
 10
52.9152006242
 20
238.8368632254
 30
0.0
 11
52.9152006242
 21
240.0548119434
 31
0.0
  0
LINE
  5
1C5
330
1F
100
AcDbEntity
  8
0
  6
SLD-Durchgehend
 62
     7
370
    25
100
AcDbLine
 10
51.7293031883
 20
238.8368632254
 30
0.0
 11
52.9152006242
 21
238.8368632254
 31
0.0
  0
LINE
  5
1C6
330
1F
100
AcDbEntity
  8
0
  6
SLD-Durchgehend
 62
     7
370
    25
100
AcDbLine
 10
51.7293031883
 20
238.4842991229
 30
0.0
 11
51.7293031883
 21
238.8368632254
 31
0.0
  0
LINE
  5
1C7
330
1F
100
AcDbEntity
  8
0
  6
SLD-Durchgehend
 62
     7
370
    25
100
AcDbLine
 10
53.1187244094
 20
238.4842991229
 30
0.0
 11
51.7293031883
 21
238.4842991229
 31
0.0
  0
LINE
  5
1C8
330
1F
100
AcDbEntity
  8
0
  6
SLD-Durchgehend
 62
     7
370
    25
100
AcDbLine
 10
53.1187244094
 20
238.4842991229
 30
0.0
 11
53.1187244094
 21
237.9073760459
 31
0.0
  0
LINE
  5
1C9
330
1F
100
AcDbEntity
  8
0
  6
SLD-Durchgehend
 62
     7
370
    25
100
AcDbLine
 10
51.7293031883
 20
237.9073760459
 30
0.0
 11
53.1187244094
 21
237.9073760459
 31
0.0
  0
LINE
  5
1CA
330
1F
100
AcDbEntity
  8
0
  6
SLD-Durchgehend
 62
     7
370
    25
100
AcDbLine
 10
51.7293031883
 20
236.9688744434
 30
0.0
 11
51.7293031883
 21
237.9073760459
 31
0.0
  0
SPLINE
  5
1CB
330
1F
100
AcDbEntity
  8
0
  6
SLD-Durchgehend
 62
     7
370
    25
100
AcDbSpline
210
0.0
220
0.0
230
1.0
 70
     8
 71
     3
 72
    12
 73
     8
 74
     0
 42
0.00000001
 43
0.00000001
 40
0.0
 40
0.0
 40
0.0
 40
0.0
 40
0.1866200114219007
 40
0.3732732847017363
 40
0.5592200851609221
 40
0.7792881714219684
 40
0.9999999999999999
 40
0.9999999999999999
 40
0.9999999999999999
 40
0.9999999999999999
 10
52.44544902164403
 20
236.0484016869662
 30
0.0
 10
52.3629849973929
 20
236.0561663233412
 30
0.0
 10
52.19804225107426
 20
236.0716969800061
 30
0.0
 10
51.97495357050332
 20
236.1940473923621
 30
0.0
 10
51.80952919402668
 20
236.4047942358935
 30
0.0
 10
51.73784382792901
 20
236.6775951542493
 30
0.0
 10
51.73215283867465
 20
236.8716868591474
 30
0.0
 10
51.72930318831069
 20
236.9688744433764
 30
0.0
  0
SPLINE
  5
1CC
330
1F
100
AcDbEntity
  8
0
  6
SLD-Durchgehend
 62
     7
370
    25
100
AcDbSpline
210
0.0
220
0.0
230
1.0
 70
     8
 71
     3
 72
    11
 73
     7
 74
     0
 42
0.00000001
 43
0.00000001
 40
0.0
 40
0.0
 40
0.0
 40
0.0
 40
0.2802111301844236
 40
0.5596695371223298
 40
0.7797087448035148
 40
1.0
 40
1.0
 40
1.0
 40
1.0
 10
53.04340575241326
 20
236.5196556933764
 30
0.0
 10
53.01702296139386
 20
236.4469908674123
 30
0.0
 10
52.96432825070157
 20
236.301856412954
 30
0.0
 10
52.8074430146351
 20
236.1479326780805
 30
0.0
 10
52.62687211737692
 20
236.0608337254488
 30
0.0
 10
52.50594645971969
 20
236.0525472808621
 30
0.0
 10
52.44544902164403
 20
236.0484016869662
 30
0.0
  0
SPLINE
  5
1CD
330
1F
100
AcDbEntity
  8
0
  6
SLD-Durchgehend
 62
     7
370
    25
100
AcDbSpline
210
0.0
220
0.0
230
1.0
 70
     8
 71
     3
 72
     9
 73
     5
 74
     0
 42
0.00000001
 43
0.00000001
 40
0.0
 40
0.0
 40
0.0
 40
0.0
 40
0.5597367173169979
 40
1.0
 40
1.0
 40
1.0
 40
1.0
 10
53.11872441180124
 20
236.3896810324341
 30
0.0
 10
53.10326744878063
 20
236.4131268688858
 30
0.0
 10
53.07565274611346
 20
236.4550141271741
 30
0.0
 10
53.05326309410476
 20
236.4998958977362
 30
0.0
 10
53.04340575241326
 20
236.5196556933764
 30
0.0
  0
LINE
  5
1CE
330
1F
100
AcDbEntity
  8
0
  6
SLD-Durchgehend
 62
     7
370
    25
100
AcDbLine
 10
53.1187244118
 20
236.3896810324
 30
0.0
 11
53.1187244094
 21
227.951162984
 31
0.0
  0
LINE
  5
1CF
330
1F
100
AcDbEntity
  8
0
  6
SLD-Durchgehend
 62
     7
370
    25
100
AcDbLine
 10
52.9152006242
 20
227.9744834177
 30
0.0
 11
53.1187244094
 21
227.951162984
 31
0.0
  0
SPLINE
  5
1D0
330
1F
100
AcDbEntity
  8
0
  6
SLD-Durchgehend
 62
     7
370
    25
100
AcDbSpline
210
0.0
220
0.0
230
1.0
 70
     8
 71
     3
 72
     9
 73
     5
 74
     0
 42
0.00000001
 43
0.00000001
 40
0.0
 40
0.0
 40
0.0
 40
0.0
 40
0.5597720928168177
 40
1.0
 40
1.0
 40
1.0
 40
1.0
 10
52.94925511138762
 20
227.7671516869662
 30
0.0
 10
52.94634151631335
 20
227.8064291405993
 30
0.0
 10
52.94113654966413
 20
227.8765960069672
 30
0.0
 10
52.92312834045875
 20
227.9445626185569
 30
0.0
 10
52.91520062420814
 20
227.9744834177354
 30
0.0
  0
SPLINE
  5
1D1
330
1F
100
AcDbEntity
  8
0
  6
SLD-Durchgehend
 62
     7
370
    25
100
AcDbSpline
210
0.0
220
0.0
230
1.0
 70
     8
 71
     3
 72
    11
 73
     7
 74
     0
 42
0.00000001
 43
0.00000001
 40
0.0
 40
0.0
 40
0.0
 40
0.0
 40
0.2798072354267284
 40
0.5591854150511308
 40
0.7794081502159184
 40
1.0
 40
1.0
 40
1.0
 40
1.0
 10
79.09799309215684
 20
247.4471396677354
 30
0.0
 10
79.07323754682972
 20
247.3717300168771
 30
0.0
 10
79.02376441627445
 20
247.2210263481539
 30
0.0
 10
78.85662739735447
 20
247.0669897753547
 30
0.0
 10
78.6674809985862
 20
246.9881122985729
 30
0.0
 10
78.54353273805044
 20
246.981298578975
 30
0.0
 10
78.48150671395172
 20
246.9778888664534
 30
0.0
  0
SPLINE
  5
1D2
330
1F
100
AcDbEntity
  8
0
  6
SLD-Durchgehend
 62
     7
370
    25
100
AcDbSpline
210
0.0
220
0.0
230
1.0
 70
     8
 71
     3
 72
    10
 73
     6
 74
     0
 42
0.00000001
 43
0.00000001
 40
0.0
 40
0.0
 40
0.0
 40
0.0
 40
0.2804962977166629
 40
0.5610033473578253
 40
1.0
 40
1.0
 40
1.0
 40
1.0
 10
79.59378636138761
 20
247.1060939946585
 30
0.0
 10
79.53432541090983
 20
247.111761099845
 30
0.0
 10
79.41540123070972
 20
247.1230955274484
 30
0.0
 10
79.22382167085313
 20
247.2316866969281
 30
0.0
 10
79.14567397945181
 20
247.3654969366097
 30
0.0
 10
79.09799309215684
 20
247.4471396677354
 30
0.0
  0
SPLINE
  5
1D3
330
1F
100
AcDbEntity
  8
0
  6
SLD-Durchgehend
 62
     7
370
    25
100
AcDbSpline
210
0.0
220
0.0
230
1.0
 70
     8
 71
     3
 72
    11
 73
     7
 74
     0
 42
0.00000001
 43
0.00000001
 40
0.0
 40
0.0
 40
0.0
 40
0.0
 40
0.2801841963358561
 40
0.5598553103459301
 40
0.7799999387581326
 40
1.0
 40
1.0
 40
1.0
 40
1.0
 10
80.22930318831071
 20
247.8172318151713
 30
0.0
 10
80.21930850224773
 20
247.7180255976608
 30
0.0
 10
80.19933743271287
 20
247.5197948322608
 30
0.0
 10
80.0453693056705
 20
247.2790045062229
 30
0.0
 10
79.82747507198924
 20
247.1334547410633
 30
0.0
 10
79.67166553951351
 20
247.1152122461882
 30
0.0
 10
79.59378636138761
 20
247.1060939946585
 30
0.0
  0
SPLINE
  5
1D4
330
1F
100
AcDbEntity
  8
0
  6
SLD-Durchgehend
 62
     7
370
    25
100
AcDbSpline
210
0.0
220
0.0
230
1.0
 70
     8
 71
     3
 72
    11
 73
     7
 74
     0
 42
0.00000001
 43
0.00000001
 40
0.0
 40
0.0
 40
0.0
 40
0.0
 40
0.2802531823855473
 40
0.5595227689760472
 40
0.7795924159936112
 40
1.0
 40
1.0
 40
1.0
 40
1.0
 10
79.58827754728505
 20
248.5484016869662
 30
0.0
 10
79.6854828012793
 20
248.5237599266506
 30
0.0
 10
79.87955215103987
 20
248.4745628904319
 30
0.0
 10
80.09614078428159
 20
248.286119057181
 30
0.0
 10
80.21315735778406
 20
248.0525934312761
 30
0.0
 10
80.22391849279761
 20
247.8957258038267
 30
0.0
 10
80.22930318831071
 20
247.8172318151713
 30
0.0
  0
LINE
  5
1D5
330
1F
100
AcDbEntity
  8
0
  6
SLD-Durchgehend
 62
     7
370
    25
100
AcDbLine
 10
79.5562262652
 20
248.2278888665
 30
0.0
 11
79.5882775473
 21
248.548401687
 31
0.0
  0
SPLINE
  5
1D6
330
1F
100
AcDbEntity
  8
0
  6
SLD-Durchgehend
 62
     7
370
    25
100
AcDbSpline
210
0.0
220
0.0
230
1.0
 70
     8
 71
     3
 72
    11
 73
     7
 74
     0
 42
0.00000001
 43
0.00000001
 40
0.0
 40
0.0
 40
0.0
 40
0.0
 40
0.280001439377894
 40
0.5591307790850905
 40
0.779320050137251
 40
0.9999999999999999
 40
0.9999999999999999
 40
0.9999999999999999
 40
0.9999999999999999
 10
79.94084164984916
 20
247.8072157895303
 30
0.0
 10
79.93551144200205
 20
247.8661948707458
 30
0.0
 10
79.92486762791002
 20
247.9839693354165
 30
0.0
 10
79.82420833132397
 20
248.122407408854
 30
0.0
 10
79.6916495914827
 20
248.1986525036344
 30
0.0
 10
79.60140085567537
 20
248.2181361838622
 30
0.0
 10
79.55622626523378
 20
248.2278888664534
 30
0.0
  0
SPLINE
  5
1D7
330
1F
100
AcDbEntity
  8
0
  6
SLD-Durchgehend
 62
     7
370
    25
100
AcDbSpline
210
0.0
220
0.0
230
1.0
 70
     8
 71
     3
 72
    11
 73
     7
 74
     0
 42
0.00000001
 43
0.00000001
 40
0.0
 40
0.0
 40
0.0
 40
0.0
 40
0.2794599904729792
 40
0.558952257737497
 40
0.7792552783908803
 40
1.0
 40
1.0
 40
1.0
 40
1.0
 10
79.58326953446453
 20
247.4266068151713
 30
0.0
 10
79.6381960594115
 20
247.4328240381182
 30
0.0
 10
79.74805545315446
 20
247.4452592020827
 30
0.0
 10
79.86760775945646
 20
247.5508908764707
 30
0.0
 10
79.93190994907376
 20
247.6781016448368
 30
0.0
 10
79.9378624291587
 20
247.7641490163618
 30
0.0
 10
79.94084164984916
 20
247.8072157895303
 30
0.0
  0
SPLINE
  5
1D8
330
1F
100
AcDbEntity
  8
0
  6
SLD-Durchgehend
 62
     7
370
    25
100
AcDbSpline
210
0.0
220
0.0
230
1.0
 70
     8
 71
     3
 72
    11
 73
     7
 74
     0
 42
0.00000001
 43
0.00000001
 40
0.0
 40
0.0
 40
0.0
 40
0.0
 40
0.2806803348029308
 40
0.5609514120692123
 40
0.7800568087021051
 40
1.0
 40
1.0
 40
1.0
 40
1.0
 10
79.20015655369531
 20
247.8953568151713
 30
0.0
 10
79.20584898440006
 20
247.8319727169076
 30
0.0
 10
79.21722554572622
 20
247.7052969401783
 30
0.0
 10
79.29684942534084
 20
247.5419721061409
 30
0.0
 10
79.43227924513072
 20
247.4381499667356
 30
0.0
 10
79.5328754519618
 20
247.4304594240698
 30
0.0
 10
79.58326953446453
 20
247.4266068151713
 30
0.0
  0
SPLINE
  5
1D9
330
1F
100
AcDbEntity
  8
0
  6
SLD-Durchgehend
 62
     7
370
    25
100
AcDbSpline
210
0.0
220
0.0
230
1.0
 70
     8
 71
     3
 72
     9
 73
     5
 74
     0
 42
0.00000001
 43
0.00000001
 40
0.0
 40
0.0
 40
0.0
 40
0.0
 40
0.5600031377095538
 40
1.0
 40
1.0
 40
1.0
 40
1.0
 10
79.20366216266966
 20
247.94143053312
 30
0.0
 10
79.20272345963072
 20
247.9328509030335
 30
0.0
 10
79.20104721359611
 20
247.9175302208643
 30
0.0
 10
79.20042869842838
 20
247.9021319889142
 30
0.0
 10
79.20015655369531
 20
247.8953568151713
 30
0.0
  0
LINE
  5
1DA
330
1F
100
AcDbEntity
  8
0
  6
SLD-Durchgehend
 62
     7
370
    25
100
AcDbLine
 10
78.9152006242
 20
247.9744834177
 30
0.0
 11
79.2036621627
 21
247.9414305331
 31
0.0
  0
SPLINE
  5
1DB
330
1F
100
AcDbEntity
  8
0
  6
SLD-Durchgehend
 62
     7
370
    25
100
AcDbSpline
210
0.0
220
0.0
230
1.0
 70
     8
 71
     3
 72
     9
 73
     5
 74
     0
 42
0.00000001
 43
0.00000001
 40
0.0
 40
0.0
 40
0.0
 40
0.0
 40
0.5597720928168177
 40
1.0
 40
1.0
 40
1.0
 40
1.0
 10
78.94925511138761
 20
247.7671516869662
 30
0.0
 10
78.94634151631334
 20
247.8064291405993
 30
0.0
 10
78.94113654966412
 20
247.8765960069672
 30
0.0
 10
78.92312834045875
 20
247.9445626185569
 30
0.0
 10
78.91520062420814
 20
247.9744834177354
 30
0.0
  0
SPLINE
  5
1DC
330
1F
100
AcDbEntity
  8
0
  6
SLD-Durchgehend
 62
     7
370
    25
100
AcDbSpline
210
0.0
220
0.0
230
1.0
 70
     8
 71
     3
 72
    11
 73
     7
 74
     0
 42
0.00000001
 43
0.00000001
 40
0.0
 40
0.0
 40
0.0
 40
0.0
 40
0.2797467444255926
 40
0.5591708920400905
 40
0.7794436172783864
 40
1.0
 40
1.0
 40
1.0
 40
1.0
 10
78.48401072036197
 20
247.2984016869662
 30
0.0
 10
78.55345909584858
 20
247.3055127699365
 30
0.0
 10
78.69227576072637
 20
247.3197267355575
 30
0.0
 10
78.8486447643856
 20
247.445771369105
 30
0.0
 10
78.93697366830041
 20
247.6037475480991
 30
0.0
 10
78.94515954125481
 20
247.7126602802177
 30
0.0
 10
78.94925511138761
 20
247.7671516869662
 30
0.0
  0
SPLINE
  5
1DD
330
1F
100
AcDbEntity
  8
0
  6
SLD-Durchgehend
 62
     7
370
    25
100
AcDbSpline
210
0.0
220
0.0
230
1.0
 70
     8
 71
     3
 72
    11
 73
     7
 74
     0
 42
0.00000001
 43
0.00000001
 40
0.0
 40
0.0
 40
0.0
 40
0.0
 40
0.2798831268210907
 40
0.5589931949970949
 40
0.7793189944462602
 40
0.9999999999999999
 40
0.9999999999999999
 40
0.9999999999999999
 40
0.9999999999999999
 10
77.98571344472096
 20
247.7911901485047
 30
0.0
 10
77.99261186300687
 20
247.7171864706083
 30
0.0
 10
78.00638964561878
 20
247.5693835186453
 30
0.0
 10
78.14234414424308
 20
247.4044319608669
 30
0.0
 10
78.31034879838313
 20
247.3115129477072
 30
0.0
 10
78.42609233807161
 20
247.3027744533346
 30
0.0
 10
78.48401072036197
 20
247.2984016869662
 30
0.0
  0
SPLINE
  5
1DE
330
1F
100
AcDbEntity
  8
0
  6
SLD-Durchgehend
 62
     7
370
    25
100
AcDbSpline
210
0.0
220
0.0
230
1.0
 70
     8
 71
     3
 72
    11
 73
     7
 74
     0
 42
0.00000001
 43
0.00000001
 40
0.0
 40
0.0
 40
0.0
 40
0.0
 40
0.280881066824423
 40
0.5600727198378352
 40
0.7796532013274903
 40
1.0
 40
1.0
 40
1.0
 40
1.0
 10
78.4344313934389
 20
248.2599401485046
 30
0.0
 10
78.36965525698572
 20
248.2434845844735
 30
0.0
 10
78.24049259275176
 20
248.2106724316018
 30
0.0
 10
78.07918585603349
 20
248.1058286213465
 30
0.0
 10
77.99621583977992
 20
247.9488496310796
 30
0.0
 10
77.98921830611688
 20
247.8438043028071
 30
0.0
 10
77.98571344472096
 20
247.7911901485047
 30
0.0
  0
LINE
  5
1DF
330
1F
100
AcDbEntity
  8
0
  6
SLD-Durchgehend
 62
     7
370
    25
100
AcDbLine
 10
78.4023801114
 20
248.580452969
 30
0.0
 11
78.4344313934
 21
248.2599401485
 31
0.0
  0
SPLINE
  5
1E0
330
1F
100
AcDbEntity
  8
0
  6
SLD-Durchgehend
 62
     7
370
    25
100
AcDbSpline
210
0.0
220
0.0
230
1.0
 70
     8
 71
     3
 72
    11
 73
     7
 74
     0
 42
0.00000001
 43
0.00000001
 40
0.0
 40
0.0
 40
0.0
 40
0.0
 40
0.279910518255343
 40
0.5592490543357254
 40
0.7794762652099534
 40
1.0
 40
1.0
 40
1.0
 40
1.0
 10
77.69725190625941
 20
247.8027085779918
 30
0.0
 10
77.70713704007915
 20
247.9116854192651
 30
0.0
 10
77.72688710797628
 20
248.1294164134644
 30
0.0
 10
77.91223288882095
 20
248.3821520193945
 30
0.0
 10
78.14905016470509
 20
248.5376074999605
 30
0.0
 10
78.31789893037791
 20
248.5661647418487
 30
0.0
 10
78.40238011138761
 20
248.5804529690174
 30
0.0
  0
SPLINE
  5
1E1
330
1F
100
AcDbEntity
  8
0
  6
SLD-Durchgehend
 62
     7
370
    25
100
AcDbSpline
210
0.0
220
0.0
230
1.0
 70
     8
 71
     3
 72
    11
 73
     7
 74
     0
 42
0.00000001
 43
0.00000001
 40
0.0
 40
0.0
 40
0.0
 40
0.0
 40
0.2794006789803507
 40
0.5590642144451542
 40
0.7793783406070167
 40
1.0
 40
1.0
 40
1.0
 40
1.0
 10
78.48150671395172
 20
246.9778888664534
 30
0.0
 10
78.3624056107226
 20
246.9924739278602
 30
0.0
 10
78.12409135551272
 20
247.0216577721079
 30
0.0
 10
77.864655638834
 20
247.2492269038614
 30
0.0
 10
77.71746923632314
 20
247.5219864092394
 30
0.0
 10
77.70399414904001
 20
247.7090910226736
 30
0.0
 10
77.69725190625941
 20
247.8027085779918
 30
0.0
  0
LINE
  5
1E2
330
1F
100
AcDbEntity
  8
0
  6
SLD-Durchgehend
 62
     7
370
    25
100
AcDbLine
 10
77.7293031883
 20
197.9073760459
 30
0.0
 11
80.2293031883
 21
197.9073760459
 31
0.0
  0
LINE
  5
1E3
330
1F
100
AcDbEntity
  8
0
  6
SLD-Durchgehend
 62
     7
370
    25
100
AcDbLine
 10
77.7293031883
 20
196.9688744434
 30
0.0
 11
77.7293031883
 21
197.9073760459
 31
0.0
  0
SPLINE
  5
1E4
330
1F
100
AcDbEntity
  8
0
  6
SLD-Durchgehend
 62
     7
370
    25
100
AcDbSpline
210
0.0
220
0.0
230
1.0
 70
     8
 71
     3
 72
     9
 73
     5
 74
     0
 42
0.00000001
 43
0.00000001
 40
0.0
 40
0.0
 40
0.0
 40
0.0
 40
0.5597900855924955
 40
1.0
 40
1.0
 40
1.0
 40
1.0
 10
77.77461989857194
 20
196.5554216845259
 30
0.0
 10
77.75926471837118
 20
196.6318661707294
 30
0.0
 10
77.73183447157702
 20
196.768425370635
 30
0.0
 10
77.73007689218461
 20
196.9076058267173
 30
0.0
 10
77.72930318831071
 20
196.9688744433764
 30
0.0
  0
LINE
  5
1E5
330
1F
100
AcDbEntity
  8
0
  6
SLD-Durchgehend
 62
     7
370
    25
100
AcDbLine
 10
67.1691970108
 20
196.5554216845
 30
0.0
 11
77.7746198986
 21
196.5554216845
 31
0.0
  0
SPLINE
  5
1E6
330
1F
100
AcDbEntity
  8
0
  6
SLD-Durchgehend
 62
     7
370
    25
100
AcDbSpline
210
0.0
220
0.0
230
1.0
 70
     8
 71
     3
 72
     9
 73
     5
 74
     0
 42
0.00000001
 43
0.00000001
 40
0.0
 40
0.0
 40
0.0
 40
0.0
 40
0.5602000530908446
 40
1.0
 40
1.0
 40
1.0
 40
1.0
 10
67.22930318831071
 20
196.9713784497867
 30
0.0
 10
67.22786983125327
 20
196.892185031584
 30
0.0
 10
67.22531117912617
 20
196.7508187147375
 30
0.0
 10
67.18633759224294
 20
196.6151074788358
 30
0.0
 10
67.16919701080083
 20
196.5554216844913
 30
0.0
  0
LINE
  5
1E7
330
1F
100
AcDbEntity
  8
0
  6
SLD-Durchgehend
 62
     7
370
    25
100
AcDbLine
 10
67.2293031883
 20
197.9073760459
 30
0.0
 11
67.2293031883
 21
196.9713784498
 31
0.0
  0
LINE
  5
1E8
330
1F
100
AcDbEntity
  8
0
  6
SLD-Durchgehend
 62
     7
370
    25
100
AcDbLine
 10
64.7293031883
 20
197.9073760459
 30
0.0
 11
67.2293031883
 21
197.9073760459
 31
0.0
  0
LINE
  5
1E9
330
1F
100
AcDbEntity
  8
0
  6
SLD-Durchgehend
 62
     7
370
    25
100
AcDbLine
 10
64.7293031883
 20
196.9688744434
 30
0.0
 11
64.7293031883
 21
197.9073760459
 31
0.0
  0
SPLINE
  5
1EA
330
1F
100
AcDbEntity
  8
0
  6
SLD-Durchgehend
 62
     7
370
    25
100
AcDbSpline
210
0.0
220
0.0
230
1.0
 70
     8
 71
     3
 72
     9
 73
     5
 74
     0
 42
0.00000001
 43
0.00000001
 40
0.0
 40
0.0
 40
0.0
 40
0.0
 40
0.5597900855924792
 40
1.0
 40
1.0
 40
1.0
 40
1.0
 10
64.77461989857194
 20
196.5554216845259
 30
0.0
 10
64.7592647183712
 20
196.6318661707294
 30
0.0
 10
64.73183447157702
 20
196.768425370635
 30
0.0
 10
64.7300768921846
 20
196.9076058267173
 30
0.0
 10
64.72930318831072
 20
196.9688744433764
 30
0.0
  0
LINE
  5
1EB
330
1F
100
AcDbEntity
  8
0
  6
SLD-Durchgehend
 62
     7
370
    25
100
AcDbLine
 10
54.1691970108
 20
196.5554216845
 30
0.0
 11
64.7746198986
 21
196.5554216845
 31
0.0
  0
SPLINE
  5
1EC
330
1F
100
AcDbEntity
  8
0
  6
SLD-Durchgehend
 62
     7
370
    25
100
AcDbSpline
210
0.0
220
0.0
230
1.0
 70
     8
 71
     3
 72
     9
 73
     5
 74
     0
 42
0.00000001
 43
0.00000001
 40
0.0
 40
0.0
 40
0.0
 40
0.0
 40
0.560200053090846
 40
1.0
 40
1.0
 40
1.0
 40
1.0
 10
54.22930318831072
 20
196.9713784497867
 30
0.0
 10
54.22786983125327
 20
196.892185031584
 30
0.0
 10
54.22531117912617
 20
196.7508187147375
 30
0.0
 10
54.18633759224294
 20
196.6151074788358
 30
0.0
 10
54.16919701080084
 20
196.5554216844912
 30
0.0
  0
LINE
  5
1ED
330
1F
100
AcDbEntity
  8
0
  6
SLD-Durchgehend
 62
     7
370
    25
100
AcDbLine
 10
54.2293031883
 20
197.9073760459
 30
0.0
 11
54.2293031883
 21
196.9713784498
 31
0.0
  0
LINE
  5
1EE
330
1F
100
AcDbEntity
  8
0
  6
SLD-Durchgehend
 62
     7
370
    25
100
AcDbLine
 10
51.7293031883
 20
197.9073760459
 30
0.0
 11
54.2293031883
 21
197.9073760459
 31
0.0
  0
LINE
  5
1EF
330
1F
100
AcDbEntity
  8
0
  6
SLD-Durchgehend
 62
     7
370
    25
100
AcDbLine
 10
51.7293031883
 20
196.9688744434
 30
0.0
 11
51.7293031883
 21
197.9073760459
 31
0.0
  0
SPLINE
  5
1F0
330
1F
100
AcDbEntity
  8
0
  6
SLD-Durchgehend
 62
     7
370
    25
100
AcDbSpline
210
0.0
220
0.0
230
1.0
 70
     8
 71
     3
 72
     9
 73
     5
 74
     0
 42
0.00000001
 43
0.00000001
 40
0.0
 40
0.0
 40
0.0
 40
0.0
 40
0.5597900855924797
 40
1.0
 40
1.0
 40
1.0
 40
1.0
 10
51.77461989857194
 20
196.5554216845259
 30
0.0
 10
51.75926471837119
 20
196.6318661707294
 30
0.0
 10
51.73183447157701
 20
196.768425370635
 30
0.0
 10
51.73007689218461
 20
196.9076058267173
 30
0.0
 10
51.72930318831071
 20
196.9688744433764
 30
0.0
  0
LINE
  5
1F1
330
1F
100
AcDbEntity
  8
0
  6
SLD-Durchgehend
 62
     7
370
    25
100
AcDbLine
 10
50.6187244094
 20
196.5554216845
 30
0.0
 11
51.7746198986
 21
196.5554216845
 31
0.0
  0
LINE
  5
1F2
330
1F
100
AcDbEntity
  8
0
  6
SLD-Durchgehend
 62
     7
370
    25
100
AcDbLine
 10
50.6187244094
 20
247.0554216845
 30
0.0
 11
50.6187244094
 21
196.5554216845
 31
0.0
  0
LINE
  5
1F3
330
1F
100
AcDbEntity
  8
0
  6
SLD-Durchgehend
 62
     7
370
    25
100
AcDbLine
 10
52.1366438088
 20
247.055421693
 30
0.0
 11
50.6187244094
 21
247.0554216845
 31
0.0
  0
SPLINE
  5
1F4
330
1F
100
AcDbEntity
  8
0
  6
SLD-Durchgehend
 62
     7
370
    25
100
AcDbSpline
210
0.0
220
0.0
230
1.0
 70
     8
 71
     3
 72
     9
 73
     5
 74
     0
 42
0.00000001
 43
0.00000001
 40
0.0
 40
0.0
 40
0.0
 40
0.0
 40
0.5597761850173976
 40
1.0
 40
1.0
 40
1.0
 40
1.0
 10
52.48150671395172
 20
246.9778888664534
 30
0.0
 10
52.41456573629283
 20
246.9815357595216
 30
0.0
 10
52.29498048159535
 20
246.9880506723848
 30
0.0
 10
52.18504154631943
 20
247.0348288327879
 30
0.0
 10
52.13664380881713
 20
247.0554216930185
 30
0.0
  0
SPLINE
  5
1F5
330
1F
100
AcDbEntity
  8
0
  6
SLD-Durchgehend
 62
     7
370
    25
100
AcDbSpline
210
0.0
220
0.0
230
1.0
 70
     8
 71
     3
 72
     9
 73
     5
 74
     0
 42
0.00000001
 43
0.00000001
 40
0.0
 40
0.0
 40
0.0
 40
0.0
 40
0.5593027619924027
 40
1.0
 40
1.0
 40
1.0
 40
1.0
 10
52.81268417770499
 20
247.0554216826661
 30
0.0
 10
52.75339114980916
 20
247.0297522567617
 30
0.0
 10
52.64737875021972
 20
246.9838568533259
 30
0.0
 10
52.53224558282545
 20
246.9797144237334
 30
0.0
 10
52.48150671395172
 20
246.9778888664534
 30
0.0
  0
LINE
  5
1F6
330
1F
100
AcDbEntity
  8
0
  6
SLD-Durchgehend
 62
     7
370
    25
100
AcDbLine
 10
65.1366438088
 20
247.055421693
 30
0.0
 11
52.8126841777
 21
247.0554216827
 31
0.0
  0
SPLINE
  5
1F7
330
1F
100
AcDbEntity
  8
0
  6
SLD-Durchgehend
 62
     7
370
    25
100
AcDbSpline
210
0.0
220
0.0
230
1.0
 70
     8
 71
     3
 72
     9
 73
     5
 74
     0
 42
0.00000001
 43
0.00000001
 40
0.0
 40
0.0
 40
0.0
 40
0.0
 40
0.5597761850173926
 40
0.9999999999999999
 40
0.9999999999999999
 40
0.9999999999999999
 40
0.9999999999999999
 10
65.48150671395173
 20
246.9778888664534
 30
0.0
 10
65.41456573629283
 20
246.9815357595216
 30
0.0
 10
65.29498048159535
 20
246.9880506723848
 30
0.0
 10
65.18504154631943
 20
247.0348288327879
 30
0.0
 10
65.13664380881713
 20
247.0554216930185
 30
0.0
  0
SPLINE
  5
1F8
330
1F
100
AcDbEntity
  8
0
  6
SLD-Durchgehend
 62
     7
370
    25
100
AcDbSpline
210
0.0
220
0.0
230
1.0
 70
     8
 71
     3
 72
     9
 73
     5
 74
     0
 42
0.00000001
 43
0.00000001
 40
0.0
 40
0.0
 40
0.0
 40
0.0
 40
0.5593027619924015
 40
1.0
 40
1.0
 40
1.0
 40
1.0
 10
65.81268417770498
 20
247.0554216826661
 30
0.0
 10
65.75339114980918
 20
247.0297522567617
 30
0.0
 10
65.64737875021973
 20
246.9838568533259
 30
0.0
 10
65.53224558282544
 20
246.9797144237334
 30
0.0
 10
65.48150671395173
 20
246.9778888664534
 30
0.0
  0
LINE
  5
1F9
330
1F
100
AcDbEntity
  8
0
  6
SLD-Durchgehend
 62
     7
370
    25
100
AcDbLine
 10
75.6187244094
 20
247.0554216845
 30
0.0
 11
65.8126841777
 21
247.0554216827
 31
0.0
  0
LINE
  5
1FA
330
1F
100
AcDbEntity
  8
0
  6
SLD-Durchgehend
 62
     7
370
    25
100
AcDbLine
 10
75.6187244094
 20
252.0554216845
 30
0.0
 11
75.6187244094
 21
247.0554216845
 31
0.0
  0
LINE
  5
1FB
330
1F
100
AcDbEntity
  8
0
  6
SLD-Durchgehend
 62
     7
370
    25
100
AcDbLine
 10
81.6187244094
 20
252.0554216845
 30
0.0
 11
75.6187244094
 21
252.0554216845
 31
0.0
  0
LINE
  5
1FC
330
1F
100
AcDbEntity
  8
0
  6
SLD-Durchgehend
 62
     7
370
    25
100
AcDbLine
 10
81.6187244094
 20
196.5554216845
 30
0.0
 11
81.6187244094
 21
252.0554216845
 31
0.0
  0
LINE
  5
1FD
330
1F
100
AcDbEntity
  8
0
  6
SLD-Durchgehend
 62
     7
370
    25
100
AcDbLine
 10
80.1691970108
 20
196.5554216845
 30
0.0
 11
81.6187244094
 21
196.5554216845
 31
0.0
  0
SPLINE
  5
1FE
330
1F
100
AcDbEntity
  8
0
  6
SLD-Durchgehend
 62
     7
370
    25
100
AcDbSpline
210
0.0
220
0.0
230
1.0
 70
     8
 71
     3
 72
     9
 73
     5
 74
     0
 42
0.00000001
 43
0.00000001
 40
0.0
 40
0.0
 40
0.0
 40
0.0
 40
0.5602000530908441
 40
1.0
 40
1.0
 40
1.0
 40
1.0
 10
80.22930318831071
 20
196.9713784497867
 30
0.0
 10
80.22786983125327
 20
196.892185031584
 30
0.0
 10
80.22531117912618
 20
196.7508187147375
 30
0.0
 10
80.18633759224295
 20
196.6151074788358
 30
0.0
 10
80.16919701080083
 20
196.5554216844913
 30
0.0
  0
LINE
  5
1FF
330
1F
100
AcDbEntity
  8
0
  6
SLD-Durchgehend
 62
     7
370
    25
100
AcDbLine
 10
80.2293031883
 20
197.9073760459
 30
0.0
 11
80.2293031883
 21
196.9713784498
 31
0.0
  0
LINE
  5
200
330
1F
100
AcDbEntity
  8
0
  6
SLD-Durchgehend
 62
     7
370
    25
100
AcDbLine
 10
79.8446878037
 20
204.5419914306
 30
0.0
 11
79.1187244094
 21
204.7709173873
 31
0.0
  0
LINE
  5
201
330
1F
100
AcDbEntity
  8
0
  6
SLD-Durchgehend
 62
     7
370
    25
100
AcDbLine
 10
79.1187244094
 20
204.5419914306
 30
0.0
 11
79.8446878037
 21
204.5419914306
 31
0.0
  0
LINE
  5
202
330
1F
100
AcDbEntity
  8
0
  6
SLD-Durchgehend
 62
     7
370
    25
100
AcDbLine
 10
79.1187244094
 20
204.5419914306
 30
0.0
 11
79.1187244094
 21
204.7709173873
 31
0.0
  0
LINE
  5
203
330
1F
100
AcDbEntity
  8
0
  6
SLD-Durchgehend
 62
     7
370
    25
100
AcDbLine
 10
79.1187244094
 20
224.5419914306
 30
0.0
 11
79.8446878037
 21
224.5419914306
 31
0.0
  0
LINE
  5
204
330
1F
100
AcDbEntity
  8
0
  6
SLD-Durchgehend
 62
     7
370
    25
100
AcDbLine
 10
79.1187244094
 20
224.5419914306
 30
0.0
 11
79.1187244094
 21
224.7709173873
 31
0.0
  0
LINE
  5
205
330
1F
100
AcDbEntity
  8
0
  6
SLD-Durchgehend
 62
     7
370
    25
100
AcDbLine
 10
79.8446878037
 20
224.5419914306
 30
0.0
 11
79.1187244094
 21
224.7709173873
 31
0.0
  0
LINE
  5
206
330
1F
100
AcDbEntity
  8
0
  6
SLD-Durchgehend
 62
     7
370
    25
100
AcDbLine
 10
52.5050443742
 20
205.2686540908
 30
0.0
 11
53.1187244094
 21
205.0716989822
 31
0.0
  0
SPLINE
  5
207
330
1F
100
AcDbEntity
  8
0
  6
SLD-Durchgehend
 62
     7
370
    25
100
AcDbSpline
210
0.0
220
0.0
230
1.0
 70
     8
 71
     3
 72
     9
 73
     5
 74
     0
 42
0.00000001
 43
0.00000001
 40
0.0
 40
0.0
 40
0.0
 40
0.0
 40
0.5599969211803089
 40
1.0
 40
1.0
 40
1.0
 40
1.0
 10
52.10790895754148
 20
205.3913504049149
 30
0.0
 10
52.1821745134208
 20
205.3688802552244
 30
0.0
 10
52.31479230660936
 20
205.3287547673143
 30
0.0
 10
52.44691151551739
 20
205.2870182756457
 30
0.0
 10
52.50504437420815
 20
205.2686540908123
 30
0.0
  0
SPLINE
  5
208
330
1F
100
AcDbEntity
  8
0
  6
SLD-Durchgehend
 62
     7
370
    25
100
AcDbSpline
210
0.0
220
0.0
230
1.0
 70
     8
 71
     3
 72
     9
 73
     5
 74
     0
 42
0.00000001
 43
0.00000001
 40
0.0
 40
0.0
 40
0.0
 40
0.0
 40
0.56000185372056
 40
1.0
 40
1.0
 40
1.0
 40
1.0
 10
52.47499629728507
 20
205.5040306933764
 30
0.0
 10
52.40659826105546
 20
205.4825885011012
 30
0.0
 10
52.28445931495163
 20
205.4442989987848
 30
0.0
 10
52.16185474225387
 20
205.4075290945966
 30
0.0
 10
52.10790895754148
 20
205.3913504049149
 30
0.0
  0
LINE
  5
209
330
1F
100
AcDbEntity
  8
0
  6
SLD-Durchgehend
 62
     7
370
    25
100
AcDbLine
 10
53.1187244094
 20
205.7091122158
 30
0.0
 11
52.4749962973
 21
205.5040306934
 31
0.0
  0
LINE
  5
20A
330
1F
100
AcDbEntity
  8
0
  6
SLD-Durchgehend
 62
     7
370
    25
100
AcDbLine
 10
53.1187244094
 20
205.7091122158
 30
0.0
 11
53.1187244094
 21
205.0716989822
 31
0.0
  0
LINE
  5
20B
330
1F
100
AcDbEntity
  8
0
  6
SLD-Durchgehend
 62
     7
370
    25
100
AcDbLine
 10
52.5050443742
 20
225.2686540908
 30
0.0
 11
53.1187244094
 21
225.0716989822
 31
0.0
  0
SPLINE
  5
20C
330
1F
100
AcDbEntity
  8
0
  6
SLD-Durchgehend
 62
     7
370
    25
100
AcDbSpline
210
0.0
220
0.0
230
1.0
 70
     8
 71
     3
 72
     9
 73
     5
 74
     0
 42
0.00000001
 43
0.00000001
 40
0.0
 40
0.0
 40
0.0
 40
0.0
 40
0.5599969211803089
 40
1.0
 40
1.0
 40
1.0
 40
1.0
 10
52.10790895754147
 20
225.3913504049149
 30
0.0
 10
52.18217451342079
 20
225.3688802552244
 30
0.0
 10
52.31479230660936
 20
225.3287547673143
 30
0.0
 10
52.44691151551739
 20
225.2870182756457
 30
0.0
 10
52.50504437420814
 20
225.2686540908123
 30
0.0
  0
SPLINE
  5
20D
330
1F
100
AcDbEntity
  8
0
  6
SLD-Durchgehend
 62
     7
370
    25
100
AcDbSpline
210
0.0
220
0.0
230
1.0
 70
     8
 71
     3
 72
     9
 73
     5
 74
     0
 42
0.00000001
 43
0.00000001
 40
0.0
 40
0.0
 40
0.0
 40
0.0
 40
0.5600018537205699
 40
1.0
 40
1.0
 40
1.0
 40
1.0
 10
52.47499629728506
 20
225.5040306933764
 30
0.0
 10
52.40659826105544
 20
225.4825885011012
 30
0.0
 10
52.2844593149516
 20
225.4442989987848
 30
0.0
 10
52.16185474225387
 20
225.4075290945966
 30
0.0
 10
52.10790895754147
 20
225.3913504049149
 30
0.0
  0
LINE
  5
20E
330
1F
100
AcDbEntity
  8
0
  6
SLD-Durchgehend
 62
     7
370
    25
100
AcDbLine
 10
53.1187244094
 20
225.7091122158
 30
0.0
 11
52.4749962973
 21
225.5040306934
 31
0.0
  0
LINE
  5
20F
330
1F
100
AcDbEntity
  8
0
  6
SLD-Durchgehend
 62
     7
370
    25
100
AcDbLine
 10
53.1187244094
 20
225.7091122158
 30
0.0
 11
53.1187244094
 21
225.0716989822
 31
0.0
  0
SPLINE
  5
210
330
1F
100
AcDbEntity
  8
0
  6
SLD-Durchgehend
 62
     7
370
    25
100
AcDbSpline
210
0.0
220
0.0
230
1.0
 70
     8
 71
     3
 72
     9
 73
     5
 74
     0
 42
0.00000001
 43
0.00000001
 40
0.0
 40
0.0
 40
0.0
 40
0.0
 40
0.5598408887406207
 40
1.0
 40
1.0
 40
1.0
 40
1.0
 10
79.20115815625942
 20
196.7390066549149
 30
0.0
 10
79.21697269276368
 20
196.6983337361319
 30
0.0
 10
79.24522096262446
 20
196.625682881932
 30
0.0
 10
79.30548958965167
 20
196.57689577441
 30
0.0
 10
79.33201737496078
 20
196.5554216845222
 30
0.0
  0
SPLINE
  5
211
330
1F
100
AcDbEntity
  8
0
  6
SLD-Durchgehend
 62
     7
370
    25
100
AcDbSpline
210
0.0
220
0.0
230
1.0
 70
     8
 71
     3
 72
     9
 73
     5
 74
     0
 42
0.00000001
 43
0.00000001
 40
0.0
 40
0.0
 40
0.0
 40
0.0
 40
0.5603929846318926
 40
1.0
 40
1.0
 40
1.0
 40
1.0
 10
79.1716108806184
 20
197.0394874241457
 30
0.0
 10
79.17163193840463
 20
196.9827719486159
 30
0.0
 10
79.17166951522445
 20
196.8815653363184
 30
0.0
 10
79.19215332832079
 20
196.7825392271916
 30
0.0
 10
79.20115815625942
 20
196.7390066549149
 30
0.0
  0
LINE
  5
212
330
1F
100
AcDbEntity
  8
0
  6
SLD-Durchgehend
 62
     7
370
    25
100
AcDbLine
 10
79.1716108806
 20
197.5548119434
 30
0.0
 11
79.1716108806
 21
197.0394874241
 31
0.0
  0
LINE
  5
213
330
1F
100
AcDbEntity
  8
0
  6
SLD-Durchgehend
 62
     7
370
    25
100
AcDbLine
 10
79.9408416498
 20
197.5548119434
 30
0.0
 11
79.1716108806
 21
197.5548119434
 31
0.0
  0
LINE
  5
214
330
1F
100
AcDbEntity
  8
0
  6
SLD-Durchgehend
 62
     7
370
    25
100
AcDbLine
 10
79.9408416498
 20
197.0785499241
 30
0.0
 11
79.9408416498
 21
197.5548119434
 31
0.0
  0
SPLINE
  5
215
330
1F
100
AcDbEntity
  8
0
  6
SLD-Durchgehend
 62
     7
370
    25
100
AcDbSpline
210
0.0
220
0.0
230
1.0
 70
     8
 71
     3
 72
    11
 73
     7
 74
     0
 42
0.00000001
 43
0.00000001
 40
0.0
 40
0.0
 40
0.0
 40
0.0
 40
0.1482344727142308
 40
0.296265166924782
 40
0.647242617163598
 40
1.0
 40
1.0
 40
1.0
 40
1.0
 10
79.77508773344599
 20
196.5554216845222
 30
0.0
 10
79.79863673151843
 20
196.5717153157774
 30
0.0
 10
79.84570235476444
 20
196.6042801793697
 30
0.0
 10
79.91509255554398
 20
196.7108246888509
 30
0.0
 10
79.93741033883862
 20
196.8768917030156
 30
0.0
 10
79.9396959525373
 20
197.0112172687395
 30
0.0
 10
79.94084164984918
 20
197.0785499241457
 30
0.0
  0
LINE
  5
216
330
1F
100
AcDbEntity
  8
0
  6
SLD-Durchgehend
 62
     7
370
    25
100
AcDbLine
 10
79.332017375
 20
196.5554216845
 30
0.0
 11
79.7750877334
 21
196.5554216845
 31
0.0
  0
SPLINE
  5
217
330
1F
100
AcDbEntity
  8
0
  6
SLD-Durchgehend
 62
     7
370
    25
100
AcDbSpline
210
0.0
220
0.0
230
1.0
 70
     8
 71
     3
 72
    12
 73
     8
 74
     0
 42
0.00000001
 43
0.00000001
 40
0.0
 40
0.0
 40
0.0
 40
0.0
 40
0.2490031653286909
 40
0.3742534196815404
 40
0.4992235742880933
 40
0.7489784887464622
 40
1.0
 40
1.0
 40
1.0
 40
1.0
 10
79.55021664984915
 20
236.4971196356842
 30
0.0
 10
79.618189063356
 20
236.5045338031339
 30
0.0
 10
79.72035205459895
 20
236.5156773463032
 30
0.0
 10
79.83462401275543
 20
236.5926285802927
 30
0.0
 10
79.91510132177244
 20
236.7044905832531
 30
0.0
 10
79.93717800690555
 20
236.8771950532958
 30
0.0
 10
79.93961837808533
 20
237.0113185558567
 30
0.0
 10
79.94084164984916
 20
237.0785499241457
 30
0.0
  0
SPLINE
  5
218
330
1F
100
AcDbEntity
  8
0
  6
SLD-Durchgehend
 62
     7
370
    25
100
AcDbSpline
210
0.0
220
0.0
230
1.0
 70
     8
 71
     3
 72
    10
 73
     6
 74
     0
 42
0.00000001
 43
0.00000001
 40
0.0
 40
0.0
 40
0.0
 40
0.0
 40
0.2808694612754493
 40
0.561062592346712
 40
1.0
 40
1.0
 40
1.0
 40
1.0
 10
79.20115815625941
 20
236.7390066549149
 30
0.0
 10
79.21726176523785
 20
236.6991101662618
 30
0.0
 10
79.24943020590263
 20
236.6194132592091
 30
0.0
 10
79.37095297228747
 20
236.5153346383105
 30
0.0
 10
79.48227112544238
 20
236.504023588132
 30
0.0
 10
79.55021664984915
 20
236.4971196356841
 30
0.0
  0
SPLINE
  5
219
330
1F
100
AcDbEntity
  8
0
  6
SLD-Durchgehend
 62
     7
370
    25
100
AcDbSpline
210
0.0
220
0.0
230
1.0
 70
     8
 71
     3
 72
     9
 73
     5
 74
     0
 42
0.00000001
 43
0.00000001
 40
0.0
 40
0.0
 40
0.0
 40
0.0
 40
0.5603929846318706
 40
1.0
 40
1.0
 40
1.0
 40
1.0
 10
79.17161088061839
 20
237.0394874241456
 30
0.0
 10
79.17163193840462
 20
236.9827719486158
 30
0.0
 10
79.17166951522444
 20
236.8815653363184
 30
0.0
 10
79.19215332832077
 20
236.7825392271916
 30
0.0
 10
79.20115815625941
 20
236.7390066549149
 30
0.0
  0
LINE
  5
21A
330
1F
100
AcDbEntity
  8
0
  6
SLD-Durchgehend
 62
     7
370
    25
100
AcDbLine
 10
79.1716108806
 20
237.5548119434
 30
0.0
 11
79.1716108806
 21
237.0394874241
 31
0.0
  0
LINE
  5
21B
330
1F
100
AcDbEntity
  8
0
  6
SLD-Durchgehend
 62
     7
370
    25
100
AcDbLine
 10
79.9408416498
 20
237.5548119434
 30
0.0
 11
79.1716108806
 21
237.5548119434
 31
0.0
  0
LINE
  5
21C
330
1F
100
AcDbEntity
  8
0
  6
SLD-Durchgehend
 62
     7
370
    25
100
AcDbLine
 10
79.9408416498
 20
237.0785499241
 30
0.0
 11
79.9408416498
 21
237.5548119434
 31
0.0
  0
SPLINE
  5
21D
330
1F
100
AcDbEntity
  8
0
  6
SLD-Durchgehend
 62
     7
370
    25
100
AcDbSpline
210
0.0
220
0.0
230
1.0
 70
     8
 71
     3
 72
    10
 73
     6
 74
     0
 42
0.00000001
 43
0.00000001
 40
0.0
 40
0.0
 40
0.0
 40
0.0
 40
0.280869461275456
 40
0.5610625923467112
 40
1.0
 40
1.0
 40
1.0
 40
1.0
 10
79.20115815625941
 20
216.7390066549149
 30
0.0
 10
79.21726176523786
 20
216.6991101662618
 30
0.0
 10
79.24943020590264
 20
216.6194132592091
 30
0.0
 10
79.37095297228747
 20
216.5153346383104
 30
0.0
 10
79.48227112544238
 20
216.504023588132
 30
0.0
 10
79.55021664984916
 20
216.4971196356841
 30
0.0
  0
SPLINE
  5
21E
330
1F
100
AcDbEntity
  8
0
  6
SLD-Durchgehend
 62
     7
370
    25
100
AcDbSpline
210
0.0
220
0.0
230
1.0
 70
     8
 71
     3
 72
     9
 73
     5
 74
     0
 42
0.00000001
 43
0.00000001
 40
0.0
 40
0.0
 40
0.0
 40
0.0
 40
0.5603929846318926
 40
1.0
 40
1.0
 40
1.0
 40
1.0
 10
79.1716108806184
 20
217.0394874241457
 30
0.0
 10
79.17163193840462
 20
216.9827719486158
 30
0.0
 10
79.17166951522444
 20
216.8815653363184
 30
0.0
 10
79.19215332832077
 20
216.7825392271916
 30
0.0
 10
79.20115815625941
 20
216.7390066549149
 30
0.0
  0
LINE
  5
21F
330
1F
100
AcDbEntity
  8
0
  6
SLD-Durchgehend
 62
     7
370
    25
100
AcDbLine
 10
79.1716108806
 20
217.5548119434
 30
0.0
 11
79.1716108806
 21
217.0394874241
 31
0.0
  0
LINE
  5
220
330
1F
100
AcDbEntity
  8
0
  6
SLD-Durchgehend
 62
     7
370
    25
100
AcDbLine
 10
79.9408416498
 20
217.5548119434
 30
0.0
 11
79.1716108806
 21
217.5548119434
 31
0.0
  0
LINE
  5
221
330
1F
100
AcDbEntity
  8
0
  6
SLD-Durchgehend
 62
     7
370
    25
100
AcDbLine
 10
79.9408416498
 20
217.0785499241
 30
0.0
 11
79.9408416498
 21
217.5548119434
 31
0.0
  0
SPLINE
  5
222
330
1F
100
AcDbEntity
  8
0
  6
SLD-Durchgehend
 62
     7
370
    25
100
AcDbSpline
210
0.0
220
0.0
230
1.0
 70
     8
 71
     3
 72
    12
 73
     8
 74
     0
 42
0.00000001
 43
0.00000001
 40
0.0
 40
0.0
 40
0.0
 40
0.0
 40
0.24900316532869
 40
0.3742534196815449
 40
0.499223574288092
 40
0.7489784887464619
 40
1.0
 40
1.0
 40
1.0
 40
1.0
 10
79.55021664984916
 20
216.4971196356841
 30
0.0
 10
79.61818906335601
 20
216.5045338031338
 30
0.0
 10
79.72035205459896
 20
216.5156773463032
 30
0.0
 10
79.83462401275544
 20
216.5926285802927
 30
0.0
 10
79.91510132177245
 20
216.7044905832531
 30
0.0
 10
79.93717800690557
 20
216.8771950532958
 30
0.0
 10
79.93961837808533
 20
217.0113185558567
 30
0.0
 10
79.94084164984916
 20
217.0785499241456
 30
0.0
  0
LINE
  5
223
330
1F
100
AcDbEntity
  8
0
  6
SLD-Durchgehend
 62
     7
370
    25
100
AcDbLine
 10
79.1187244094
 20
226.0131583532
 30
0.0
 11
79.8446878037
 21
226.2407093793
 31
0.0
  0
LINE
  5
224
330
1F
100
AcDbEntity
  8
0
  6
SLD-Durchgehend
 62
     7
370
    25
100
AcDbLine
 10
79.8446878037
 20
226.2407093793
 30
0.0
 11
79.1187244094
 21
226.2407093793
 31
0.0
  0
LINE
  5
225
330
1F
100
AcDbEntity
  8
0
  6
SLD-Durchgehend
 62
     7
370
    25
100
AcDbLine
 10
79.1187244094
 20
226.0131583532
 30
0.0
 11
79.1187244094
 21
226.2407093793
 31
0.0
  0
LINE
  5
226
330
1F
100
AcDbEntity
  8
0
  6
SLD-Durchgehend
 62
     7
370
    25
100
AcDbLine
 10
79.8446878037
 20
206.2407093793
 30
0.0
 11
79.1187244094
 21
206.2407093793
 31
0.0
  0
LINE
  5
227
330
1F
100
AcDbEntity
  8
0
  6
SLD-Durchgehend
 62
     7
370
    25
100
AcDbLine
 10
79.1187244094
 20
206.0131583532
 30
0.0
 11
79.8446878037
 21
206.2407093793
 31
0.0
  0
LINE
  5
228
330
1F
100
AcDbEntity
  8
0
  6
SLD-Durchgehend
 62
     7
370
    25
100
AcDbLine
 10
79.1187244094
 20
206.0131583532
 30
0.0
 11
79.1187244094
 21
206.2407093793
 31
0.0
  0
SPLINE
  5
229
330
1F
100
AcDbEntity
  8
0
  6
SLD-Durchgehend
 62
     7
370
    25
100
AcDbSpline
210
0.0
220
0.0
230
1.0
 70
     8
 71
     3
 72
     9
 73
     5
 74
     0
 42
0.00000001
 43
0.00000001
 40
0.0
 40
0.0
 40
0.0
 40
0.0
 40
0.5601654855716055
 40
0.9999999999999999
 40
0.9999999999999999
 40
0.9999999999999999
 40
0.9999999999999999
 10
78.02978395754148
 20
196.749523481838
 30
0.0
 10
78.03845882280342
 20
196.7108793866572
 30
0.0
 10
78.053945077286
 20
196.6418924601575
 30
0.0
 10
78.09096523470872
 20
196.5818364087359
 30
0.0
 10
78.10724797767281
 20
196.5554216845203
 30
0.0
  0
SPLINE
  5
22A
330
1F
100
AcDbEntity
  8
0
  6
SLD-Durchgehend
 62
     7
370
    25
100
AcDbSpline
210
0.0
220
0.0
230
1.0
 70
     8
 71
     3
 72
     9
 73
     5
 74
     0
 42
0.00000001
 43
0.00000001
 40
0.0
 40
0.0
 40
0.0
 40
0.0
 40
0.560099316577494
 40
1.0
 40
1.0
 40
1.0
 40
1.0
 10
78.01776472677224
 20
196.9633656292739
 30
0.0
 10
78.01770527069479
 20
196.9233007462425
 30
0.0
 10
78.01759911795419
 20
196.851768998487
 30
0.0
 10
78.02606139575404
 20
196.7807602700197
 30
0.0
 10
78.02978395754148
 20
196.749523481838
 30
0.0
  0
LINE
  5
22B
330
1F
100
AcDbEntity
  8
0
  6
SLD-Durchgehend
 62
     7
370
    25
100
AcDbLine
 10
78.0177647268
 20
197.5548119434
 30
0.0
 11
78.0177647268
 21
196.9633656293
 31
0.0
  0
LINE
  5
22C
330
1F
100
AcDbEntity
  8
0
  6
SLD-Durchgehend
 62
     7
370
    25
100
AcDbLine
 10
78.8831493422
 20
197.5548119434
 30
0.0
 11
78.0177647268
 21
197.5548119434
 31
0.0
  0
LINE
  5
22D
330
1F
100
AcDbEntity
  8
0
  6
SLD-Durchgehend
 62
     7
370
    25
100
AcDbLine
 10
78.8831493422
 20
197.0039305331
 30
0.0
 11
78.8831493422
 21
197.5548119434
 31
0.0
  0
SPLINE
  5
22E
330
1F
100
AcDbEntity
  8
0
  6
SLD-Durchgehend
 62
     7
370
    25
100
AcDbSpline
210
0.0
220
0.0
230
1.0
 70
     8
 71
     3
 72
    10
 73
     6
 74
     0
 42
0.00000001
 43
0.00000001
 40
0.0
 40
0.0
 40
0.0
 40
0.0
 40
0.0857700353267096
 40
0.5416637966184135
 40
1.0
 40
1.0
 40
1.0
 40
1.0
 10
78.78892734457035
 20
196.5554216845222
 30
0.0
 10
78.79636960144829
 20
196.5664343621903
 30
0.0
 10
78.84336971169131
 20
196.6359827630263
 30
0.0
 10
78.87845666291165
 20
196.7924975037848
 30
0.0
 10
78.8815823322458
 20
196.9333274436731
 30
0.0
 10
78.88314934215687
 20
197.00393053312
 30
0.0
  0
LINE
  5
22F
330
1F
100
AcDbEntity
  8
0
  6
SLD-Durchgehend
 62
     7
370
    25
100
AcDbLine
 10
78.1072479777
 20
196.5554216845
 30
0.0
 11
78.7889273446
 21
196.5554216845
 31
0.0
  0
SPLINE
  5
230
330
1F
100
AcDbEntity
  8
0
  6
SLD-Durchgehend
 62
     7
370
    25
100
AcDbSpline
210
0.0
220
0.0
230
1.0
 70
     8
 71
     3
 72
     9
 73
     5
 74
     0
 42
0.00000001
 43
0.00000001
 40
0.0
 40
0.0
 40
0.0
 40
0.0
 40
0.5598408887406321
 40
1.0
 40
1.0
 40
1.0
 40
1.0
 10
66.20115815625944
 20
196.7390066549149
 30
0.0
 10
66.21697269276368
 20
196.6983337361319
 30
0.0
 10
66.24522096262446
 20
196.625682881932
 30
0.0
 10
66.30548958965167
 20
196.57689577441
 30
0.0
 10
66.33201737496078
 20
196.5554216845222
 30
0.0
  0
SPLINE
  5
231
330
1F
100
AcDbEntity
  8
0
  6
SLD-Durchgehend
 62
     7
370
    25
100
AcDbSpline
210
0.0
220
0.0
230
1.0
 70
     8
 71
     3
 72
     9
 73
     5
 74
     0
 42
0.00000001
 43
0.00000001
 40
0.0
 40
0.0
 40
0.0
 40
0.0
 40
0.560392984631892
 40
1.0
 40
1.0
 40
1.0
 40
1.0
 10
66.1716108806184
 20
197.0394874241457
 30
0.0
 10
66.17163193840462
 20
196.9827719486159
 30
0.0
 10
66.17166951522444
 20
196.8815653363184
 30
0.0
 10
66.19215332832079
 20
196.7825392271916
 30
0.0
 10
66.20115815625944
 20
196.7390066549149
 30
0.0
  0
LINE
  5
232
330
1F
100
AcDbEntity
  8
0
  6
SLD-Durchgehend
 62
     7
370
    25
100
AcDbLine
 10
66.1716108806
 20
197.5548119434
 30
0.0
 11
66.1716108806
 21
197.0394874241
 31
0.0
  0
LINE
  5
233
330
1F
100
AcDbEntity
  8
0
  6
SLD-Durchgehend
 62
     7
370
    25
100
AcDbLine
 10
66.9408416498
 20
197.5548119434
 30
0.0
 11
66.1716108806
 21
197.5548119434
 31
0.0
  0
LINE
  5
234
330
1F
100
AcDbEntity
  8
0
  6
SLD-Durchgehend
 62
     7
370
    25
100
AcDbLine
 10
66.9408416498
 20
197.0785499241
 30
0.0
 11
66.9408416498
 21
197.5548119434
 31
0.0
  0
SPLINE
  5
235
330
1F
100
AcDbEntity
  8
0
  6
SLD-Durchgehend
 62
     7
370
    25
100
AcDbSpline
210
0.0
220
0.0
230
1.0
 70
     8
 71
     3
 72
    11
 73
     7
 74
     0
 42
0.00000001
 43
0.00000001
 40
0.0
 40
0.0
 40
0.0
 40
0.0
 40
0.148234472714228
 40
0.2962651669247763
 40
0.6472426171635945
 40
1.0
 40
1.0
 40
1.0
 40
1.0
 10
66.775087733446
 20
196.5554216845222
 30
0.0
 10
66.79863673151843
 20
196.5717153157774
 30
0.0
 10
66.84570235476444
 20
196.6042801793697
 30
0.0
 10
66.91509255554398
 20
196.7108246888509
 30
0.0
 10
66.9374103388386
 20
196.8768917030156
 30
0.0
 10
66.93969595253729
 20
197.0112172687395
 30
0.0
 10
66.94084164984918
 20
197.0785499241457
 30
0.0
  0
LINE
  5
236
330
1F
100
AcDbEntity
  8
0
  6
SLD-Durchgehend
 62
     7
370
    25
100
AcDbLine
 10
66.332017375
 20
196.5554216845
 30
0.0
 11
66.7750877334
 21
196.5554216845
 31
0.0
  0
SPLINE
  5
237
330
1F
100
AcDbEntity
  8
0
  6
SLD-Durchgehend
 62
     7
370
    25
100
AcDbSpline
210
0.0
220
0.0
230
1.0
 70
     8
 71
     3
 72
     9
 73
     5
 74
     0
 42
0.00000001
 43
0.00000001
 40
0.0
 40
0.0
 40
0.0
 40
0.0
 40
0.5601654855715941
 40
1.0
 40
1.0
 40
1.0
 40
1.0
 10
65.02978395754148
 20
196.749523481838
 30
0.0
 10
65.0384588228034
 20
196.7108793866572
 30
0.0
 10
65.053945077286
 20
196.6418924601575
 30
0.0
 10
65.09096523470872
 20
196.5818364087359
 30
0.0
 10
65.10724797767281
 20
196.5554216845203
 30
0.0
  0
SPLINE
  5
238
330
1F
100
AcDbEntity
  8
0
  6
SLD-Durchgehend
 62
     7
370
    25
100
AcDbSpline
210
0.0
220
0.0
230
1.0
 70
     8
 71
     3
 72
     9
 73
     5
 74
     0
 42
0.00000001
 43
0.00000001
 40
0.0
 40
0.0
 40
0.0
 40
0.0
 40
0.5600993165774933
 40
1.0
 40
1.0
 40
1.0
 40
1.0
 10
65.01776472677224
 20
196.9633656292739
 30
0.0
 10
65.01770527069479
 20
196.9233007462425
 30
0.0
 10
65.01759911795419
 20
196.851768998487
 30
0.0
 10
65.02606139575403
 20
196.7807602700197
 30
0.0
 10
65.02978395754148
 20
196.749523481838
 30
0.0
  0
LINE
  5
239
330
1F
100
AcDbEntity
  8
0
  6
SLD-Durchgehend
 62
     7
370
    25
100
AcDbLine
 10
65.0177647268
 20
197.5548119434
 30
0.0
 11
65.0177647268
 21
196.9633656293
 31
0.0
  0
LINE
  5
23A
330
1F
100
AcDbEntity
  8
0
  6
SLD-Durchgehend
 62
     7
370
    25
100
AcDbLine
 10
65.8831493422
 20
197.5548119434
 30
0.0
 11
65.0177647268
 21
197.5548119434
 31
0.0
  0
LINE
  5
23B
330
1F
100
AcDbEntity
  8
0
  6
SLD-Durchgehend
 62
     7
370
    25
100
AcDbLine
 10
65.8831493422
 20
197.0039305331
 30
0.0
 11
65.8831493422
 21
197.5548119434
 31
0.0
  0
SPLINE
  5
23C
330
1F
100
AcDbEntity
  8
0
  6
SLD-Durchgehend
 62
     7
370
    25
100
AcDbSpline
210
0.0
220
0.0
230
1.0
 70
     8
 71
     3
 72
    10
 73
     6
 74
     0
 42
0.00000001
 43
0.00000001
 40
0.0
 40
0.0
 40
0.0
 40
0.0
 40
0.0857700353267103
 40
0.5416637966184129
 40
0.9999999999999999
 40
0.9999999999999999
 40
0.9999999999999999
 40
0.9999999999999999
 10
65.78892734457035
 20
196.5554216845222
 30
0.0
 10
65.79636960144828
 20
196.5664343621903
 30
0.0
 10
65.8433697116913
 20
196.6359827630263
 30
0.0
 10
65.87845666291165
 20
196.7924975037848
 30
0.0
 10
65.8815823322458
 20
196.9333274436731
 30
0.0
 10
65.88314934215686
 20
197.00393053312
 30
0.0
  0
LINE
  5
23D
330
1F
100
AcDbEntity
  8
0
  6
SLD-Durchgehend
 62
     7
370
    25
100
AcDbLine
 10
65.1072479777
 20
196.5554216845
 30
0.0
 11
65.7889273446
 21
196.5554216845
 31
0.0
  0
LINE
  5
23E
330
1F
100
AcDbEntity
  8
0
  6
SLD-Durchgehend
 62
     7
370
    25
100
AcDbLine
 10
52.4374362011
 20
241.6979409498
 30
0.0
 11
53.1187244094
 21
241.4387924726
 31
0.0
  0
SPLINE
  5
23F
330
1F
100
AcDbEntity
  8
0
  6
SLD-Durchgehend
 62
     7
370
    25
100
AcDbSpline
210
0.0
220
0.0
230
1.0
 70
     8
 71
     3
 72
     9
 73
     5
 74
     0
 42
0.00000001
 43
0.00000001
 40
0.0
 40
0.0
 40
0.0
 40
0.0
 40
0.5599723007216282
 40
1.0
 40
1.0
 40
1.0
 40
1.0
 10
52.03379036779788
 20
241.8336580972226
 30
0.0
 10
52.10990671243864
 20
241.8106050186424
 30
0.0
 10
52.24583547988421
 20
241.7694367705872
 30
0.0
 10
52.37888897694056
 20
241.7197878500585
 30
0.0
 10
52.43743620113121
 20
241.6979409497867
 30
0.0
  0
SPLINE
  5
240
330
1F
100
AcDbEntity
  8
0
  6
SLD-Durchgehend
 62
     7
370
    25
100
AcDbSpline
210
0.0
220
0.0
230
1.0
 70
     8
 71
     3
 72
     9
 73
     5
 74
     0
 42
0.00000001
 43
0.00000001
 40
0.0
 40
0.0
 40
0.0
 40
0.0
 40
0.5599982429460378
 40
0.9999999999999999
 40
0.9999999999999999
 40
0.9999999999999999
 40
0.9999999999999999
 10
52.43743620113121
 20
241.9708776485046
 30
0.0
 10
52.3628755147274
 20
241.9429307155392
 30
0.0
 10
52.22973101410975
 20
241.8930253215181
 30
0.0
 10
52.09366128686668
 20
241.8517981327284
 30
0.0
 10
52.03379036779788
 20
241.8336580972226
 30
0.0
  0
LINE
  5
241
330
1F
100
AcDbEntity
  8
0
  6
SLD-Durchgehend
 62
     7
370
    25
100
AcDbLine
 10
53.1187244094
 20
242.2294548947
 30
0.0
 11
52.4374362011
 21
241.9708776485
 31
0.0
  0
LINE
  5
242
330
1F
100
AcDbEntity
  8
0
  6
SLD-Durchgehend
 62
     7
370
    25
100
AcDbLine
 10
53.1187244094
 20
242.2294548947
 30
0.0
 11
53.1187244094
 21
241.4387924726
 31
0.0
  0
LINE
  5
243
330
1F
100
AcDbEntity
  8
0
  6
SLD-Durchgehend
 62
     7
370
    25
100
AcDbLine
 10
52.4374362011
 20
201.6979409498
 30
0.0
 11
53.1187244094
 21
201.4387924726
 31
0.0
  0
SPLINE
  5
244
330
1F
100
AcDbEntity
  8
0
  6
SLD-Durchgehend
 62
     7
370
    25
100
AcDbSpline
210
0.0
220
0.0
230
1.0
 70
     8
 71
     3
 72
     9
 73
     5
 74
     0
 42
0.00000001
 43
0.00000001
 40
0.0
 40
0.0
 40
0.0
 40
0.0
 40
0.5599723007216256
 40
1.0
 40
1.0
 40
1.0
 40
1.0
 10
52.03379036779789
 20
201.8336580972226
 30
0.0
 10
52.10990671243864
 20
201.8106050186424
 30
0.0
 10
52.24583547988422
 20
201.7694367705871
 30
0.0
 10
52.37888897694057
 20
201.7197878500585
 30
0.0
 10
52.43743620113123
 20
201.6979409497867
 30
0.0
  0
SPLINE
  5
245
330
1F
100
AcDbEntity
  8
0
  6
SLD-Durchgehend
 62
     7
370
    25
100
AcDbSpline
210
0.0
220
0.0
230
1.0
 70
     8
 71
     3
 72
     9
 73
     5
 74
     0
 42
0.00000001
 43
0.00000001
 40
0.0
 40
0.0
 40
0.0
 40
0.0
 40
0.5599982429460391
 40
1.0
 40
1.0
 40
1.0
 40
1.0
 10
52.43743620113123
 20
201.9708776485046
 30
0.0
 10
52.36287551472741
 20
201.9429307155393
 30
0.0
 10
52.22973101410975
 20
201.8930253215181
 30
0.0
 10
52.0936612868667
 20
201.8517981327284
 30
0.0
 10
52.03379036779789
 20
201.8336580972226
 30
0.0
  0
LINE
  5
246
330
1F
100
AcDbEntity
  8
0
  6
SLD-Durchgehend
 62
     7
370
    25
100
AcDbLine
 10
53.1187244094
 20
202.2294548947
 30
0.0
 11
52.4374362011
 21
201.9708776485
 31
0.0
  0
LINE
  5
247
330
1F
100
AcDbEntity
  8
0
  6
SLD-Durchgehend
 62
     7
370
    25
100
AcDbLine
 10
53.1187244094
 20
202.2294548947
 30
0.0
 11
53.1187244094
 21
201.4387924726
 31
0.0
  0
SPLINE
  5
248
330
1F
100
AcDbEntity
  8
0
  6
SLD-Durchgehend
 62
     7
370
    25
100
AcDbSpline
210
0.0
220
0.0
230
1.0
 70
     8
 71
     3
 72
     9
 73
     5
 74
     0
 42
0.00000001
 43
0.00000001
 40
0.0
 40
0.0
 40
0.0
 40
0.0
 40
0.5599723007216256
 40
1.0
 40
1.0
 40
1.0
 40
1.0
 10
52.03379036779788
 20
221.8336580972226
 30
0.0
 10
52.10990671243864
 20
221.8106050186424
 30
0.0
 10
52.24583547988421
 20
221.7694367705871
 30
0.0
 10
52.37888897694057
 20
221.7197878500585
 30
0.0
 10
52.43743620113121
 20
221.6979409497867
 30
0.0
  0
SPLINE
  5
249
330
1F
100
AcDbEntity
  8
0
  6
SLD-Durchgehend
 62
     7
370
    25
100
AcDbSpline
210
0.0
220
0.0
230
1.0
 70
     8
 71
     3
 72
     9
 73
     5
 74
     0
 42
0.00000001
 43
0.00000001
 40
0.0
 40
0.0
 40
0.0
 40
0.0
 40
0.5599982429460391
 40
1.0
 40
1.0
 40
1.0
 40
1.0
 10
52.43743620113121
 20
221.9708776485047
 30
0.0
 10
52.36287551472741
 20
221.9429307155393
 30
0.0
 10
52.22973101410975
 20
221.8930253215181
 30
0.0
 10
52.09366128686668
 20
221.8517981327284
 30
0.0
 10
52.03379036779788
 20
221.8336580972226
 30
0.0
  0
LINE
  5
24A
330
1F
100
AcDbEntity
  8
0
  6
SLD-Durchgehend
 62
     7
370
    25
100
AcDbLine
 10
53.1187244094
 20
222.2294548947
 30
0.0
 11
52.4374362011
 21
221.9708776485
 31
0.0
  0
LINE
  5
24B
330
1F
100
AcDbEntity
  8
0
  6
SLD-Durchgehend
 62
     7
370
    25
100
AcDbLine
 10
52.4374362011
 20
221.6979409498
 30
0.0
 11
53.1187244094
 21
221.4387924726
 31
0.0
  0
LINE
  5
24C
330
1F
100
AcDbEntity
  8
0
  6
SLD-Durchgehend
 62
     7
370
    25
100
AcDbLine
 10
53.1187244094
 20
222.2294548947
 30
0.0
 11
53.1187244094
 21
221.4387924726
 31
0.0
  0
SPLINE
  5
24D
330
1F
100
AcDbEntity
  8
0
  6
SLD-Durchgehend
 62
     7
370
    25
100
AcDbSpline
210
0.0
220
0.0
230
1.0
 70
     8
 71
     3
 72
     9
 73
     5
 74
     0
 42
0.00000001
 43
0.00000001
 40
0.0
 40
0.0
 40
0.0
 40
0.0
 40
0.5598408887406501
 40
1.0
 40
1.0
 40
1.0
 40
1.0
 10
53.20115815625943
 20
196.7390066549149
 30
0.0
 10
53.21697269276368
 20
196.6983337361318
 30
0.0
 10
53.24522096262447
 20
196.625682881932
 30
0.0
 10
53.30548958965167
 20
196.57689577441
 30
0.0
 10
53.33201737496078
 20
196.5554216845222
 30
0.0
  0
SPLINE
  5
24E
330
1F
100
AcDbEntity
  8
0
  6
SLD-Durchgehend
 62
     7
370
    25
100
AcDbSpline
210
0.0
220
0.0
230
1.0
 70
     8
 71
     3
 72
     9
 73
     5
 74
     0
 42
0.00000001
 43
0.00000001
 40
0.0
 40
0.0
 40
0.0
 40
0.0
 40
0.5603929846318919
 40
1.0
 40
1.0
 40
1.0
 40
1.0
 10
53.1716108806184
 20
197.0394874241457
 30
0.0
 10
53.17163193840462
 20
196.9827719486158
 30
0.0
 10
53.17166951522444
 20
196.8815653363184
 30
0.0
 10
53.19215332832079
 20
196.7825392271916
 30
0.0
 10
53.20115815625942
 20
196.7390066549149
 30
0.0
  0
LINE
  5
24F
330
1F
100
AcDbEntity
  8
0
  6
SLD-Durchgehend
 62
     7
370
    25
100
AcDbLine
 10
53.1716108806
 20
197.5548119434
 30
0.0
 11
53.1716108806
 21
197.0394874241
 31
0.0
  0
LINE
  5
250
330
1F
100
AcDbEntity
  8
0
  6
SLD-Durchgehend
 62
     7
370
    25
100
AcDbLine
 10
53.9408416498
 20
197.5548119434
 30
0.0
 11
53.1716108806
 21
197.5548119434
 31
0.0
  0
LINE
  5
251
330
1F
100
AcDbEntity
  8
0
  6
SLD-Durchgehend
 62
     7
370
    25
100
AcDbLine
 10
53.9408416498
 20
197.0785499241
 30
0.0
 11
53.9408416498
 21
197.5548119434
 31
0.0
  0
SPLINE
  5
252
330
1F
100
AcDbEntity
  8
0
  6
SLD-Durchgehend
 62
     7
370
    25
100
AcDbSpline
210
0.0
220
0.0
230
1.0
 70
     8
 71
     3
 72
    11
 73
     7
 74
     0
 42
0.00000001
 43
0.00000001
 40
0.0
 40
0.0
 40
0.0
 40
0.0
 40
0.1482344727142303
 40
0.2962651669247846
 40
0.6472426171635988
 40
1.0
 40
1.0
 40
1.0
 40
1.0
 10
53.77508773344599
 20
196.5554216845222
 30
0.0
 10
53.79863673151843
 20
196.5717153157774
 30
0.0
 10
53.84570235476445
 20
196.6042801793697
 30
0.0
 10
53.91509255554398
 20
196.7108246888509
 30
0.0
 10
53.93741033883861
 20
196.8768917030156
 30
0.0
 10
53.9396959525373
 20
197.0112172687395
 30
0.0
 10
53.94084164984918
 20
197.0785499241457
 30
0.0
  0
LINE
  5
253
330
1F
100
AcDbEntity
  8
0
  6
SLD-Durchgehend
 62
     7
370
    25
100
AcDbLine
 10
53.332017375
 20
196.5554216845
 30
0.0
 11
53.7750877334
 21
196.5554216845
 31
0.0
  0
SPLINE
  5
254
330
1F
100
AcDbEntity
  8
0
  6
SLD-Durchgehend
 62
     7
370
    25
100
AcDbSpline
210
0.0
220
0.0
230
1.0
 70
     8
 71
     3
 72
    12
 73
     8
 74
     0
 42
0.00000001
 43
0.00000001
 40
0.0
 40
0.0
 40
0.0
 40
0.0
 40
0.2489451600805874
 40
0.3742582660725118
 40
0.4994353555318674
 40
0.7490490275337158
 40
1.0
 40
1.0
 40
1.0
 40
1.0
 10
52.45045703446455
 20
216.4009657895303
 30
0.0
 10
52.52188536905434
 20
216.4086551917314
 30
0.0
 10
52.62926903798515
 20
216.420215257145
 30
0.0
 10
52.74798957308236
 20
216.5021362510196
 30
0.0
 10
52.8375908102279
 20
216.6141885282716
 30
0.0
 10
52.87870004387178
 20
216.7923183299776
 30
0.0
 10
52.88166360359564
 20
216.9332676127925
 30
0.0
 10
52.88314934215686
 20
217.00393053312
 30
0.0
  0
SPLINE
  5
255
330
1F
100
AcDbEntity
  8
0
  6
SLD-Durchgehend
 62
     7
370
    25
100
AcDbSpline
210
0.0
220
0.0
230
1.0
 70
     8
 71
     3
 72
    11
 73
     7
 74
     0
 42
0.00000001
 43
0.00000001
 40
0.0
 40
0.0
 40
0.0
 40
0.0
 40
0.2802899077733582
 40
0.5590178684488185
 40
0.7794024405567692
 40
1.0
 40
1.0
 40
1.0
 40
1.0
 10
52.02978395754148
 20
216.749523481838
 30
0.0
 10
52.04336689953031
 20
216.6944724372619
 30
0.0
 10
52.07045709103301
 20
216.5846771262597
 30
0.0
 10
52.18453524689595
 20
216.4688229365315
 30
0.0
 10
52.3179488419113
 20
216.4091021456525
 30
0.0
 10
52.40627341715982
 20
216.4036787813705
 30
0.0
 10
52.45045703446455
 20
216.4009657895303
 30
0.0
  0
SPLINE
  5
256
330
1F
100
AcDbEntity
  8
0
  6
SLD-Durchgehend
 62
     7
370
    25
100
AcDbSpline
210
0.0
220
0.0
230
1.0
 70
     8
 71
     3
 72
     9
 73
     5
 74
     0
 42
0.00000001
 43
0.00000001
 40
0.0
 40
0.0
 40
0.0
 40
0.0
 40
0.5600993165774775
 40
1.0
 40
1.0
 40
1.0
 40
1.0
 10
52.01776472677224
 20
216.9633656292739
 30
0.0
 10
52.01770527069478
 20
216.9233007462425
 30
0.0
 10
52.0175991179542
 20
216.851768998487
 30
0.0
 10
52.02606139575402
 20
216.7807602700197
 30
0.0
 10
52.02978395754148
 20
216.749523481838
 30
0.0
  0
LINE
  5
257
330
1F
100
AcDbEntity
  8
0
  6
SLD-Durchgehend
 62
     7
370
    25
100
AcDbLine
 10
52.0177647268
 20
217.5548119434
 30
0.0
 11
52.0177647268
 21
216.9633656293
 31
0.0
  0
LINE
  5
258
330
1F
100
AcDbEntity
  8
0
  6
SLD-Durchgehend
 62
     7
370
    25
100
AcDbLine
 10
52.8831493422
 20
217.5548119434
 30
0.0
 11
52.0177647268
 21
217.5548119434
 31
0.0
  0
LINE
  5
259
330
1F
100
AcDbEntity
  8
0
  6
SLD-Durchgehend
 62
     7
370
    25
100
AcDbLine
 10
52.8831493422
 20
217.0039305331
 30
0.0
 11
52.8831493422
 21
217.5548119434
 31
0.0
  0
SPLINE
  5
25A
330
1F
100
AcDbEntity
  8
0
  6
SLD-Durchgehend
 62
     7
370
    25
100
AcDbSpline
210
0.0
220
0.0
230
1.0
 70
     8
 71
     3
 72
    12
 73
     8
 74
     0
 42
0.00000001
 43
0.00000001
 40
0.0
 40
0.0
 40
0.0
 40
0.0
 40
0.2489451600805884
 40
0.3742582660725083
 40
0.4994353555318671
 40
0.7490490275337157
 40
1.0
 40
1.0
 40
1.0
 40
1.0
 10
52.45045703446455
 20
236.4009657895303
 30
0.0
 10
52.52188536905433
 20
236.4086551917314
 30
0.0
 10
52.62926903798514
 20
236.420215257145
 30
0.0
 10
52.74798957308236
 20
236.5021362510196
 30
0.0
 10
52.83759081022789
 20
236.6141885282716
 30
0.0
 10
52.87870004387177
 20
236.7923183299777
 30
0.0
 10
52.88166360359564
 20
236.9332676127925
 30
0.0
 10
52.88314934215686
 20
237.00393053312
 30
0.0
  0
SPLINE
  5
25B
330
1F
100
AcDbEntity
  8
0
  6
SLD-Durchgehend
 62
     7
370
    25
100
AcDbSpline
210
0.0
220
0.0
230
1.0
 70
     8
 71
     3
 72
    11
 73
     7
 74
     0
 42
0.00000001
 43
0.00000001
 40
0.0
 40
0.0
 40
0.0
 40
0.0
 40
0.2802899077733639
 40
0.5590178684488202
 40
0.7794024405567685
 40
1.0
 40
1.0
 40
1.0
 40
1.0
 10
52.02978395754148
 20
236.749523481838
 30
0.0
 10
52.0433668995303
 20
236.6944724372619
 30
0.0
 10
52.07045709103301
 20
236.5846771262597
 30
0.0
 10
52.18453524689594
 20
236.4688229365315
 30
0.0
 10
52.3179488419113
 20
236.4091021456525
 30
0.0
 10
52.40627341715981
 20
236.4036787813705
 30
0.0
 10
52.45045703446455
 20
236.4009657895303
 30
0.0
  0
SPLINE
  5
25C
330
1F
100
AcDbEntity
  8
0
  6
SLD-Durchgehend
 62
     7
370
    25
100
AcDbSpline
210
0.0
220
0.0
230
1.0
 70
     8
 71
     3
 72
     9
 73
     5
 74
     0
 42
0.00000001
 43
0.00000001
 40
0.0
 40
0.0
 40
0.0
 40
0.0
 40
0.5600993165774523
 40
1.0
 40
1.0
 40
1.0
 40
1.0
 10
52.01776472677223
 20
236.9633656292739
 30
0.0
 10
52.01770527069478
 20
236.9233007462425
 30
0.0
 10
52.01759911795418
 20
236.8517689984871
 30
0.0
 10
52.02606139575401
 20
236.7807602700197
 30
0.0
 10
52.02978395754148
 20
236.749523481838
 30
0.0
  0
LINE
  5
25D
330
1F
100
AcDbEntity
  8
0
  6
SLD-Durchgehend
 62
     7
370
    25
100
AcDbLine
 10
52.0177647268
 20
237.5548119434
 30
0.0
 11
52.0177647268
 21
236.9633656293
 31
0.0
  0
LINE
  5
25E
330
1F
100
AcDbEntity
  8
0
  6
SLD-Durchgehend
 62
     7
370
    25
100
AcDbLine
 10
52.8831493422
 20
237.5548119434
 30
0.0
 11
52.0177647268
 21
237.5548119434
 31
0.0
  0
LINE
  5
25F
330
1F
100
AcDbEntity
  8
0
  6
SLD-Durchgehend
 62
     7
370
    25
100
AcDbLine
 10
52.8831493422
 20
237.0039305331
 30
0.0
 11
52.8831493422
 21
237.5548119434
 31
0.0
  0
SPLINE
  5
260
330
1F
100
AcDbEntity
  8
0
  6
SLD-Durchgehend
 62
     7
370
    25
100
AcDbSpline
210
0.0
220
0.0
230
1.0
 70
     8
 71
     3
 72
     9
 73
     5
 74
     0
 42
0.00000001
 43
0.00000001
 40
0.0
 40
0.0
 40
0.0
 40
0.0
 40
0.560165485571626
 40
1.0
 40
1.0
 40
1.0
 40
1.0
 10
52.02978395754149
 20
196.749523481838
 30
0.0
 10
52.03845882280341
 20
196.7108793866572
 30
0.0
 10
52.053945077286
 20
196.6418924601575
 30
0.0
 10
52.09096523470872
 20
196.5818364087359
 30
0.0
 10
52.10724797767281
 20
196.5554216845203
 30
0.0
  0
SPLINE
  5
261
330
1F
100
AcDbEntity
  8
0
  6
SLD-Durchgehend
 62
     7
370
    25
100
AcDbSpline
210
0.0
220
0.0
230
1.0
 70
     8
 71
     3
 72
     9
 73
     5
 74
     0
 42
0.00000001
 43
0.00000001
 40
0.0
 40
0.0
 40
0.0
 40
0.0
 40
0.5600993165774936
 40
1.0
 40
1.0
 40
1.0
 40
1.0
 10
52.01776472677225
 20
196.9633656292739
 30
0.0
 10
52.01770527069479
 20
196.9233007462425
 30
0.0
 10
52.0175991179542
 20
196.851768998487
 30
0.0
 10
52.02606139575403
 20
196.7807602700197
 30
0.0
 10
52.02978395754149
 20
196.749523481838
 30
0.0
  0
LINE
  5
262
330
1F
100
AcDbEntity
  8
0
  6
SLD-Durchgehend
 62
     7
370
    25
100
AcDbLine
 10
52.0177647268
 20
197.5548119434
 30
0.0
 11
52.0177647268
 21
196.9633656293
 31
0.0
  0
LINE
  5
263
330
1F
100
AcDbEntity
  8
0
  6
SLD-Durchgehend
 62
     7
370
    25
100
AcDbLine
 10
52.8831493422
 20
197.5548119434
 30
0.0
 11
52.0177647268
 21
197.5548119434
 31
0.0
  0
LINE
  5
264
330
1F
100
AcDbEntity
  8
0
  6
SLD-Durchgehend
 62
     7
370
    25
100
AcDbLine
 10
52.8831493422
 20
197.0039305331
 30
0.0
 11
52.8831493422
 21
197.5548119434
 31
0.0
  0
SPLINE
  5
265
330
1F
100
AcDbEntity
  8
0
  6
SLD-Durchgehend
 62
     7
370
    25
100
AcDbSpline
210
0.0
220
0.0
230
1.0
 70
     8
 71
     3
 72
    10
 73
     6
 74
     0
 42
0.00000001
 43
0.00000001
 40
0.0
 40
0.0
 40
0.0
 40
0.0
 40
0.0857700353267003
 40
0.5416637966184076
 40
1.0
 40
1.0
 40
1.0
 40
1.0
 10
52.78892734457037
 20
196.5554216845222
 30
0.0
 10
52.79636960144828
 20
196.5664343621903
 30
0.0
 10
52.84336971169131
 20
196.6359827630263
 30
0.0
 10
52.87845666291165
 20
196.7924975037848
 30
0.0
 10
52.8815823322458
 20
196.9333274436731
 30
0.0
 10
52.88314934215687
 20
197.00393053312
 30
0.0
  0
LINE
  5
266
330
1F
100
AcDbEntity
  8
0
  6
SLD-Durchgehend
 62
     7
370
    25
100
AcDbLine
 10
52.1072479777
 20
196.5554216845
 30
0.0
 11
52.7889273446
 21
196.5554216845
 31
0.0
  0
LINE
  5
267
330
1F
100
AcDbEntity
  8
0
  6
SLD-Durchgehend
 62
     7
370
    25
100
AcDbLine
 10
54.1187244094
 20
244.3054216845
 30
0.0
 11
54.2293031883
 21
244.3054216845
 31
0.0
  0
ARC
  5
268
330
1F
100
AcDbEntity
  8
0
  6
SLD-Durchgehend
 62
     7
370
    25
100
AcDbCircle
 10
54.1187244094
 20
243.3054216845
 30
0.0
 40
1.0
100
AcDbArc
 50
90.0
 51
117.8705972533
  0
LINE
  5
269
330
1F
100
AcDbEntity
  8
0
  6
SLD-Durchgehend
 62
     7
370
    25
100
AcDbLine
 10
53.1187244094
 20
224.189427328
 30
0.0
 11
53.1187244094
 21
224.5419914306
 31
0.0
  0
LINE
  5
26A
330
1F
100
AcDbEntity
  8
0
  6
SLD-Durchgehend
 62
     7
370
    25
100
AcDbLine
 10
53.1187244094
 20
204.189427328
 30
0.0
 11
53.1187244094
 21
204.5419914306
 31
0.0
  0
LINE
  5
26B
330
1F
100
AcDbEntity
  8
0
  6
SLD-Durchgehend
 62
     7
370
    25
100
AcDbLine
 10
77.7293031883
 20
244.3054216845
 30
0.0
 11
78.1187244094
 21
244.3054216845
 31
0.0
  0
ARC
  5
26C
330
1F
100
AcDbEntity
  8
0
  6
SLD-Durchgehend
 62
     7
370
    25
100
AcDbCircle
 10
78.1187244094
 20
243.3054216845
 30
0.0
 40
1.0
100
AcDbArc
 50
62.1294027467
 51
90.0
  0
LINE
  5
26D
330
1F
100
AcDbEntity
  8
0
  6
SLD-Durchgehend
 62
     7
370
    25
100
AcDbLine
 10
79.1187244094
 20
205.0716989822
 30
0.0
 11
79.1187244094
 21
204.7709173873
 31
0.0
  0
LINE
  5
26E
330
1F
100
AcDbEntity
  8
0
  6
SLD-Durchgehend
 62
     7
370
    25
100
AcDbLine
 10
79.1187244094
 20
204.5419914306
 30
0.0
 11
79.1187244094
 21
204.189427328
 31
0.0
  0
LINE
  5
26F
330
1F
100
AcDbEntity
  8
0
  6
SLD-Durchgehend
 62
     7
370
    25
100
AcDbLine
 10
79.1187244094
 20
225.0716989822
 30
0.0
 11
79.1187244094
 21
224.7709173873
 31
0.0
  0
LINE
  5
270
330
1F
100
AcDbEntity
  8
0
  6
SLD-Durchgehend
 62
     7
370
    25
100
AcDbLine
 10
79.1187244094
 20
224.5419914306
 30
0.0
 11
79.1187244094
 21
224.189427328
 31
0.0
  0
LINE
  5
271
330
1F
100
AcDbEntity
  8
0
  6
SLD-Durchgehend
 62
     7
370
    25
100
AcDbLine
 10
64.7293031883
 20
244.3054216845
 30
0.0
 11
67.2293031883
 21
244.3054216845
 31
0.0
  0
LINE
  5
272
330
1F
100
AcDbEntity
  8
0
  6
SLD-Durchgehend
 62
     7
370
    25
100
AcDbLine
 10
53.1187244094
 20
224.7709173873
 30
0.0
 11
53.1187244094
 21
225.0716989822
 31
0.0
  0
LINE
  5
273
330
1F
100
AcDbEntity
  8
0
  6
SLD-Durchgehend
 62
     7
370
    25
100
AcDbLine
 10
53.1187244094
 20
225.7091122158
 30
0.0
 11
53.1187244094
 21
226.0131583532
 31
0.0
  0
LINE
  5
274
330
1F
100
AcDbEntity
  8
0
  6
SLD-Durchgehend
 62
     7
370
    25
100
AcDbLine
 10
53.1187244094
 20
204.7709173873
 30
0.0
 11
53.1187244094
 21
205.0716989822
 31
0.0
  0
LINE
  5
275
330
1F
100
AcDbEntity
  8
0
  6
SLD-Durchgehend
 62
     7
370
    25
100
AcDbLine
 10
53.1187244094
 20
205.7091122158
 30
0.0
 11
53.1187244094
 21
206.0131583532
 31
0.0
  0
LINE
  5
276
330
1F
100
AcDbEntity
  8
0
  6
SLD-Durchgehend
 62
     7
370
    25
100
AcDbLine
 10
79.1187244136
 20
207.4056882164
 30
0.0
 11
79.1187244094
 21
207.951162984
 31
0.0
  0
LINE
  5
277
330
1F
100
AcDbEntity
  8
0
  6
SLD-Durchgehend
 62
     7
370
    25
100
AcDbLine
 10
79.1187244136
 20
227.4056882164
 30
0.0
 11
79.1187244094
 21
227.951162984
 31
0.0
  0
LINE
  5
278
330
1F
100
AcDbEntity
  8
0
  6
SLD-Durchgehend
 62
     7
370
    25
100
AcDbLine
 10
79.1187244094
 20
221.0822970517
 30
0.0
 11
79.1187244094
 21
221.4387924726
 31
0.0
  0
LINE
  5
279
330
1F
100
AcDbEntity
  8
0
  6
SLD-Durchgehend
 62
     7
370
    25
100
AcDbLine
 10
79.1187244094
 20
201.0822970517
 30
0.0
 11
79.1187244094
 21
201.4387924726
 31
0.0
  0
LINE
  5
27A
330
1F
100
AcDbEntity
  8
0
  6
SLD-Durchgehend
 62
     7
370
    25
100
AcDbLine
 10
79.1187244094
 20
241.0822970517
 30
0.0
 11
79.1187244094
 21
241.4387924726
 31
0.0
  0
LINE
  5
27B
330
1F
100
AcDbEntity
  8
0
  6
SLD-Durchgehend
 62
     7
370
    25
100
AcDbLine
 10
65.8126841777
 20
247.0554216845
 30
0.0
 11
65.1366438088
 21
247.055421693
 31
0.0
  0
LINE
  5
27C
330
1F
100
AcDbEntity
  8
0
  6
SLD-Durchgehend
 62
     7
370
    25
100
AcDbLine
 10
53.1187244094
 20
207.951162984
 30
0.0
 11
53.1187244094
 21
207.4056882164
 31
0.0
  0
LINE
  5
27D
330
1F
100
AcDbEntity
  8
0
  6
SLD-Durchgehend
 62
     7
370
    25
100
AcDbLine
 10
53.1187244094
 20
227.951162984
 30
0.0
 11
53.1187244094
 21
227.4056882164
 31
0.0
  0
LINE
  5
27E
330
1F
100
AcDbEntity
  8
0
  6
SLD-Durchgehend
 62
     7
370
    25
100
AcDbLine
 10
52.8126841777
 20
247.0554216845
 30
0.0
 11
52.1366438088
 21
247.055421693
 31
0.0
  0
LINE
  5
27F
330
1F
100
AcDbEntity
  8
0
  6
SLD-Durchgehend
 62
     7
370
    25
100
AcDbLine
 10
77.7746198986
 20
196.5554216845
 30
0.0
 11
78.1072479777
 21
196.5554216845
 31
0.0
  0
LINE
  5
280
330
1F
100
AcDbEntity
  8
0
  6
SLD-Durchgehend
 62
     7
370
    25
100
AcDbLine
 10
78.7889273446
 20
196.5554216845
 30
0.0
 11
79.332017375
 21
196.5554216845
 31
0.0
  0
LINE
  5
281
330
1F
100
AcDbEntity
  8
0
  6
SLD-Durchgehend
 62
     7
370
    25
100
AcDbLine
 10
79.7750877334
 20
196.5554216845
 30
0.0
 11
80.1691970108
 21
196.5554216845
 31
0.0
  0
LINE
  5
282
330
1F
100
AcDbEntity
  8
0
  6
SLD-Durchgehend
 62
     7
370
    25
100
AcDbLine
 10
79.1187244118
 20
236.3896810324
 30
0.0
 11
79.1187244094
 21
237.9073760459
 31
0.0
  0
LINE
  5
283
330
1F
100
AcDbEntity
  8
0
  6
SLD-Durchgehend
 62
     7
370
    25
100
AcDbLine
 10
79.1187244118
 20
216.3896810324
 30
0.0
 11
79.1187244094
 21
217.9073760459
 31
0.0
  0
LINE
  5
284
330
1F
100
AcDbEntity
  8
0
  6
SLD-Durchgehend
 62
     7
370
    25
100
AcDbLine
 10
79.1187244094
 20
242.2294548947
 30
0.0
 11
79.1187244094
 21
242.5852416145
 31
0.0
  0
LINE
  5
285
330
1F
100
AcDbEntity
  8
0
  6
SLD-Durchgehend
 62
     7
370
    25
100
AcDbLine
 10
79.1187244094
 20
206.5932734818
 30
0.0
 11
79.1187244094
 21
206.2407093793
 31
0.0
  0
LINE
  5
286
330
1F
100
AcDbEntity
  8
0
  6
SLD-Durchgehend
 62
     7
370
    25
100
AcDbLine
 10
79.1187244094
 20
206.0131583532
 30
0.0
 11
79.1187244094
 21
205.7091122158
 31
0.0
  0
ARC
  5
287
330
1F
100
AcDbEntity
  8
0
  6
SLD-Durchgehend
 62
     7
370
    25
100
AcDbCircle
 10
78.1187244094
 20
200.3054216845
 30
0.0
 40
1.000000000000014
100
AcDbArc
 50
322.794911024
 51
0.0
  0
LINE
  5
288
330
1F
100
AcDbEntity
  8
0
  6
SLD-Durchgehend
 62
     7
370
    25
100
AcDbLine
 10
79.1187244094
 20
200.4073760459
 30
0.0
 11
79.1187244094
 21
200.3054216845
 31
0.0
  0
LINE
  5
289
330
1F
100
AcDbEntity
  8
0
  6
SLD-Durchgehend
 62
     7
370
    25
100
AcDbLine
 10
79.1187244094
 20
220.4073760459
 30
0.0
 11
79.1187244094
 21
218.4842991229
 31
0.0
  0
LINE
  5
28A
330
1F
100
AcDbEntity
  8
0
  6
SLD-Durchgehend
 62
     7
370
    25
100
AcDbLine
 10
79.1187244094
 20
226.5932734818
 30
0.0
 11
79.1187244094
 21
226.2407093793
 31
0.0
  0
LINE
  5
28B
330
1F
100
AcDbEntity
  8
0
  6
SLD-Durchgehend
 62
     7
370
    25
100
AcDbLine
 10
79.1187244094
 20
226.0131583532
 30
0.0
 11
79.1187244094
 21
225.7091122158
 31
0.0
  0
LINE
  5
28C
330
1F
100
AcDbEntity
  8
0
  6
SLD-Durchgehend
 62
     7
370
    25
100
AcDbLine
 10
79.1187244094
 20
202.2294548947
 30
0.0
 11
79.1187244094
 21
202.5852416145
 31
0.0
  0
LINE
  5
28D
330
1F
100
AcDbEntity
  8
0
  6
SLD-Durchgehend
 62
     7
370
    25
100
AcDbLine
 10
79.1187244094
 20
240.4073760459
 30
0.0
 11
79.1187244094
 21
238.4842991229
 31
0.0
  0
LINE
  5
28E
330
1F
100
AcDbEntity
  8
0
  6
SLD-Durchgehend
 62
     7
370
    25
100
AcDbLine
 10
79.1187244094
 20
222.2294548947
 30
0.0
 11
79.1187244094
 21
222.5852416145
 31
0.0
  0
LINE
  5
28F
330
1F
100
AcDbEntity
  8
0
  6
SLD-Durchgehend
 62
     7
370
    25
100
AcDbLine
 10
53.1187244094
 20
201.4387924726
 30
0.0
 11
53.1187244094
 21
201.0822970517
 31
0.0
  0
LINE
  5
290
330
1F
100
AcDbEntity
  8
0
  6
SLD-Durchgehend
 62
     7
370
    25
100
AcDbLine
 10
53.1187244094
 20
202.5852416145
 30
0.0
 11
53.1187244094
 21
202.2294548947
 31
0.0
  0
LINE
  5
291
330
1F
100
AcDbEntity
  8
0
  6
SLD-Durchgehend
 62
     7
370
    25
100
AcDbLine
 10
53.1187244094
 20
241.4387924726
 30
0.0
 11
53.1187244094
 21
241.0822970517
 31
0.0
  0
LINE
  5
292
330
1F
100
AcDbEntity
  8
0
  6
SLD-Durchgehend
 62
     7
370
    25
100
AcDbLine
 10
53.1187244094
 20
242.5852416145
 30
0.0
 11
53.1187244094
 21
242.2294548947
 31
0.0
  0
LINE
  5
293
330
1F
100
AcDbEntity
  8
0
  6
SLD-Durchgehend
 62
     7
370
    25
100
AcDbLine
 10
53.1187244094
 20
221.4387924726
 30
0.0
 11
53.1187244094
 21
221.0822970517
 31
0.0
  0
LINE
  5
294
330
1F
100
AcDbEntity
  8
0
  6
SLD-Durchgehend
 62
     7
370
    25
100
AcDbLine
 10
53.1187244094
 20
222.5852416145
 30
0.0
 11
53.1187244094
 21
222.2294548947
 31
0.0
  0
LINE
  5
295
330
1F
100
AcDbEntity
  8
0
  6
SLD-Durchgehend
 62
     7
370
    25
100
AcDbLine
 10
64.7746198986
 20
196.5554216845
 30
0.0
 11
65.1072479777
 21
196.5554216845
 31
0.0
  0
LINE
  5
296
330
1F
100
AcDbEntity
  8
0
  6
SLD-Durchgehend
 62
     7
370
    25
100
AcDbLine
 10
65.7889273446
 20
196.5554216845
 30
0.0
 11
66.332017375
 21
196.5554216845
 31
0.0
  0
LINE
  5
297
330
1F
100
AcDbEntity
  8
0
  6
SLD-Durchgehend
 62
     7
370
    25
100
AcDbLine
 10
66.7750877334
 20
196.5554216845
 30
0.0
 11
67.1691970108
 21
196.5554216845
 31
0.0
  0
LINE
  5
298
330
1F
100
AcDbEntity
  8
0
  6
SLD-Durchgehend
 62
     7
370
    25
100
AcDbLine
 10
66.2036621627
 20
199.3054216845
 30
0.0
 11
65.9152006242
 21
199.3054216845
 31
0.0
  0
LINE
  5
299
330
1F
100
AcDbEntity
  8
0
  6
SLD-Durchgehend
 62
     7
370
    25
100
AcDbLine
 10
51.7746198986
 20
196.5554216845
 30
0.0
 11
52.1072479777
 21
196.5554216845
 31
0.0
  0
LINE
  5
29A
330
1F
100
AcDbEntity
  8
0
  6
SLD-Durchgehend
 62
     7
370
    25
100
AcDbLine
 10
52.7889273446
 20
196.5554216845
 30
0.0
 11
53.332017375
 21
196.5554216845
 31
0.0
  0
LINE
  5
29B
330
1F
100
AcDbEntity
  8
0
  6
SLD-Durchgehend
 62
     7
370
    25
100
AcDbLine
 10
53.7750877334
 20
196.5554216845
 30
0.0
 11
54.1691970108
 21
196.5554216845
 31
0.0
  0
ARC
  5
29C
330
1F
100
AcDbEntity
  8
0
  6
SLD-Durchgehend
 62
     7
370
    25
100
AcDbCircle
 10
54.1187244094
 20
200.3054216845
 30
0.0
 40
1.000000000000004
100
AcDbArc
 50
180.0
 51
203.7854315378
  0
LINE
  5
29D
330
1F
100
AcDbEntity
  8
0
  6
SLD-Durchgehend
 62
     7
370
    25
100
AcDbLine
 10
53.1187244094
 20
200.3054216845
 30
0.0
 11
53.1187244094
 21
200.4073760459
 31
0.0
  0
LINE
  5
29E
330
1F
100
AcDbEntity
  8
0
  6
SLD-Durchgehend
 62
     7
370
    25
100
AcDbLine
 10
53.1187244094
 20
237.9073760459
 30
0.0
 11
53.1187244094
 21
236.3896810324
 31
0.0
  0
LINE
  5
29F
330
1F
100
AcDbEntity
  8
0
  6
SLD-Durchgehend
 62
     7
370
    25
100
AcDbLine
 10
53.1187244094
 20
217.9073760459
 30
0.0
 11
53.1187244094
 21
216.3896810324
 31
0.0
  0
LINE
  5
2A0
330
1F
100
AcDbEntity
  8
0
  6
SLD-Durchgehend
 62
     7
370
    25
100
AcDbLine
 10
53.1187244094
 20
206.2407093793
 30
0.0
 11
53.1187244094
 21
206.5932734818
 31
0.0
  0
LINE
  5
2A1
330
1F
100
AcDbEntity
  8
0
  6
SLD-Durchgehend
 62
     7
370
    25
100
AcDbLine
 10
53.1187244094
 20
238.4842991229
 30
0.0
 11
53.1187244094
 21
240.4073760459
 31
0.0
  0
LINE
  5
2A2
330
1F
100
AcDbEntity
  8
0
  6
SLD-Durchgehend
 62
     7
370
    25
100
AcDbLine
 10
53.1187244094
 20
218.4842991229
 30
0.0
 11
53.1187244094
 21
220.4073760459
 31
0.0
  0
LINE
  5
2A3
330
1F
100
AcDbEntity
  8
0
  6
SLD-Durchgehend
 62
     7
370
    25
100
AcDbLine
 10
53.1187244094
 20
226.2407093793
 30
0.0
 11
53.1187244094
 21
226.5932734818
 31
0.0
  0
ARC
  5
2A4
330
1F
100
AcDbEntity
  8
0
  6
SLD-Durchgehend
 62
     7
370
    25
100
AcDbCircle
 10
81.1187244094
 20
196.0554216845
 30
0.0
 40
2.0
100
AcDbArc
 50
270.0
 51
0.0
  0
LINE
  5
2A5
330
1F
100
AcDbEntity
  8
0
  6
SLD-Durchgehend
 62
     7
370
    25
100
AcDbLine
 10
81.1187244094
 20
194.0554216845
 30
0.0
 11
51.1187244094
 21
194.0554216845
 31
0.0
  0
ARC
  5
2A6
330
1F
100
AcDbEntity
  8
0
  6
SLD-Durchgehend
 62
     7
370
    25
100
AcDbCircle
 10
51.1187244094
 20
196.0554216845
 30
0.0
 40
2.0
100
AcDbArc
 50
180.0
 51
270.0
  0
LINE
  5
2A7
330
1F
100
AcDbEntity
  8
0
  6
SLD-Durchgehend
 62
     7
370
    25
100
AcDbLine
 10
49.1187244094
 20
248.0554216845
 30
0.0
 11
49.1187244094
 21
196.0554216845
 31
0.0
  0
ARC
  5
2A8
330
1F
100
AcDbEntity
  8
0
  6
SLD-Durchgehend
 62
     7
370
    25
100
AcDbCircle
 10
50.1187244094
 20
248.0554216845
 30
0.0
 40
1.000000000000028
100
AcDbArc
 50
90.0
 51
180.0
  0
LINE
  5
2A9
330
1F
100
AcDbEntity
  8
0
  6
SLD-Durchgehend
 62
     7
370
    25
100
AcDbLine
 10
51.1187244094
 20
249.0554216845
 30
0.0
 11
50.1187244094
 21
249.0554216845
 31
0.0
  0
LINE
  5
2AA
330
1F
100
AcDbEntity
  8
0
  6
SLD-Durchgehend
 62
     7
370
    25
100
AcDbLine
 10
82.1187244094
 20
249.0554216845
 30
0.0
 11
81.6187244094
 21
249.0554216845
 31
0.0
  0
ARC
  5
2AB
330
1F
100
AcDbEntity
  8
0
  6
SLD-Durchgehend
 62
     7
370
    25
100
AcDbCircle
 10
82.1187244094
 20
248.0554216845
 30
0.0
 40
1.000000000000028
100
AcDbArc
 50
0.0
 51
90.0
  0
LINE
  5
2AC
330
1F
100
AcDbEntity
  8
0
  6
SLD-Durchgehend
 62
     7
370
    25
100
AcDbLine
 10
83.1187244094
 20
248.0554216845
 30
0.0
 11
83.1187244094
 21
196.0554216845
 31
0.0
  0
CIRCLE
  5
2AD
330
1F
100
AcDbEntity
  8
0
  6
SLD-Durchgehend
 62
     7
370
    25
100
AcDbCircle
 10
58.1187244094
 20
240.0554216845
 30
0.0
 40
1.5
  0
CIRCLE
  5
2AE
330
1F
100
AcDbEntity
  8
0
  6
SLD-Durchgehend
 62
     7
370
    25
100
AcDbCircle
 10
75.1187244094
 20
202.0554216845
 30
0.0
 40
0.75
  0
LINE
  5
2AF
330
1F
100
AcDbEntity
  8
0
  6
SLD-Durchgehend
 62
     7
370
    25
100
AcDbLine
 10
51.1187244094
 20
249.0554216845
 30
0.0
 11
51.1187244094
 21
251.1126700675
 31
0.0
  0
LINE
  5
2B0
330
1F
100
AcDbEntity
  8
0
  6
SLD-Durchgehend
 62
     7
370
    25
100
AcDbLine
 10
81.1187244094
 20
252.0554216845
 30
0.0
 11
81.1187244094
 21
262.0548198178
 31
0.0
  0
LINE
  5
2B1
330
1F
100
AcDbEntity
  8
0
  6
SLD-Durchgehend
 62
     7
370
    25
100
AcDbLine
 10
51.1187244094
 20
262.0548198178
 30
0.0
 11
51.1187244094
 21
251.1126700675
 31
0.0
  0
ARC
  5
2B2
330
1F
100
AcDbEntity
  8
0
  6
SLD-Durchgehend
 62
     7
370
    25
100
AcDbCircle
 10
55.9388812933
 20
255.1704636202
 30
0.0
 40
1.831637173697219
100
AcDbArc
 50
186.4183209766
 51
275.6347843497
  0
LINE
  5
2B3
330
1F
100
AcDbEntity
  8
0
  6
SLD-Durchgehend
 62
     7
370
    25
100
AcDbLine
 10
76.1187244094
 20
253.3476769652
 30
0.0
 11
56.1187244094
 21
253.3476769652
 31
0.0
  0
ARC
  5
2B4
330
1F
100
AcDbEntity
  8
0
  6
SLD-Durchgehend
 62
     7
370
    25
100
AcDbCircle
 10
76.2843727961
 20
255.1880092708
 30
0.0
 40
1.847772275777946
100
AcDbArc
 50
264.8566647473
 51
353.0902299264
  0
LINE
  5
2B5
330
1F
100
AcDbEntity
  8
0
  6
SLD-Durchgehend
 62
     7
370
    25
100
AcDbLine
 10
78.1187244094
 20
258.2017789314
 30
0.0
 11
78.1187244094
 21
254.9657109539
 31
0.0
  0
ARC
  5
2B6
330
1F
100
AcDbEntity
  8
0
  6
SLD-Durchgehend
 62
     7
370
    25
100
AcDbCircle
 10
76.2985675256
 20
257.9970262652
 30
0.0
 40
1.831637173697282
100
AcDbArc
 50
6.4183209766
 51
95.6347843497
  0
LINE
  5
2B7
330
1F
100
AcDbEntity
  8
0
  6
SLD-Durchgehend
 62
     7
370
    25
100
AcDbLine
 10
56.1187244094
 20
259.8198129202
 30
0.0
 11
76.1187244094
 21
259.8198129202
 31
0.0
  0
ARC
  5
2B8
330
1F
100
AcDbEntity
  8
0
  6
SLD-Durchgehend
 62
     7
370
    25
100
AcDbCircle
 10
55.9530760228
 20
257.9794806145
 30
0.0
 40
1.847772275778018
100
AcDbArc
 50
84.8566647473
 51
173.0902299264
  0
LINE
  5
2B9
330
1F
100
AcDbEntity
  8
0
  6
SLD-Durchgehend
 62
     7
370
    25
100
AcDbLine
 10
54.1187244094
 20
254.9657109539
 30
0.0
 11
54.1187244094
 21
258.2017789314
 31
0.0
  0
ARC
  5
2BA
330
1F
100
AcDbEntity
  8
0
  6
SLD-Durchgehend
 62
     7
370
    25
100
AcDbCircle
 10
76.2843727961
 20
256.80391011
 30
0.0
 40
1.847772275777975
100
AcDbArc
 50
6.9097700736
 51
95.1433352527
  0
ARC
  5
2BB
330
1F
100
AcDbEntity
  8
0
  6
SLD-Durchgehend
 62
     7
370
    25
100
AcDbCircle
 10
55.9388812933
 20
256.8214557606
 30
0.0
 40
1.831637173697249
100
AcDbArc
 50
84.3652156503
 51
173.5816790234
  0
LINE
  5
2BC
330
1F
100
AcDbEntity
  8
0
  6
SLD-Durchgehend
 62
     7
370
    25
100
AcDbLine
 10
56.1187244094
 20
258.6442424156
 30
0.0
 11
76.1187244094
 21
258.6442424156
 31
0.0
  0
LINE
  5
2BD
330
1F
100
AcDbEntity
  8
0
  6
SLD-Durchgehend
 62
     7
370
    25
100
AcDbLine
 10
81.1187244094
 20
262.0548198178
 30
0.0
 11
81.1187244094
 21
262.9364976962
 31
0.0
  0
LINE
  5
2BE
330
1F
100
AcDbEntity
  8
0
  6
SLD-Durchgehend
 62
     7
370
    25
100
AcDbLine
 10
51.1187244094
 20
262.9364976962
 30
0.0
 11
51.1187244094
 21
262.0548198178
 31
0.0
  0
SPLINE
  5
2BF
330
1F
100
AcDbEntity
  8
0
  6
SLD-Durchgehend
 62
     7
370
    25
100
AcDbSpline
210
0.0
220
0.0
230
1.0
 70
     8
 71
     3
 72
    10
 73
     6
 74
     0
 42
0.00000001
 43
0.00000001
 40
0.0
 40
0.0
 40
0.0
 40
0.0
 40
0.5
 40
0.5
 40
1.0
 40
1.0
 40
1.0
 40
1.0
 10
67.35923925373483
 20
262.9364976962427
 30
0.0
 10
66.95205409868824
 20
262.8418184777331
 30
0.0
 10
66.53535774498772
 20
262.7923860600875
 30
0.0
 10
65.7010320798593
 20
262.7923980967911
 30
0.0
 10
65.28533547246556
 20
262.8416941060592
 30
0.0
 10
64.87820956516278
 20
262.9364976962427
 30
0.0
  0
ARC
  5
2C0
330
1F
100
AcDbEntity
  8
0
  6
SLD-Durchgehend
 62
     7
370
    25
100
AcDbCircle
 10
66.1187244094
 20
266.9491181519
 30
0.0
 40
4.200000000000022
100
AcDbArc
 50
287.1791664101
 51
357.5
  0
LINE
  5
2C1
330
1F
100
AcDbEntity
  8
0
  6
SLD-Durchgehend
 62
     7
370
    25
100
AcDbLine
 10
70.3147269401
 20
266.765916725
 30
0.0
 11
70.5448393288
 21
272.0363569266
 31
0.0
  0
ARC
  5
2C2
330
1F
100
AcDbEntity
  8
0
  6
SLD-Durchgehend
 62
     7
370
    25
100
AcDbCircle
 10
72.542935772
 20
271.9491181519
 30
0.0
 40
2.0
100
AcDbArc
 50
90.0
 51
177.5
  0
LINE
  5
2C3
330
1F
100
AcDbEntity
  8
0
  6
SLD-Durchgehend
 62
     7
370
    25
100
AcDbLine
 10
72.542935772
 20
273.9491181519
 30
0.0
 11
79.1187244094
 21
273.9491181519
 31
0.0
  0
ARC
  5
2C4
330
1F
100
AcDbEntity
  8
0
  6
SLD-Durchgehend
 62
     7
370
    25
100
AcDbCircle
 10
79.1187244094
 20
271.9491181519
 30
0.0
 40
2.0
100
AcDbArc
 50
0.0
 51
90.0
  0
LINE
  5
2C5
330
1F
100
AcDbEntity
  8
0
  6
SLD-Durchgehend
 62
     7
370
    25
100
AcDbLine
 10
81.1187244094
 20
271.9491181519
 30
0.0
 11
81.1187244094
 21
262.9364976962
 31
0.0
  0
ARC
  5
2C6
330
1F
100
AcDbEntity
  8
0
  6
SLD-Durchgehend
 62
     7
370
    25
100
AcDbCircle
 10
59.6945130469
 20
271.9491181519
 30
0.0
 40
2.0
100
AcDbArc
 50
2.5
 51
90.0
  0
LINE
  5
2C7
330
1F
100
AcDbEntity
  8
0
  6
SLD-Durchgehend
 62
     7
370
    25
100
AcDbLine
 10
61.6926094901
 20
272.0363569266
 30
0.0
 11
61.9227218788
 21
266.765916725
 31
0.0
  0
ARC
  5
2C8
330
1F
100
AcDbEntity
  8
0
  6
SLD-Durchgehend
 62
     7
370
    25
100
AcDbCircle
 10
66.1187244094
 20
266.9491181519
 30
0.0
 40
4.200000000000031
100
AcDbArc
 50
182.5
 51
252.8208335899
  0
LINE
  5
2C9
330
1F
100
AcDbEntity
  8
0
  6
SLD-Durchgehend
 62
     7
370
    25
100
AcDbLine
 10
51.1187244094
 20
262.9364976962
 30
0.0
 11
51.1187244094
 21
271.9491181519
 31
0.0
  0
ARC
  5
2CA
330
1F
100
AcDbEntity
  8
0
  6
SLD-Durchgehend
 62
     7
370
    25
100
AcDbCircle
 10
53.1187244094
 20
271.9491181519
 30
0.0
 40
2.000000000000007
100
AcDbArc
 50
90.0
 51
180.0
  0
LINE
  5
2CB
330
1F
100
AcDbEntity
  8
0
  6
SLD-Durchgehend
 62
     7
370
    25
100
AcDbLine
 10
53.1187244094
 20
273.9491181519
 30
0.0
 11
59.6945130469
 21
273.9491181519
 31
0.0
  0
LINE
  5
2CC
330
1F
100
AcDbEntity
  8
0
  6
SLD-Durchgehend
 62
     8
370
    18
100
AcDbLine
 10
75.6187244094
 20
249.0554216845
 30
0.0
 11
51.1187244094
 21
249.0554216845
 31
0.0
  0
LINE
  5
2CD
330
1F
100
AcDbEntity
  8
0
  6
SLD-Durchgehend
 62
     8
370
    18
100
AcDbLine
 10
75.6187244094
 20
251.1126700675
 30
0.0
 11
51.1187244094
 21
251.1126700675
 31
0.0
  0
LINE
  5
2CE
330
1F
100
AcDbEntity
  8
0
  6
SLD-Durchgehend
 62
     8
370
    18
100
AcDbLine
 10
51.1187244094
 20
262.0548198178
 30
0.0
 11
81.1187244094
 21
262.0548198178
 31
0.0
  0
LINE
  5
2CF
330
1F
100
AcDbEntity
  8
0
  6
SLD-Durchgehend
 62
     8
370
    18
100
AcDbLine
 10
76.1187244094
 20
258.6442424156
 30
0.0
 11
76.1187244094
 21
259.8198129202
 31
0.0
  0
LINE
  5
2D0
330
1F
100
AcDbEntity
  8
0
  6
SLD-Durchgehend
 62
     8
370
    18
100
AcDbLine
 10
56.1187244094
 20
259.8198129202
 30
0.0
 11
56.1187244094
 21
258.6442424156
 31
0.0
  0
LINE
  5
2D1
330
1F
100
AcDbEntity
  8
0
  6
SLD-Durchgehend
 62
     8
370
    18
100
AcDbLine
 10
81.1187244094
 20
262.9364976962
 30
0.0
 11
67.3592392537
 21
262.9364976962
 31
0.0
  0
LINE
  5
2D2
330
1F
100
AcDbEntity
  8
0
  6
SLD-Durchgehend
 62
     8
370
    18
100
AcDbLine
 10
64.8782095652
 20
262.9364976962
 30
0.0
 11
51.1187244094
 21
262.9364976962
 31
0.0
  0
DIMENSION
  5
2D3
330
1F
100
AcDbEntity
  8
0
  6
SLD-Durchgehend
 62
     7
370
    18
100
AcDbDimension
280
     0
  2
_D_2
 10
81.1187244094
 20
282.8427874016
 30
0.0
 11
66.4367716535
 21
282.8427874016
 31
0.0
 70
   160
  1
<>
 71
     2
 42
-1.0
 73
     0
 74
     0
 75
     0
  3
SLDDIMSTYLE2
100
AcDbAlignedDimension
 13
51.1187244094
 23
271.9491181519
 33
0.0
 14
81.1187244094
 24
271.9491181519
 34
0.0
100
AcDbRotatedDimension
  0
ENDSEC
  0
SECTION
  2
OBJECTS
  0
DICTIONARY
  5
C
330
0
100
AcDbDictionary
281
     1
  3
ACAD_DETAILVIEWSTYLE
350
2E5
  3
ACAD_GROUP
350
D
  3
ACAD_LAYOUT
350
1A
  3
ACAD_MATERIAL
350
43
  3
ACAD_MLEADERSTYLE
350
5B
  3
ACAD_MLINESTYLE
350
17
  3
ACAD_PLOTSETTINGS
350
19
  3
ACAD_PLOTSTYLENAME
350
E
  3
ACAD_SCALELIST
350
47
  3
ACAD_SECTIONVIEWSTYLE
350
2E6
  3
ACAD_TABLESTYLE
350
59
  3
ACAD_VISUALSTYLE
350
2A
  3
ACDB_RECOMPOSE_DATA
350
2E2
  3
AcDbVariableDictionary
350
2DE
  0
SUN
  5
5D
330
29
100
AcDbSun
 90
        1
290
     0
 63
     7
421
 16777215
 40
1.0
291
     1
 91
  2455826
 92
 54000000
292
     0
 70
     2
 71
   256
280
     1
  0
DICTIONARY
  5
2E5
102
{ACAD_REACTORS
330
C
102
}
330
C
100
AcDbDictionary
281
     1
  0
DICTIONARY
  5
D
102
{ACAD_REACTORS
330
C
102
}
330
C
100
AcDbDictionary
281
     1
  0
DICTIONARY
  5
1A
102
{ACAD_REACTORS
330
C
102
}
330
C
100
AcDbDictionary
281
     1
  3
Layout1
350
1E
  3
Layout2
350
26
  3
Model
350
22
  0
DICTIONARY
  5
43
102
{ACAD_REACTORS
330
C
102
}
330
C
100
AcDbDictionary
281
     1
  3
ByBlock
350
45
  3
ByLayer
350
44
  3
Global
350
46
  0
DICTIONARY
  5
5B
102
{ACAD_REACTORS
330
C
102
}
330
C
100
AcDbDictionary
281
     1
  3
Standard
350
5C
  0
DICTIONARY
  5
17
102
{ACAD_REACTORS
330
C
102
}
330
C
100
AcDbDictionary
281
     1
  3
Standard
350
18
  0
DICTIONARY
  5
19
102
{ACAD_REACTORS
330
C
102
}
330
C
100
AcDbDictionary
281
     1
  0
ACDBDICTIONARYWDFLT
  5
E
102
{ACAD_REACTORS
330
C
102
}
330
C
100
AcDbDictionary
281
     1
  3
Normal
350
F
100
AcDbDictionaryWithDefault
340
F
  0
DICTIONARY
  5
47
102
{ACAD_REACTORS
330
C
102
}
330
C
100
AcDbDictionary
281
     1
  3
A0
350
48
  3
A1
350
49
  3
A2
350
4A
  3
A3
350
4B
  3
A4
350
4C
  3
A5
350
4D
  3
A6
350
4E
  3
A7
350
4F
  3
A8
350
50
  3
A9
350
51
  3
B0
350
52
  3
B1
350
53
  3
B2
350
54
  3
B3
350
55
  3
B4
350
56
  3
B5
350
57
  3
B6
350
58
  0
DICTIONARY
  5
2E6
102
{ACAD_REACTORS
330
C
102
}
330
C
100
AcDbDictionary
281
     1
  0
DICTIONARY
  5
59
102
{ACAD_REACTORS
330
C
102
}
330
C
100
AcDbDictionary
281
     1
  3
Standard
350
5A
  0
DICTIONARY
  5
2A
102
{ACAD_REACTORS
330
C
102
}
330
C
100
AcDbDictionary
281
     1
  3
2dWireframe
350
2F
  3
Basic
350
32
  3
Brighten
350
36
  3
ColorChange
350
3A
  3
Conceptual
350
34
  3
Dim
350
35
  3
EdgeColorOff
350
3D
  3
Facepattern
350
39
  3
Flat
350
2B
  3
FlatWithEdges
350
2C
  3
Gouraud
350
2D
  3
GouraudWithEdges
350
2E
  3
Hidden
350
31
  3
JitterOff
350
3B
  3
Linepattern
350
38
  3
OverhangOff
350
3C
  3
Realistic
350
33
  3
Shaded
350
42
  3
Shaded with edges
350
41
  3
Shades of Gray
350
3E
  3
Sketchy
350
3F
  3
Thicken
350
37
  3
Wireframe
350
30
  3
X-Ray
350
40
  0
XRECORD
  5
2E2
102
{ACAD_REACTORS
330
C
102
}
330
C
100
AcDbXrecord
280
     1
 90
        1
330
5A
  0
DICTIONARY
  5
2DE
102
{ACAD_REACTORS
330
C
102
}
330
C
100
AcDbDictionary
281
     1
  3
CANNOSCALE
350
2DF
  3
CENTEREXE
350
2E7
  3
CENTERLTYPEFILE
350
2E8
  3
CMLEADERSTYLE
350
2E4
  3
CTABLESTYLE
350
2E3
  0
LAYOUT
  5
1E
102
{ACAD_REACTORS
330
1A
102
}
330
1A
100
AcDbPlotSettings
  1

  2
none_device
  4

  6

 40
0.0
 41
0.0
 42
0.0
 43
0.0
 44
0.0
 45
0.0
 46
0.0
 47
0.0
 48
0.0
 49
0.0
140
0.0
141
0.0
142
1.0
143
1.0
 70
   688
 72
     1
 73
     0
 74
     5
  7

 75
    16
 76
     0
 77
     2
 78
   300
147
1.0
148
0.0
149
0.0
100
AcDbLayout
  1
Layout1
 70
     1
 71
     1
 10
0.0
 20
0.0
 11
420.0
 21
297.0
 12
0.0
 22
0.0
 32
0.0
 14
1.0000000000E+20
 24
1.0000000000E+20
 34
1.0000000000E+20
 15
-1.0000000000E+20
 25
-1.0000000000E+20
 35
-1.0000000000E+20
146
0.0
 13
0.0
 23
0.0
 33
0.0
 16
1.0
 26
0.0
 36
0.0
 17
0.0
 27
1.0
 37
0.0
 76
     0
330
1B
  0
LAYOUT
  5
26
102
{ACAD_REACTORS
330
1A
102
}
330
1A
100
AcDbPlotSettings
  1

  2
none_device
  4

  6

 40
0.0
 41
0.0
 42
0.0
 43
0.0
 44
0.0
 45
0.0
 46
0.0
 47
0.0
 48
0.0
 49
0.0
140
0.0
141
0.0
142
1.0
143
1.0
 70
   688
 72
     1
 73
     0
 74
     5
  7

 75
    16
 76
     0
 77
     2
 78
   300
147
1.0
148
0.0
149
0.0
100
AcDbLayout
  1
Layout2
 70
     1
 71
     2
 10
0.0
 20
0.0
 11
0.0
 21
0.0
 12
0.0
 22
0.0
 32
0.0
 14
0.0
 24
0.0
 34
0.0
 15
0.0
 25
0.0
 35
0.0
146
0.0
 13
0.0
 23
0.0
 33
0.0
 16
1.0
 26
0.0
 36
0.0
 17
0.0
 27
1.0
 37
0.0
 76
     0
330
23
  0
LAYOUT
  5
22
102
{ACAD_REACTORS
330
1A
102
}
330
1A
100
AcDbPlotSettings
  1

  2
none_device
  4
Letter_(8.50_x_11.00_Inches)
  6

 40
6.35
 41
6.35
 42
6.35000508
 43
6.35000508
 44
215.9
 45
279.4
 46
0.0
 47
0.0
 48
0.0
 49
0.0
140
0.0
141
0.0
142
1.0
143
1.0
 70
  1712
 72
     1
 73
     0
 74
     0
  7

 75
     0
 76
     0
 77
     2
 78
   300
147
1.0
148
0.0
149
0.0
100
AcDbLayout
  1
Model
 70
     1
 71
     0
 10
0.0
 20
0.0
 11
210.0
 21
297.0
 12
0.0
 22
0.0
 32
0.0
 14
0.0
 24
0.0
 34
0.0
 15
210.0
 25
297.0
 35
0.0
146
0.0
 13
0.0
 23
0.0
 33
0.0
 16
1.0
 26
0.0
 36
0.0
 17
0.0
 27
1.0
 37
0.0
 76
     0
330
1F
331
29
  0
MATERIAL
  5
45
102
{ACAD_REACTORS
330
43
102
}
330
43
100
AcDbMaterial
  1
ByBlock
 72
     1
 94
      127
  0
MATERIAL
  5
44
102
{ACAD_REACTORS
330
43
102
}
330
43
100
AcDbMaterial
  1
ByLayer
 72
     1
 94
      127
  0
MATERIAL
  5
46
102
{ACAD_REACTORS
330
43
102
}
330
43
100
AcDbMaterial
  1
Global
 72
     1
 94
      127
  0
MLEADERSTYLE
  5
5C
102
{ACAD_REACTORS
330
5B
102
}
330
5B
100
AcDbMLeaderStyle
179
     2
170
     2
171
     1
172
     0
 90
        2
 40
0.0
 41
0.0
173
     1
 91
-1056964608
340
14
 92
       -2
290
     1
 42
2.0
291
     1
 43
8.0
  3
Standard
341
0
 44
4.0
300

342
11
174
     1
178
     6
175
     1
176
     0
 93
-1056964608
 45
4.0
292
     0
297
     0
 46
4.0
343
0
 94
-1056964608
 47
1.0
 49
1.0
140
1.0
293
     1
141
0.0
294
     1
177
     0
142
1.0
295
     0
296
     0
143
3.75
271
     0
272
     9
273
     9
298
     0
  0
MLINESTYLE
  5
18
102
{ACAD_REACTORS
330
17
102
}
330
17
100
AcDbMlineStyle
  2
Standard
 70
     0
  3

 62
   256
 51
90.0
 52
90.0
 71
     2
 49
0.5
 62
   256
  6
BYLAYER
 49
-0.5
 62
   256
  6
BYLAYER
  0
ACDBPLACEHOLDER
  5
F
102
{ACAD_REACTORS
330
E
102
}
330
E
  0
SCALE
  5
48
102
{ACAD_REACTORS
330
47
102
}
330
47
100
AcDbScale
 70
     0
300
1:1
140
1.0
141
1.0
290
     1
  0
SCALE
  5
49
102
{ACAD_REACTORS
330
47
102
}
330
47
100
AcDbScale
 70
     0
300
1:2
140
1.0
141
2.0
290
     0
  0
SCALE
  5
4A
102
{ACAD_REACTORS
330
47
102
}
330
47
100
AcDbScale
 70
     0
300
1:4
140
1.0
141
4.0
290
     0
  0
SCALE
  5
4B
102
{ACAD_REACTORS
330
47
102
}
330
47
100
AcDbScale
 70
     0
300
1:5
140
1.0
141
5.0
290
     0
  0
SCALE
  5
4C
102
{ACAD_REACTORS
330
47
102
}
330
47
100
AcDbScale
 70
     0
300
1:8
140
1.0
141
8.0
290
     0
  0
SCALE
  5
4D
102
{ACAD_REACTORS
330
47
102
}
330
47
100
AcDbScale
 70
     0
300
1:10
140
1.0
141
10.0
290
     0
  0
SCALE
  5
4E
102
{ACAD_REACTORS
330
47
102
}
330
47
100
AcDbScale
 70
     0
300
1:16
140
1.0
141
16.0
290
     0
  0
SCALE
  5
4F
102
{ACAD_REACTORS
330
47
102
}
330
47
100
AcDbScale
 70
     0
300
1:20
140
1.0
141
20.0
290
     0
  0
SCALE
  5
50
102
{ACAD_REACTORS
330
47
102
}
330
47
100
AcDbScale
 70
     0
300
1:30
140
1.0
141
30.0
290
     0
  0
SCALE
  5
51
102
{ACAD_REACTORS
330
47
102
}
330
47
100
AcDbScale
 70
     0
300
1:40
140
1.0
141
40.0
290
     0
  0
SCALE
  5
52
102
{ACAD_REACTORS
330
47
102
}
330
47
100
AcDbScale
 70
     0
300
1:50
140
1.0
141
50.0
290
     0
  0
SCALE
  5
53
102
{ACAD_REACTORS
330
47
102
}
330
47
100
AcDbScale
 70
     0
300
1:100
140
1.0
141
100.0
290
     0
  0
SCALE
  5
54
102
{ACAD_REACTORS
330
47
102
}
330
47
100
AcDbScale
 70
     0
300
2:1
140
2.0
141
1.0
290
     0
  0
SCALE
  5
55
102
{ACAD_REACTORS
330
47
102
}
330
47
100
AcDbScale
 70
     0
300
4:1
140
4.0
141
1.0
290
     0
  0
SCALE
  5
56
102
{ACAD_REACTORS
330
47
102
}
330
47
100
AcDbScale
 70
     0
300
8:1
140
8.0
141
1.0
290
     0
  0
SCALE
  5
57
102
{ACAD_REACTORS
330
47
102
}
330
47
100
AcDbScale
 70
     0
300
10:1
140
10.0
141
1.0
290
     0
  0
SCALE
  5
58
102
{ACAD_REACTORS
330
47
102
}
330
47
100
AcDbScale
 70
     0
300
100:1
140
100.0
141
1.0
290
     0
  0
TABLESTYLE
  5
5A
102
{ACAD_REACTORS
330
59
102
}
102
{ACAD_XDICTIONARY
360
2E0
102
}
330
59
100
AcDbTableStyle
  3
Standard
 70
     0
 71
     0
 40
0.06
 41
0.06
280
     0
281
     0
  7
STANDARD
140
4.5
170
     2
 62
     0
 63
   257
283
     0
 90
        4
 91
        0
  1

274
    -2
284
     1
 64
     0
275
    -2
285
     1
 65
     0
276
    -2
286
     1
 66
     0
277
    -2
287
     1
 67
     0
278
    -2
288
     1
 68
     0
279
    -2
289
     1
 69
     0
  7
STANDARD
140
6.0
170
     5
 62
     0
 63
   257
283
     0
 90
        4
 91
        0
  1

274
    -2
284
     1
 64
     0
275
    -2
285
     1
 65
     0
276
    -2
286
     1
 66
     0
277
    -2
287
     1
 67
     0
278
    -2
288
     1
 68
     0
279
    -2
289
     1
 69
     0
  7
STANDARD
140
4.5
170
     5
 62
     0
 63
   257
283
     0
 90
        4
 91
        0
  1

274
    -2
284
     1
 64
     0
275
    -2
285
     1
 65
     0
276
    -2
286
     1
 66
     0
277
    -2
287
     1
 67
     0
278
    -2
288
     1
 68
     0
279
    -2
289
     1
 69
     0
  0
VISUALSTYLE
  5
2F
102
{ACAD_REACTORS
330
2A
102
}
330
2A
100
AcDbVisualStyle
  2
2dWireframe
 70
     4
177
     3
291
     0
 70
    58
 90
        0
176
     1
 90
        2
176
     1
 90
        0
176
     1
 90
        0
176
     1
 40
0.6
176
     1
 40
30.0
176
     1
 62
     7
420
 16777215
176
     1
 90
        1
176
     1
 90
        4
176
     1
 62
     7
176
     1
 62
   257
176
     1
 90
        1
176
     1
 90
        1
176
     1
 40
1.0
176
     1
 90
        0
176
     1
 62
   257
176
     1
 40
1.0
176
     1
 90
        1
176
     1
 90
        6
176
     1
 90
        2
176
     1
 62
     7
176
     1
 90
        5
176
     1
 90
        0
176
     1
 90
        0
176
     1
290
     0
176
     1
 90
        1
176
     1
 40
0.0
176
     1
 90
        0
176
     1
290
     1
176
     1
290
     1
176
     1
290
     0
176
     1
290
     0
176
     1
290
     0
176
     1
290
     0
176
     1
290
     0
176
     1
290
     0
176
     1
290
     0
176
     1
 90
       50
176
     1
 40
0.0
176
     1
 40
1.0
176
     1
 90
        0
176
     1
 62
    18
420
        0
176
     1
 90
       50
176
     1
 90
        3
176
     1
 62
     5
420
      255
176
     1
290
     0
176
     1
 90
       50
176
     1
 90
       50
176
     1
 90
       50
176
     1
290
     0
176
     1
 90
       50
176
     1
 62
   256
176
     0
 40
1.0
176
     0
 90
        2
176
     1
  1
strokes_ogs.tif
176
     1
290
     0
176
     1
 40
1.0
176
     1
 40
1.0
176
     1
  0
VISUALSTYLE
  5
32
102
{ACAD_REACTORS
330
2A
102
}
330
2A
100
AcDbVisualStyle
  2
Basic
 70
     7
177
     3
291
     1
 70
    58
 90
        1
176
     1
 90
        0
176
     1
 90
        1
176
     1
 90
        0
176
     1
 40
0.6
176
     1
 40
30.0
176
     1
 62
     7
420
 16777215
176
     1
 90
        0
176
     1
 90
        4
176
     1
 62
     7
176
     1
 62
   257
176
     1
 90
        1
176
     1
 90
        1
176
     1
 40
1.0
176
     1
 90
        8
176
     1
 62
     7
176
     1
 40
1.0
176
     1
 90
        1
176
     1
 90
        6
176
     1
 90
        2
176
     1
 62
     7
176
     1
 90
        5
176
     1
 90
        0
176
     1
 90
        0
176
     1
290
     0
176
     1
 90
        1
176
     1
 40
0.0
176
     1
 90
        0
176
     1
290
     0
176
     1
290
     1
176
     1
290
     1
176
     1
290
     0
176
     1
290
     0
176
     1
290
     0
176
     1
290
     0
176
     1
290
     0
176
     1
290
     0
176
     1
 90
       50
176
     1
 40
0.0
176
     1
 40
1.0
176
     1
 90
        0
176
     1
 62
    18
420
        0
176
     1
 90
       50
176
     1
 90
        3
176
     1
 62
     5
420
      255
176
     1
290
     0
176
     1
 90
       50
176
     1
 90
       50
176
     1
 90
       50
176
     1
290
     0
176
     1
 90
       50
176
     1
 62
   256
176
     0
 40
1.0
176
     0
 90
        2
176
     1
  1
strokes_ogs.tif
176
     1
290
     0
176
     1
 40
1.0
176
     1
 40
1.0
176
     1
  0
VISUALSTYLE
  5
36
102
{ACAD_REACTORS
330
2A
102
}
330
2A
100
AcDbVisualStyle
  2
Brighten
 70
    12
177
     3
291
     1
 70
    58
 90
        2
176
     1
 90
        2
176
     1
 90
        0
176
     1
 90
        0
176
     1
 40
0.6
176
     1
 40
30.0
176
     1
 62
     7
420
 16777215
176
     1
 90
        1
176
     1
 90
        4
176
     1
 62
     7
176
     1
 62
   257
176
     1
 90
        1
176
     1
 90
        1
176
     1
 40
1.0
176
     1
 90
        8
176
     1
 62
     7
176
     1
 40
1.0
176
     1
 90
        1
176
     1
 90
        6
176
     1
 90
        2
176
     1
 62
     7
176
     1
 90
        5
176
     1
 90
        0
176
     1
 90
        0
176
     1
290
     0
176
     1
 90
        1
176
     1
 40
50.0
176
     1
 90
        0
176
     1
290
     0
176
     1
290
     1
176
     1
290
     1
176
     1
290
     0
176
     1
290
     0
176
     1
290
     0
176
     1
290
     0
176
     1
290
     0
176
     1
290
     0
176
     1
 90
       50
176
     1
 40
0.0
176
     1
 40
1.0
176
     1
 90
        0
176
     1
 62
    18
420
        0
176
     1
 90
       50
176
     1
 90
        3
176
     1
 62
     5
420
      255
176
     1
290
     0
176
     1
 90
       50
176
     1
 90
       50
176
     1
 90
       50
176
     1
290
     0
176
     1
 90
       50
176
     1
 62
   256
176
     0
 40
1.0
176
     0
 90
        2
176
     1
  1
strokes_ogs.tif
176
     1
290
     0
176
     1
 40
1.0
176
     1
 40
1.0
176
     1
  0
VISUALSTYLE
  5
3A
102
{ACAD_REACTORS
330
2A
102
}
330
2A
100
AcDbVisualStyle
  2
ColorChange
 70
    16
177
     3
291
     1
 70
    58
 90
        2
176
     1
 90
        2
176
     1
 90
        3
176
     1
 90
        0
176
     1
 40
0.6
176
     1
 40
30.0
176
     1
 62
     8
420
  8421504
176
     1
 90
        1
176
     1
 90
        4
176
     1
 62
     7
176
     1
 62
   257
176
     1
 90
        1
176
     1
 90
        1
176
     1
 40
1.0
176
     1
 90
        8
176
     1
 62
     8
420
  8421504
176
     1
 40
1.0
176
     1
 90
        1
176
     1
 90
        6
176
     1
 90
        2
176
     1
 62
     7
176
     1
 90
        5
176
     1
 90
        0
176
     1
 90
        0
176
     1
290
     0
176
     1
 90
        1
176
     1
 40
0.0
176
     1
 90
        0
176
     1
290
     0
176
     1
290
     1
176
     1
290
     1
176
     1
290
     0
176
     1
290
     0
176
     1
290
     0
176
     1
290
     0
176
     1
290
     0
176
     1
290
     0
176
     1
 90
       50
176
     1
 40
0.0
176
     1
 40
1.0
176
     1
 90
        0
176
     1
 62
    18
420
        0
176
     1
 90
       50
176
     1
 90
        3
176
     1
 62
     5
420
      255
176
     1
290
     0
176
     1
 90
       50
176
     1
 90
       50
176
     1
 90
       50
176
     1
290
     0
176
     1
 90
       50
176
     1
 62
   256
176
     0
 40
1.0
176
     0
 90
        2
176
     1
  1
strokes_ogs.tif
176
     1
290
     0
176
     1
 40
1.0
176
     1
 40
1.0
176
     1
  0
VISUALSTYLE
  5
34
102
{ACAD_REACTORS
330
2A
102
}
330
2A
100
AcDbVisualStyle
  2
Conceptual
 70
     9
177
     3
291
     0
 70
    58
 90
        3
176
     1
 90
        2
176
     1
 90
        0
176
     1
 90
        0
176
     1
 40
0.6
176
     1
 40
30.0
176
     1
 62
     7
420
 16777215
176
     1
 90
        2
176
     1
 90
        2
176
     1
 62
     7
176
     1
 62
   257
176
     1
 90
        1
176
     1
 90
        1
176
     1
 40
179.0
176
     1
 90
        8
176
     1
 62
     7
176
     1
 40
1.0
176
     1
 90
        1
176
     1
 90
        6
176
     1
 90
        2
176
     1
 62
     7
176
     1
 90
        3
176
     1
 90
        0
176
     1
 90
        0
176
     1
290
     0
176
     1
 90
        1
176
     1
 40
0.0
176
     1
 90
        0
176
     1
290
     0
176
     1
290
     1
176
     1
290
     1
176
     1
290
     0
176
     1
290
     0
176
     1
290
     0
176
     1
290
     0
176
     1
290
     0
176
     1
290
     0
176
     1
 90
       50
176
     1
 40
0.0
176
     1
 40
1.0
176
     1
 90
        0
176
     1
 62
    18
420
        0
176
     1
 90
       50
176
     1
 90
        3
176
     1
 62
     5
420
      255
176
     1
290
     0
176
     1
 90
       50
176
     1
 90
       50
176
     1
 90
       50
176
     1
290
     0
176
     1
 90
       50
176
     1
 62
   256
176
     0
 40
1.0
176
     0
 90
        2
176
     1
  1
strokes_ogs.tif
176
     1
290
     0
176
     1
 40
1.0
176
     1
 40
1.0
176
     1
  0
VISUALSTYLE
  5
35
102
{ACAD_REACTORS
330
2A
102
}
330
2A
100
AcDbVisualStyle
  2
Dim
 70
    11
177
     3
291
     1
 70
    58
 90
        2
176
     1
 90
        2
176
     1
 90
        0
176
     1
 90
        0
176
     1
 40
0.6
176
     1
 40
30.0
176
     1
 62
     7
420
 16777215
176
     1
 90
        1
176
     1
 90
        4
176
     1
 62
     7
176
     1
 62
   257
176
     1
 90
        1
176
     1
 90
        1
176
     1
 40
1.0
176
     1
 90
        8
176
     1
 62
     7
176
     1
 40
1.0
176
     1
 90
        1
176
     1
 90
        6
176
     1
 90
        2
176
     1
 62
     7
176
     1
 90
        5
176
     1
 90
        0
176
     1
 90
        0
176
     1
290
     0
176
     1
 90
        1
176
     1
 40
-50.0
176
     1
 90
        0
176
     1
290
     0
176
     1
290
     1
176
     1
290
     1
176
     1
290
     0
176
     1
290
     0
176
     1
290
     0
176
     1
290
     0
176
     1
290
     0
176
     1
290
     0
176
     1
 90
       50
176
     1
 40
0.0
176
     1
 40
1.0
176
     1
 90
        0
176
     1
 62
    18
420
        0
176
     1
 90
       50
176
     1
 90
        3
176
     1
 62
     5
420
      255
176
     1
290
     0
176
     1
 90
       50
176
     1
 90
       50
176
     1
 90
       50
176
     1
290
     0
176
     1
 90
       50
176
     1
 62
   256
176
     0
 40
1.0
176
     0
 90
        2
176
     1
  1
strokes_ogs.tif
176
     1
290
     0
176
     1
 40
1.0
176
     1
 40
1.0
176
     1
  0
VISUALSTYLE
  5
3D
102
{ACAD_REACTORS
330
2A
102
}
330
2A
100
AcDbVisualStyle
  2
EdgeColorOff
 70
    22
177
     3
291
     1
 70
    58
 90
        2
176
     0
 90
        2
176
     0
 90
        0
176
     0
 90
        0
176
     0
 40
0.6
176
     0
 40
30.0
176
     0
 62
     7
420
 16777215
176
     0
 90
        1
176
     0
 90
        4
176
     0
 62
     7
176
     0
 62
   257
176
     0
 90
        1
176
     0
 90
        1
176
     0
 40
1.0
176
     0
 90
        8
176
     2
 62
     7
176
     0
 40
1.0
176
     0
 90
        1
176
     0
 90
        6
176
     0
 90
        2
176
     0
 62
     7
176
     0
 90
        5
176
     0
 90
        0
176
     0
 90
        0
176
     0
290
     0
176
     0
 90
        1
176
     0
 40
0.0
176
     0
 90
        0
176
     0
290
     0
176
     0
290
     1
176
     0
290
     1
176
     0
290
     0
176
     0
290
     0
176
     0
290
     0
176
     0
290
     0
176
     0
290
     0
176
     0
290
     0
176
     0
 90
       50
176
     0
 40
0.0
176
     0
 40
1.0
176
     0
 90
        0
176
     0
 62
    18
420
        0
176
     0
 90
       50
176
     0
 90
        3
176
     0
 62
     5
420
      255
176
     0
290
     0
176
     0
 90
       50
176
     0
 90
       50
176
     0
 90
       50
176
     0
290
     0
176
     0
 90
       50
176
     0
 62
   256
176
     0
 40
1.0
176
     0
 90
        2
176
     0
  1
strokes_ogs.tif
176
     0
290
     0
176
     0
 40
1.0
176
     0
 40
1.0
176
     0
  0
VISUALSTYLE
  5
39
102
{ACAD_REACTORS
330
2A
102
}
330
2A
100
AcDbVisualStyle
  2
Facepattern
 70
    15
177
     3
291
     1
 70
    58
 90
        2
176
     1
 90
        2
176
     1
 90
        0
176
     1
 90
        0
176
     1
 40
0.6
176
     1
 40
30.0
176
     1
 62
     7
420
 16777215
176
     1
 90
        1
176
     1
 90
        4
176
     1
 62
     7
176
     1
 62
   257
176
     1
 90
        1
176
     1
 90
        1
176
     1
 40
1.0
176
     1
 90
        8
176
     1
 62
     7
176
     1
 40
1.0
176
     1
 90
        1
176
     1
 90
        6
176
     1
 90
        2
176
     1
 62
     7
176
     1
 90
        5
176
     1
 90
        0
176
     1
 90
        0
176
     1
290
     0
176
     1
 90
        1
176
     1
 40
0.0
176
     1
 90
        0
176
     1
290
     0
176
     1
290
     1
176
     1
290
     1
176
     1
290
     0
176
     1
290
     0
176
     1
290
     0
176
     1
290
     0
176
     1
290
     0
176
     1
290
     0
176
     1
 90
       50
176
     1
 40
0.0
176
     1
 40
1.0
176
     1
 90
        0
176
     1
 62
    18
420
        0
176
     1
 90
       50
176
     1
 90
        3
176
     1
 62
     5
420
      255
176
     1
290
     0
176
     1
 90
       50
176
     1
 90
       50
176
     1
 90
       50
176
     1
290
     0
176
     1
 90
       50
176
     1
 62
   256
176
     0
 40
1.0
176
     0
 90
        2
176
     1
  1
strokes_ogs.tif
176
     1
290
     0
176
     1
 40
1.0
176
     1
 40
1.0
176
     1
  0
VISUALSTYLE
  5
2B
102
{ACAD_REACTORS
330
2A
102
}
330
2A
100
AcDbVisualStyle
  2
Flat
 70
     0
177
     3
291
     1
 70
    58
 90
        2
176
     1
 90
        1
176
     1
 90
        1
176
     1
 90
        2
176
     1
 40
0.6
176
     1
 40
30.0
176
     1
 62
     7
420
 16777215
176
     1
 90
        0
176
     1
 90
        0
176
     1
 62
     7
176
     1
 62
   257
176
     1
 90
        1
176
     1
 90
        1
176
     1
 40
1.0
176
     1
 90
        8
176
     1
 62
     7
176
     1
 40
1.0
176
     1
 90
        1
176
     1
 90
        6
176
     1
 90
        2
176
     1
 62
     7
176
     1
 90
        5
176
     1
 90
        0
176
     1
 90
        0
176
     1
290
     0
176
     1
 90
       13
176
     1
 40
0.0
176
     1
 90
        0
176
     1
290
     0
176
     1
290
     1
176
     1
290
     1
176
     1
290
     0
176
     1
290
     0
176
     1
290
     0
176
     1
290
     0
176
     1
290
     0
176
     1
290
     0
176
     1
 90
       50
176
     1
 40
0.0
176
     1
 40
1.0
176
     1
 90
        0
176
     1
 62
    18
420
        0
176
     1
 90
       50
176
     1
 90
        3
176
     1
 62
     5
420
      255
176
     1
290
     0
176
     1
 90
       50
176
     1
 90
       50
176
     1
 90
       50
176
     1
290
     0
176
     1
 90
       50
176
     1
 62
   256
176
     0
 40
1.0
176
     0
 90
        2
176
     1
  1
strokes_ogs.tif
176
     1
290
     0
176
     1
 40
1.0
176
     1
 40
1.0
176
     1
  0
VISUALSTYLE
  5
2C
102
{ACAD_REACTORS
330
2A
102
}
330
2A
100
AcDbVisualStyle
  2
FlatWithEdges
 70
     1
177
     3
291
     1
 70
    58
 90
        2
176
     1
 90
        1
176
     1
 90
        1
176
     1
 90
        2
176
     1
 40
0.6
176
     1
 40
30.0
176
     1
 62
     7
420
 16777215
176
     1
 90
        1
176
     1
 90
        0
176
     1
 62
     7
176
     1
 62
   257
176
     1
 90
        1
176
     1
 90
        1
176
     1
 40
1.0
176
     1
 90
        0
176
     1
 62
   257
176
     1
 40
1.0
176
     1
 90
        1
176
     1
 90
        6
176
     1
 90
        2
176
     1
 62
     7
176
     1
 90
        5
176
     1
 90
        0
176
     1
 90
        0
176
     1
290
     0
176
     1
 90
       13
176
     1
 40
0.0
176
     1
 90
        0
176
     1
290
     0
176
     1
290
     1
176
     1
290
     1
176
     1
290
     0
176
     1
290
     0
176
     1
290
     0
176
     1
290
     0
176
     1
290
     0
176
     1
290
     0
176
     1
 90
       50
176
     1
 40
0.0
176
     1
 40
1.0
176
     1
 90
        0
176
     1
 62
    18
420
        0
176
     1
 90
       50
176
     1
 90
        3
176
     1
 62
     5
420
      255
176
     1
290
     0
176
     1
 90
       50
176
     1
 90
       50
176
     1
 90
       50
176
     1
290
     0
176
     1
 90
       50
176
     1
 62
   256
176
     0
 40
1.0
176
     0
 90
        2
176
     1
  1
strokes_ogs.tif
176
     1
290
     0
176
     1
 40
1.0
176
     1
 40
1.0
176
     1
  0
VISUALSTYLE
  5
2D
102
{ACAD_REACTORS
330
2A
102
}
330
2A
100
AcDbVisualStyle
  2
Gouraud
 70
     2
177
     3
291
     1
 70
    58
 90
        2
176
     1
 90
        2
176
     1
 90
        1
176
     1
 90
        2
176
     1
 40
0.6
176
     1
 40
30.0
176
     1
 62
     7
420
 16777215
176
     1
 90
        0
176
     1
 90
        0
176
     1
 62
     7
176
     1
 62
   257
176
     1
 90
        1
176
     1
 90
        1
176
     1
 40
1.0
176
     1
 90
        0
176
     1
 62
     7
176
     1
 40
1.0
176
     1
 90
        1
176
     1
 90
        6
176
     1
 90
        2
176
     1
 62
     7
176
     1
 90
        5
176
     1
 90
        0
176
     1
 90
        0
176
     1
290
     0
176
     1
 90
       13
176
     1
 40
0.0
176
     1
 90
        0
176
     1
290
     0
176
     1
290
     1
176
     1
290
     1
176
     1
290
     0
176
     1
290
     0
176
     1
290
     0
176
     1
290
     0
176
     1
290
     0
176
     1
290
     0
176
     1
 90
       50
176
     1
 40
0.0
176
     1
 40
1.0
176
     1
 90
        0
176
     1
 62
    18
420
        0
176
     1
 90
       50
176
     1
 90
        3
176
     1
 62
     5
420
      255
176
     1
290
     0
176
     1
 90
       50
176
     1
 90
       50
176
     1
 90
       50
176
     1
290
     0
176
     1
 90
       50
176
     1
 62
   256
176
     0
 40
1.0
176
     0
 90
        2
176
     1
  1
strokes_ogs.tif
176
     1
290
     0
176
     1
 40
1.0
176
     1
 40
1.0
176
     1
  0
VISUALSTYLE
  5
2E
102
{ACAD_REACTORS
330
2A
102
}
330
2A
100
AcDbVisualStyle
  2
GouraudWithEdges
 70
     3
177
     3
291
     1
 70
    58
 90
        2
176
     1
 90
        2
176
     1
 90
        1
176
     1
 90
        2
176
     1
 40
0.6
176
     1
 40
30.0
176
     1
 62
     7
420
 16777215
176
     1
 90
        1
176
     1
 90
        0
176
     1
 62
     7
176
     1
 62
   257
176
     1
 90
        1
176
     1
 90
        1
176
     1
 40
1.0
176
     1
 90
        0
176
     1
 62
   257
176
     1
 40
1.0
176
     1
 90
        1
176
     1
 90
        6
176
     1
 90
        2
176
     1
 62
     7
176
     1
 90
        5
176
     1
 90
        0
176
     1
 90
        0
176
     1
290
     0
176
     1
 90
       13
176
     1
 40
0.0
176
     1
 90
        0
176
     1
290
     0
176
     1
290
     1
176
     1
290
     1
176
     1
290
     0
176
     1
290
     0
176
     1
290
     0
176
     1
290
     0
176
     1
290
     0
176
     1
290
     0
176
     1
 90
       50
176
     1
 40
0.0
176
     1
 40
1.0
176
     1
 90
        0
176
     1
 62
    18
420
        0
176
     1
 90
       50
176
     1
 90
        3
176
     1
 62
     5
420
      255
176
     1
290
     0
176
     1
 90
       50
176
     1
 90
       50
176
     1
 90
       50
176
     1
290
     0
176
     1
 90
       50
176
     1
 62
   256
176
     0
 40
1.0
176
     0
 90
        2
176
     1
  1
strokes_ogs.tif
176
     1
290
     0
176
     1
 40
1.0
176
     1
 40
1.0
176
     1
  0
VISUALSTYLE
  5
31
102
{ACAD_REACTORS
330
2A
102
}
330
2A
100
AcDbVisualStyle
  2
Hidden
 70
     6
177
     3
291
     0
 70
    58
 90
        1
176
     1
 90
        2
176
     1
 90
        2
176
     1
 90
        0
176
     1
 40
0.6
176
     1
 40
30.0
176
     1
 62
     7
420
 16777215
176
     1
 90
        2
176
     1
 90
        2
176
     1
 62
     7
176
     1
 62
   257
176
     1
 90
        2
176
     1
 90
        1
176
     1
 40
40.0
176
     1
 90
        0
176
     1
 62
   257
176
     1
 40
1.0
176
     1
 90
        1
176
     1
 90
        6
176
     1
 90
        2
176
     1
 62
     7
176
     1
 90
        3
176
     1
 90
        0
176
     1
 90
        0
176
     1
290
     0
176
     1
 90
        1
176
     1
 40
0.0
176
     1
 90
        0
176
     1
290
     0
176
     1
290
     1
176
     1
290
     1
176
     1
290
     0
176
     1
290
     0
176
     1
290
     0
176
     1
290
     0
176
     1
290
     0
176
     1
290
     0
176
     1
 90
       50
176
     1
 40
0.0
176
     1
 40
1.0
176
     1
 90
        0
176
     1
 62
    18
420
        0
176
     1
 90
       50
176
     1
 90
        3
176
     1
 62
     5
420
      255
176
     1
290
     0
176
     1
 90
       50
176
     1
 90
       50
176
     1
 90
       50
176
     1
290
     0
176
     1
 90
       50
176
     1
 62
   256
176
     0
 40
1.0
176
     0
 90
        2
176
     1
  1
strokes_ogs.tif
176
     1
290
     0
176
     1
 40
1.0
176
     1
 40
1.0
176
     1
  0
VISUALSTYLE
  5
3B
102
{ACAD_REACTORS
330
2A
102
}
330
2A
100
AcDbVisualStyle
  2
JitterOff
 70
    20
177
     3
291
     1
 70
    58
 90
        2
176
     0
 90
        2
176
     0
 90
        0
176
     0
 90
        0
176
     0
 40
0.6
176
     0
 40
30.0
176
     0
 62
     7
420
 16777215
176
     0
 90
        1
176
     0
 90
        4
176
     0
 62
     7
176
     0
 62
   257
176
     0
 90
        1
176
     0
 90
        1
176
     0
 40
1.0
176
     0
 90
       10
176
     2
 62
     7
176
     0
 40
1.0
176
     0
 90
        1
176
     0
 90
        6
176
     0
 90
        2
176
     0
 62
     7
176
     0
 90
        5
176
     0
 90
        0
176
     0
 90
        0
176
     0
290
     0
176
     0
 90
        1
176
     0
 40
0.0
176
     0
 90
        0
176
     0
290
     0
176
     0
290
     1
176
     0
290
     1
176
     0
290
     0
176
     0
290
     0
176
     0
290
     0
176
     0
290
     0
176
     0
290
     0
176
     0
290
     0
176
     0
 90
       50
176
     0
 40
0.0
176
     0
 40
1.0
176
     0
 90
        0
176
     0
 62
    18
420
        0
176
     0
 90
       50
176
     0
 90
        3
176
     0
 62
     5
420
      255
176
     0
290
     0
176
     0
 90
       50
176
     0
 90
       50
176
     0
 90
       50
176
     0
290
     0
176
     0
 90
       50
176
     0
 62
   256
176
     0
 40
1.0
176
     0
 90
        2
176
     0
  1
strokes_ogs.tif
176
     0
290
     0
176
     0
 40
1.0
176
     0
 40
1.0
176
     0
  0
VISUALSTYLE
  5
38
102
{ACAD_REACTORS
330
2A
102
}
330
2A
100
AcDbVisualStyle
  2
Linepattern
 70
    14
177
     3
291
     1
 70
    58
 90
        2
176
     1
 90
        2
176
     1
 90
        0
176
     1
 90
        0
176
     1
 40
0.6
176
     1
 40
30.0
176
     1
 62
     7
420
 16777215
176
     1
 90
        1
176
     1
 90
        4
176
     1
 62
     7
176
     1
 62
   257
176
     1
 90
        7
176
     1
 90
        7
176
     1
 40
1.0
176
     1
 90
        8
176
     1
 62
     7
176
     1
 40
1.0
176
     1
 90
        1
176
     1
 90
        6
176
     1
 90
        2
176
     1
 62
     7
176
     1
 90
        5
176
     1
 90
        0
176
     1
 90
        0
176
     1
290
     0
176
     1
 90
        1
176
     1
 40
0.0
176
     1
 90
        0
176
     1
290
     0
176
     1
290
     1
176
     1
290
     1
176
     1
290
     0
176
     1
290
     0
176
     1
290
     0
176
     1
290
     0
176
     1
290
     0
176
     1
290
     0
176
     1
 90
       50
176
     1
 40
0.0
176
     1
 40
1.0
176
     1
 90
        0
176
     1
 62
    18
420
        0
176
     1
 90
       50
176
     1
 90
        3
176
     1
 62
     5
420
      255
176
     1
290
     0
176
     1
 90
       50
176
     1
 90
       50
176
     1
 90
       50
176
     1
290
     0
176
     1
 90
       50
176
     1
 62
   256
176
     0
 40
1.0
176
     0
 90
        2
176
     1
  1
strokes_ogs.tif
176
     1
290
     0
176
     1
 40
1.0
176
     1
 40
1.0
176
     1
  0
VISUALSTYLE
  5
3C
102
{ACAD_REACTORS
330
2A
102
}
330
2A
100
AcDbVisualStyle
  2
OverhangOff
 70
    21
177
     3
291
     1
 70
    58
 90
        2
176
     0
 90
        2
176
     0
 90
        0
176
     0
 90
        0
176
     0
 40
0.6
176
     0
 40
30.0
176
     0
 62
     7
420
 16777215
176
     0
 90
        1
176
     0
 90
        4
176
     0
 62
     7
176
     0
 62
   257
176
     0
 90
        1
176
     0
 90
        1
176
     0
 40
1.0
176
     0
 90
        9
176
     2
 62
     7
176
     0
 40
1.0
176
     0
 90
        1
176
     0
 90
        6
176
     0
 90
        2
176
     0
 62
     7
176
     0
 90
        5
176
     0
 90
        0
176
     0
 90
        0
176
     0
290
     0
176
     0
 90
        1
176
     0
 40
0.0
176
     0
 90
        0
176
     0
290
     0
176
     0
290
     1
176
     0
290
     1
176
     0
290
     0
176
     0
290
     0
176
     0
290
     0
176
     0
290
     0
176
     0
290
     0
176
     0
290
     0
176
     0
 90
       50
176
     0
 40
0.0
176
     0
 40
1.0
176
     0
 90
        0
176
     0
 62
    18
420
        0
176
     0
 90
       50
176
     0
 90
        3
176
     0
 62
     5
420
      255
176
     0
290
     0
176
     0
 90
       50
176
     0
 90
       50
176
     0
 90
       50
176
     0
290
     0
176
     0
 90
       50
176
     0
 62
   256
176
     0
 40
1.0
176
     0
 90
        2
176
     0
  1
strokes_ogs.tif
176
     0
290
     0
176
     0
 40
1.0
176
     0
 40
1.0
176
     0
  0
VISUALSTYLE
  5
33
102
{ACAD_REACTORS
330
2A
102
}
330
2A
100
AcDbVisualStyle
  2
Realistic
 70
     8
177
     3
291
     0
 70
    58
 90
        2
176
     1
 90
        3
176
     1
 90
        0
176
     1
 90
        2
176
     1
 40
0.6
176
     1
 40
30.0
176
     1
 62
     7
420
 16777215
176
     1
 90
        0
176
     1
 90
        0
176
     1
 62
     7
176
     1
 62
   257
176
     1
 90
        1
176
     1
 90
        1
176
     1
 40
1.0
176
     1
 90
        8
176
     1
 62
   257
176
     1
 40
1.0
176
     1
 90
        1
176
     1
 90
        6
176
     1
 90
        2
176
     1
 62
     7
176
     1
 90
        3
176
     1
 90
        0
176
     1
 90
        0
176
     1
290
     0
176
     1
 90
       13
176
     1
 40
0.0
176
     1
 90
        0
176
     1
290
     0
176
     1
290
     1
176
     1
290
     1
176
     1
290
     0
176
     1
290
     0
176
     1
290
     0
176
     1
290
     0
176
     1
290
     0
176
     1
290
     0
176
     1
 90
       50
176
     1
 40
0.0
176
     1
 40
1.0
176
     1
 90
        0
176
     1
 62
    18
420
        0
176
     1
 90
       50
176
     1
 90
        3
176
     1
 62
     5
420
      255
176
     1
290
     0
176
     1
 90
       50
176
     1
 90
       50
176
     1
 90
       50
176
     1
290
     0
176
     1
 90
       50
176
     1
 62
   256
176
     0
 40
1.0
176
     0
 90
        2
176
     1
  1
strokes_ogs.tif
176
     1
290
     0
176
     1
 40
1.0
176
     1
 40
1.0
176
     1
  0
VISUALSTYLE
  5
42
102
{ACAD_REACTORS
330
2A
102
}
330
2A
100
AcDbVisualStyle
  2
Shaded
 70
    27
177
     3
291
     0
 70
    58
 90
        2
176
     1
 90
        2
176
     1
 90
        1
176
     1
 90
        2
176
     1
 40
0.6
176
     1
 40
30.0
176
     1
 62
     7
420
 16777215
176
     1
 90
        0
176
     1
 90
        4
176
     1
 62
     7
176
     1
 62
   257
176
     1
 90
        1
176
     1
 90
        1
176
     1
 40
1.0
176
     1
 90
        8
176
     1
 62
   257
176
     1
 40
1.0
176
     1
 90
        1
176
     1
 90
        6
176
     1
 90
        2
176
     1
 62
     8
420
  7895160
176
     1
 90
        3
176
     1
 90
        0
176
     1
 90
        0
176
     1
290
     0
176
     1
 90
        5
176
     1
 40
0.0
176
     1
 90
        0
176
     1
290
     0
176
     1
290
     1
176
     1
290
     1
176
     1
290
     0
176
     1
290
     0
176
     1
290
     0
176
     1
290
     0
176
     1
290
     0
176
     1
290
     0
176
     1
 90
       50
176
     1
 40
0.0
176
     1
 40
1.0
176
     1
 90
        0
176
     1
 62
    18
420
        0
176
     1
 90
       50
176
     1
 90
        3
176
     1
 62
     5
420
      255
176
     1
290
     0
176
     1
 90
       50
176
     1
 90
       50
176
     1
 90
       50
176
     1
290
     0
176
     1
 90
       50
176
     1
 62
   256
176
     0
 40
1.0
176
     0
 90
        2
176
     1
  1
strokes_ogs.tif
176
     1
290
     0
176
     1
 40
1.0
176
     1
 40
1.0
176
     1
  0
VISUALSTYLE
  5
41
102
{ACAD_REACTORS
330
2A
102
}
330
2A
100
AcDbVisualStyle
  2
Shaded with edges
 70
    26
177
     3
291
     0
 70
    58
 90
        2
176
     1
 90
        2
176
     1
 90
        1
176
     1
 90
        2
176
     1
 40
0.6
176
     1
 40
30.0
176
     1
 62
     7
420
 16777215
176
     1
 90
        1
176
     1
 90
       10
176
     1
 62
     7
176
     1
 62
   257
176
     1
 90
        2
176
     1
 90
        1
176
     1
 40
1.0
176
     1
 90
        8
176
     1
 62
   257
176
     1
 40
1.0
176
     1
 90
        1
176
     1
 90
        6
176
     1
 90
        2
176
     1
 62
     7
176
     1
 90
        3
176
     1
 90
        0
176
     1
 90
        0
176
     1
290
     0
176
     1
 90
        5
176
     1
 40
0.0
176
     1
 90
        0
176
     1
290
     0
176
     1
290
     1
176
     1
290
     1
176
     1
290
     0
176
     1
290
     0
176
     1
290
     0
176
     1
290
     0
176
     1
290
     0
176
     1
290
     0
176
     1
 90
       50
176
     1
 40
0.0
176
     1
 40
1.0
176
     1
 90
        0
176
     1
 62
    18
420
        0
176
     1
 90
       50
176
     1
 90
        3
176
     1
 62
     5
420
      255
176
     1
290
     0
176
     1
 90
       50
176
     1
 90
       50
176
     1
 90
       50
176
     1
290
     0
176
     1
 90
       50
176
     1
 62
   256
176
     0
 40
1.0
176
     0
 90
        2
176
     1
  1
strokes_ogs.tif
176
     1
290
     0
176
     1
 40
1.0
176
     1
 40
1.0
176
     1
  0
VISUALSTYLE
  5
3E
102
{ACAD_REACTORS
330
2A
102
}
330
2A
100
AcDbVisualStyle
  2
Shades of Gray
 70
    23
177
     3
291
     0
 70
    58
 90
        2
176
     1
 90
        2
176
     1
 90
        3
176
     1
 90
        0
176
     1
 40
0.6
176
     1
 40
30.0
176
     1
 62
     7
420
 16777215
176
     1
 90
        2
176
     1
 90
        2
176
     1
 62
     7
176
     1
 62
     7
176
     1
 90
        1
176
     1
 90
        1
176
     1
 40
40.0
176
     1
 90
        8
176
     1
 62
     7
176
     1
 40
1.0
176
     1
 90
        1
176
     1
 90
        6
176
     1
 90
        2
176
     1
 62
     7
176
     1
 90
        3
176
     1
 90
        0
176
     1
 90
        0
176
     1
290
     0
176
     1
 90
        1
176
     1
 40
0.0
176
     1
 90
        0
176
     1
290
     0
176
     1
290
     1
176
     1
290
     1
176
     1
290
     0
176
     1
290
     0
176
     1
290
     0
176
     1
290
     0
176
     1
290
     0
176
     1
290
     0
176
     1
 90
       50
176
     1
 40
0.0
176
     1
 40
1.0
176
     1
 90
        0
176
     1
 62
    18
420
        0
176
     1
 90
       50
176
     1
 90
        3
176
     1
 62
     5
420
      255
176
     1
290
     0
176
     1
 90
       50
176
     1
 90
       50
176
     1
 90
       50
176
     1
290
     0
176
     1
 90
       50
176
     1
 62
   256
176
     0
 40
1.0
176
     0
 90
        2
176
     1
  1
strokes_ogs.tif
176
     1
290
     0
176
     1
 40
1.0
176
     1
 40
1.0
176
     1
  0
VISUALSTYLE
  5
3F
102
{ACAD_REACTORS
330
2A
102
}
330
2A
100
AcDbVisualStyle
  2
Sketchy
 70
    24
177
     3
291
     0
 70
    58
 90
        1
176
     1
 90
        2
176
     1
 90
        2
176
     1
 90
        0
176
     1
 40
0.6
176
     1
 40
30.0
176
     1
 62
     7
420
 16777215
176
     1
 90
        2
176
     1
 90
        2
176
     1
 62
     7
176
     1
 62
     7
176
     1
 90
        1
176
     1
 90
        1
176
     1
 40
40.0
176
     1
 90
       11
176
     1
 62
     7
176
     1
 40
1.0
176
     1
 90
        1
176
     1
 90
        6
176
     1
 90
        2
176
     1
 62
     7
176
     1
 90
        6
176
     1
 90
        0
176
     1
 90
        0
176
     1
290
     0
176
     1
 90
        1
176
     1
 40
0.0
176
     1
 90
        0
176
     1
290
     0
176
     1
290
     1
176
     1
290
     1
176
     1
290
     0
176
     1
290
     0
176
     1
290
     0
176
     1
290
     0
176
     1
290
     0
176
     1
290
     0
176
     1
 90
       50
176
     1
 40
0.0
176
     1
 40
1.0
176
     1
 90
        0
176
     1
 62
    18
420
        0
176
     1
 90
       50
176
     1
 90
        3
176
     1
 62
     5
420
      255
176
     1
290
     0
176
     1
 90
       50
176
     1
 90
       50
176
     1
 90
       50
176
     1
290
     0
176
     1
 90
       50
176
     1
 62
   256
176
     0
 40
1.0
176
     0
 90
        2
176
     1
  1
strokes_ogs.tif
176
     1
290
     0
176
     1
 40
1.0
176
     1
 40
1.0
176
     1
  0
VISUALSTYLE
  5
37
102
{ACAD_REACTORS
330
2A
102
}
330
2A
100
AcDbVisualStyle
  2
Thicken
 70
    13
177
     3
291
     1
 70
    58
 90
        2
176
     1
 90
        2
176
     1
 90
        0
176
     1
 90
        0
176
     1
 40
0.6
176
     1
 40
30.0
176
     1
 62
     7
420
 16777215
176
     1
 90
        1
176
     1
 90
        4
176
     1
 62
     7
176
     1
 62
   257
176
     1
 90
        1
176
     1
 90
        1
176
     1
 40
1.0
176
     1
 90
       12
176
     1
 62
     7
176
     1
 40
1.0
176
     1
 90
        1
176
     1
 90
        6
176
     1
 90
        2
176
     1
 62
     7
176
     1
 90
        5
176
     1
 90
        0
176
     1
 90
        0
176
     1
290
     0
176
     1
 90
        1
176
     1
 40
0.0
176
     1
 90
        0
176
     1
290
     0
176
     1
290
     1
176
     1
290
     1
176
     1
290
     0
176
     1
290
     0
176
     1
290
     0
176
     1
290
     0
176
     1
290
     0
176
     1
290
     0
176
     1
 90
       50
176
     1
 40
0.0
176
     1
 40
1.0
176
     1
 90
        0
176
     1
 62
    18
420
        0
176
     1
 90
       50
176
     1
 90
        3
176
     1
 62
     5
420
      255
176
     1
290
     0
176
     1
 90
       50
176
     1
 90
       50
176
     1
 90
       50
176
     1
290
     0
176
     1
 90
       50
176
     1
 62
   256
176
     0
 40
1.0
176
     0
 90
        2
176
     1
  1
strokes_ogs.tif
176
     1
290
     0
176
     1
 40
1.0
176
     1
 40
1.0
176
     1
  0
VISUALSTYLE
  5
30
102
{ACAD_REACTORS
330
2A
102
}
330
2A
100
AcDbVisualStyle
  2
Wireframe
 70
     5
177
     3
291
     0
 70
    58
 90
        0
176
     1
 90
        2
176
     1
 90
        0
176
     1
 90
        0
176
     1
 40
0.6
176
     1
 40
30.0
176
     1
 62
     7
420
 16777215
176
     1
 90
        1
176
     1
 90
        4
176
     1
 62
     7
176
     1
 62
   257
176
     1
 90
        1
176
     1
 90
        1
176
     1
 40
1.0
176
     1
 90
        0
176
     1
 62
   257
176
     1
 40
1.0
176
     1
 90
        1
176
     1
 90
        6
176
     1
 90
        2
176
     1
 62
     7
176
     1
 90
        3
176
     1
 90
        0
176
     1
 90
        0
176
     1
290
     0
176
     1
 90
        1
176
     1
 40
0.0
176
     1
 90
        0
176
     1
290
     0
176
     1
290
     1
176
     1
290
     1
176
     1
290
     0
176
     1
290
     0
176
     1
290
     0
176
     1
290
     0
176
     1
290
     0
176
     1
290
     0
176
     1
 90
       50
176
     1
 40
0.0
176
     1
 40
1.0
176
     1
 90
        0
176
     1
 62
    18
420
        0
176
     1
 90
       50
176
     1
 90
        3
176
     1
 62
     5
420
      255
176
     1
290
     0
176
     1
 90
       50
176
     1
 90
       50
176
     1
 90
       50
176
     1
290
     0
176
     1
 90
       50
176
     1
 62
   256
176
     0
 40
1.0
176
     0
 90
        2
176
     1
  1
strokes_ogs.tif
176
     1
290
     0
176
     1
 40
1.0
176
     1
 40
1.0
176
     1
  0
VISUALSTYLE
  5
40
102
{ACAD_REACTORS
330
2A
102
}
330
2A
100
AcDbVisualStyle
  2
X-Ray
 70
    25
177
     3
291
     0
 70
    58
 90
        2
176
     1
 90
        2
176
     1
 90
        1
176
     1
 90
        1
176
     1
 40
0.5
176
     1
 40
30.0
176
     1
 62
     7
420
 16777215
176
     1
 90
        1
176
     1
 90
        0
176
     1
 62
     7
176
     1
 62
   257
176
     1
 90
        1
176
     1
 90
        1
176
     1
 40
1.0
176
     1
 90
        8
176
     1
 62
     7
176
     1
 40
1.0
176
     1
 90
        1
176
     1
 90
        6
176
     1
 90
        2
176
     1
 62
     7
176
     1
 90
        3
176
     1
 90
        0
176
     1
 90
        0
176
     1
290
     0
176
     1
 90
       13
176
     1
 40
0.0
176
     1
 90
        0
176
     1
290
     0
176
     1
290
     1
176
     1
290
     1
176
     1
290
     0
176
     1
290
     0
176
     1
290
     0
176
     1
290
     0
176
     1
290
     0
176
     1
290
     0
176
     1
 90
       50
176
     1
 40
0.0
176
     1
 40
1.0
176
     1
 90
        0
176
     1
 62
    18
420
        0
176
     1
 90
       50
176
     1
 90
        3
176
     1
 62
     5
420
      255
176
     1
290
     0
176
     1
 90
       50
176
     1
 90
       50
176
     1
 90
       50
176
     1
290
     0
176
     1
 90
       50
176
     1
 62
   256
176
     0
 40
1.0
176
     0
 90
        2
176
     1
  1
strokes_ogs.tif
176
     1
290
     0
176
     1
 40
1.0
176
     1
 40
1.0
176
     1
  0
DICTIONARYVAR
  5
2DF
102
{ACAD_REACTORS
330
2DE
102
}
330
2DE
100
DictionaryVariables
280
     0
  1
1:1
  0
DICTIONARYVAR
  5
2E7
102
{ACAD_REACTORS
330
2DE
102
}
330
2DE
100
DictionaryVariables
280
     0
  1
3.500000
  0
DICTIONARYVAR
  5
2E8
102
{ACAD_REACTORS
330
2DE
102
}
330
2DE
100
DictionaryVariables
280
     0
  1
acadiso.lin
  0
DICTIONARYVAR
  5
2E4
102
{ACAD_REACTORS
330
2DE
102
}
330
2DE
100
DictionaryVariables
280
     0
  1
Standard
  0
DICTIONARYVAR
  5
2E3
102
{ACAD_REACTORS
330
2DE
102
}
330
2DE
100
DictionaryVariables
280
     0
  1
Standard
  0
DICTIONARY
  5
2E0
330
5A
100
AcDbDictionary
280
     1
281
     1
  3
ACAD_ROUNDTRIP_2008_TABLESTYLE_CELLSTYLEMAP
360
2E1
  0
CELLSTYLEMAP
  5
2E1
102
{ACAD_REACTORS
330
2E0
102
}
330
2E0
100
AcDbCellStyleMap
 90
        3
300
CELLSTYLE
  1
TABLEFORMAT_BEGIN
 90
        5
170
     1
 91
        0
 92
    32768
 62
   257
 93
        1
300
CONTENTFORMAT
  1
CONTENTFORMAT_BEGIN
 90
        0
 91
        0
 92
        4
 93
        0
300

 40
0.0
140
1.0
 94
        5
 62
     0
340
11
144
6.0
309
CONTENTFORMAT_END
171
     1
301
MARGIN
  1
CELLMARGIN_BEGIN
 40
1.5
 40
1.5
 40
1.5
 40
1.5
 40
1.5
 40
1.5
309
CELLMARGIN_END
 94
        6
 95
        1
302
GRIDFORMAT
  1
GRIDFORMAT_BEGIN
 90
        0
 91
        1
 62
     0
 92
       -2
340
14
 93
        0
 40
0.045
309
GRIDFORMAT_END
 95
        2
302
GRIDFORMAT
  1
GRIDFORMAT_BEGIN
 90
        0
 91
        1
 62
     0
 92
       -2
340
14
 93
        0
 40
0.045
309
GRIDFORMAT_END
 95
        4
302
GRIDFORMAT
  1
GRIDFORMAT_BEGIN
 90
        0
 91
        1
 62
     0
 92
       -2
340
14
 93
        0
 40
0.045
309
GRIDFORMAT_END
 95
        8
302
GRIDFORMAT
  1
GRIDFORMAT_BEGIN
 90
        0
 91
        1
 62
     0
 92
       -2
340
14
 93
        0
 40
0.045
309
GRIDFORMAT_END
 95
       16
302
GRIDFORMAT
  1
GRIDFORMAT_BEGIN
 90
        0
 91
        1
 62
     0
 92
       -2
340
14
 93
        0
 40
0.045
309
GRIDFORMAT_END
 95
       32
302
GRIDFORMAT
  1
GRIDFORMAT_BEGIN
 90
        0
 91
        1
 62
     0
 92
       -2
340
14
 93
        0
 40
0.045
309
GRIDFORMAT_END
309
TABLEFORMAT_END
  1
CELLSTYLE_BEGIN
 90
        1
 91
        1
300
_TITLE
309
CELLSTYLE_END
300
CELLSTYLE
  1
TABLEFORMAT_BEGIN
 90
        5
170
     1
 91
        0
 92
        0
 62
   257
 93
        1
300
CONTENTFORMAT
  1
CONTENTFORMAT_BEGIN
 90
        0
 91
        0
 92
        4
 93
        0
300

 40
0.0
140
1.0
 94
        5
 62
     0
340
11
144
4.5
309
CONTENTFORMAT_END
171
     1
301
MARGIN
  1
CELLMARGIN_BEGIN
 40
1.5
 40
1.5
 40
1.5
 40
1.5
 40
1.5
 40
1.5
309
CELLMARGIN_END
 94
        6
 95
        1
302
GRIDFORMAT
  1
GRIDFORMAT_BEGIN
 90
        0
 91
        1
 62
     0
 92
       -2
340
14
 93
        0
 40
0.045
309
GRIDFORMAT_END
 95
        2
302
GRIDFORMAT
  1
GRIDFORMAT_BEGIN
 90
        0
 91
        1
 62
     0
 92
       -2
340
14
 93
        0
 40
0.045
309
GRIDFORMAT_END
 95
        4
302
GRIDFORMAT
  1
GRIDFORMAT_BEGIN
 90
        0
 91
        1
 62
     0
 92
       -2
340
14
 93
        0
 40
0.045
309
GRIDFORMAT_END
 95
        8
302
GRIDFORMAT
  1
GRIDFORMAT_BEGIN
 90
        0
 91
        1
 62
     0
 92
       -2
340
14
 93
        0
 40
0.045
309
GRIDFORMAT_END
 95
       16
302
GRIDFORMAT
  1
GRIDFORMAT_BEGIN
 90
        0
 91
        1
 62
     0
 92
       -2
340
14
 93
        0
 40
0.045
309
GRIDFORMAT_END
 95
       32
302
GRIDFORMAT
  1
GRIDFORMAT_BEGIN
 90
        0
 91
        1
 62
     0
 92
       -2
340
14
 93
        0
 40
0.045
309
GRIDFORMAT_END
309
TABLEFORMAT_END
  1
CELLSTYLE_BEGIN
 90
        2
 91
        1
300
_HEADER
309
CELLSTYLE_END
300
CELLSTYLE
  1
TABLEFORMAT_BEGIN
 90
        5
170
     1
 91
        0
 92
        0
 62
   257
 93
        1
300
CONTENTFORMAT
  1
CONTENTFORMAT_BEGIN
 90
        0
 91
        0
 92
        4
 93
        0
300

 40
0.0
140
1.0
 94
        2
 62
     0
340
11
144
4.5
309
CONTENTFORMAT_END
171
     1
301
MARGIN
  1
CELLMARGIN_BEGIN
 40
1.5
 40
1.5
 40
1.5
 40
1.5
 40
1.5
 40
1.5
309
CELLMARGIN_END
 94
        6
 95
        1
302
GRIDFORMAT
  1
GRIDFORMAT_BEGIN
 90
        0
 91
        1
 62
     0
 92
       -2
340
14
 93
        0
 40
0.045
309
GRIDFORMAT_END
 95
        2
302
GRIDFORMAT
  1
GRIDFORMAT_BEGIN
 90
        0
 91
        1
 62
     0
 92
       -2
340
14
 93
        0
 40
0.045
309
GRIDFORMAT_END
 95
        4
302
GRIDFORMAT
  1
GRIDFORMAT_BEGIN
 90
        0
 91
        1
 62
     0
 92
       -2
340
14
 93
        0
 40
0.045
309
GRIDFORMAT_END
 95
        8
302
GRIDFORMAT
  1
GRIDFORMAT_BEGIN
 90
        0
 91
        1
 62
     0
 92
       -2
340
14
 93
        0
 40
0.045
309
GRIDFORMAT_END
 95
       16
302
GRIDFORMAT
  1
GRIDFORMAT_BEGIN
 90
        0
 91
        1
 62
     0
 92
       -2
340
14
 93
        0
 40
0.045
309
GRIDFORMAT_END
 95
       32
302
GRIDFORMAT
  1
GRIDFORMAT_BEGIN
 90
        0
 91
        1
 62
     0
 92
       -2
340
14
 93
        0
 40
0.045
309
GRIDFORMAT_END
309
TABLEFORMAT_END
  1
CELLSTYLE_BEGIN
 90
        3
 91
        2
300
_DATA
309
CELLSTYLE_END
  0
ENDSEC
  0
EOF
