  0
SECTION
  2
HEADER
  9
$ACADVER
  1
AC1032
  9
$ACADMAINTVER
 90
       55
  9
$DWGCODEPAGE
  3
ANSI_1252
  9
$LASTSAVEDBY
  1
f.studer
  9
$REQUIREDVERSIONS
160
                 0
  9
$INSBASE
 10
0.0
 20
0.0
 30
0.0
  9
$EXTMIN
 10
0.0
 20
0.0
 30
0.0
  9
$EXTMAX
 10
420.0
 20
594.0
 30
0.0
  9
$LIMMIN
 10
0.0
 20
0.0
  9
$LIMMAX
 10
420.0
 20
594.0
  9
$ORTHOMODE
 70
     0
  9
$REGENMODE
 70
     1
  9
$FILLMODE
 70
     1
  9
$QTEXTMODE
 70
     0
  9
$MIRRTEXT
 70
     1
  9
$LTSCALE
 40
2.0
  9
$ATTMODE
 70
     1
  9
$TEXTSIZE
 40
7.0
  9
$TRACEWID
 40
1.0
  9
$TEXTSTYLE
  7
STANDARD
  9
$CLAYER
  8
0
  9
$CELTYPE
  6
ByLayer
  9
$CECOLOR
 62
   256
  9
$CELTSCALE
 40
1.0
  9
$DISPSILH
 70
     0
  9
$DIMSCALE
 40
1.0
  9
$DIMASZ
 40
6.604
  9
$DIMEXO
 40
2.0
  9
$DIMDLI
 40
3.75
  9
$DIMRND
 40
0.0
  9
$DIMDLE
 40
0.0
  9
$DIMEXE
 40
2.0
  9
$DIMTP
 40
0.0
  9
$DIMTM
 40
0.0
  9
$DIMTXT
 40
7.0
  9
$DIMCEN
 40
2.5
  9
$DIMTSZ
 40
0.0
  9
$DIMTOL
 70
     0
  9
$DIMLIM
 70
     0
  9
$DIMTIH
 70
     1
  9
$DIMTOH
 70
     1
  9
$DIMSE1
 70
     0
  9
$DIMSE2
 70
     0
  9
$DIMTAD
 70
     1
  9
$DIMZIN
 70
     0
  9
$DIMBLK
  1

  9
$DIMASO
 70
     1
  9
$DIMSHO
 70
     1
  9
$DIMPOST
  1

  9
$DIMAPOST
  1

  9
$DIMALT
 70
     0
  9
$DIMALTD
 70
     3
  9
$DIMALTF
 40
0.0393700787
  9
$DIMLFAC
 40
1.0
  9
$DIMTOFL
 70
     1
  9
$DIMTVP
 40
0.0
  9
$DIMTIX
 70
     0
  9
$DIMSOXD
 70
     0
  9
$DIMSAH
 70
     0
  9
$DIMBLK1
  1

  9
$DIMBLK2
  1

  9
$DIMSTYLE
  2
ISO-25
  9
$DIMCLRD
 70
     0
  9
$DIMCLRE
 70
     0
  9
$DIMCLRT
 70
     0
  9
$DIMTFAC
 40
1.0
  9
$DIMGAP
 40
3.048
  9
$DIMJUST
 70
     0
  9
$DIMSD1
 70
     0
  9
$DIMSD2
 70
     0
  9
$DIMTOLJ
 70
     0
  9
$DIMTZIN
 70
     0
  9
$DIMALTZ
 70
     0
  9
$DIMALTTZ
 70
     0
  9
$DIMUPT
 70
     0
  9
$DIMDEC
 70
     2
  9
$DIMTDEC
 70
     2
  9
$DIMALTU
 70
     2
  9
$DIMALTTD
 70
     3
  9
$DIMTXSTY
  7
STANDARD
  9
$DIMAUNIT
 70
     0
  9
$DIMADEC
 70
     2
  9
$DIMALTRND
 40
0.0
  9
$DIMAZIN
 70
     0
  9
$DIMDSEP
 70
    44
  9
$DIMATFIT
 70
     3
  9
$DIMFRAC
 70
     0
  9
$DIMLDRBLK
  1

  9
$DIMLUNIT
 70
     2
  9
$DIMLWD
 70
    -2
  9
$DIMLWE
 70
    -2
  9
$DIMTMOVE
 70
     0
  9
$DIMFXL
 40
1.0
  9
$DIMFXLON
 70
     0
  9
$DIMJOGANG
 40
0.7853981634
  9
$DIMTFILL
 70
     0
  9
$DIMTFILLCLR
 70
     0
  9
$DIMARCSYM
 70
     0
  9
$DIMLTYPE
  6

  9
$DIMLTEX1
  6

  9
$DIMLTEX2
  6

  9
$DIMTXTDIRECTION
 70
     0
  9
$LUNITS
 70
     2
  9
$LUPREC
 70
     2
  9
$SKETCHINC
 40
1.0
  9
$FILLETRAD
 40
0.0
  9
$AUNITS
 70
     0
  9
$AUPREC
 70
     2
  9
$MENU
  1
.
  9
$ELEVATION
 40
0.0
  9
$PELEVATION
 40
0.0
  9
$THICKNESS
 40
0.0
  9
$LIMCHECK
 70
     0
  9
$CHAMFERA
 40
0.0
  9
$CHAMFERB
 40
0.0
  9
$CHAMFERC
 40
0.0
  9
$CHAMFERD
 40
0.0
  9
$SKPOLY
 70
     0
  9
$TDCREATE
 40
2460339.362244225
  9
$TDUCREATE
 40
2460339.320577558
  9
$TDUPDATE
 40
2460339.362244502
  9
$TDUUPDATE
 40
2460339.320577836
  9
$TDINDWG
 40
0.0000000116
  9
$TDUSRTIMER
 40
0.0000000116
  9
$USRTIMER
 70
     1
  9
$ANGBASE
 50
0.0
  9
$ANGDIR
 70
     0
  9
$PDMODE
 70
     0
  9
$PDSIZE
 40
-1.0
  9
$PLINEWID
 40
0.0
  9
$SPLFRAME
 70
     0
  9
$SPLINETYPE
 70
     6
  9
$SPLINESEGS
 70
     8
  9
$HANDSEED
  5
1F6
  9
$SURFTAB1
 70
     6
  9
$SURFTAB2
 70
     6
  9
$SURFTYPE
 70
     6
  9
$SURFU
 70
     6
  9
$SURFV
 70
     6
  9
$UCSBASE
  2

  9
$UCSNAME
  2

  9
$UCSORG
 10
0.0
 20
0.0
 30
0.0
  9
$UCSXDIR
 10
1.0
 20
0.0
 30
0.0
  9
$UCSYDIR
 10
0.0
 20
1.0
 30
0.0
  9
$UCSORTHOREF
  2

  9
$UCSORTHOVIEW
 70
     0
  9
$UCSORGTOP
 10
0.0
 20
0.0
 30
0.0
  9
$UCSORGBOTTOM
 10
0.0
 20
0.0
 30
0.0
  9
$UCSORGLEFT
 10
0.0
 20
0.0
 30
0.0
  9
$UCSORGRIGHT
 10
0.0
 20
0.0
 30
0.0
  9
$UCSORGFRONT
 10
0.0
 20
0.0
 30
0.0
  9
$UCSORGBACK
 10
0.0
 20
0.0
 30
0.0
  9
$PUCSBASE
  2

  9
$PUCSNAME
  2

  9
$PUCSORG
 10
0.0
 20
0.0
 30
0.0
  9
$PUCSXDIR
 10
1.0
 20
0.0
 30
0.0
  9
$PUCSYDIR
 10
0.0
 20
1.0
 30
0.0
  9
$PUCSORTHOREF
  2

  9
$PUCSORTHOVIEW
 70
     0
  9
$PUCSORGTOP
 10
0.0
 20
0.0
 30
0.0
  9
$PUCSORGBOTTOM
 10
0.0
 20
0.0
 30
0.0
  9
$PUCSORGLEFT
 10
0.0
 20
0.0
 30
0.0
  9
$PUCSORGRIGHT
 10
0.0
 20
0.0
 30
0.0
  9
$PUCSORGFRONT
 10
0.0
 20
0.0
 30
0.0
  9
$PUCSORGBACK
 10
0.0
 20
0.0
 30
0.0
  9
$USERI1
 70
     0
  9
$USERI2
 70
     0
  9
$USERI3
 70
     0
  9
$USERI4
 70
     0
  9
$USERI5
 70
     0
  9
$USERR1
 40
0.0
  9
$USERR2
 40
0.0
  9
$USERR3
 40
0.0
  9
$USERR4
 40
0.0
  9
$USERR5
 40
0.0
  9
$WORLDVIEW
 70
     1
  9
$SHADEDGE
 70
     3
  9
$SHADEDIF
 70
    70
  9
$TILEMODE
 70
     1
  9
$MAXACTVP
 70
    64
  9
$PINSBASE
 10
0.0
 20
0.0
 30
0.0
  9
$PLIMCHECK
 70
     0
  9
$PEXTMIN
 10
1.0000000000E+20
 20
1.0000000000E+20
 30
1.0000000000E+20
  9
$PEXTMAX
 10
-1.0000000000E+20
 20
-1.0000000000E+20
 30
-1.0000000000E+20
  9
$PLIMMIN
 10
0.0
 20
0.0
  9
$PLIMMAX
 10
420.0
 20
297.0
  9
$UNITMODE
 70
     0
  9
$VISRETAIN
 70
     1
  9
$PLINEGEN
 70
     0
  9
$PSLTSCALE
 70
     1
  9
$TREEDEPTH
 70
  3020
  9
$CMLSTYLE
  2
Standard
  9
$CMLJUST
 70
     0
  9
$CMLSCALE
 40
20.0
  9
$PROXYGRAPHICS
 70
     1
  9
$MEASUREMENT
 70
     1
  9
$CELWEIGHT
370
    -1
  9
$ENDCAPS
280
     0
  9
$JOINSTYLE
280
     0
  9
$LWDISPLAY
290
     1
  9
$INSUNITS
 70
     4
  9
$HYPERLINKBASE
  1

  9
$STYLESHEET
  1

  9
$XEDIT
290
     1
  9
$CEPSNTYPE
380
     0
  9
$PSTYLEMODE
290
     1
  9
$FINGERPRINTGUID
  2
{c559eeee-28d3-46dd-9b3d-714ab969cb4c}
  9
$VERSIONGUID
  2
{FAEB1C32-E019-11D5-929B-00C0DF256EC4}
  9
$EXTNAMES
290
     1
  9
$PSVPSCALE
 40
0.0
  9
$OLESTARTUP
290
     0
  9
$SORTENTS
280
   127
  9
$INDEXCTL
280
     0
  9
$HIDETEXT
280
     1
  9
$XCLIPFRAME
280
     2
  9
$HALOGAP
280
     0
  9
$OBSCOLOR
 70
   257
  9
$OBSLTYPE
280
     0
  9
$INTERSECTIONDISPLAY
280
     0
  9
$INTERSECTIONCOLOR
 70
   257
  9
$DIMASSOC
280
     2
  9
$PROJECTNAME
  1

  9
$CAMERADISPLAY
290
     0
  9
$LENSLENGTH
 40
50.0
  9
$CAMERAHEIGHT
 40
0.0
  9
$STEPSPERSEC
 40
2.0
  9
$STEPSIZE
 40
6.0
  9
$3DDWFPREC
 40
2.0
  9
$PSOLWIDTH
 40
5.0
  9
$PSOLHEIGHT
 40
80.0
  9
$LOFTANG1
 40
1.5707963268
  9
$LOFTANG2
 40
1.5707963268
  9
$LOFTMAG1
 40
0.0
  9
$LOFTMAG2
 40
0.0
  9
$LOFTPARAM
 70
     7
  9
$LOFTNORMALS
280
     1
  9
$LATITUDE
 40
37.795
  9
$LONGITUDE
 40
-122.394
  9
$NORTHDIRECTION
 40
0.0
  9
$TIMEZONE
 70
 -8000
  9
$LIGHTGLYPHDISPLAY
280
     1
  9
$TILEMODELIGHTSYNCH
280
     1
  9
$CMATERIAL
347
44
  9
$SOLIDHIST
280
     0
  9
$SHOWHIST
280
     1
  9
$DWFFRAME
280
     2
  9
$DGNFRAME
280
     2
  9
$REALWORLDSCALE
290
     1
  9
$INTERFERECOLOR
 62
   256
  9
$CSHADOW
280
     0
  9
$SHADOWPLANELOCATION
 40
0.0
  0
ENDSEC
  0
SECTION
  2
CLASSES
  0
CLASS
  1
ACDBDICTIONARYWDFLT
  2
AcDbDictionaryWithDefault
  3
ObjectDBX Classes
 90
        0
 91
        3
280
     0
281
     0
  0
CLASS
  1
VISUALSTYLE
  2
AcDbVisualStyle
  3
ObjectDBX Classes
 90
     4095
 91
        3
280
     0
281
     0
  0
CLASS
  1
MATERIAL
  2
AcDbMaterial
  3
ObjectDBX Classes
 90
     1153
 91
        3
280
     0
281
     0
  0
CLASS
  1
SCALE
  2
AcDbScale
  3
ObjectDBX Classes
 90
     1153
 91
        3
280
     0
281
     0
  0
CLASS
  1
TABLESTYLE
  2
AcDbTableStyle
  3
ObjectDBX Classes
 90
     4095
 91
        3
280
     0
281
     0
  0
CLASS
  1
MLEADERSTYLE
  2
AcDbMLeaderStyle
  3
ACDB_MLEADERSTYLE_CLASS
 90
     4095
 91
        3
280
     0
281
     0
  0
CLASS
  1
SUN
  2
AcDbSun
  3
SCENEOE
 90
     1153
 91
        3
280
     0
281
     0
  0
CLASS
  1
DICTIONARYVAR
  2
AcDbDictionaryVar
  3
ObjectDBX Classes
 90
        0
 91
        3
280
     0
281
     0
  0
CLASS
  1
CELLSTYLEMAP
  2
AcDbCellStyleMap
  3
ObjectDBX Classes
 90
     1152
 91
        3
280
     0
281
     0
  0
ENDSEC
  0
SECTION
  2
TABLES
  0
TABLE
  2
VPORT
  5
8
330
0
100
AcDbSymbolTable
 70
     1
  0
VPORT
  5
29
330
8
100
AcDbSymbolTableRecord
100
AcDbViewportTableRecord
  2
*Active
 70
     0
 10
0.0
 20
0.0
 11
1.0
 21
1.0
 12
210.0
 22
297.0
 13
0.0
 23
0.0
 14
10.0
 24
10.0
 15
10.0
 25
10.0
 16
0.0
 26
0.0
 36
1.0
 17
0.0
 27
0.0
 37
0.0
 40
594.0
 41
0.7070707071
 42
50.0
 43
0.0
 44
0.0
 50
0.0
 51
0.0
 71
     0
 72
  2000
 73
     1
 74
     3
 75
     0
 76
     0
 77
     0
 78
     0
281
     0
 65
     1
110
0.0
120
0.0
130
0.0
111
1.0
121
0.0
131
0.0
112
0.0
122
1.0
132
0.0
 79
     0
146
0.0
348
2F
 60
     3
 61
     5
292
     1
282
     1
141
0.0
142
0.0
 63
   250
361
5D
  0
ENDTAB
  0
TABLE
  2
LTYPE
  5
5
330
0
100
AcDbSymbolTable
 70
     8
  0
LTYPE
  5
14
330
5
100
AcDbSymbolTableRecord
100
AcDbLinetypeTableRecord
  2
ByBlock
 70
     0
  3

 72
    65
 73
     0
 40
0.0
  0
LTYPE
  5
15
330
5
100
AcDbSymbolTableRecord
100
AcDbLinetypeTableRecord
  2
ByLayer
 70
     0
  3

 72
    65
 73
     0
 40
0.0
  0
LTYPE
  5
16
330
5
100
AcDbSymbolTableRecord
100
AcDbLinetypeTableRecord
  2
Continuous
 70
     0
  3
Solid line
 72
    65
 73
     0
 40
0.0
  0
LTYPE
  5
5E
330
5
100
AcDbSymbolTableRecord
100
AcDbLinetypeTableRecord
  2
SLD-Durchgehend
 70
     0
  3
SolidWorks Line Style
 72
    65
 73
     0
 40
0.0
  0
LTYPE
  5
5F
330
5
100
AcDbSymbolTableRecord
100
AcDbLinetypeTableRecord
  2
SLD-Gestrichelt
 70
     0
  3
SolidWorks Line Style
 72
    65
 73
     2
 40
1.905
 49
1.27
 74
     0
 49
-0.635
 74
     0
  0
LTYPE
  5
60
330
5
100
AcDbSymbolTableRecord
100
AcDbLinetypeTableRecord
  2
SLD-Phantom
 70
     0
  3
SolidWorks Line Style
 72
    65
 73
     6
 40
12.7
 49
6.35
 74
     0
 49
-1.27
 74
     0
 49
1.27
 74
     0
 49
-1.27
 74
     0
 49
1.27
 74
     0
 49
-1.27
 74
     0
  0
LTYPE
  5
61
330
5
100
AcDbSymbolTableRecord
100
AcDbLinetypeTableRecord
  2
SLD-Kette
 70
     0
  3
SolidWorks Line Style
 72
    65
 73
     4
 40
10.16
 49
6.35
 74
     0
 49
-1.27
 74
     0
 49
1.27
 74
     0
 49
-1.27
 74
     0
  0
LTYPE
  5
62
330
5
100
AcDbSymbolTableRecord
100
AcDbLinetypeTableRecord
  2
SLD-Punktstrich
 70
     0
  3
SolidWorks Line Style
 72
    65
 73
     4
 40
19.05
 49
15.24
 74
     0
 49
-1.27
 74
     0
 49
1.27
 74
     0
 49
-1.27
 74
     0
  0
LTYPE
  5
63
330
5
100
AcDbSymbolTableRecord
100
AcDbLinetypeTableRecord
  2
SLD-Naht
 70
     0
  3
SolidWorks Line Style
 72
    65
 73
     2
 40
0.635
 49
0.0
 74
     0
 49
-0.635
 74
     0
  0
LTYPE
  5
64
330
5
100
AcDbSymbolTableRecord
100
AcDbLinetypeTableRecord
  2
SLD-Dicke-Dünne-Kette
 70
     0
  3
SolidWorks Line Style
 72
    65
 73
     4
 40
10.16
 49
6.35
 74
     0
 49
-1.27
 74
     0
 49
1.27
 74
     0
 49
-1.27
 74
     0
  0
ENDTAB
  0
TABLE
  2
LAYER
  5
2
330
0
100
AcDbSymbolTable
 70
     4
  0
LAYER
  5
10
330
2
100
AcDbSymbolTableRecord
100
AcDbLayerTableRecord
  2
0
 70
     0
 62
     7
  6
Continuous
370
    -3
390
F
347
46
348
0
  0
LAYER
  5
65
330
2
100
AcDbSymbolTableRecord
100
AcDbLayerTableRecord
  2
RAHMEN
 70
     0
 62
   179
  6
SLD-Durchgehend
370
    -3
390
F
347
46
348
0
  0
LAYER
  5
66
330
2
100
AcDbSymbolTableRecord
100
AcDbLayerTableRecord
  2
KOPF
 70
     0
 62
     7
  6
SLD-Durchgehend
370
    -3
390
F
347
46
348
0
  0
LAYER
  5
67
330
2
100
AcDbSymbolTableRecord
100
AcDbLayerTableRecord
  2
ZEICHNUNG
 70
     0
 62
     7
  6
SLD-Durchgehend
370
    -3
390
F
347
46
348
0
  0
ENDTAB
  0
TABLE
  2
STYLE
  5
3
330
0
100
AcDbSymbolTable
 70
     2
  0
STYLE
  5
11
330
3
100
AcDbSymbolTableRecord
100
AcDbTextStyleTableRecord
  2
STANDARD
 70
     0
 40
0.0
 41
1.0
 50
0.0
 71
     0
 42
7.0
  3
GOTHIC.TTF
  4

1001
ACAD
1000
CENTURY GOTHIC
1071
       34
  0
STYLE
  5
17A
330
3
100
AcDbSymbolTableRecord
100
AcDbTextStyleTableRecord
  2
SLDTEXTSTYLE0
 70
     0
 40
0.0
 41
0.913
 50
0.0
 71
     0
 42
7.0
  3
GOTHIC.TTF
  4

1001
ACAD
1000
Century Gothic
1071
      290
  0
ENDTAB
  0
TABLE
  2
VIEW
  5
6
330
0
100
AcDbSymbolTable
 70
     0
  0
ENDTAB
  0
TABLE
  2
UCS
  5
7
330
0
100
AcDbSymbolTable
 70
     0
  0
ENDTAB
  0
TABLE
  2
APPID
  5
9
330
0
100
AcDbSymbolTable
 70
     1
  0
APPID
  5
12
330
9
100
AcDbSymbolTableRecord
100
AcDbRegAppTableRecord
  2
ACAD
 70
     0
  0
ENDTAB
  0
TABLE
  2
DIMSTYLE
  5
A
330
0
100
AcDbSymbolTable
 70
     5
100
AcDbDimStyleTable
  0
DIMSTYLE
105
27
330
A
100
AcDbSymbolTableRecord
100
AcDbDimStyleTableRecord
  2
ISO-25
 70
     0
 41
2.5
 42
0.625
 43
3.75
 44
1.25
 73
     0
 74
     0
 77
     1
 78
     8
140
2.5
141
2.5
143
0.0393700787
147
0.625
171
     3
172
     1
178
     0
271
     2
272
     2
274
     3
278
    44
283
     0
284
     8
340
11
  0
DIMSTYLE
105
17B
102
{ACAD_REACTORS
330
179
102
}
330
A
100
AcDbSymbolTableRecord
100
AcDbDimStyleTableRecord
  2
SLDDIMSTYLE0
 70
     0
 41
6.604
 44
0.0
 45
0.000000001
 73
     0
 74
     0
 77
     1
 78
    12
 79
     3
140
7.0
147
1.75
172
     1
173
     1
178
     0
271
     2
272
     2
276
     2
284
    12
289
     0
340
17A
  0
DIMSTYLE
105
189
102
{ACAD_REACTORS
330
188
330
193
102
}
330
A
100
AcDbSymbolTableRecord
100
AcDbDimStyleTableRecord
  2
SLDDIMSTYLE1
 70
     0
 41
6.604
 44
0.0
 45
0.000000001
 73
     0
 74
     0
 77
     1
 78
    12
 79
     3
140
7.0
147
1.75
173
     1
178
     0
271
     2
272
     2
276
     2
284
    12
340
17A
  0
DIMSTYLE
105
1D4
102
{ACAD_REACTORS
330
1D3
102
}
330
A
100
AcDbSymbolTableRecord
100
AcDbDimStyleTableRecord
  2
SLDDIMSTYLE2
 70
     0
 41
6.604
 44
0.0
 45
0.000000001
 73
     0
 74
     0
 77
     1
 78
    12
 79
     3
140
7.0
147
1.75
173
     1
178
     0
271
     0
272
     0
276
     2
284
    12
340
17A
  0
DIMSTYLE
105
1DF
102
{ACAD_REACTORS
330
1DE
102
}
330
A
100
AcDbSymbolTableRecord
100
AcDbDimStyleTableRecord
  2
SLDDIMSTYLE3
 70
     0
 41
6.604
 44
0.0
 45
0.000000001
 73
     0
 74
     0
 77
     1
 78
     4
 79
     1
140
7.0
147
1.75
172
     1
173
     1
178
     0
271
     2
272
     2
276
     2
284
    12
289
     0
340
17A
  0
ENDTAB
  0
TABLE
  2
BLOCK_RECORD
  5
1
330
0
100
AcDbSymbolTable
 70
     7
  0
BLOCK_RECORD
  5
1F
330
1
100
AcDbSymbolTableRecord
100
AcDbBlockTableRecord
  2
*Model_Space
340
22
 70
     0
280
     1
281
     0
  0
BLOCK_RECORD
  5
1B
330
1
100
AcDbSymbolTableRecord
100
AcDbBlockTableRecord
  2
*Paper_Space
340
1E
 70
     0
280
     1
281
     0
  0
BLOCK_RECORD
  5
23
330
1
100
AcDbSymbolTableRecord
100
AcDbBlockTableRecord
  2
*Paper_Space0
340
26
 70
     0
280
     1
281
     0
  0
BLOCK_RECORD
  5
68
330
1
100
AcDbSymbolTableRecord
100
AcDbBlockTableRecord
  2
Logo_Boag
340
0
 70
     0
280
     1
281
     0
  0
BLOCK_RECORD
  5
17C
330
1
100
AcDbSymbolTableRecord
100
AcDbBlockTableRecord
  2
_D
340
0
 70
     0
280
     1
281
     0
  0
BLOCK_RECORD
  5
18A
330
1
100
AcDbSymbolTableRecord
100
AcDbBlockTableRecord
  2
_D_1
340
0
 70
     0
280
     1
281
     0
  0
BLOCK_RECORD
  5
194
330
1
100
AcDbSymbolTableRecord
100
AcDbBlockTableRecord
  2
_D_2
340
0
 70
     0
280
     1
281
     0
  0
BLOCK_RECORD
  5
1D5
330
1
100
AcDbSymbolTableRecord
100
AcDbBlockTableRecord
  2
_D_3
340
0
 70
     0
280
     1
281
     0
  0
BLOCK_RECORD
  5
1E0
330
1
100
AcDbSymbolTableRecord
100
AcDbBlockTableRecord
  2
_D_4
340
0
 70
     0
280
     1
281
     0
  0
ENDTAB
  0
ENDSEC
  0
SECTION
  2
BLOCKS
  0
BLOCK
  5
20
330
1F
100
AcDbEntity
  8
0
100
AcDbBlockBegin
  2
*Model_Space
 70
     0
 10
0.0
 20
0.0
 30
0.0
  3
*Model_Space
  1

  0
ENDBLK
  5
21
330
1F
100
AcDbEntity
  8
0
100
AcDbBlockEnd
  0
BLOCK
  5
1C
330
1B
100
AcDbEntity
 67
     1
  8
0
100
AcDbBlockBegin
  2
*Paper_Space
 70
     0
 10
0.0
 20
0.0
 30
0.0
  3
*Paper_Space
  1

  0
ENDBLK
  5
1D
330
1B
100
AcDbEntity
 67
     1
  8
0
100
AcDbBlockEnd
  0
BLOCK
  5
24
330
23
100
AcDbEntity
  8
0
100
AcDbBlockBegin
  2
*Paper_Space0
 70
     0
 10
0.0
 20
0.0
 30
0.0
  3
*Paper_Space0
  1

  0
ENDBLK
  5
25
330
23
100
AcDbEntity
  8
0
100
AcDbBlockEnd
  0
BLOCK
  5
69
330
68
100
AcDbEntity
  8
0
100
AcDbBlockBegin
  2
Logo_Boag
 70
     0
 10
0.0
 20
0.0
 30
0.0
  3
Logo_Boag
  1

  0
LINE
  5
6B
330
68
100
AcDbEntity
  8
0
  6
SLD-Durchgehend
 62
     7
370
    18
100
AcDbLine
 10
0.0
 20
4.6858948568
 30
0.0
 11
0.0012092285
 21
4.6858948568
 31
0.0
  0
LINE
  5
6C
330
68
100
AcDbEntity
  8
0
  6
SLD-Durchgehend
 62
     7
370
    18
100
AcDbLine
 10
76.884898763
 20
0.0427260742
 30
0.0
 11
76.8870485026
 21
0.0427260742
 31
0.0
  0
LINE
  5
6D
330
68
100
AcDbEntity
  8
0
  6
SLD-Durchgehend
 62
     7
370
    18
100
AcDbLine
 10
41.1229059245
 20
0.2611933594
 30
0.0
 11
41.1229059245
 21
5.4778051758
 31
0.0
  0
LINE
  5
6E
330
68
100
AcDbEntity
  8
0
  6
SLD-Durchgehend
 62
     7
370
    18
100
AcDbLine
 10
64.5290017904
 20
11.6131619466
 30
0.0
 11
64.5290017904
 21
0.2611933594
 31
0.0
  0
LINE
  5
6F
330
68
100
AcDbEntity
  8
0
  6
SLD-Durchgehend
 62
     7
370
    18
100
AcDbLine
 10
39.7978601888
 20
0.2611933594
 30
0.0
 11
41.1229059245
 21
0.2611933594
 31
0.0
  0
LINE
  5
70
330
68
100
AcDbEntity
  8
0
  6
SLD-Durchgehend
 62
     7
370
    18
100
AcDbLine
 10
34.3674836426
 20
0.0427260742
 30
0.0
 11
34.3771574707
 21
0.0427260742
 31
0.0
  0
LINE
  5
71
330
68
100
AcDbEntity
  8
0
  6
SLD-Durchgehend
 62
     7
370
    18
100
AcDbLine
 10
54.5894121094
 20
7.2569833984
 30
0.0
 11
54.5173958333
 21
7.4196918132
 31
0.0
  0
LINE
  5
72
330
68
100
AcDbEntity
  8
0
  6
SLD-Durchgehend
 62
     7
370
    18
100
AcDbLine
 10
70.2483839518
 20
0.2611933594
 30
0.0
 11
71.5750419922
 21
0.2611933594
 31
0.0
  0
LINE
  5
73
330
68
100
AcDbEntity
  8
0
  6
SLD-Durchgehend
 62
     7
370
    18
100
AcDbLine
 10
79.601363444
 20
9.2379684245
 30
0.0
 11
79.601363444
 21
8.4042725423
 31
0.0
  0
LINE
  5
74
330
68
100
AcDbEntity
  8
0
  6
SLD-Durchgehend
 62
     7
370
    18
100
AcDbLine
 10
65.8537788086
 20
0.2611933594
 30
0.0
 11
65.8537788086
 21
5.4788800456
 31
0.0
  0
LINE
  5
75
330
68
100
AcDbEntity
  8
0
  6
SLD-Durchgehend
 62
     7
370
    18
100
AcDbLine
 10
38.1729257813
 20
2.9110161133
 30
0.0
 11
38.219279541
 21
3.0601542969
 31
0.0
  0
LINE
  5
76
330
68
100
AcDbEntity
  8
0
  6
SLD-Durchgehend
 62
     7
370
    18
100
AcDbLine
 10
53.2721591797
 20
7.2569833984
 30
0.0
 11
54.5894121094
 21
7.2569833984
 31
0.0
  0
LINE
  5
77
330
68
100
AcDbEntity
  8
0
  6
SLD-Durchgehend
 62
     7
370
    18
100
AcDbLine
 10
86.9908245443
 20
1.1603219401
 30
0.0
 11
86.9908245443
 21
0.2611933594
 31
0.0
  0
LINE
  5
78
330
68
100
AcDbEntity
  8
0
  6
SLD-Durchgehend
 62
     7
370
    18
100
AcDbLine
 10
74.1407561849
 20
4.7498496094
 30
0.0
 11
74.14021875
 21
4.7498496094
 31
0.0
  0
LINE
  5
79
330
68
100
AcDbEntity
  8
0
  6
SLD-Durchgehend
 62
     7
370
    18
100
AcDbLine
 10
83.5369991862
 20
8.094844401
 30
0.0
 11
83.5369991862
 21
1.7076993815
 31
0.0
  0
LINE
  5
7A
330
68
100
AcDbEntity
  8
0
  6
SLD-Durchgehend
 62
     7
370
    18
100
AcDbLine
 10
70.2483839518
 20
5.9709016927
 30
0.0
 11
70.2483839518
 21
0.2611933594
 31
0.0
  0
LINE
  5
7B
330
68
100
AcDbEntity
  8
0
  6
SLD-Durchgehend
 62
     7
370
    18
100
AcDbLine
 10
1.4521490885
 20
11.6514541829
 30
0.0
 11
0.0
 21
11.6514541829
 31
0.0
  0
LINE
  5
7C
330
68
100
AcDbEntity
  8
0
  6
SLD-Durchgehend
 62
     7
370
    18
100
AcDbLine
 10
45.5184515788
 20
0.2611933594
 30
0.0
 11
46.8436316732
 21
0.2611933594
 31
0.0
  0
LINE
  5
7D
330
68
100
AcDbEntity
  8
0
  6
SLD-Durchgehend
 62
     7
370
    18
100
AcDbLine
 10
15.1946280924
 20
0.0427260742
 30
0.0
 11
15.1983901367
 21
0.0427260742
 31
0.0
  0
LINE
  5
7E
330
68
100
AcDbEntity
  8
0
  6
SLD-Durchgehend
 62
     7
370
    18
100
AcDbLine
 10
28.7437648926
 20
4.6031298828
 30
0.0
 11
28.7461833496
 21
4.6031298828
 31
0.0
  0
LINE
  5
7F
330
68
100
AcDbEntity
  8
0
  6
SLD-Durchgehend
 62
     7
370
    18
100
AcDbLine
 10
41.1229059245
 20
9.2379684245
 30
0.0
 11
39.7978601888
 21
9.2379684245
 31
0.0
  0
LINE
  5
80
330
68
100
AcDbEntity
  8
0
  6
SLD-Durchgehend
 62
     7
370
    18
100
AcDbLine
 10
51.4421933594
 20
9.4301013997
 30
0.0
 11
51.3282571615
 21
9.4290265299
 31
0.0
  0
LINE
  5
81
330
68
100
AcDbEntity
  8
0
  6
SLD-Durchgehend
 62
     7
370
    18
100
AcDbLine
 10
93.5276451823
 20
8.4852908529
 30
0.0
 11
93.5276451823
 21
9.2379684245
 31
0.0
  0
LINE
  5
82
330
68
100
AcDbEntity
  8
0
  6
SLD-Durchgehend
 62
     7
370
    18
100
AcDbLine
 10
62.1301611328
 20
7.108248291
 30
0.0
 11
63.565918457
 21
7.0988431803
 31
0.0
  0
LINE
  5
83
330
68
100
AcDbEntity
  8
0
  6
SLD-Durchgehend
 62
     7
370
    18
100
AcDbLine
 10
79.8496583659
 20
0.2611933594
 30
0.0
 11
80.9540870768
 21
0.2611933594
 31
0.0
  0
LINE
  5
84
330
68
100
AcDbEntity
  8
0
  6
SLD-Durchgehend
 62
     7
370
    18
100
AcDbLine
 10
24.6768606771
 20
0.0427260742
 30
0.0
 11
24.6911027018
 21
0.0427260742
 31
0.0
  0
LINE
  5
85
330
68
100
AcDbEntity
  8
0
  6
SLD-Durchgehend
 62
     7
370
    18
100
AcDbLine
 10
84.8623136393
 20
11.6136993815
 30
0.0
 11
83.5369991862
 21
11.6136993815
 31
0.0
  0
LINE
  5
86
330
68
100
AcDbEntity
  8
0
  6
SLD-Durchgehend
 62
     7
370
    18
100
AcDbLine
 10
91.6627460938
 20
8.0953818359
 30
0.0
 11
86.9908245443
 21
1.1603219401
 31
0.0
  0
LINE
  5
87
330
68
100
AcDbEntity
  8
0
  6
SLD-Durchgehend
 62
     7
370
    18
100
AcDbLine
 10
63.565918457
 20
7.0988431803
 30
0.0
 11
63.4941708984
 21
7.2626264648
 31
0.0
  0
LINE
  5
88
330
68
100
AcDbEntity
  8
0
  6
SLD-Durchgehend
 62
     7
370
    18
100
AcDbLine
 10
93.5999301758
 20
1.4048548177
 30
0.0
 11
88.764628418
 21
1.4048548177
 31
0.0
  0
LINE
  5
89
330
68
100
AcDbEntity
  8
0
  6
SLD-Durchgehend
 62
     7
370
    18
100
AcDbLine
 10
84.8623136393
 20
8.094844401
 30
0.0
 11
91.6627460938
 21
8.0953818359
 31
0.0
  0
LINE
  5
8A
330
68
100
AcDbEntity
  8
0
  6
SLD-Durchgehend
 62
     7
370
    18
100
AcDbLine
 10
41.1229059245
 20
8.2168421224
 30
0.0
 11
41.1229059245
 21
9.2379684245
 31
0.0
  0
LINE
  5
8B
330
68
100
AcDbEntity
  8
0
  6
SLD-Durchgehend
 62
     7
370
    18
100
AcDbLine
 10
84.8623136393
 20
2.4364611003
 30
0.0
 11
84.8623136393
 21
8.094844401
 31
0.0
  0
LINE
  5
8C
330
68
100
AcDbEntity
  8
0
  6
SLD-Durchgehend
 62
     7
370
    18
100
AcDbLine
 10
64.5290017904
 20
0.2611933594
 30
0.0
 11
65.8537788086
 21
0.2611933594
 31
0.0
  0
LINE
  5
8D
330
68
100
AcDbEntity
  8
0
  6
SLD-Durchgehend
 62
     7
370
    18
100
AcDbLine
 10
63.6317542318
 20
2.5573839518
 30
0.0
 11
63.6940966797
 21
2.7153898112
 31
0.0
  0
LINE
  5
8E
330
68
100
AcDbEntity
  8
0
  6
SLD-Durchgehend
 62
     7
370
    18
100
AcDbLine
 10
86.31634375
 20
0.2192734375
 30
0.0
 11
86.31634375
 21
1.3476180013
 31
0.0
  0
LINE
  5
8F
330
68
100
AcDbEntity
  8
0
  6
SLD-Durchgehend
 62
     7
370
    18
100
AcDbLine
 10
53.2385694987
 20
7.3139514974
 30
0.0
 11
53.2721591797
 21
7.2569833984
 31
0.0
  0
LINE
  5
90
330
68
100
AcDbEntity
  8
0
  6
SLD-Durchgehend
 62
     7
370
    18
100
AcDbLine
 10
38.3013727214
 20
4.6697718099
 30
0.0
 11
38.2972076009
 21
4.7906946615
 31
0.0
  0
LINE
  5
91
330
68
100
AcDbEntity
  8
0
  6
SLD-Durchgehend
 62
     7
370
    18
100
AcDbLine
 10
46.8436316732
 20
0.2611933594
 30
0.0
 11
46.8436316732
 21
6.2980651855
 31
0.0
  0
LINE
  5
92
330
68
100
AcDbEntity
  8
0
  6
SLD-Durchgehend
 62
     7
370
    18
100
AcDbLine
 10
93.5276451823
 20
9.2379684245
 30
0.0
 11
84.8623136393
 21
9.2379684245
 31
0.0
  0
LINE
  5
93
330
68
100
AcDbEntity
  8
0
  6
SLD-Durchgehend
 62
     7
370
    18
100
AcDbLine
 10
83.5369991862
 20
11.6136993815
 30
0.0
 11
83.5369991862
 21
9.2379684245
 31
0.0
  0
LINE
  5
94
330
68
100
AcDbEntity
  8
0
  6
SLD-Durchgehend
 62
     7
370
    18
100
AcDbLine
 10
93.5999301758
 20
0.2611933594
 30
0.0
 11
93.5999301758
 21
1.4048548177
 31
0.0
  0
LINE
  5
95
330
68
100
AcDbEntity
  8
0
  6
SLD-Durchgehend
 62
     7
370
    18
100
AcDbLine
 10
34.3224734701
 20
1.295218099
 30
0.0
 11
34.2965422363
 21
1.2957555339
 31
0.0
  0
LINE
  5
96
330
68
100
AcDbEntity
  8
0
  6
SLD-Durchgehend
 62
     7
370
    18
100
AcDbLine
 10
48.0165833333
 20
2.7567722982
 30
0.0
 11
48.0636088867
 21
2.6065592448
 31
0.0
  0
LINE
  5
97
330
68
100
AcDbEntity
  8
0
  6
SLD-Durchgehend
 62
     7
370
    18
100
AcDbLine
 10
28.7461833496
 20
4.6031298828
 30
0.0
 11
28.7461833496
 21
11.6131619466
 31
0.0
  0
LINE
  5
98
330
68
100
AcDbEntity
  8
0
  6
SLD-Durchgehend
 62
     7
370
    18
100
AcDbLine
 10
45.5184515788
 20
5.9698268229
 30
0.0
 11
45.5184515788
 21
0.2611933594
 31
0.0
  0
LINE
  5
99
330
68
100
AcDbEntity
  8
0
  6
SLD-Durchgehend
 62
     7
370
    18
100
AcDbLine
 10
62.2427537435
 20
2.7159272461
 30
0.0
 11
62.2123886719
 21
2.6498227539
 31
0.0
  0
LINE
  5
9A
330
68
100
AcDbEntity
  8
0
  6
SLD-Durchgehend
 62
     7
370
    18
100
AcDbLine
 10
65.8537788086
 20
8.2021970215
 30
0.0
 11
65.8537788086
 21
11.6131619466
 31
0.0
  0
LINE
  5
9B
330
68
100
AcDbEntity
  8
0
  6
SLD-Durchgehend
 62
     7
370
    18
100
AcDbLine
 10
79.6752607422
 20
1.1665024414
 30
0.0
 11
79.8496583659
 21
0.2611933594
 31
0.0
  0
LINE
  5
9C
330
68
100
AcDbEntity
  8
0
  6
SLD-Durchgehend
 62
     7
370
    18
100
AcDbLine
 10
36.8000483398
 20
5.8128958333
 30
0.0
 11
31.647391276
 21
5.8128958333
 31
0.0
  0
LINE
  5
9D
330
68
100
AcDbEntity
  8
0
  6
SLD-Durchgehend
 62
     7
370
    18
100
AcDbLine
 10
65.8537788086
 20
11.6131619466
 30
0.0
 11
64.5290017904
 21
11.6131619466
 31
0.0
  0
LINE
  5
9E
330
68
100
AcDbEntity
  8
0
  6
SLD-Durchgehend
 62
     7
370
    18
100
AcDbLine
 10
63.6940966797
 20
2.7153898112
 30
0.0
 11
62.2427537435
 21
2.7159272461
 31
0.0
  0
LINE
  5
9F
330
68
100
AcDbEntity
  8
0
  6
SLD-Durchgehend
 62
     7
370
    18
100
AcDbLine
 10
88.764628418
 20
1.4048548177
 30
0.0
 11
93.5276451823
 21
8.4852908529
 31
0.0
  0
LINE
  5
A0
330
68
100
AcDbEntity
  8
0
  6
SLD-Durchgehend
 62
     7
370
    18
100
AcDbLine
 10
83.5369991862
 20
9.2379684245
 30
0.0
 11
79.601363444
 21
9.2379684245
 31
0.0
  0
LINE
  5
A1
330
68
100
AcDbEntity
  8
0
  6
SLD-Durchgehend
 62
     7
370
    18
100
AcDbLine
 10
1.4545675456
 20
4.5698089193
 30
0.0
 11
1.4521490885
 21
4.5698089193
 31
0.0
  0
LINE
  5
A2
330
68
100
AcDbEntity
  8
0
  6
SLD-Durchgehend
 62
     7
370
    18
100
AcDbLine
 10
1.4521490885
 20
4.5698089193
 30
0.0
 11
1.4521490885
 21
11.6514541829
 31
0.0
  0
LINE
  5
A3
330
68
100
AcDbEntity
  8
0
  6
SLD-Durchgehend
 62
     7
370
    18
100
AcDbLine
 10
27.4294678548
 20
11.6131619466
 30
0.0
 11
27.4294678548
 21
8.2336369629
 31
0.0
  0
LINE
  5
A4
330
68
100
AcDbEntity
  8
0
  6
SLD-Durchgehend
 62
     7
370
    18
100
AcDbLine
 10
31.629387207
 20
4.6697718099
 30
0.0
 11
38.3013727214
 21
4.6697718099
 31
0.0
  0
LINE
  5
A5
330
68
100
AcDbEntity
  8
0
  6
SLD-Durchgehend
 62
     7
370
    18
100
AcDbLine
 10
80.9540870768
 20
0.2611933594
 30
0.0
 11
80.9540870768
 21
8.094844401
 31
0.0
  0
LINE
  5
A6
330
68
100
AcDbEntity
  8
0
  6
SLD-Durchgehend
 62
     7
370
    18
100
AcDbLine
 10
84.8623136393
 20
9.2379684245
 30
0.0
 11
84.8623136393
 21
11.6136993815
 31
0.0
  0
LINE
  5
A7
330
68
100
AcDbEntity
  8
0
  6
SLD-Durchgehend
 62
     7
370
    18
100
AcDbLine
 10
36.7539632975
 20
3.0601542969
 30
0.0
 11
36.7268228353
 21
2.9833011068
 31
0.0
  0
LINE
  5
A8
330
68
100
AcDbEntity
  8
0
  6
SLD-Durchgehend
 62
     7
370
    18
100
AcDbLine
 10
80.9540870768
 20
8.094844401
 30
0.0
 11
83.5369991862
 21
8.094844401
 31
0.0
  0
LINE
  5
A9
330
68
100
AcDbEntity
  8
0
  6
SLD-Durchgehend
 62
     7
370
    18
100
AcDbLine
 10
39.7978601888
 20
9.2379684245
 30
0.0
 11
39.7978601888
 21
0.2611933594
 31
0.0
  0
LINE
  5
AA
330
68
100
AcDbEntity
  8
0
  6
SLD-Durchgehend
 62
     7
370
    18
100
AcDbLine
 10
71.5750419922
 20
0.2611933594
 30
0.0
 11
71.5750419922
 21
6.2980651855
 31
0.0
  0
LINE
  5
AB
330
68
100
AcDbEntity
  8
0
  6
SLD-Durchgehend
 62
     7
370
    18
100
AcDbLine
 10
86.9908245443
 20
0.2611933594
 30
0.0
 11
93.5999301758
 21
0.2611933594
 31
0.0
  0
LINE
  5
AC
330
68
100
AcDbEntity
  8
0
  6
SLD-Durchgehend
 62
     7
370
    18
100
AcDbLine
 10
62.0997960612
 20
7.1758307292
 30
0.0
 11
62.1301611328
 21
7.108248291
 31
0.0
  0
LINE
  5
AD
330
68
100
AcDbEntity
  8
0
  6
SLD-Durchgehend
 62
     7
370
    18
100
AcDbLine
 10
51.3282571615
 20
9.4290265299
 30
0.0
 11
51.3282571615
 21
9.4264737142
 31
0.0
  0
LINE
  5
AE
330
68
100
AcDbEntity
  8
0
  6
SLD-Durchgehend
 62
     7
370
    18
100
AcDbLine
 10
49.3639326172
 20
2.7567722982
 30
0.0
 11
48.0165833333
 21
2.7567722982
 31
0.0
  0
LINE
  5
AF
330
68
100
AcDbEntity
  8
0
  6
SLD-Durchgehend
 62
     7
370
    18
100
AcDbLine
 10
49.3873110352
 20
2.6723950195
 30
0.0
 11
49.3639326172
 21
2.7567722982
 31
0.0
  0
LINE
  5
B0
330
68
100
AcDbEntity
  8
0
  6
SLD-Durchgehend
 62
     7
370
    18
100
AcDbLine
 10
0.0
 20
11.6514541829
 30
0.0
 11
0.0
 21
4.6858948568
 31
0.0
  0
LINE
  5
B1
330
68
100
AcDbEntity
  8
0
  6
SLD-Durchgehend
 62
     7
370
    18
100
AcDbLine
 10
59.8398823242
 20
0.0427260742
 30
0.0
 11
59.8648730469
 21
0.0427260742
 31
0.0
  0
LINE
  5
B2
330
68
100
AcDbEntity
  8
0
  6
SLD-Durchgehend
 62
     7
370
    18
100
AcDbLine
 10
28.7461833496
 20
11.6131619466
 30
0.0
 11
27.4294678548
 21
11.6131619466
 31
0.0
  0
LINE
  5
B3
330
68
100
AcDbEntity
  8
0
  6
SLD-Durchgehend
 62
     7
370
    18
100
AcDbLine
 10
51.4894876302
 20
0.0228409831
 30
0.0
 11
51.5894505208
 21
0.0239158529
 31
0.0
  0
LINE
  5
B4
330
68
100
AcDbEntity
  8
0
  6
SLD-Durchgehend
 62
     7
370
    18
100
AcDbLine
 10
31.6296559245
 20
4.5493863932
 30
0.0
 11
31.629387207
 21
4.6697718099
 31
0.0
  0
LINE
  5
B5
330
68
100
AcDbEntity
  8
0
  6
SLD-Durchgehend
 62
     7
370
    18
100
AcDbLine
 10
38.219279541
 20
3.0601542969
 30
0.0
 11
36.7539632975
 21
3.0601542969
 31
0.0
  0
SPLINE
  5
B6
330
68
100
AcDbEntity
  8
0
  6
SLD-Durchgehend
 62
     8
420
  8421504
370
     0
100
AcDbSpline
210
0.0
220
0.0
230
1.0
 70
     8
 71
     3
 72
     8
 73
     4
 74
     0
 42
0.00000001
 43
0.00000001
 40
23.0
 40
23.0
 40
23.0
 40
23.0
 40
24.0
 40
24.0
 40
24.0
 40
24.0
 10
54.88204541015629
 20
2.792243001302097
 30
0.0
 10
54.88634488932298
 20
4.627851888020867
 30
0.0
 10
53.49573209635427
 20
5.129278645833319
 30
0.0
 10
52.20427604166667
 20
5.417075032552093
 30
0.0
  0
SPLINE
  5
B7
330
68
100
AcDbEntity
  8
0
  6
SLD-Durchgehend
 62
     8
420
  8421504
370
     0
100
AcDbSpline
210
0.0
220
0.0
230
1.0
 70
     8
 71
     3
 72
     8
 73
     4
 74
     0
 42
0.00000001
 43
0.00000001
 40
3.0
 40
3.0
 40
3.0
 40
3.0
 40
4.0
 40
4.0
 40
4.0
 40
4.0
 10
27.42060017903653
 20
4.749849609375023
 30
0.0
 10
27.43443912760424
 20
2.335423339843767
 30
0.0
 10
26.22695727539071
 20
1.299517578124992
 30
0.0
 10
24.67686067708341
 20
1.295218098958356
 30
0.0
  0
SPLINE
  5
B8
330
68
100
AcDbEntity
  8
0
  6
SLD-Durchgehend
 62
     8
420
  8421504
370
     0
100
AcDbSpline
210
0.0
220
0.0
230
1.0
 70
     8
 71
     3
 72
     8
 73
     4
 74
     0
 42
0.00000001
 43
0.00000001
 40
1.0
 40
1.0
 40
1.0
 40
1.0
 40
2.0
 40
2.0
 40
2.0
 40
2.0
 10
34.22721313476568
 20
9.457241861979188
 30
0.0
 10
33.10639265950532
 20
9.457241861979188
 30
0.0
 10
32.08392277018235
 20
9.044357503255245
 30
0.0
 10
31.34589029947926
 20
8.243982584635406
 30
0.0
  0
SPLINE
  5
B9
330
68
100
AcDbEntity
  8
0
  6
SLD-Durchgehend
 62
     8
420
  8421504
370
     0
100
AcDbSpline
210
0.0
220
0.0
230
1.0
 70
     8
 71
     3
 72
     8
 73
     4
 74
     0
 42
0.00000001
 43
0.00000001
 40
12.0
 40
12.0
 40
12.0
 40
12.0
 40
13.0
 40
13.0
 40
13.0
 40
13.0
 10
74.00263541666673
 20
1.254910481770843
 30
0.0
 10
74.74053352864584
 20
0.4562822265624933
 30
0.0
 10
75.76380957031247
 20
0.0421886393229265
 30
0.0
 10
76.88489876302096
 20
0.042726074218763
 30
0.0
  0
SPLINE
  5
BA
330
68
100
AcDbEntity
  8
0
  6
SLD-Durchgehend
 62
     8
420
  8421504
370
     0
100
AcDbSpline
210
0.0
220
0.0
230
1.0
 70
     8
 71
     3
 72
     8
 73
     4
 74
     0
 42
0.00000001
 43
0.00000001
 40
12.0
 40
12.0
 40
12.0
 40
12.0
 40
13.0
 40
13.0
 40
13.0
 40
13.0
 10
70.80973470052088
 20
8.574773763020849
 30
0.0
 10
70.2827797851563
 20
9.138542968750023
 30
0.0
 10
69.47474641927087
 20
9.457241861979188
 30
0.0
 10
68.3797228190105
 20
9.457241861979188
 30
0.0
  0
SPLINE
  5
BB
330
68
100
AcDbEntity
  8
0
  6
SLD-Durchgehend
 62
     8
420
  8421504
370
     0
100
AcDbSpline
210
0.0
220
0.0
230
1.0
 70
     8
 71
     3
 72
     8
 73
     4
 74
     0
 42
0.00000001
 43
0.00000001
 40
9.0
 40
9.0
 40
9.0
 40
9.0
 40
10.0
 40
10.0
 40
10.0
 40
10.0
 10
55.77042529296883
 20
4.750924479166668
 30
0.0
 10
55.80186523437503
 20
1.950082519531271
 30
0.0
 10
57.58184960937507
 20
0.0408450520833215
 30
0.0
 10
59.83988232421878
 20
0.042726074218763
 30
0.0
  0
SPLINE
  5
BC
330
68
100
AcDbEntity
  8
0
  6
SLD-Durchgehend
 62
     8
420
  8421504
370
     0
100
AcDbSpline
210
0.0
220
0.0
230
1.0
 70
     8
 71
     3
 72
     8
 73
     4
 74
     0
 42
0.00000001
 43
0.00000001
 40
3.0
 40
3.0
 40
3.0
 40
3.0
 40
4.0
 40
4.0
 40
4.0
 40
4.0
 10
20.60686621093755
 20
4.749849609375023
 30
0.0
 10
20.60686621093755
 20
3.233477050781253
 30
0.0
 10
21.0562961425782
 20
2.054344889322906
 30
0.0
 10
21.79486604817715
 20
1.254910481770843
 30
0.0
  0
SPLINE
  5
BD
330
68
100
AcDbEntity
  8
0
  6
SLD-Durchgehend
 62
     8
420
  8421504
370
     0
100
AcDbSpline
210
0.0
220
0.0
230
1.0
 70
     8
 71
     3
 72
     8
 73
     4
 74
     0
 42
0.00000001
 43
0.00000001
 40
0.0
 40
0.0
 40
0.0
 40
0.0
 40
1.0
 40
1.0
 40
1.0
 40
1.0
 10
27.42946785481776
 20
8.233636962890644
 30
0.0
 10
26.7880393066407
 20
9.013992431640666
 30
0.0
 10
25.73574178059906
 20
9.457241861979188
 30
0.0
 10
24.67686067708341
 20
9.457241861979188
 30
0.0
  0
SPLINE
  5
BE
330
68
100
AcDbEntity
  8
0
  6
SLD-Durchgehend
 62
     8
420
  8421504
370
     0
100
AcDbSpline
210
0.0
220
0.0
230
1.0
 70
     8
 71
     3
 72
     8
 73
     4
 74
     0
 42
0.00000001
 43
0.00000001
 40
2.0
 40
2.0
 40
2.0
 40
2.0
 40
3.0
 40
3.0
 40
3.0
 40
3.0
 10
74.14021874999999
 20
4.749849609375023
 30
0.0
 10
74.1480115559896
 20
6.950779866536499
 30
0.0
 10
75.33574267578136
 20
8.200584716796937
 30
0.0
 10
76.88489876302096
 20
8.204212402343785
 30
0.0
  0
SPLINE
  5
BF
330
68
100
AcDbEntity
  8
0
  6
SLD-Durchgehend
 62
     8
420
  8421504
370
     0
100
AcDbSpline
210
0.0
220
0.0
230
1.0
 70
     8
 71
     3
 72
     8
 73
     4
 74
     0
 42
0.00000001
 43
0.00000001
 40
1.0
 40
1.0
 40
1.0
 40
1.0
 40
2.0
 40
2.0
 40
2.0
 40
2.0
 10
34.22721313476568
 20
8.204212402343785
 30
0.0
 10
35.91368383789073
 20
8.200584716796937
 30
0.0
 10
36.53992985026044
 20
7.025617675781248
 30
0.0
 10
36.80004833984385
 20
5.812895833333359
 30
0.0
  0
SPLINE
  5
C0
330
68
100
AcDbEntity
  8
0
  6
SLD-Durchgehend
 62
     8
420
  8421504
370
     0
100
AcDbSpline
210
0.0
220
0.0
230
1.0
 70
     8
 71
     3
 72
     8
 73
     4
 74
     0
 42
0.00000001
 43
0.00000001
 40
5.0
 40
5.0
 40
5.0
 40
5.0
 40
6.0
 40
6.0
 40
6.0
 40
6.0
 10
0.0012092285156529
 20
4.685894856770845
 30
0.0
 10
0.0138389485677681
 20
1.636489257812512
 30
0.0
 10
1.823785319010451
 20
0.0
 30
0.0
 10
4.062336018880286
 20
0.0
 30
0.0
  0
SPLINE
  5
C1
330
68
100
AcDbEntity
  8
0
  6
SLD-Durchgehend
 62
     8
420
  8421504
370
     0
100
AcDbSpline
210
0.0
220
0.0
230
1.0
 70
     8
 71
     3
 72
     8
 73
     4
 74
     0
 42
0.00000001
 43
0.00000001
 40
6.0
 40
6.0
 40
6.0
 40
6.0
 40
7.0
 40
7.0
 40
7.0
 40
7.0
 10
18.07675708007817
 20
1.254910481770843
 30
0.0
 10
18.81505826822921
 20
2.054344889322906
 30
0.0
 10
19.26462255859379
 20
3.233477050781253
 30
0.0
 10
19.26462255859379
 20
4.749849609375023
 30
0.0
  0
SPLINE
  5
C2
330
68
100
AcDbEntity
  8
0
  6
SLD-Durchgehend
 62
     8
420
  8421504
370
     0
100
AcDbSpline
210
0.0
220
0.0
230
1.0
 70
     8
 71
     3
 72
    11
 73
     7
 74
     0
 42
0.00000001
 43
0.00000001
 40
1.0
 40
1.0
 40
1.0
 40
1.0
 40
2.0
 40
2.0
 40
2.0
 40
3.0
 40
3.0
 40
3.0
 40
3.0
 10
5.561376302083421
 20
8.20851188151045
 30
0.0
 10
6.718876708984411
 20
7.771442952474006
 30
0.0
 10
7.516833170573001
 20
6.539373453776087
 30
0.0
 10
7.516833170573001
 20
4.717872233072989
 30
0.0
 10
7.516833170573001
 20
2.882800781250028
 30
0.0
 10
6.720220296223989
 20
1.659598958333341
 30
0.0
 10
5.564063476562575
 20
1.2250828450521
 30
0.0
  0
SPLINE
  5
C3
330
68
100
AcDbEntity
  8
0
  6
SLD-Durchgehend
 62
     8
420
  8421504
370
     0
100
AcDbSpline
210
0.0
220
0.0
230
1.0
 70
     8
 71
     3
 72
     8
 73
     4
 74
     0
 42
0.00000001
 43
0.00000001
 40
0.0
 40
0.0
 40
0.0
 40
0.0
 40
1.0
 40
1.0
 40
1.0
 40
1.0
 10
76.88489876302096
 20
1.295218098958356
 30
0.0
 10
75.33466780598962
 20
1.299517578124992
 30
0.0
 10
74.1480115559896
 20
2.531049641927074
 30
0.0
 10
74.14075618489579
 20
4.749849609375023
 30
0.0
  0
SPLINE
  5
C4
330
68
100
AcDbEntity
  8
0
  6
SLD-Durchgehend
 62
     8
420
  8421504
370
     0
100
AcDbSpline
210
0.0
220
0.0
230
1.0
 70
     8
 71
     3
 72
     8
 73
     4
 74
     0
 42
0.00000001
 43
0.00000001
 40
3.0
 40
3.0
 40
3.0
 40
3.0
 40
4.0
 40
4.0
 40
4.0
 40
4.0
 10
51.46584049479175
 20
8.280662516276044
 30
0.0
 10
52.31525634765632
 20
8.27394458007813
 30
0.0
 10
52.87956298828134
 20
7.916416015625011
 30
0.0
 10
53.23856949869798
 20
7.313951497395832
 30
0.0
  0
SPLINE
  5
C5
330
68
100
AcDbEntity
  8
0
  6
SLD-Durchgehend
 62
     8
420
  8421504
370
     0
100
AcDbSpline
210
0.0
220
0.0
230
1.0
 70
     8
 71
     3
 72
     8
 73
     4
 74
     0
 42
0.00000001
 43
0.00000001
 40
0.0
 40
0.0
 40
0.0
 40
0.0
 40
1.0
 40
1.0
 40
1.0
 40
1.0
 10
43.64884993489593
 20
9.456301350911467
 30
0.0
 10
42.70457682291673
 20
9.458854166666697
 30
0.0
 10
41.72429557291679
 20
9.11812044270835
 30
0.0
 10
41.12290592447921
 20
8.216842122395818
 30
0.0
  0
SPLINE
  5
C6
330
68
100
AcDbEntity
  8
0
  6
SLD-Durchgehend
 62
     8
420
  8421504
370
     0
100
AcDbSpline
210
0.0
220
0.0
230
1.0
 70
     8
 71
     3
 72
     8
 73
     4
 74
     0
 42
0.00000001
 43
0.00000001
 40
21.0
 40
21.0
 40
21.0
 40
21.0
 40
22.0
 40
22.0
 40
22.0
 40
22.0
 10
84.03842594401046
 20
0.4976647135416512
 30
0.0
 10
84.34771972656252
 20
0.2751666666666597
 30
0.0
 10
84.74488411458336
 20
0.2203483072916457
 30
0.0
 10
85.14742285156251
 20
0.219810872395837
 30
0.0
  0
SPLINE
  5
C7
330
68
100
AcDbEntity
  8
0
  6
SLD-Durchgehend
 62
     8
420
  8421504
370
     0
100
AcDbSpline
210
0.0
220
0.0
230
1.0
 70
     8
 71
     3
 72
     8
 73
     4
 74
     0
 42
0.00000001
 43
0.00000001
 40
13.0
 40
13.0
 40
13.0
 40
13.0
 40
14.0
 40
14.0
 40
14.0
 40
14.0
 10
51.06276432291678
 20
4.42792610677084
 30
0.0
 10
51.7117169596355
 20
4.297598144531261
 30
0.0
 10
52.35314550781256
 20
4.193335774739571
 30
0.0
 10
52.81372721354172
 20
3.971375162760415
 30
0.0
  0
SPLINE
  5
C8
330
68
100
AcDbEntity
  8
0
  6
SLD-Durchgehend
 62
     8
420
  8421504
370
     0
100
AcDbSpline
210
0.0
220
0.0
230
1.0
 70
     8
 71
     3
 72
     8
 73
     4
 74
     0
 42
0.00000001
 43
0.00000001
 40
11.0
 40
11.0
 40
11.0
 40
11.0
 40
12.0
 40
12.0
 40
12.0
 40
12.0
 10
46.84363167317706
 20
6.298065185546875
 30
0.0
 10
46.84363167317706
 20
7.218691162109381
 30
0.0
 10
46.60608544921885
 20
8.012213785807297
 30
0.0
 10
46.07899617513023
 20
8.574773763020849
 30
0.0
  0
SPLINE
  5
C9
330
68
100
AcDbEntity
  8
0
  6
SLD-Durchgehend
 62
     8
420
  8421504
370
     0
100
AcDbSpline
210
0.0
220
0.0
230
1.0
 70
     8
 71
     3
 72
     8
 73
     4
 74
     0
 42
0.00000001
 43
0.00000001
 40
0.0
 40
0.0
 40
0.0
 40
0.0
 40
1.0
 40
1.0
 40
1.0
 40
1.0
 10
31.64739127604171
 20
5.812895833333359
 30
0.0
 10
31.86881445312506
 20
7.166425618489569
 30
0.0
 10
32.79051529947924
 20
8.202197021484391
 30
0.0
 10
34.22721313476568
 20
8.204212402343785
 30
0.0
  0
SPLINE
  5
CA
330
68
100
AcDbEntity
  8
0
  6
SLD-Durchgehend
 62
     8
420
  8421504
370
     0
100
AcDbSpline
210
0.0
220
0.0
230
1.0
 70
     8
 71
     3
 72
     8
 73
     4
 74
     0
 42
0.00000001
 43
0.00000001
 40
14.0
 40
14.0
 40
14.0
 40
14.0
 40
15.0
 40
15.0
 40
15.0
 40
15.0
 10
52.81372721354172
 20
3.971375162760415
 30
0.0
 10
53.27430891927087
 20
3.743771484374991
 30
0.0
 10
53.55055045572921
 20
3.43823974609378
 30
0.0
 10
53.55592480468751
 20
2.828788574218755
 30
0.0
  0
SPLINE
  5
CB
330
68
100
AcDbEntity
  8
0
  6
SLD-Durchgehend
 62
     8
420
  8421504
370
     0
100
AcDbSpline
210
0.0
220
0.0
230
1.0
 70
     8
 71
     3
 72
     8
 73
     4
 74
     0
 42
0.00000001
 43
0.00000001
 40
10.0
 40
10.0
 40
10.0
 40
10.0
 40
11.0
 40
11.0
 40
11.0
 40
11.0
 10
74.00263541666673
 20
8.243982584635406
 30
0.0
 10
73.26554345703128
 20
7.445354329427111
 30
0.0
 10
72.81490429687499
 20
6.265550374348977
 30
0.0
 10
72.81490429687499
 20
4.749849609375023
 30
0.0
  0
SPLINE
  5
CC
330
68
100
AcDbEntity
  8
0
  6
SLD-Durchgehend
 62
     8
420
  8421504
370
     0
100
AcDbSpline
210
0.0
220
0.0
230
1.0
 70
     8
 71
     3
 72
     8
 73
     4
 74
     0
 42
0.00000001
 43
0.00000001
 40
7.0
 40
7.0
 40
7.0
 40
7.0
 40
8.0
 40
8.0
 40
8.0
 40
8.0
 10
19.26462255859379
 20
4.749849609375023
 30
0.0
 10
19.26462255859379
 20
6.265550374348977
 30
0.0
 10
18.81505826822921
 20
7.445354329427111
 30
0.0
 10
18.07675708007817
 20
8.243982584635406
 30
0.0
  0
SPLINE
  5
CD
330
68
100
AcDbEntity
  8
0
  6
SLD-Durchgehend
 62
     8
420
  8421504
370
     0
100
AcDbSpline
210
0.0
220
0.0
230
1.0
 70
     8
 71
     3
 72
     8
 73
     4
 74
     0
 42
0.00000001
 43
0.00000001
 40
6.0
 40
6.0
 40
6.0
 40
6.0
 40
7.0
 40
7.0
 40
7.0
 40
7.0
 10
4.062336018880286
 20
0.0
 30
0.0
 10
4.228269042968802
 20
0.0
 30
0.0
 10
4.394202067057318
 20
0.0061805013021055
 30
0.0
 10
4.560135091145945
 20
0.0177353515624923
 30
0.0
  0
SPLINE
  5
CE
330
68
100
AcDbEntity
  8
0
  6
SLD-Durchgehend
 62
     8
420
  8421504
370
     0
100
AcDbSpline
210
0.0
220
0.0
230
1.0
 70
     8
 71
     3
 72
     8
 73
     4
 74
     0
 42
0.00000001
 43
0.00000001
 40
12.0
 40
12.0
 40
12.0
 40
12.0
 40
13.0
 40
13.0
 40
13.0
 40
13.0
 10
36.7268228352865
 20
2.983301106770864
 30
0.0
 10
36.36123274739589
 20
1.957337890624994
 30
0.0
 10
35.61003312174482
 20
1.316715494791676
 30
0.0
 10
34.32247347005213
 20
1.295218098958356
 30
0.0
  0
SPLINE
  5
CF
330
68
100
AcDbEntity
  8
0
  6
SLD-Durchgehend
 62
     8
420
  8421504
370
     0
100
AcDbSpline
210
0.0
220
0.0
230
1.0
 70
     8
 71
     3
 72
     8
 73
     4
 74
     0
 42
0.00000001
 43
0.00000001
 40
5.0
 40
5.0
 40
5.0
 40
5.0
 40
6.0
 40
6.0
 40
6.0
 40
6.0
 10
8.968444824218825
 20
4.717872233072934
 30
0.0
 10
8.960920735677114
 20
6.980607503255215
 30
0.0
 10
7.740137369791733
 20
8.267092285156236
 30
0.0
 10
6.145836751302147
 20
8.270182535807303
 30
0.0
  0
SPLINE
  5
D0
330
68
100
AcDbEntity
  8
0
  6
SLD-Durchgehend
 62
     8
420
  8421504
370
     0
100
AcDbSpline
210
0.0
220
0.0
230
1.0
 70
     8
 71
     3
 72
     8
 73
     4
 74
     0
 42
0.00000001
 43
0.00000001
 40
6.0
 40
6.0
 40
6.0
 40
6.0
 40
7.0
 40
7.0
 40
7.0
 40
7.0
 10
24.69110270182295
 20
0.042726074218763
 30
0.0
 10
26.58582942708338
 20
0.042726074218763
 30
0.0
 10
28.2107638346355
 20
1.177519856770837
 30
0.0
 10
28.63184407552088
 20
3.418892089843722
 30
0.0
  0
SPLINE
  5
D1
330
68
100
AcDbEntity
  8
0
  6
SLD-Durchgehend
 62
     8
420
  8421504
370
     0
100
AcDbSpline
210
0.0
220
0.0
230
1.0
 70
     8
 71
     3
 72
     8
 73
     4
 74
     0
 42
0.00000001
 43
0.00000001
 40
7.0
 40
7.0
 40
7.0
 40
7.0
 40
8.0
 40
8.0
 40
8.0
 40
8.0
 10
63.49417089843756
 20
7.262626464843741
 30
0.0
 10
62.69339290364584
 20
9.104550211588542
 30
0.0
 10
61.20684798177089
 20
9.462616210937497
 30
0.0
 10
60.09408902994795
 20
9.456301350911467
 30
0.0
  0
SPLINE
  5
D2
330
68
100
AcDbEntity
  8
0
  6
SLD-Durchgehend
 62
     8
420
  8421504
370
     0
100
AcDbSpline
210
0.0
220
0.0
230
1.0
 70
     8
 71
     3
 72
     8
 73
     4
 74
     0
 42
0.00000001
 43
0.00000001
 40
3.0
 40
3.0
 40
3.0
 40
3.0
 40
4.0
 40
4.0
 40
4.0
 40
4.0
 10
59.9492503255209
 20
8.204212402343785
 30
0.0
 10
60.97360123697926
 20
8.200584716796937
 30
0.0
 10
61.75395670572925
 20
7.899083740234375
 30
0.0
 10
62.09979606119798
 20
7.175830729166694
 30
0.0
  0
SPLINE
  5
D3
330
68
100
AcDbEntity
  8
0
  6
SLD-Durchgehend
 62
     8
420
  8421504
370
     0
100
AcDbSpline
210
0.0
220
0.0
230
1.0
 70
     8
 71
     3
 72
     8
 73
     4
 74
     0
 42
0.00000001
 43
0.00000001
 40
20.0
 40
20.0
 40
20.0
 40
20.0
 40
21.0
 40
21.0
 40
21.0
 40
21.0
 10
48.06360888671879
 20
2.606559244791668
 30
0.0
 10
48.56987255859379
 20
0.9749069010416556
 30
0.0
 10
50.06421028645847
 20
0.0706726888020925
 30
0.0
 10
51.48948763020844
 20
0.0228409830728971
 30
0.0
  0
SPLINE
  5
D4
330
68
100
AcDbEntity
  8
0
  6
SLD-Durchgehend
 62
     8
420
  8421504
370
     0
100
AcDbSpline
210
0.0
220
0.0
230
1.0
 70
     8
 71
     3
 72
     8
 73
     4
 74
     0
 42
0.00000001
 43
0.00000001
 40
0.0
 40
0.0
 40
0.0
 40
0.0
 40
1.0
 40
1.0
 40
1.0
 40
1.0
 10
38.29720760091148
 20
4.790694661458344
 30
0.0
 10
38.21511442057302
 20
7.406121582031244
 30
0.0
 10
36.88697843424493
 20
9.462078776041661
 30
0.0
 10
34.22721313476568
 20
9.457241861979188
 30
0.0
  0
SPLINE
  5
D5
330
68
100
AcDbEntity
  8
0
  6
SLD-Durchgehend
 62
     8
420
  8421504
370
     0
100
AcDbSpline
210
0.0
220
0.0
230
1.0
 70
     8
 71
     3
 72
     8
 73
     4
 74
     0
 42
0.00000001
 43
0.00000001
 40
12.0
 40
12.0
 40
12.0
 40
12.0
 40
13.0
 40
13.0
 40
13.0
 40
13.0
 10
48.38257649739586
 20
6.909397379557314
 30
0.0
 10
48.37773958333347
 20
5.088433593750024
 30
0.0
 10
49.77641389973964
 20
4.674340006510402
 30
0.0
 10
51.06276432291678
 20
4.42792610677084
 30
0.0
  0
SPLINE
  5
D6
330
68
100
AcDbEntity
  8
0
  6
SLD-Durchgehend
 62
     8
420
  8421504
370
     0
100
AcDbSpline
210
0.0
220
0.0
230
1.0
 70
     8
 71
     3
 72
     8
 73
     4
 74
     0
 42
0.00000001
 43
0.00000001
 40
15.0
 40
15.0
 40
15.0
 40
15.0
 40
16.0
 40
16.0
 40
16.0
 40
16.0
 10
53.55592480468751
 20
2.828788574218755
 30
0.0
 10
53.55538736979171
 20
1.501055664062501
 30
0.0
 10
52.48186116536468
 20
1.197404947916675
 30
0.0
 10
51.5840761718751
 20
1.160321940104153
 30
0.0
  0
SPLINE
  5
D7
330
68
100
AcDbEntity
  8
0
  6
SLD-Durchgehend
 62
     8
420
  8421504
370
     0
100
AcDbSpline
210
0.0
220
0.0
230
1.0
 70
     8
 71
     3
 72
     8
 73
     4
 74
     0
 42
0.00000001
 43
0.00000001
 40
6.0
 40
6.0
 40
6.0
 40
6.0
 40
7.0
 40
7.0
 40
7.0
 40
7.0
 10
34.29613916015634
 20
0.0443383789062446
 30
0.0
 10
34.31414322916676
 20
0.0443383789062446
 30
0.0
 10
34.33873087565109
 20
0.042726074218763
 30
0.0
 10
34.36748364257819
 20
0.042726074218763
 30
0.0
  0
SPLINE
  5
D8
330
68
100
AcDbEntity
  8
0
  6
SLD-Durchgehend
 62
     8
420
  8421504
370
     0
100
AcDbSpline
210
0.0
220
0.0
230
1.0
 70
     8
 71
     3
 72
     8
 73
     4
 74
     0
 42
0.00000001
 43
0.00000001
 40
2.0
 40
2.0
 40
2.0
 40
2.0
 40
3.0
 40
3.0
 40
3.0
 40
3.0
 10
57.09573974609383
 20
4.749849609375023
 30
0.0
 10
57.10192024739591
 20
7.104620605468737
 30
0.0
 10
58.51725504557304
 20
8.198569335937517
 30
0.0
 10
59.9492503255209
 20
8.204212402343785
 30
0.0
  0
SPLINE
  5
D9
330
68
100
AcDbEntity
  8
0
  6
SLD-Durchgehend
 62
     8
420
  8421504
370
     0
100
AcDbSpline
210
0.0
220
0.0
230
1.0
 70
     8
 71
     3
 72
     8
 73
     4
 74
     0
 42
0.00000001
 43
0.00000001
 40
1.0
 40
1.0
 40
1.0
 40
1.0
 40
2.0
 40
2.0
 40
2.0
 40
2.0
 10
50.4468639322917
 20
5.883568522135397
 30
0.0
 10
49.98090787760423
 20
6.094914794921885
 30
0.0
 10
49.71192171223959
 20
6.358795328776062
 30
0.0
 10
49.70762223307301
 20
6.873254882812541
 30
0.0
  0
SPLINE
  5
DA
330
68
100
AcDbEntity
  8
0
  6
SLD-Durchgehend
 62
     8
420
  8421504
370
     0
100
AcDbSpline
210
0.0
220
0.0
230
1.0
 70
     8
 71
     3
 72
     8
 73
     4
 74
     0
 42
0.00000001
 43
0.00000001
 40
7.0
 40
7.0
 40
7.0
 40
7.0
 40
8.0
 40
8.0
 40
8.0
 40
8.0
 10
43.50280200195311
 20
8.204212402343785
 30
0.0
 10
44.85162923177089
 20
8.182311930338553
 30
0.0
 10
45.49587931315102
 20
7.703860514322924
 30
0.0
 10
45.51845157877609
 20
5.969826822916663
 30
0.0
  0
SPLINE
  5
DB
330
68
100
AcDbEntity
  8
0
  6
SLD-Durchgehend
 62
     8
420
  8421504
370
     0
100
AcDbSpline
210
0.0
220
0.0
230
1.0
 70
     8
 71
     3
 72
     8
 73
     4
 74
     0
 42
0.00000001
 43
0.00000001
 40
1.0
 40
1.0
 40
1.0
 40
1.0
 40
2.0
 40
2.0
 40
2.0
 40
2.0
 10
12.45048551432298
 20
4.749849609375023
 30
0.0
 10
12.45800960286464
 20
6.950779866536499
 30
0.0
 10
13.64560636393236
 20
8.20058471679691
 30
0.0
 10
15.19462809244798
 20
8.20421240234373
 30
0.0
  0
SPLINE
  5
DC
330
68
100
AcDbEntity
  8
0
  6
SLD-Durchgehend
 62
     8
420
  8421504
370
     0
100
AcDbSpline
210
0.0
220
0.0
230
1.0
 70
     8
 71
     3
 72
     8
 73
     4
 74
     0
 42
0.00000001
 43
0.00000001
 40
8.0
 40
8.0
 40
8.0
 40
8.0
 40
9.0
 40
9.0
 40
9.0
 40
9.0
 10
34.37715747070319
 20
0.042726074218763
 30
0.0
 10
36.11051936848963
 20
0.042726074218763
 30
0.0
 10
37.59921402994804
 20
1.048804199218739
 30
0.0
 10
38.17292578125009
 20
2.911016113281234
 30
0.0
  0
SPLINE
  5
DD
330
68
100
AcDbEntity
  8
0
  6
SLD-Durchgehend
 62
     8
420
  8421504
370
     0
100
AcDbSpline
210
0.0
220
0.0
230
1.0
 70
     8
 71
     3
 72
     8
 73
     4
 74
     0
 42
0.00000001
 43
0.00000001
 40
8.0
 40
8.0
 40
8.0
 40
8.0
 40
9.0
 40
9.0
 40
9.0
 40
9.0
 10
51.52549576822918
 20
9.432251139322917
 30
0.0
 10
51.49298095703136
 20
9.432251139322917
 30
0.0
 10
51.46584049479175
 20
9.430101399739598
 30
0.0
 10
51.44219335937505
 20
9.430101399739598
 30
0.0
  0
SPLINE
  5
DE
330
68
100
AcDbEntity
  8
0
  6
SLD-Durchgehend
 62
     8
420
  8421504
370
     0
100
AcDbSpline
210
0.0
220
0.0
230
1.0
 70
     8
 71
     3
 72
     8
 73
     4
 74
     0
 42
0.00000001
 43
0.00000001
 40
20.0
 40
20.0
 40
20.0
 40
20.0
 40
21.0
 40
21.0
 40
21.0
 40
21.0
 10
83.53699918619795
 20
1.707699381510441
 30
0.0
 10
83.5348494466146
 20
1.111684082031245
 30
0.0
 10
83.72751985677095
 20
0.7201627604166427
 30
0.0
 10
84.03842594401046
 20
0.4976647135416512
 30
0.0
  0
SPLINE
  5
DF
330
68
100
AcDbEntity
  8
0
  6
SLD-Durchgehend
 62
     8
420
  8421504
370
     0
100
AcDbSpline
210
0.0
220
0.0
230
1.0
 70
     8
 71
     3
 72
     8
 73
     4
 74
     0
 42
0.00000001
 43
0.00000001
 40
2.0
 40
2.0
 40
2.0
 40
2.0
 40
3.0
 40
3.0
 40
3.0
 40
3.0
 10
11.12543977864588
 20
4.749849609375023
 30
0.0
 10
11.12517106119798
 20
3.233477050781253
 30
0.0
 10
11.57473535156256
 20
2.054344889322906
 30
0.0
 10
12.31276782226565
 20
1.254910481770843
 30
0.0
  0
SPLINE
  5
E0
330
68
100
AcDbEntity
  8
0
  6
SLD-Durchgehend
 62
     8
420
  8421504
370
     0
100
AcDbSpline
210
0.0
220
0.0
230
1.0
 70
     8
 71
     3
 72
     8
 73
     4
 74
     0
 42
0.00000001
 43
0.00000001
 40
8.0
 40
8.0
 40
8.0
 40
8.0
 40
9.0
 40
9.0
 40
9.0
 40
9.0
 10
60.09408902994795
 20
9.456301350911467
 30
0.0
 10
57.51681998697921
 20
9.462616210937497
 30
0.0
 10
55.79864062500006
 20
7.546929524739593
 30
0.0
 10
55.77042529296883
 20
4.750924479166668
 30
0.0
  0
SPLINE
  5
E1
330
68
100
AcDbEntity
  8
0
  6
SLD-Durchgehend
 62
     8
420
  8421504
370
     0
100
AcDbSpline
210
0.0
220
0.0
230
1.0
 70
     8
 71
     3
 72
     8
 73
     4
 74
     0
 42
0.00000001
 43
0.00000001
 40
14.0
 40
14.0
 40
14.0
 40
14.0
 40
15.0
 40
15.0
 40
15.0
 40
15.0
 10
34.29654223632816
 20
1.295755533854165
 30
0.0
 10
32.43594262695321
 20
1.31456575520833
 30
0.0
 10
31.64188256835942
 20
2.634774576822957
 30
0.0
 10
31.62965592447925
 20
4.54938639322916
 30
0.0
  0
SPLINE
  5
E2
330
68
100
AcDbEntity
  8
0
  6
SLD-Durchgehend
 62
     8
420
  8421504
370
     0
100
AcDbSpline
210
0.0
220
0.0
230
1.0
 70
     8
 71
     3
 72
     8
 73
     4
 74
     0
 42
0.00000001
 43
0.00000001
 40
2.0
 40
2.0
 40
2.0
 40
2.0
 40
3.0
 40
3.0
 40
3.0
 40
3.0
 10
31.34589029947926
 20
8.243982584635406
 30
0.0
 10
30.60785782877612
 20
7.445354329427111
 30
0.0
 10
30.15748738606777
 20
6.265550374348977
 30
0.0
 10
30.15829353841154
 20
4.748774739583323
 30
0.0
  0
SPLINE
  5
E3
330
68
100
AcDbEntity
  8
0
  6
SLD-Durchgehend
 62
     8
420
  8421504
370
     0
100
AcDbSpline
210
0.0
220
0.0
230
1.0
 70
     8
 71
     3
 72
     8
 73
     4
 74
     0
 42
0.00000001
 43
0.00000001
 40
3.0
 40
3.0
 40
3.0
 40
3.0
 40
4.0
 40
4.0
 40
4.0
 40
4.0
 10
5.564063476562575
 20
1.2250828450521
 30
0.0
 10
5.75082210286465
 20
1.185312662760396
 30
0.0
 10
5.94537353515634
 20
1.165427571614586
 30
0.0
 10
6.145836751302147
 20
1.164621419270817
 30
0.0
  0
SPLINE
  5
E4
330
68
100
AcDbEntity
  8
0
  6
SLD-Durchgehend
 62
     8
420
  8421504
370
     0
100
AcDbSpline
210
0.0
220
0.0
230
1.0
 70
     8
 71
     3
 72
     8
 73
     4
 74
     0
 42
0.00000001
 43
0.00000001
 40
2.0
 40
2.0
 40
2.0
 40
2.0
 40
3.0
 40
3.0
 40
3.0
 40
3.0
 10
49.70762223307301
 20
6.873254882812541
 30
0.0
 10
49.72562630208343
 20
7.668792887369796
 30
0.0
 10
50.01718473307293
 20
8.211064697265623
 30
0.0
 10
51.46584049479175
 20
8.280662516276044
 30
0.0
  0
SPLINE
  5
E5
330
68
100
AcDbEntity
  8
0
  6
SLD-Durchgehend
 62
     8
420
  8421504
370
     0
100
AcDbSpline
210
0.0
220
0.0
230
1.0
 70
     8
 71
     3
 72
     8
 73
     4
 74
     0
 42
0.00000001
 43
0.00000001
 40
3.0
 40
3.0
 40
3.0
 40
3.0
 40
4.0
 40
4.0
 40
4.0
 40
4.0
 10
17.938636311849
 20
4.749849609375023
 30
0.0
 10
17.93151529947923
 20
2.531049641927074
 30
0.0
 10
16.74526212565108
 20
1.299517578124992
 30
0.0
 10
15.19462809244798
 20
1.29468066406252
 30
0.0
  0
SPLINE
  5
E6
330
68
100
AcDbEntity
  8
0
  6
SLD-Durchgehend
 62
     8
420
  8421504
370
     0
100
AcDbSpline
210
0.0
220
0.0
230
1.0
 70
     8
 71
     3
 72
     8
 73
     4
 74
     0
 42
0.00000001
 43
0.00000001
 40
0.0
 40
0.0
 40
0.0
 40
0.0
 40
1.0
 40
1.0
 40
1.0
 40
1.0
 10
62.21238867187506
 20
2.649822753906239
 30
0.0
 10
61.84021500651049
 20
1.882097005208305
 30
0.0
 10
61.16358447265635
 20
1.300055013020857
 30
0.0
 10
59.83988232421878
 20
1.29468066406252
 30
0.0
  0
SPLINE
  5
E7
330
68
100
AcDbEntity
  8
0
  6
SLD-Durchgehend
 62
     8
420
  8421504
370
     0
100
AcDbSpline
210
0.0
220
0.0
230
1.0
 70
     8
 71
     3
 72
     8
 73
     4
 74
     0
 42
0.00000001
 43
0.00000001
 40
0.0
 40
0.0
 40
0.0
 40
0.0
 40
1.0
 40
1.0
 40
1.0
 40
1.0
 10
15.19462809244798
 20
1.29468066406252
 30
0.0
 10
13.64466585286461
 20
1.299517578124992
 30
0.0
 10
12.4585470377605
 20
2.531049641927074
 30
0.0
 10
12.45048551432298
 20
4.749849609375023
 30
0.0
  0
SPLINE
  5
E8
330
68
100
AcDbEntity
  8
0
  6
SLD-Durchgehend
 62
     8
420
  8421504
370
     0
100
AcDbSpline
210
0.0
220
0.0
230
1.0
 70
     8
 71
     3
 72
     8
 73
     4
 74
     0
 42
0.00000001
 43
0.00000001
 40
7.0
 40
7.0
 40
7.0
 40
7.0
 40
8.0
 40
8.0
 40
8.0
 40
8.0
 10
28.63184407552088
 20
3.418892089843722
 30
0.0
 10
28.71447469075527
 20
3.858513834635424
 30
0.0
 10
28.74376489257818
 20
4.351610351562535
 30
0.0
 10
28.74376489257818
 20
4.603129882812473
 30
0.0
  0
SPLINE
  5
E9
330
68
100
AcDbEntity
  8
0
  6
SLD-Durchgehend
 62
     8
420
  8421504
370
     0
100
AcDbSpline
210
0.0
220
0.0
230
1.0
 70
     8
 71
     3
 72
     8
 73
     4
 74
     0
 42
0.00000001
 43
0.00000001
 40
7.0
 40
7.0
 40
7.0
 40
7.0
 40
8.0
 40
8.0
 40
8.0
 40
8.0
 10
54.51739583333337
 20
7.419691813151025
 30
0.0
 10
53.93938460286463
 20
8.730764241536487
 30
0.0
 10
52.81104003906256
 20
9.434266520182282
 30
0.0
 10
51.52549576822918
 20
9.432251139322917
 30
0.0
  0
SPLINE
  5
EA
330
68
100
AcDbEntity
  8
0
  6
SLD-Durchgehend
 62
     8
420
  8421504
370
     0
100
AcDbSpline
210
0.0
220
0.0
230
1.0
 70
     8
 71
     3
 72
     8
 73
     4
 74
     0
 42
0.00000001
 43
0.00000001
 40
1.0
 40
1.0
 40
1.0
 40
1.0
 40
2.0
 40
2.0
 40
2.0
 40
2.0
 10
12.31276782226565
 20
8.243982584635406
 30
0.0
 10
11.57473535156256
 20
7.445354329427111
 30
0.0
 10
11.12517106119798
 20
6.265550374348977
 30
0.0
 10
11.12543977864588
 20
4.749849609375023
 30
0.0
  0
SPLINE
  5
EB
330
68
100
AcDbEntity
  8
0
  6
SLD-Durchgehend
 62
     8
420
  8421504
370
     0
100
AcDbSpline
210
0.0
220
0.0
230
1.0
 70
     8
 71
     3
 72
     8
 73
     4
 74
     0
 42
0.00000001
 43
0.00000001
 40
0.0
 40
0.0
 40
0.0
 40
0.0
 40
1.0
 40
1.0
 40
1.0
 40
1.0
 10
52.20427604166667
 20
5.417075032552093
 30
0.0
 10
51.55478597005214
 20
5.566750651041675
 30
0.0
 10
50.91093896484378
 20
5.677193522135415
 30
0.0
 10
50.4468639322917
 20
5.883568522135397
 30
0.0
  0
SPLINE
  5
EC
330
68
100
AcDbEntity
  8
0
  6
SLD-Durchgehend
 62
     8
420
  8421504
370
     0
100
AcDbSpline
210
0.0
220
0.0
230
1.0
 70
     8
 71
     3
 72
     8
 73
     4
 74
     0
 42
0.00000001
 43
0.00000001
 40
7.0
 40
7.0
 40
7.0
 40
7.0
 40
8.0
 40
8.0
 40
8.0
 40
8.0
 10
68.23407796223968
 20
8.204212402343785
 30
0.0
 10
69.58196468098964
 20
8.181774495442745
 30
0.0
 10
70.22634912109382
 20
7.703860514322924
 30
0.0
 10
70.24838395182297
 20
5.970901692708363
 30
0.0
  0
SPLINE
  5
ED
330
68
100
AcDbEntity
  8
0
  6
SLD-Durchgehend
 62
     8
420
  8421504
370
     0
100
AcDbSpline
210
0.0
220
0.0
230
1.0
 70
     8
 71
     3
 72
     8
 73
     4
 74
     0
 42
0.00000001
 43
0.00000001
 40
4.0
 40
4.0
 40
4.0
 40
4.0
 40
5.0
 40
5.0
 40
5.0
 40
5.0
 10
6.145836751302147
 20
1.164621419270817
 30
0.0
 10
7.741077880859482
 20
1.168652180989577
 30
0.0
 10
8.9601145833334
 20
2.436998535156248
 30
0.0
 10
8.968444824218825
 20
4.717872233072934
 30
0.0
  0
SPLINE
  5
EE
330
68
100
AcDbEntity
  8
0
  6
SLD-Durchgehend
 62
     8
420
  8421504
370
     0
100
AcDbSpline
210
0.0
220
0.0
230
1.0
 70
     8
 71
     3
 72
     8
 73
     4
 74
     0
 42
0.00000001
 43
0.00000001
 40
4.0
 40
4.0
 40
4.0
 40
4.0
 40
5.0
 40
5.0
 40
5.0
 40
5.0
 10
31.34589029947926
 20
1.254910481770843
 30
0.0
 10
32.08338533528654
 20
0.4562822265624933
 30
0.0
 10
33.10639265950532
 20
0.0421886393229265
 30
0.0
 10
34.22721313476568
 20
0.042726074218763
 30
0.0
  0
SPLINE
  5
EF
330
68
100
AcDbEntity
  8
0
  6
SLD-Durchgehend
 62
     8
420
  8421504
370
     0
100
AcDbSpline
210
0.0
220
0.0
230
1.0
 70
     8
 71
     3
 72
     8
 73
     4
 74
     0
 42
0.00000001
 43
0.00000001
 40
1.0
 40
1.0
 40
1.0
 40
1.0
 40
2.0
 40
2.0
 40
2.0
 40
2.0
 10
24.67686067708341
 20
9.457241861979188
 30
0.0
 10
23.55523404947924
 20
9.457241861979188
 30
0.0
 10
22.53249544270841
 20
9.044357503255245
 30
0.0
 10
21.79486604817715
 20
8.243982584635406
 30
0.0
  0
SPLINE
  5
F0
330
68
100
AcDbEntity
  8
0
  6
SLD-Durchgehend
 62
     8
420
  8421504
370
     0
100
AcDbSpline
210
0.0
220
0.0
230
1.0
 70
     8
 71
     3
 72
     8
 73
     4
 74
     0
 42
0.00000001
 43
0.00000001
 40
1.0
 40
1.0
 40
1.0
 40
1.0
 40
2.0
 40
2.0
 40
2.0
 40
2.0
 10
59.83988232421878
 20
1.29468066406252
 30
0.0
 10
58.52182324218758
 20
1.298980143229184
 30
0.0
 10
57.10030794270837
 20
2.39454117838539
 30
0.0
 10
57.09573974609383
 20
4.749849609375023
 30
0.0
  0
SPLINE
  5
F1
330
68
100
AcDbEntity
  8
0
  6
SLD-Durchgehend
 62
     8
420
  8421504
370
     0
100
AcDbSpline
210
0.0
220
0.0
230
1.0
 70
    24
 71
     2
 72
     6
 73
     3
 74
     0
 42
0.00000001
 43
0.00000001
 40
24.0
 40
24.0
 40
24.0
 40
25.0
 40
25.0
 40
25.0
 10
86.31634375000007
 20
1.34761800130212
 30
0.0
 10
85.8866645507813
 20
1.34761800130212
 30
0.0
 10
85.38470035807299
 20
1.34761800130212
 30
0.0
  0
SPLINE
  5
F2
330
68
100
AcDbEntity
  8
0
  6
SLD-Durchgehend
 62
     8
420
  8421504
370
     0
100
AcDbSpline
210
0.0
220
0.0
230
1.0
 70
     8
 71
     3
 72
     8
 73
     4
 74
     0
 42
0.00000001
 43
0.00000001
 40
7.0
 40
7.0
 40
7.0
 40
7.0
 40
8.0
 40
8.0
 40
8.0
 40
8.0
 10
4.560135091145945
 20
0.0177353515624923
 30
0.0
 10
2.803529134114635
 20
0.4627314453124753
 30
0.0
 10
1.495815673828171
 20
2.040640299479202
 30
0.0
 10
1.454567545572993
 20
4.569808919270835
 30
0.0
  0
SPLINE
  5
F3
330
68
100
AcDbEntity
  8
0
  6
SLD-Durchgehend
 62
     8
420
  8421504
370
     0
100
AcDbSpline
210
0.0
220
0.0
230
1.0
 70
     8
 71
     3
 72
     8
 73
     4
 74
     0
 42
0.00000001
 43
0.00000001
 40
12.0
 40
12.0
 40
12.0
 40
12.0
 40
13.0
 40
13.0
 40
13.0
 40
13.0
 10
46.07899617513023
 20
8.574773763020849
 30
0.0
 10
45.55244433593752
 20
9.139080403645833
 30
0.0
 10
44.74427661132818
 20
9.457779296874996
 30
0.0
 10
43.64884993489593
 20
9.456301350911467
 30
0.0
  0
SPLINE
  5
F4
330
68
100
AcDbEntity
  8
0
  6
SLD-Durchgehend
 62
     8
420
  8421504
370
     0
100
AcDbSpline
210
0.0
220
0.0
230
1.0
 70
     8
 71
     3
 72
     8
 73
     4
 74
     0
 42
0.00000001
 43
0.00000001
 40
3.0
 40
3.0
 40
3.0
 40
3.0
 40
4.0
 40
4.0
 40
4.0
 40
4.0
 10
30.15829353841154
 20
4.748774739583323
 30
0.0
 10
30.15748738606777
 20
3.233477050781253
 30
0.0
 10
30.60785782877612
 20
2.054344889322906
 30
0.0
 10
31.34589029947926
 20
1.254910481770843
 30
0.0
  0
SPLINE
  5
F5
330
68
100
AcDbEntity
  8
0
  6
SLD-Durchgehend
 62
     8
420
  8421504
370
     0
100
AcDbSpline
210
0.0
220
0.0
230
1.0
 70
     8
 71
     3
 72
     8
 73
     4
 74
     0
 42
0.00000001
 43
0.00000001
 40
0.0
 40
0.0
 40
0.0
 40
0.0
 40
1.0
 40
1.0
 40
1.0
 40
1.0
 10
24.67686067708336
 20
1.29521809895837
 30
0.0
 10
23.12582356770837
 20
1.299517578125006
 30
0.0
 10
21.94024218750007
 20
2.531049641927102
 30
0.0
 10
21.93271809895836
 20
4.749849609375023
 30
0.0
  0
SPLINE
  5
F6
330
68
100
AcDbEntity
  8
0
  6
SLD-Durchgehend
 62
     8
420
  8421504
370
     0
100
AcDbSpline
210
0.0
220
0.0
230
1.0
 70
     8
 71
     3
 72
     8
 73
     4
 74
     0
 42
0.00000001
 43
0.00000001
 40
1.0
 40
1.0
 40
1.0
 40
1.0
 40
2.0
 40
2.0
 40
2.0
 40
2.0
 10
21.93271809895841
 20
4.749849609375009
 30
0.0
 10
21.93983911132824
 20
6.950779866536513
 30
0.0
 10
23.12662972005214
 20
8.200584716796925
 30
0.0
 10
24.67686067708341
 20
8.204212402343785
 30
0.0
  0
SPLINE
  5
F7
330
68
100
AcDbEntity
  8
0
  6
SLD-Durchgehend
 62
     8
420
  8421504
370
     0
100
AcDbSpline
210
0.0
220
0.0
230
1.0
 70
     8
 71
     3
 72
     8
 73
     4
 74
     0
 42
0.00000001
 43
0.00000001
 40
0.0
 40
0.0
 40
0.0
 40
0.0
 40
1.0
 40
1.0
 40
1.0
 40
1.0
 10
15.19462809244798
 20
9.456301350911467
 30
0.0
 10
14.07353889973967
 20
9.457241861979188
 30
0.0
 10
13.05026285807298
 20
9.044357503255245
 30
0.0
 10
12.31276782226565
 20
8.243982584635406
 30
0.0
  0
SPLINE
  5
F8
330
68
100
AcDbEntity
  8
0
  6
SLD-Durchgehend
 62
     8
420
  8421504
370
     0
100
AcDbSpline
210
0.0
220
0.0
230
1.0
 70
     8
 71
     3
 72
     8
 73
     4
 74
     0
 42
0.00000001
 43
0.00000001
 40
8.0
 40
8.0
 40
8.0
 40
8.0
 40
9.0
 40
9.0
 40
9.0
 40
9.0
 10
79.60136344401047
 20
8.40427254231771
 30
0.0
 10
78.87958837890629
 20
9.096085611979166
 30
0.0
 10
77.9261788736979
 20
9.457241861979188
 30
0.0
 10
76.88489876302096
 20
9.456301350911467
 30
0.0
  0
SPLINE
  5
F9
330
68
100
AcDbEntity
  8
0
  6
SLD-Durchgehend
 62
     8
420
  8421504
370
     0
100
AcDbSpline
210
0.0
220
0.0
230
1.0
 70
     8
 71
     3
 72
     8
 73
     4
 74
     0
 42
0.00000001
 43
0.00000001
 40
9.0
 40
9.0
 40
9.0
 40
9.0
 40
10.0
 40
10.0
 40
10.0
 40
10.0
 10
76.88489876302096
 20
9.456301350911467
 30
0.0
 10
75.76380957031247
 20
9.457241861979188
 30
0.0
 10
74.74053352864584
 20
9.044357503255245
 30
0.0
 10
74.00263541666673
 20
8.243982584635406
 30
0.0
  0
SPLINE
  5
FA
330
68
100
AcDbEntity
  8
0
  6
SLD-Durchgehend
 62
     8
420
  8421504
370
     0
100
AcDbSpline
210
0.0
220
0.0
230
1.0
 70
     8
 71
     3
 72
     8
 73
     4
 74
     0
 42
0.00000001
 43
0.00000001
 40
0.0
 40
0.0
 40
0.0
 40
0.0
 40
1.0
 40
1.0
 40
1.0
 40
1.0
 10
6.145836751302147
 20
8.270182535807303
 30
0.0
 10
5.944298665364666
 20
8.269645100911466
 30
0.0
 10
5.749075439453133
 20
8.248819498697934
 30
0.0
 10
5.561376302083421
 20
8.20851188151045
 30
0.0
  0
SPLINE
  5
FB
330
68
100
AcDbEntity
  8
0
  6
SLD-Durchgehend
 62
     8
420
  8421504
370
     0
100
AcDbSpline
210
0.0
220
0.0
230
1.0
 70
     8
 71
     3
 72
     8
 73
     4
 74
     0
 42
0.00000001
 43
0.00000001
 40
8.0
 40
8.0
 40
8.0
 40
8.0
 40
9.0
 40
9.0
 40
9.0
 40
9.0
 10
18.07675708007817
 20
8.243982584635406
 30
0.0
 10
17.3385902506511
 20
9.044357503255245
 30
0.0
 10
16.31585164388028
 20
9.457241861979188
 30
0.0
 10
15.19462809244798
 20
9.456301350911467
 30
0.0
  0
SPLINE
  5
FC
330
68
100
AcDbEntity
  8
0
  6
SLD-Durchgehend
 62
     8
420
  8421504
370
     0
100
AcDbSpline
210
0.0
220
0.0
230
1.0
 70
     8
 71
     3
 72
     8
 73
     4
 74
     0
 42
0.00000001
 43
0.00000001
 40
3.0
 40
3.0
 40
3.0
 40
3.0
 40
4.0
 40
4.0
 40
4.0
 40
4.0
 10
76.88489876302096
 20
8.204212402343785
 30
0.0
 10
78.4337861328126
 20
8.200584716796937
 30
0.0
 10
79.62124853515628
 20
6.950779866536499
 30
0.0
 10
79.62931005859375
 20
4.749849609375023
 30
0.0
  0
SPLINE
  5
FD
330
68
100
AcDbEntity
  8
0
  6
SLD-Durchgehend
 62
     8
420
  8421504
370
     0
100
AcDbSpline
210
0.0
220
0.0
230
1.0
 70
     8
 71
     3
 72
     8
 73
     4
 74
     0
 42
0.00000001
 43
0.00000001
 40
2.0
 40
2.0
 40
2.0
 40
2.0
 40
3.0
 40
3.0
 40
3.0
 40
3.0
 10
21.79486604817715
 20
8.243982584635406
 30
0.0
 10
21.0562961425782
 20
7.445354329427111
 30
0.0
 10
20.60686621093755
 20
6.265550374348977
 30
0.0
 10
20.60686621093755
 20
4.749849609375023
 30
0.0
  0
SPLINE
  5
FE
330
68
100
AcDbEntity
  8
0
  6
SLD-Durchgehend
 62
     8
420
  8421504
370
     0
100
AcDbSpline
210
0.0
220
0.0
230
1.0
 70
     8
 71
     3
 72
     8
 73
     4
 74
     0
 42
0.00000001
 43
0.00000001
 40
4.0
 40
4.0
 40
4.0
 40
4.0
 40
5.0
 40
5.0
 40
5.0
 40
5.0
 10
79.62931005859375
 20
4.749849609375023
 30
0.0
 10
79.62124853515628
 20
2.531049641927074
 30
0.0
 10
78.43486100260422
 20
1.299517578124992
 30
0.0
 10
76.88489876302096
 20
1.295218098958356
 30
0.0
  0
SPLINE
  5
FF
330
68
100
AcDbEntity
  8
0
  6
SLD-Durchgehend
 62
     8
420
  8421504
370
     0
100
AcDbSpline
210
0.0
220
0.0
230
1.0
 70
     8
 71
     3
 72
     8
 73
     4
 74
     0
 42
0.00000001
 43
0.00000001
 40
5.0
 40
5.0
 40
5.0
 40
5.0
 40
6.0
 40
6.0
 40
6.0
 40
6.0
 10
15.19839013671875
 20
0.042726074218763
 30
0.0
 10
16.31813574218754
 20
0.042726074218763
 30
0.0
 10
17.33899332682298
 20
0.4562822265624933
 30
0.0
 10
18.07675708007817
 20
1.254910481770843
 30
0.0
  0
SPLINE
  5
100
330
68
100
AcDbEntity
  8
0
  6
SLD-Durchgehend
 62
     8
420
  8421504
370
     0
100
AcDbSpline
210
0.0
220
0.0
230
1.0
 70
     8
 71
     3
 72
     8
 73
     4
 74
     0
 42
0.00000001
 43
0.00000001
 40
0.0
 40
0.0
 40
0.0
 40
0.0
 40
1.0
 40
1.0
 40
1.0
 40
1.0
 10
68.3797228190105
 20
9.457241861979188
 30
0.0
 10
67.43598714192711
 20
9.458854166666697
 30
0.0
 10
66.45355615234382
 20
9.117583007812513
 30
0.0
 10
65.85377880859377
 20
8.202197021484391
 30
0.0
  0
SPLINE
  5
101
330
68
100
AcDbEntity
  8
0
  6
SLD-Durchgehend
 62
     8
420
  8421504
370
     0
100
AcDbSpline
210
0.0
220
0.0
230
1.0
 70
     8
 71
     3
 72
     8
 73
     4
 74
     0
 42
0.00000001
 43
0.00000001
 40
5.0
 40
5.0
 40
5.0
 40
5.0
 40
6.0
 40
6.0
 40
6.0
 40
6.0
 10
34.22721313476568
 20
0.042726074218763
 30
0.0
 10
34.25677205403655
 20
0.042726074218763
 30
0.0
 10
34.27853816731774
 20
0.0443383789062446
 30
0.0
 10
34.29613916015634
 20
0.0443383789062446
 30
0.0
  0
SPLINE
  5
102
330
68
100
AcDbEntity
  8
0
  6
SLD-Durchgehend
 62
     8
420
  8421504
370
     0
100
AcDbSpline
210
0.0
220
0.0
230
1.0
 70
     8
 71
     3
 72
     8
 73
     4
 74
     0
 42
0.00000001
 43
0.00000001
 40
3.0
 40
3.0
 40
3.0
 40
3.0
 40
4.0
 40
4.0
 40
4.0
 40
4.0
 10
12.31276782226565
 20
1.254910481770843
 30
0.0
 10
13.05026285807298
 20
0.4562822265624933
 30
0.0
 10
14.07353889973967
 20
0.0421886393229265
 30
0.0
 10
15.19462809244798
 20
0.042726074218763
 30
0.0
  0
SPLINE
  5
103
330
68
100
AcDbEntity
  8
0
  6
SLD-Durchgehend
 62
     8
420
  8421504
370
     0
100
AcDbSpline
210
0.0
220
0.0
230
1.0
 70
     8
 71
     3
 72
     8
 73
     4
 74
     0
 42
0.00000001
 43
0.00000001
 40
16.0
 40
16.0
 40
16.0
 40
16.0
 40
17.0
 40
17.0
 40
17.0
 40
17.0
 10
51.5840761718751
 20
1.160321940104153
 30
0.0
 10
50.82898014322923
 20
1.176444986979164
 30
0.0
 10
49.74792985026044
 20
1.430920410156272
 30
0.0
 10
49.38731103515626
 20
2.67239501953126
 30
0.0
  0
SPLINE
  5
104
330
68
100
AcDbEntity
  8
0
  6
SLD-Durchgehend
 62
     8
420
  8421504
370
     0
100
AcDbSpline
210
0.0
220
0.0
230
1.0
 70
     8
 71
     3
 72
     8
 73
     4
 74
     0
 42
0.00000001
 43
0.00000001
 40
2.0
 40
2.0
 40
2.0
 40
2.0
 40
3.0
 40
3.0
 40
3.0
 40
3.0
 10
24.67686067708341
 20
8.204212402343785
 30
0.0
 10
26.22601676432296
 20
8.200584716796937
 30
0.0
 10
27.42060017903653
 20
7.087288330078101
 30
0.0
 10
27.42060017903653
 20
4.749849609375023
 30
0.0
  0
SPLINE
  5
105
330
68
100
AcDbEntity
  8
0
  6
SLD-Durchgehend
 62
     8
420
  8421504
370
     0
100
AcDbSpline
210
0.0
220
0.0
230
1.0
 70
     8
 71
     3
 72
     8
 73
     4
 74
     0
 42
0.00000001
 43
0.00000001
 40
6.0
 40
6.0
 40
6.0
 40
6.0
 40
7.0
 40
7.0
 40
7.0
 40
7.0
 10
41.12290592447921
 20
5.477805175781225
 30
0.0
 10
41.13231103515636
 20
7.395104166666694
 30
0.0
 10
42.24480126953134
 20
8.19480729166669
 30
0.0
 10
43.50280200195311
 20
8.204212402343785
 30
0.0
  0
SPLINE
  5
106
330
68
100
AcDbEntity
  8
0
  6
SLD-Durchgehend
 62
     8
420
  8421504
370
     0
100
AcDbSpline
210
0.0
220
0.0
230
1.0
 70
     8
 71
     3
 72
     8
 73
     4
 74
     0
 42
0.00000001
 43
0.00000001
 40
14.0
 40
14.0
 40
14.0
 40
14.0
 40
15.0
 40
15.0
 40
15.0
 40
15.0
 10
76.88704850260419
 20
0.042726074218763
 30
0.0
 10
77.96326188151048
 20
0.042726074218763
 30
0.0
 10
78.94569287109377
 20
0.4286043294270681
 30
0.0
 10
79.67526074218756
 20
1.166502441406259
 30
0.0
  0
SPLINE
  5
107
330
68
100
AcDbEntity
  8
0
  6
SLD-Durchgehend
 62
     8
420
  8421504
370
     0
100
AcDbSpline
210
0.0
220
0.0
230
1.0
 70
     8
 71
     3
 72
     8
 73
     4
 74
     0
 42
0.00000001
 43
0.00000001
 40
25.0
 40
25.0
 40
25.0
 40
25.0
 40
26.0
 40
26.0
 40
26.0
 40
26.0
 10
85.38470035807299
 20
1.34761800130212
 30
0.0
 10
85.10926497395832
 20
1.354873372395898
 30
0.0
 10
85.0187071940105
 20
1.44462500000006
 30
0.0
 10
84.9423914388021
 20
1.629233886718734
 30
0.0
  0
SPLINE
  5
108
330
68
100
AcDbEntity
  8
0
  6
SLD-Durchgehend
 62
     8
420
  8421504
370
     0
100
AcDbSpline
210
0.0
220
0.0
230
1.0
 70
     8
 71
     3
 72
     8
 73
     4
 74
     0
 42
0.00000001
 43
0.00000001
 40
11.0
 40
11.0
 40
11.0
 40
11.0
 40
12.0
 40
12.0
 40
12.0
 40
12.0
 10
72.81490429687499
 20
4.749849609375023
 30
0.0
 10
72.81490429687499
 20
3.233477050781253
 30
0.0
 10
73.26554345703128
 20
2.054344889322906
 30
0.0
 10
74.00263541666673
 20
1.254910481770843
 30
0.0
  0
SPLINE
  5
109
330
68
100
AcDbEntity
  8
0
  6
SLD-Durchgehend
 62
     8
420
  8421504
370
     0
100
AcDbSpline
210
0.0
220
0.0
230
1.0
 70
     8
 71
     3
 72
     8
 73
     4
 74
     0
 42
0.00000001
 43
0.00000001
 40
11.0
 40
11.0
 40
11.0
 40
11.0
 40
12.0
 40
12.0
 40
12.0
 40
12.0
 10
59.86487304687505
 20
0.042726074218763
 30
0.0
 10
61.77384179687506
 20
0.042726074218763
 30
0.0
 10
62.98602620442717
 20
0.8937542317708491
 30
0.0
 10
63.63175423177092
 20
2.557383951822922
 30
0.0
  0
SPLINE
  5
10A
330
68
100
AcDbEntity
  8
0
  6
SLD-Durchgehend
 62
     8
420
  8421504
370
     0
100
AcDbSpline
210
0.0
220
0.0
230
1.0
 70
     8
 71
     2
 72
     6
 73
     3
 74
     0
 42
0.00000001
 43
0.00000001
 40
22.0
 40
22.0
 40
22.0
 40
23.0
 40
23.0
 40
23.0
 10
85.14742285156251
 20
0.219810872395837
 30
0.0
 10
85.22078271484379
 20
0.219810872395837
 30
0.0
 10
86.31634375000007
 20
0.2192734375000005
 30
0.0
  0
SPLINE
  5
10B
330
68
100
AcDbEntity
  8
0
  6
SLD-Durchgehend
 62
     8
420
  8421504
370
     0
100
AcDbSpline
210
0.0
220
0.0
230
1.0
 70
     8
 71
     3
 72
     8
 73
     4
 74
     0
 42
0.00000001
 43
0.00000001
 40
22.0
 40
22.0
 40
22.0
 40
22.0
 40
23.0
 40
23.0
 40
23.0
 40
23.0
 10
51.58945052083341
 20
0.0239158528645977
 30
0.0
 10
53.68410302734383
 20
0.0962008463541442
 30
0.0
 10
54.88527001953136
 20
1.332032389322946
 30
0.0
 10
54.88204541015629
 20
2.792243001302097
 30
0.0
  0
SPLINE
  5
10C
330
68
100
AcDbEntity
  8
0
  6
SLD-Durchgehend
 62
     8
420
  8421504
370
     0
100
AcDbSpline
210
0.0
220
0.0
230
1.0
 70
     8
 71
     3
 72
     8
 73
     4
 74
     0
 42
0.00000001
 43
0.00000001
 40
2.0
 40
2.0
 40
2.0
 40
2.0
 40
3.0
 40
3.0
 40
3.0
 40
3.0
 10
15.19462809244798
 20
8.20421240234373
 30
0.0
 10
16.74445597330737
 20
8.200584716796937
 30
0.0
 10
17.93151529947923
 20
6.950779866536499
 30
0.0
 10
17.938636311849
 20
4.749849609375023
 30
0.0
  0
SPLINE
  5
10D
330
68
100
AcDbEntity
  8
0
  6
SLD-Durchgehend
 62
     8
420
  8421504
370
     0
100
AcDbSpline
210
0.0
220
0.0
230
1.0
 70
     8
 71
     3
 72
     8
 73
     4
 74
     0
 42
0.00000001
 43
0.00000001
 40
6.0
 40
6.0
 40
6.0
 40
6.0
 40
7.0
 40
7.0
 40
7.0
 40
7.0
 10
65.85377880859377
 20
5.478880045572926
 30
0.0
 10
65.86318391927082
 20
7.395104166666694
 30
0.0
 10
66.97540543619796
 20
8.19480729166669
 30
0.0
 10
68.23407796223968
 20
8.204212402343785
 30
0.0
  0
SPLINE
  5
10E
330
68
100
AcDbEntity
  8
0
  6
SLD-Durchgehend
 62
     8
420
  8421504
370
     0
100
AcDbSpline
210
0.0
220
0.0
230
1.0
 70
     8
 71
     3
 72
     8
 73
     4
 74
     0
 42
0.00000001
 43
0.00000001
 40
11.0
 40
11.0
 40
11.0
 40
11.0
 40
12.0
 40
12.0
 40
12.0
 40
12.0
 10
51.32825716145839
 20
9.426473714192724
 30
0.0
 10
49.43299300130211
 20
9.37098356119792
 30
0.0
 10
48.37827701822928
 20
8.200047281901046
 30
0.0
 10
48.38257649739586
 20
6.909397379557314
 30
0.0
  0
SPLINE
  5
10F
330
68
100
AcDbEntity
  8
0
  6
SLD-Durchgehend
 62
     8
420
  8421504
370
     0
100
AcDbSpline
210
0.0
220
0.0
230
1.0
 70
     8
 71
     3
 72
     8
 73
     4
 74
     0
 42
0.00000001
 43
0.00000001
 40
4.0
 40
4.0
 40
4.0
 40
4.0
 40
5.0
 40
5.0
 40
5.0
 40
5.0
 10
21.79486604817715
 20
1.254910481770843
 30
0.0
 10
22.53249544270841
 20
0.4562822265624933
 30
0.0
 10
23.55523404947924
 20
0.0421886393229265
 30
0.0
 10
24.67686067708341
 20
0.042726074218763
 30
0.0
  0
SPLINE
  5
110
330
68
100
AcDbEntity
  8
0
  6
SLD-Durchgehend
 62
     8
420
  8421504
370
     0
100
AcDbSpline
210
0.0
220
0.0
230
1.0
 70
     8
 71
     3
 72
     8
 73
     4
 74
     0
 42
0.00000001
 43
0.00000001
 40
26.0
 40
26.0
 40
26.0
 40
26.0
 40
27.0
 40
27.0
 40
27.0
 40
27.0
 10
84.9423914388021
 20
1.629233886718734
 30
0.0
 10
84.87010644531256
 20
1.816529947916673
 30
0.0
 10
84.86177620442714
 20
2.110238118489594
 30
0.0
 10
84.86231363932295
 20
2.436461100260439
 30
0.0
  0
SPLINE
  5
111
330
68
100
AcDbEntity
  8
0
  6
SLD-Durchgehend
 62
     8
420
  8421504
370
     0
100
AcDbSpline
210
0.0
220
0.0
230
1.0
 70
     8
 71
     3
 72
     8
 73
     4
 74
     0
 42
0.00000001
 43
0.00000001
 40
11.0
 40
11.0
 40
11.0
 40
11.0
 40
12.0
 40
12.0
 40
12.0
 40
12.0
 10
71.57504199218756
 20
6.298065185546875
 30
0.0
 10
71.57504199218756
 20
7.218691162109381
 30
0.0
 10
71.33749576822923
 20
8.012213785807297
 30
0.0
 10
70.80973470052088
 20
8.574773763020849
 30
0.0
  0
HATCH
  5
112
330
68
100
AcDbEntity
  8
0
  6
Continuous
 62
     7
100
AcDbHatch
 10
0.0
 20
0.0
 30
0.0
210
0.0
220
0.0
230
1.0
  2
SOLID
 70
     1
 71
     0
 91
        2
 92
        0
 93
       12
 72
     4
 94
        3
 73
     1
 74
     0
 95
        8
 96
        4
 40
4.0
 40
4.0
 40
4.0
 40
4.0
 40
5.0
 40
5.0
 40
5.0
 40
5.0
 10
21.79486604817715
 20
1.254910481770843
 42
1.0
 10
22.53249544270841
 20
0.4562822265624933
 42
1.0
 10
23.55523404947924
 20
0.0421886393229265
 42
1.0
 10
24.67686067708341
 20
0.042726074218763
 42
1.0
 97
        0
 72
     1
 10
24.67686067708341
 20
0.042726074218763
 11
24.69110270182295
 21
0.042726074218763
 72
     4
 94
        3
 73
     1
 74
     0
 95
        8
 96
        4
 40
6.0
 40
6.0
 40
6.0
 40
6.0
 40
7.0
 40
7.0
 40
7.0
 40
7.0
 10
24.69110270182295
 20
0.042726074218763
 42
1.0
 10
26.58582942708338
 20
0.042726074218763
 42
1.0
 10
28.2107638346355
 20
1.177519856770837
 42
1.0
 10
28.63184407552088
 20
3.418892089843722
 42
1.0
 97
        0
 72
     4
 94
        3
 73
     1
 74
     0
 95
        8
 96
        4
 40
7.0
 40
7.0
 40
7.0
 40
7.0
 40
8.0
 40
8.0
 40
8.0
 40
8.0
 10
28.63184407552088
 20
3.418892089843722
 42
1.0
 10
28.71447469075527
 20
3.858513834635424
 42
1.0
 10
28.74376489257818
 20
4.351610351562535
 42
1.0
 10
28.74376489257818
 20
4.603129882812473
 42
1.0
 97
        0
 72
     1
 10
28.74376489257818
 20
4.603129882812473
 11
28.74618334960943
 21
4.603129882812473
 72
     1
 10
28.74618334960943
 20
4.603129882812473
 11
28.74618334960943
 21
11.61316194661463
 72
     1
 10
28.74618334960943
 20
11.61316194661463
 11
27.42946785481776
 21
11.61316194661463
 72
     1
 10
27.42946785481776
 20
11.61316194661463
 11
27.42946785481776
 21
8.233636962890644
 72
     4
 94
        3
 73
     1
 74
     0
 95
        8
 96
        4
 40
0.0
 40
0.0
 40
0.0
 40
0.0
 40
1.0
 40
1.0
 40
1.0
 40
1.0
 10
27.42946785481776
 20
8.233636962890644
 42
1.0
 10
26.7880393066407
 20
9.013992431640666
 42
1.0
 10
25.73574178059906
 20
9.457241861979188
 42
1.0
 10
24.67686067708341
 20
9.457241861979188
 42
1.0
 97
        0
 72
     4
 94
        3
 73
     1
 74
     0
 95
        8
 96
        4
 40
1.0
 40
1.0
 40
1.0
 40
1.0
 40
2.0
 40
2.0
 40
2.0
 40
2.0
 10
24.67686067708341
 20
9.457241861979188
 42
1.0
 10
23.55523404947924
 20
9.457241861979188
 42
1.0
 10
22.53249544270841
 20
9.044357503255245
 42
1.0
 10
21.79486604817715
 20
8.243982584635406
 42
1.0
 97
        0
 72
     4
 94
        3
 73
     1
 74
     0
 95
        8
 96
        4
 40
2.0
 40
2.0
 40
2.0
 40
2.0
 40
3.0
 40
3.0
 40
3.0
 40
3.0
 10
21.79486604817715
 20
8.243982584635406
 42
1.0
 10
21.0562961425782
 20
7.445354329427111
 42
1.0
 10
20.60686621093755
 20
6.265550374348977
 42
1.0
 10
20.60686621093755
 20
4.749849609375023
 42
1.0
 97
        0
 72
     4
 94
        3
 73
     1
 74
     0
 95
        8
 96
        4
 40
3.0
 40
3.0
 40
3.0
 40
3.0
 40
4.0
 40
4.0
 40
4.0
 40
4.0
 10
20.60686621093755
 20
4.749849609375023
 42
1.0
 10
20.60686621093755
 20
3.233477050781253
 42
1.0
 10
21.0562961425782
 20
2.054344889322906
 42
1.0
 10
21.79486604817715
 20
1.254910481770843
 42
1.0
 97
        0
 97
        0
 92
        0
 93
        4
 72
     4
 94
        3
 73
     1
 74
     0
 95
        8
 96
        4
 40
1.0
 40
1.0
 40
1.0
 40
1.0
 40
2.0
 40
2.0
 40
2.0
 40
2.0
 10
21.93271809895841
 20
4.749849609375009
 42
1.0
 10
21.93983911132824
 20
6.950779866536513
 42
1.0
 10
23.12662972005214
 20
8.200584716796925
 42
1.0
 10
24.67686067708341
 20
8.204212402343785
 42
1.0
 97
        0
 72
     4
 94
        3
 73
     1
 74
     0
 95
        8
 96
        4
 40
2.0
 40
2.0
 40
2.0
 40
2.0
 40
3.0
 40
3.0
 40
3.0
 40
3.0
 10
24.67686067708341
 20
8.204212402343785
 42
1.0
 10
26.22601676432296
 20
8.200584716796937
 42
1.0
 10
27.42060017903653
 20
7.087288330078101
 42
1.0
 10
27.42060017903653
 20
4.749849609375023
 42
1.0
 97
        0
 72
     4
 94
        3
 73
     1
 74
     0
 95
        8
 96
        4
 40
3.0
 40
3.0
 40
3.0
 40
3.0
 40
4.0
 40
4.0
 40
4.0
 40
4.0
 10
27.42060017903653
 20
4.749849609375023
 42
1.0
 10
27.43443912760424
 20
2.335423339843767
 42
1.0
 10
26.22695727539071
 20
1.299517578124992
 42
1.0
 10
24.67686067708341
 20
1.295218098958356
 42
1.0
 97
        0
 72
     4
 94
        3
 73
     1
 74
     0
 95
        8
 96
        4
 40
0.0
 40
0.0
 40
0.0
 40
0.0
 40
1.0
 40
1.0
 40
1.0
 40
1.0
 10
24.67686067708336
 20
1.29521809895837
 42
1.0
 10
23.12582356770837
 20
1.299517578125006
 42
1.0
 10
21.94024218750007
 20
2.531049641927102
 42
1.0
 10
21.93271809895836
 20
4.749849609375023
 42
1.0
 97
        0
 97
        0
 75
     0
 76
     1
 98
        1
 10
0.0
 20
0.0
  0
HATCH
  5
113
330
68
100
AcDbEntity
  8
0
  6
Continuous
 62
     7
100
AcDbHatch
 10
0.0
 20
0.0
 30
0.0
210
0.0
220
0.0
230
1.0
  2
SOLID
 70
     1
 71
     0
 91
        1
 92
        0
 93
        8
 72
     4
 94
        3
 73
     1
 74
     0
 95
        8
 96
        4
 40
7.0
 40
7.0
 40
7.0
 40
7.0
 40
8.0
 40
8.0
 40
8.0
 40
8.0
 10
4.560135091145945
 20
0.0177353515624923
 42
1.0
 10
2.803529134114635
 20
0.4627314453124753
 42
1.0
 10
1.495815673828171
 20
2.040640299479202
 42
1.0
 10
1.454567545572993
 20
4.569808919270835
 42
1.0
 97
        0
 72
     1
 10
1.454567545572993
 20
4.569808919270835
 11
1.452149088541743
 21
4.569808919270835
 72
     1
 10
1.452149088541743
 20
4.569808919270835
 11
1.452149088541743
 21
11.65145418294272
 72
     1
 10
1.452149088541743
 20
11.65145418294272
 11
0.0000000000000555
 21
11.65145418294272
 72
     1
 10
0.0000000000000555
 20
11.65145418294272
 11
0.0000000000000555
 21
4.685894856770845
 72
     1
 10
0.0000000000000555
 20
4.685894856770845
 11
0.0012092285156529
 21
4.685894856770845
 72
     4
 94
        3
 73
     1
 74
     0
 95
        8
 96
        4
 40
5.0
 40
5.0
 40
5.0
 40
5.0
 40
6.0
 40
6.0
 40
6.0
 40
6.0
 10
0.0012092285156529
 20
4.685894856770845
 42
1.0
 10
0.0138389485677681
 20
1.636489257812512
 42
1.0
 10
1.823785319010451
 20
0.0
 42
1.0
 10
4.062336018880286
 20
0.0
 42
1.0
 97
        0
 72
     4
 94
        3
 73
     1
 74
     0
 95
        8
 96
        4
 40
6.0
 40
6.0
 40
6.0
 40
6.0
 40
7.0
 40
7.0
 40
7.0
 40
7.0
 10
4.062336018880286
 20
0.0
 42
1.0
 10
4.228269042968802
 20
0.0
 42
1.0
 10
4.394202067057318
 20
0.0061805013021055
 42
1.0
 10
4.560135091145945
 20
0.0177353515624923
 42
1.0
 97
        0
 97
        0
 75
     0
 76
     1
 98
        1
 10
0.0
 20
0.0
  0
HATCH
  5
114
330
68
100
AcDbEntity
  8
0
  6
Continuous
 62
     7
100
AcDbHatch
 10
0.0
 20
0.0
 30
0.0
210
0.0
220
0.0
230
1.0
  2
SOLID
 70
     1
 71
     0
 91
        2
 92
        0
 93
        9
 72
     4
 94
        3
 73
     1
 74
     0
 95
        8
 96
        4
 40
3.0
 40
3.0
 40
3.0
 40
3.0
 40
4.0
 40
4.0
 40
4.0
 40
4.0
 10
12.31276782226565
 20
1.254910481770843
 42
1.0
 10
13.05026285807298
 20
0.4562822265624933
 42
1.0
 10
14.07353889973967
 20
0.0421886393229265
 42
1.0
 10
15.19462809244798
 20
0.042726074218763
 42
1.0
 97
        0
 72
     1
 10
15.19462809244798
 20
0.042726074218763
 11
15.19839013671875
 21
0.042726074218763
 72
     4
 94
        3
 73
     1
 74
     0
 95
        8
 96
        4
 40
5.0
 40
5.0
 40
5.0
 40
5.0
 40
6.0
 40
6.0
 40
6.0
 40
6.0
 10
15.19839013671875
 20
0.042726074218763
 42
1.0
 10
16.31813574218754
 20
0.042726074218763
 42
1.0
 10
17.33899332682298
 20
0.4562822265624933
 42
1.0
 10
18.07675708007817
 20
1.254910481770843
 42
1.0
 97
        0
 72
     4
 94
        3
 73
     1
 74
     0
 95
        8
 96
        4
 40
6.0
 40
6.0
 40
6.0
 40
6.0
 40
7.0
 40
7.0
 40
7.0
 40
7.0
 10
18.07675708007817
 20
1.254910481770843
 42
1.0
 10
18.81505826822921
 20
2.054344889322906
 42
1.0
 10
19.26462255859379
 20
3.233477050781253
 42
1.0
 10
19.26462255859379
 20
4.749849609375023
 42
1.0
 97
        0
 72
     4
 94
        3
 73
     1
 74
     0
 95
        8
 96
        4
 40
7.0
 40
7.0
 40
7.0
 40
7.0
 40
8.0
 40
8.0
 40
8.0
 40
8.0
 10
19.26462255859379
 20
4.749849609375023
 42
1.0
 10
19.26462255859379
 20
6.265550374348977
 42
1.0
 10
18.81505826822921
 20
7.445354329427111
 42
1.0
 10
18.07675708007817
 20
8.243982584635406
 42
1.0
 97
        0
 72
     4
 94
        3
 73
     1
 74
     0
 95
        8
 96
        4
 40
8.0
 40
8.0
 40
8.0
 40
8.0
 40
9.0
 40
9.0
 40
9.0
 40
9.0
 10
18.07675708007817
 20
8.243982584635406
 42
1.0
 10
17.3385902506511
 20
9.044357503255245
 42
1.0
 10
16.31585164388028
 20
9.457241861979188
 42
1.0
 10
15.19462809244798
 20
9.456301350911467
 42
1.0
 97
        0
 72
     4
 94
        3
 73
     1
 74
     0
 95
        8
 96
        4
 40
0.0
 40
0.0
 40
0.0
 40
0.0
 40
1.0
 40
1.0
 40
1.0
 40
1.0
 10
15.19462809244798
 20
9.456301350911467
 42
1.0
 10
14.07353889973967
 20
9.457241861979188
 42
1.0
 10
13.05026285807298
 20
9.044357503255245
 42
1.0
 10
12.31276782226565
 20
8.243982584635406
 42
1.0
 97
        0
 72
     4
 94
        3
 73
     1
 74
     0
 95
        8
 96
        4
 40
1.0
 40
1.0
 40
1.0
 40
1.0
 40
2.0
 40
2.0
 40
2.0
 40
2.0
 10
12.31276782226565
 20
8.243982584635406
 42
1.0
 10
11.57473535156256
 20
7.445354329427111
 42
1.0
 10
11.12517106119798
 20
6.265550374348977
 42
1.0
 10
11.12543977864588
 20
4.749849609375023
 42
1.0
 97
        0
 72
     4
 94
        3
 73
     1
 74
     0
 95
        8
 96
        4
 40
2.0
 40
2.0
 40
2.0
 40
2.0
 40
3.0
 40
3.0
 40
3.0
 40
3.0
 10
11.12543977864588
 20
4.749849609375023
 42
1.0
 10
11.12517106119798
 20
3.233477050781253
 42
1.0
 10
11.57473535156256
 20
2.054344889322906
 42
1.0
 10
12.31276782226565
 20
1.254910481770843
 42
1.0
 97
        0
 97
        0
 92
        0
 93
        4
 72
     4
 94
        3
 73
     1
 74
     0
 95
        8
 96
        4
 40
1.0
 40
1.0
 40
1.0
 40
1.0
 40
2.0
 40
2.0
 40
2.0
 40
2.0
 10
12.45048551432298
 20
4.749849609375023
 42
1.0
 10
12.45800960286464
 20
6.950779866536499
 42
1.0
 10
13.64560636393236
 20
8.20058471679691
 42
1.0
 10
15.19462809244798
 20
8.20421240234373
 42
1.0
 97
        0
 72
     4
 94
        3
 73
     1
 74
     0
 95
        8
 96
        4
 40
2.0
 40
2.0
 40
2.0
 40
2.0
 40
3.0
 40
3.0
 40
3.0
 40
3.0
 10
15.19462809244798
 20
8.20421240234373
 42
1.0
 10
16.74445597330737
 20
8.200584716796937
 42
1.0
 10
17.93151529947923
 20
6.950779866536499
 42
1.0
 10
17.938636311849
 20
4.749849609375023
 42
1.0
 97
        0
 72
     4
 94
        3
 73
     1
 74
     0
 95
        8
 96
        4
 40
3.0
 40
3.0
 40
3.0
 40
3.0
 40
4.0
 40
4.0
 40
4.0
 40
4.0
 10
17.938636311849
 20
4.749849609375023
 42
1.0
 10
17.93151529947923
 20
2.531049641927074
 42
1.0
 10
16.74526212565108
 20
1.299517578124992
 42
1.0
 10
15.19462809244798
 20
1.29468066406252
 42
1.0
 97
        0
 72
     4
 94
        3
 73
     1
 74
     0
 95
        8
 96
        4
 40
0.0
 40
0.0
 40
0.0
 40
0.0
 40
1.0
 40
1.0
 40
1.0
 40
1.0
 10
15.19462809244798
 20
1.29468066406252
 42
1.0
 10
13.64466585286461
 20
1.299517578124992
 42
1.0
 10
12.4585470377605
 20
2.531049641927074
 42
1.0
 10
12.45048551432298
 20
4.749849609375023
 42
1.0
 97
        0
 97
        0
 75
     0
 76
     1
 98
        1
 10
0.0
 20
0.0
  0
HATCH
  5
115
330
68
100
AcDbEntity
  8
0
  6
Continuous
 62
     7
100
AcDbHatch
 10
0.0
 20
0.0
 30
0.0
210
0.0
220
0.0
230
1.0
  2
SOLID
 70
     1
 71
     0
 91
        1
 92
        0
 93
        5
 72
     4
 94
        3
 73
     1
 74
     0
 95
        8
 96
        4
 40
0.0
 40
0.0
 40
0.0
 40
0.0
 40
1.0
 40
1.0
 40
1.0
 40
1.0
 10
6.145836751302147
 20
8.270182535807303
 42
1.0
 10
5.944298665364666
 20
8.269645100911466
 42
1.0
 10
5.749075439453133
 20
8.248819498697934
 42
1.0
 10
5.561376302083421
 20
8.20851188151045
 42
1.0
 97
        0
 72
     4
 94
        3
 73
     1
 74
     0
 95
       11
 96
        7
 40
1.0
 40
1.0
 40
1.0
 40
1.0
 40
2.0
 40
2.0
 40
2.0
 40
3.0
 40
3.0
 40
3.0
 40
3.0
 10
5.561376302083421
 20
8.20851188151045
 42
1.0
 10
6.718876708984411
 20
7.771442952474006
 42
1.0
 10
7.516833170573001
 20
6.539373453776087
 42
1.0
 10
7.516833170573001
 20
4.717872233072989
 42
1.0
 10
7.516833170573001
 20
2.882800781250028
 42
1.0
 10
6.720220296223989
 20
1.659598958333341
 42
1.0
 10
5.564063476562575
 20
1.2250828450521
 42
1.0
 97
        0
 72
     4
 94
        3
 73
     1
 74
     0
 95
        8
 96
        4
 40
3.0
 40
3.0
 40
3.0
 40
3.0
 40
4.0
 40
4.0
 40
4.0
 40
4.0
 10
5.564063476562575
 20
1.2250828450521
 42
1.0
 10
5.75082210286465
 20
1.185312662760396
 42
1.0
 10
5.94537353515634
 20
1.165427571614586
 42
1.0
 10
6.145836751302147
 20
1.164621419270817
 42
1.0
 97
        0
 72
     4
 94
        3
 73
     1
 74
     0
 95
        8
 96
        4
 40
4.0
 40
4.0
 40
4.0
 40
4.0
 40
5.0
 40
5.0
 40
5.0
 40
5.0
 10
6.145836751302147
 20
1.164621419270817
 42
1.0
 10
7.741077880859482
 20
1.168652180989577
 42
1.0
 10
8.9601145833334
 20
2.436998535156248
 42
1.0
 10
8.968444824218825
 20
4.717872233072934
 42
1.0
 97
        0
 72
     4
 94
        3
 73
     1
 74
     0
 95
        8
 96
        4
 40
5.0
 40
5.0
 40
5.0
 40
5.0
 40
6.0
 40
6.0
 40
6.0
 40
6.0
 10
8.968444824218825
 20
4.717872233072934
 42
1.0
 10
8.960920735677114
 20
6.980607503255215
 42
1.0
 10
7.740137369791733
 20
8.267092285156236
 42
1.0
 10
6.145836751302147
 20
8.270182535807303
 42
1.0
 97
        0
 97
        0
 75
     0
 76
     1
 98
        1
 10
0.0
 20
0.0
  0
HATCH
  5
116
330
68
100
AcDbEntity
  8
0
  6
Continuous
 62
     7
100
AcDbHatch
 10
0.0
 20
0.0
 30
0.0
210
0.0
220
0.0
230
1.0
  2
SOLID
 70
     1
 71
     0
 91
        2
 92
        0
 93
       18
 72
     4
 94
        3
 73
     1
 74
     0
 95
        8
 96
        4
 40
5.0
 40
5.0
 40
5.0
 40
5.0
 40
6.0
 40
6.0
 40
6.0
 40
6.0
 10
34.22721313476568
 20
0.042726074218763
 42
1.0
 10
34.25677205403655
 20
0.042726074218763
 42
1.0
 10
34.27853816731774
 20
0.0443383789062446
 42
1.0
 10
34.29613916015634
 20
0.0443383789062446
 42
1.0
 97
        0
 72
     4
 94
        3
 73
     1
 74
     0
 95
        8
 96
        4
 40
6.0
 40
6.0
 40
6.0
 40
6.0
 40
7.0
 40
7.0
 40
7.0
 40
7.0
 10
34.29613916015634
 20
0.0443383789062446
 42
1.0
 10
34.31414322916676
 20
0.0443383789062446
 42
1.0
 10
34.33873087565109
 20
0.042726074218763
 42
1.0
 10
34.36748364257819
 20
0.042726074218763
 42
1.0
 97
        0
 72
     1
 10
34.36748364257819
 20
0.042726074218763
 11
34.37715747070319
 21
0.042726074218763
 72
     4
 94
        3
 73
     1
 74
     0
 95
        8
 96
        4
 40
8.0
 40
8.0
 40
8.0
 40
8.0
 40
9.0
 40
9.0
 40
9.0
 40
9.0
 10
34.37715747070319
 20
0.042726074218763
 42
1.0
 10
36.11051936848963
 20
0.042726074218763
 42
1.0
 10
37.59921402994804
 20
1.048804199218739
 42
1.0
 10
38.17292578125009
 20
2.911016113281234
 42
1.0
 97
        0
 72
     1
 10
38.17292578125009
 20
2.911016113281234
 11
38.21927954101567
 21
3.060154296875006
 72
     1
 10
38.21927954101567
 20
3.060154296875006
 11
36.75396329752611
 21
3.060154296875006
 72
     1
 10
36.75396329752611
 20
3.060154296875006
 11
36.7268228352865
 21
2.983301106770864
 72
     4
 94
        3
 73
     1
 74
     0
 95
        8
 96
        4
 40
12.0
 40
12.0
 40
12.0
 40
12.0
 40
13.0
 40
13.0
 40
13.0
 40
13.0
 10
36.7268228352865
 20
2.983301106770864
 42
1.0
 10
36.36123274739589
 20
1.957337890624994
 42
1.0
 10
35.61003312174482
 20
1.316715494791676
 42
1.0
 10
34.32247347005213
 20
1.295218098958356
 42
1.0
 97
        0
 72
     1
 10
34.32247347005213
 20
1.295218098958356
 11
34.29654223632816
 21
1.295755533854165
 72
     4
 94
        3
 73
     1
 74
     0
 95
        8
 96
        4
 40
14.0
 40
14.0
 40
14.0
 40
14.0
 40
15.0
 40
15.0
 40
15.0
 40
15.0
 10
34.29654223632816
 20
1.295755533854165
 42
1.0
 10
32.43594262695321
 20
1.31456575520833
 42
1.0
 10
31.64188256835942
 20
2.634774576822957
 42
1.0
 10
31.62965592447925
 20
4.54938639322916
 42
1.0
 97
        0
 72
     1
 10
31.62965592447925
 20
4.54938639322916
 11
31.62938720703135
 21
4.669771809895806
 72
     1
 10
31.62938720703135
 20
4.669771809895806
 11
38.30137272135426
 21
4.669771809895806
 72
     1
 10
38.30137272135426
 20
4.669771809895806
 11
38.29720760091148
 21
4.790694661458344
 72
     4
 94
        3
 73
     1
 74
     0
 95
        8
 96
        4
 40
0.0
 40
0.0
 40
0.0
 40
0.0
 40
1.0
 40
1.0
 40
1.0
 40
1.0
 10
38.29720760091148
 20
4.790694661458344
 42
1.0
 10
38.21511442057302
 20
7.406121582031244
 42
1.0
 10
36.88697843424493
 20
9.462078776041661
 42
1.0
 10
34.22721313476568
 20
9.457241861979188
 42
1.0
 97
        0
 72
     4
 94
        3
 73
     1
 74
     0
 95
        8
 96
        4
 40
1.0
 40
1.0
 40
1.0
 40
1.0
 40
2.0
 40
2.0
 40
2.0
 40
2.0
 10
34.22721313476568
 20
9.457241861979188
 42
1.0
 10
33.10639265950532
 20
9.457241861979188
 42
1.0
 10
32.08392277018235
 20
9.044357503255245
 42
1.0
 10
31.34589029947926
 20
8.243982584635406
 42
1.0
 97
        0
 72
     4
 94
        3
 73
     1
 74
     0
 95
        8
 96
        4
 40
2.0
 40
2.0
 40
2.0
 40
2.0
 40
3.0
 40
3.0
 40
3.0
 40
3.0
 10
31.34589029947926
 20
8.243982584635406
 42
1.0
 10
30.60785782877612
 20
7.445354329427111
 42
1.0
 10
30.15748738606777
 20
6.265550374348977
 42
1.0
 10
30.15829353841154
 20
4.748774739583323
 42
1.0
 97
        0
 72
     4
 94
        3
 73
     1
 74
     0
 95
        8
 96
        4
 40
3.0
 40
3.0
 40
3.0
 40
3.0
 40
4.0
 40
4.0
 40
4.0
 40
4.0
 10
30.15829353841154
 20
4.748774739583323
 42
1.0
 10
30.15748738606777
 20
3.233477050781253
 42
1.0
 10
30.60785782877612
 20
2.054344889322906
 42
1.0
 10
31.34589029947926
 20
1.254910481770843
 42
1.0
 97
        0
 72
     4
 94
        3
 73
     1
 74
     0
 95
        8
 96
        4
 40
4.0
 40
4.0
 40
4.0
 40
4.0
 40
5.0
 40
5.0
 40
5.0
 40
5.0
 10
31.34589029947926
 20
1.254910481770843
 42
1.0
 10
32.08338533528654
 20
0.4562822265624933
 42
1.0
 10
33.10639265950532
 20
0.0421886393229265
 42
1.0
 10
34.22721313476568
 20
0.042726074218763
 42
1.0
 97
        0
 97
        0
 92
        0
 93
        3
 72
     1
 10
36.80004833984385
 20
5.812895833333359
 11
31.64739127604171
 21
5.812895833333359
 72
     4
 94
        3
 73
     1
 74
     0
 95
        8
 96
        4
 40
0.0
 40
0.0
 40
0.0
 40
0.0
 40
1.0
 40
1.0
 40
1.0
 40
1.0
 10
31.64739127604171
 20
5.812895833333359
 42
1.0
 10
31.86881445312506
 20
7.166425618489569
 42
1.0
 10
32.79051529947924
 20
8.202197021484391
 42
1.0
 10
34.22721313476568
 20
8.204212402343785
 42
1.0
 97
        0
 72
     4
 94
        3
 73
     1
 74
     0
 95
        8
 96
        4
 40
1.0
 40
1.0
 40
1.0
 40
1.0
 40
2.0
 40
2.0
 40
2.0
 40
2.0
 10
34.22721313476568
 20
8.204212402343785
 42
1.0
 10
35.91368383789073
 20
8.200584716796937
 42
1.0
 10
36.53992985026044
 20
7.025617675781248
 42
1.0
 10
36.80004833984385
 20
5.812895833333359
 42
1.0
 97
        0
 97
        0
 75
     0
 76
     1
 98
        1
 10
0.0
 20
0.0
  0
HATCH
  5
117
330
68
100
AcDbEntity
  8
0
  6
Continuous
 62
     7
100
AcDbHatch
 10
0.0
 20
0.0
 30
0.0
210
0.0
220
0.0
230
1.0
  2
SOLID
 70
     1
 71
     0
 91
        1
 92
        0
 93
       13
 72
     4
 94
        3
 73
     1
 74
     0
 95
        8
 96
        4
 40
6.0
 40
6.0
 40
6.0
 40
6.0
 40
7.0
 40
7.0
 40
7.0
 40
7.0
 10
41.12290592447921
 20
5.477805175781225
 42
1.0
 10
41.13231103515636
 20
7.395104166666694
 42
1.0
 10
42.24480126953134
 20
8.19480729166669
 42
1.0
 10
43.50280200195311
 20
8.204212402343785
 42
1.0
 97
        0
 72
     4
 94
        3
 73
     1
 74
     0
 95
        8
 96
        4
 40
7.0
 40
7.0
 40
7.0
 40
7.0
 40
8.0
 40
8.0
 40
8.0
 40
8.0
 10
43.50280200195311
 20
8.204212402343785
 42
1.0
 10
44.85162923177089
 20
8.182311930338553
 42
1.0
 10
45.49587931315102
 20
7.703860514322924
 42
1.0
 10
45.51845157877609
 20
5.969826822916663
 42
1.0
 97
        0
 72
     1
 10
45.51845157877609
 20
5.969826822916663
 11
45.51845157877609
 21
0.2611933593749951
 72
     1
 10
45.51845157877609
 20
0.2611933593749949
 11
46.84363167317706
 21
0.2611933593749949
 72
     1
 10
46.84363167317706
 20
0.2611933593749949
 11
46.84363167317706
 21
6.298065185546875
 72
     4
 94
        3
 73
     1
 74
     0
 95
        8
 96
        4
 40
11.0
 40
11.0
 40
11.0
 40
11.0
 40
12.0
 40
12.0
 40
12.0
 40
12.0
 10
46.84363167317706
 20
6.298065185546875
 42
1.0
 10
46.84363167317706
 20
7.218691162109381
 42
1.0
 10
46.60608544921885
 20
8.012213785807297
 42
1.0
 10
46.07899617513023
 20
8.574773763020849
 42
1.0
 97
        0
 72
     4
 94
        3
 73
     1
 74
     0
 95
        8
 96
        4
 40
12.0
 40
12.0
 40
12.0
 40
12.0
 40
13.0
 40
13.0
 40
13.0
 40
13.0
 10
46.07899617513023
 20
8.574773763020849
 42
1.0
 10
45.55244433593752
 20
9.139080403645833
 42
1.0
 10
44.74427661132818
 20
9.457779296874996
 42
1.0
 10
43.64884993489593
 20
9.456301350911467
 42
1.0
 97
        0
 72
     4
 94
        3
 73
     1
 74
     0
 95
        8
 96
        4
 40
0.0
 40
0.0
 40
0.0
 40
0.0
 40
1.0
 40
1.0
 40
1.0
 40
1.0
 10
43.64884993489593
 20
9.456301350911467
 42
1.0
 10
42.70457682291673
 20
9.458854166666697
 42
1.0
 10
41.72429557291679
 20
9.11812044270835
 42
1.0
 10
41.12290592447921
 20
8.216842122395818
 42
1.0
 97
        0
 72
     1
 10
41.12290592447921
 20
8.216842122395818
 11
41.12290592447921
 21
9.237968424479186
 72
     1
 10
41.12290592447921
 20
9.237968424479186
 11
39.79786018880216
 21
9.237968424479186
 72
     1
 10
39.79786018880216
 20
9.237968424479186
 11
39.79786018880216
 21
0.2611933593749942
 72
     1
 10
39.79786018880216
 20
0.2611933593749949
 11
41.12290592447921
 21
0.2611933593749949
 72
     1
 10
41.12290592447921
 20
0.2611933593749949
 11
41.12290592447921
 21
5.477805175781225
 97
        0
 75
     0
 76
     1
 98
        1
 10
0.0
 20
0.0
  0
HATCH
  5
118
330
68
100
AcDbEntity
  8
0
  6
Continuous
 62
     7
100
AcDbHatch
 10
0.0
 20
0.0
 30
0.0
210
0.0
220
0.0
230
1.0
  2
SOLID
 70
     1
 71
     0
 91
        1
 92
        0
 93
       24
 72
     4
 94
        3
 73
     1
 74
     0
 95
        8
 96
        4
 40
11.0
 40
11.0
 40
11.0
 40
11.0
 40
12.0
 40
12.0
 40
12.0
 40
12.0
 10
51.32825716145839
 20
9.426473714192724
 42
1.0
 10
49.43299300130211
 20
9.37098356119792
 42
1.0
 10
48.37827701822928
 20
8.200047281901046
 42
1.0
 10
48.38257649739586
 20
6.909397379557314
 42
1.0
 97
        0
 72
     4
 94
        3
 73
     1
 74
     0
 95
        8
 96
        4
 40
12.0
 40
12.0
 40
12.0
 40
12.0
 40
13.0
 40
13.0
 40
13.0
 40
13.0
 10
48.38257649739586
 20
6.909397379557314
 42
1.0
 10
48.37773958333347
 20
5.088433593750024
 42
1.0
 10
49.77641389973964
 20
4.674340006510402
 42
1.0
 10
51.06276432291678
 20
4.42792610677084
 42
1.0
 97
        0
 72
     4
 94
        3
 73
     1
 74
     0
 95
        8
 96
        4
 40
13.0
 40
13.0
 40
13.0
 40
13.0
 40
14.0
 40
14.0
 40
14.0
 40
14.0
 10
51.06276432291678
 20
4.42792610677084
 42
1.0
 10
51.7117169596355
 20
4.297598144531261
 42
1.0
 10
52.35314550781256
 20
4.193335774739571
 42
1.0
 10
52.81372721354172
 20
3.971375162760415
 42
1.0
 97
        0
 72
     4
 94
        3
 73
     1
 74
     0
 95
        8
 96
        4
 40
14.0
 40
14.0
 40
14.0
 40
14.0
 40
15.0
 40
15.0
 40
15.0
 40
15.0
 10
52.81372721354172
 20
3.971375162760415
 42
1.0
 10
53.27430891927087
 20
3.743771484374991
 42
1.0
 10
53.55055045572921
 20
3.43823974609378
 42
1.0
 10
53.55592480468751
 20
2.828788574218755
 42
1.0
 97
        0
 72
     4
 94
        3
 73
     1
 74
     0
 95
        8
 96
        4
 40
15.0
 40
15.0
 40
15.0
 40
15.0
 40
16.0
 40
16.0
 40
16.0
 40
16.0
 10
53.55592480468751
 20
2.828788574218755
 42
1.0
 10
53.55538736979171
 20
1.501055664062501
 42
1.0
 10
52.48186116536468
 20
1.197404947916675
 42
1.0
 10
51.5840761718751
 20
1.160321940104153
 42
1.0
 97
        0
 72
     4
 94
        3
 73
     1
 74
     0
 95
        8
 96
        4
 40
16.0
 40
16.0
 40
16.0
 40
16.0
 40
17.0
 40
17.0
 40
17.0
 40
17.0
 10
51.5840761718751
 20
1.160321940104153
 42
1.0
 10
50.82898014322923
 20
1.176444986979164
 42
1.0
 10
49.74792985026044
 20
1.430920410156272
 42
1.0
 10
49.38731103515626
 20
2.67239501953126
 42
1.0
 97
        0
 72
     1
 10
49.38731103515626
 20
2.67239501953126
 11
49.36393261718764
 21
2.756772298177113
 72
     1
 10
49.36393261718764
 20
2.756772298177113
 11
48.01658333333337
 21
2.756772298177113
 72
     1
 10
48.01658333333337
 20
2.756772298177113
 11
48.06360888671879
 21
2.606559244791668
 72
     4
 94
        3
 73
     1
 74
     0
 95
        8
 96
        4
 40
20.0
 40
20.0
 40
20.0
 40
20.0
 40
21.0
 40
21.0
 40
21.0
 40
21.0
 10
48.06360888671879
 20
2.606559244791668
 42
1.0
 10
48.56987255859379
 20
0.9749069010416556
 42
1.0
 10
50.06421028645847
 20
0.0706726888020925
 42
1.0
 10
51.48948763020844
 20
0.0228409830728971
 42
1.0
 97
        0
 72
     1
 10
51.48948763020844
 20
0.0228409830728971
 11
51.58945052083341
 21
0.0239158528645977
 72
     4
 94
        3
 73
     1
 74
     0
 95
        8
 96
        4
 40
22.0
 40
22.0
 40
22.0
 40
22.0
 40
23.0
 40
23.0
 40
23.0
 40
23.0
 10
51.58945052083341
 20
0.0239158528645977
 42
1.0
 10
53.68410302734383
 20
0.0962008463541442
 42
1.0
 10
54.88527001953136
 20
1.332032389322946
 42
1.0
 10
54.88204541015629
 20
2.792243001302097
 42
1.0
 97
        0
 72
     4
 94
        3
 73
     1
 74
     0
 95
        8
 96
        4
 40
23.0
 40
23.0
 40
23.0
 40
23.0
 40
24.0
 40
24.0
 40
24.0
 40
24.0
 10
54.88204541015629
 20
2.792243001302097
 42
1.0
 10
54.88634488932298
 20
4.627851888020867
 42
1.0
 10
53.49573209635427
 20
5.129278645833319
 42
1.0
 10
52.20427604166667
 20
5.417075032552093
 42
1.0
 97
        0
 72
     4
 94
        3
 73
     1
 74
     0
 95
        8
 96
        4
 40
0.0
 40
0.0
 40
0.0
 40
0.0
 40
1.0
 40
1.0
 40
1.0
 40
1.0
 10
52.20427604166667
 20
5.417075032552093
 42
1.0
 10
51.55478597005214
 20
5.566750651041675
 42
1.0
 10
50.91093896484378
 20
5.677193522135415
 42
1.0
 10
50.4468639322917
 20
5.883568522135397
 42
1.0
 97
        0
 72
     4
 94
        3
 73
     1
 74
     0
 95
        8
 96
        4
 40
1.0
 40
1.0
 40
1.0
 40
1.0
 40
2.0
 40
2.0
 40
2.0
 40
2.0
 10
50.4468639322917
 20
5.883568522135397
 42
1.0
 10
49.98090787760423
 20
6.094914794921885
 42
1.0
 10
49.71192171223959
 20
6.358795328776062
 42
1.0
 10
49.70762223307301
 20
6.873254882812541
 42
1.0
 97
        0
 72
     4
 94
        3
 73
     1
 74
     0
 95
        8
 96
        4
 40
2.0
 40
2.0
 40
2.0
 40
2.0
 40
3.0
 40
3.0
 40
3.0
 40
3.0
 10
49.70762223307301
 20
6.873254882812541
 42
1.0
 10
49.72562630208343
 20
7.668792887369796
 42
1.0
 10
50.01718473307293
 20
8.211064697265623
 42
1.0
 10
51.46584049479175
 20
8.280662516276044
 42
1.0
 97
        0
 72
     4
 94
        3
 73
     1
 74
     0
 95
        8
 96
        4
 40
3.0
 40
3.0
 40
3.0
 40
3.0
 40
4.0
 40
4.0
 40
4.0
 40
4.0
 10
51.46584049479175
 20
8.280662516276044
 42
1.0
 10
52.31525634765632
 20
8.27394458007813
 42
1.0
 10
52.87956298828134
 20
7.916416015625011
 42
1.0
 10
53.23856949869798
 20
7.313951497395832
 42
1.0
 97
        0
 72
     1
 10
53.23856949869798
 20
7.313951497395832
 11
53.27215917968753
 21
7.256983398437555
 72
     1
 10
53.27215917968753
 20
7.256983398437555
 11
54.58941210937507
 21
7.256983398437555
 72
     1
 10
54.58941210937507
 20
7.256983398437555
 11
54.51739583333337
 21
7.419691813151025
 72
     4
 94
        3
 73
     1
 74
     0
 95
        8
 96
        4
 40
7.0
 40
7.0
 40
7.0
 40
7.0
 40
8.0
 40
8.0
 40
8.0
 40
8.0
 10
54.51739583333337
 20
7.419691813151025
 42
1.0
 10
53.93938460286463
 20
8.730764241536487
 42
1.0
 10
52.81104003906256
 20
9.434266520182282
 42
1.0
 10
51.52549576822918
 20
9.432251139322917
 42
1.0
 97
        0
 72
     4
 94
        3
 73
     1
 74
     0
 95
        8
 96
        4
 40
8.0
 40
8.0
 40
8.0
 40
8.0
 40
9.0
 40
9.0
 40
9.0
 40
9.0
 10
51.52549576822918
 20
9.432251139322917
 42
1.0
 10
51.49298095703136
 20
9.432251139322917
 42
1.0
 10
51.46584049479175
 20
9.430101399739598
 42
1.0
 10
51.44219335937505
 20
9.430101399739598
 42
1.0
 97
        0
 72
     1
 10
51.44219335937505
 20
9.430101399739598
 11
51.32825716145839
 21
9.429026529947897
 72
     1
 10
51.32825716145839
 20
9.429026529947897
 11
51.32825716145839
 21
9.426473714192724
 97
        0
 75
     0
 76
     1
 98
        1
 10
0.0
 20
0.0
  0
HATCH
  5
119
330
68
100
AcDbEntity
  8
0
  6
Continuous
 62
     7
100
AcDbHatch
 10
0.0
 20
0.0
 30
0.0
210
0.0
220
0.0
230
1.0
  2
SOLID
 70
     1
 71
     0
 91
        1
 92
        0
 93
       15
 72
     4
 94
        3
 73
     1
 74
     0
 95
        8
 96
        4
 40
11.0
 40
11.0
 40
11.0
 40
11.0
 40
12.0
 40
12.0
 40
12.0
 40
12.0
 10
59.86487304687505
 20
0.042726074218763
 42
1.0
 10
61.77384179687506
 20
0.042726074218763
 42
1.0
 10
62.98602620442717
 20
0.8937542317708491
 42
1.0
 10
63.63175423177092
 20
2.557383951822922
 42
1.0
 97
        0
 72
     1
 10
63.63175423177092
 20
2.557383951822922
 11
63.69409667968762
 21
2.715389811197927
 72
     1
 10
63.69409667968762
 20
2.715389811197927
 11
62.24275374348964
 21
2.715927246093735
 72
     1
 10
62.24275374348964
 20
2.715927246093735
 11
62.21238867187506
 21
2.649822753906239
 72
     4
 94
        3
 73
     1
 74
     0
 95
        8
 96
        4
 40
0.0
 40
0.0
 40
0.0
 40
0.0
 40
1.0
 40
1.0
 40
1.0
 40
1.0
 10
62.21238867187506
 20
2.649822753906239
 42
1.0
 10
61.84021500651049
 20
1.882097005208305
 42
1.0
 10
61.16358447265635
 20
1.300055013020857
 42
1.0
 10
59.83988232421878
 20
1.29468066406252
 42
1.0
 97
        0
 72
     4
 94
        3
 73
     1
 74
     0
 95
        8
 96
        4
 40
1.0
 40
1.0
 40
1.0
 40
1.0
 40
2.0
 40
2.0
 40
2.0
 40
2.0
 10
59.83988232421878
 20
1.29468066406252
 42
1.0
 10
58.52182324218758
 20
1.298980143229184
 42
1.0
 10
57.10030794270837
 20
2.39454117838539
 42
1.0
 10
57.09573974609383
 20
4.749849609375023
 42
1.0
 97
        0
 72
     4
 94
        3
 73
     1
 74
     0
 95
        8
 96
        4
 40
2.0
 40
2.0
 40
2.0
 40
2.0
 40
3.0
 40
3.0
 40
3.0
 40
3.0
 10
57.09573974609383
 20
4.749849609375023
 42
1.0
 10
57.10192024739591
 20
7.104620605468737
 42
1.0
 10
58.51725504557304
 20
8.198569335937517
 42
1.0
 10
59.9492503255209
 20
8.204212402343785
 42
1.0
 97
        0
 72
     4
 94
        3
 73
     1
 74
     0
 95
        8
 96
        4
 40
3.0
 40
3.0
 40
3.0
 40
3.0
 40
4.0
 40
4.0
 40
4.0
 40
4.0
 10
59.9492503255209
 20
8.204212402343785
 42
1.0
 10
60.97360123697926
 20
8.200584716796937
 42
1.0
 10
61.75395670572925
 20
7.899083740234375
 42
1.0
 10
62.09979606119798
 20
7.175830729166694
 42
1.0
 97
        0
 72
     1
 10
62.09979606119798
 20
7.175830729166694
 11
62.13016113281255
 21
7.108248291015612
 72
     1
 10
62.13016113281255
 20
7.108248291015612
 11
63.5659184570313
 21
7.098843180338543
 72
     1
 10
63.5659184570313
 20
7.098843180338543
 11
63.49417089843756
 21
7.262626464843741
 72
     4
 94
        3
 73
     1
 74
     0
 95
        8
 96
        4
 40
7.0
 40
7.0
 40
7.0
 40
7.0
 40
8.0
 40
8.0
 40
8.0
 40
8.0
 10
63.49417089843756
 20
7.262626464843741
 42
1.0
 10
62.69339290364584
 20
9.104550211588542
 42
1.0
 10
61.20684798177089
 20
9.462616210937497
 42
1.0
 10
60.09408902994795
 20
9.456301350911467
 42
1.0
 97
        0
 72
     4
 94
        3
 73
     1
 74
     0
 95
        8
 96
        4
 40
8.0
 40
8.0
 40
8.0
 40
8.0
 40
9.0
 40
9.0
 40
9.0
 40
9.0
 10
60.09408902994795
 20
9.456301350911467
 42
1.0
 10
57.51681998697921
 20
9.462616210937497
 42
1.0
 10
55.79864062500006
 20
7.546929524739593
 42
1.0
 10
55.77042529296883
 20
4.750924479166668
 42
1.0
 97
        0
 72
     4
 94
        3
 73
     1
 74
     0
 95
        8
 96
        4
 40
9.0
 40
9.0
 40
9.0
 40
9.0
 40
10.0
 40
10.0
 40
10.0
 40
10.0
 10
55.77042529296883
 20
4.750924479166668
 42
1.0
 10
55.80186523437503
 20
1.950082519531271
 42
1.0
 10
57.58184960937507
 20
0.0408450520833215
 42
1.0
 10
59.83988232421878
 20
0.042726074218763
 42
1.0
 97
        0
 72
     1
 10
59.83988232421878
 20
0.042726074218763
 11
59.86487304687505
 21
0.042726074218763
 97
        0
 75
     0
 76
     1
 98
        1
 10
0.0
 20
0.0
  0
HATCH
  5
11A
330
68
100
AcDbEntity
  8
0
  6
Continuous
 62
     7
100
AcDbHatch
 10
0.0
 20
0.0
 30
0.0
210
0.0
220
0.0
230
1.0
  2
SOLID
 70
     1
 71
     0
 91
        1
 92
        0
 93
       13
 72
     4
 94
        3
 73
     1
 74
     0
 95
        8
 96
        4
 40
11.0
 40
11.0
 40
11.0
 40
11.0
 40
12.0
 40
12.0
 40
12.0
 40
12.0
 10
71.57504199218756
 20
6.298065185546875
 42
1.0
 10
71.57504199218756
 20
7.218691162109381
 42
1.0
 10
71.33749576822923
 20
8.012213785807297
 42
1.0
 10
70.80973470052088
 20
8.574773763020849
 42
1.0
 97
        0
 72
     4
 94
        3
 73
     1
 74
     0
 95
        8
 96
        4
 40
12.0
 40
12.0
 40
12.0
 40
12.0
 40
13.0
 40
13.0
 40
13.0
 40
13.0
 10
70.80973470052088
 20
8.574773763020849
 42
1.0
 10
70.2827797851563
 20
9.138542968750023
 42
1.0
 10
69.47474641927087
 20
9.457241861979188
 42
1.0
 10
68.3797228190105
 20
9.457241861979188
 42
1.0
 97
        0
 72
     4
 94
        3
 73
     1
 74
     0
 95
        8
 96
        4
 40
0.0
 40
0.0
 40
0.0
 40
0.0
 40
1.0
 40
1.0
 40
1.0
 40
1.0
 10
68.3797228190105
 20
9.457241861979188
 42
1.0
 10
67.43598714192711
 20
9.458854166666697
 42
1.0
 10
66.45355615234382
 20
9.117583007812513
 42
1.0
 10
65.85377880859377
 20
8.202197021484391
 42
1.0
 97
        0
 72
     1
 10
65.85377880859377
 20
8.202197021484391
 11
65.85377880859377
 21
11.61316194661463
 72
     1
 10
65.85377880859377
 20
11.61316194661463
 11
64.52900179036469
 21
11.61316194661463
 72
     1
 10
64.52900179036469
 20
11.61316194661463
 11
64.52900179036469
 21
0.2611933593749942
 72
     1
 10
64.52900179036469
 20
0.2611933593749949
 11
65.85377880859377
 21
0.2611933593749949
 72
     1
 10
65.85377880859377
 20
0.2611933593749949
 11
65.85377880859377
 21
5.478880045572926
 72
     4
 94
        3
 73
     1
 74
     0
 95
        8
 96
        4
 40
6.0
 40
6.0
 40
6.0
 40
6.0
 40
7.0
 40
7.0
 40
7.0
 40
7.0
 10
65.85377880859377
 20
5.478880045572926
 42
1.0
 10
65.86318391927082
 20
7.395104166666694
 42
1.0
 10
66.97540543619796
 20
8.19480729166669
 42
1.0
 10
68.23407796223968
 20
8.204212402343785
 42
1.0
 97
        0
 72
     4
 94
        3
 73
     1
 74
     0
 95
        8
 96
        4
 40
7.0
 40
7.0
 40
7.0
 40
7.0
 40
8.0
 40
8.0
 40
8.0
 40
8.0
 10
68.23407796223968
 20
8.204212402343785
 42
1.0
 10
69.58196468098964
 20
8.181774495442745
 42
1.0
 10
70.22634912109382
 20
7.703860514322924
 42
1.0
 10
70.24838395182297
 20
5.970901692708363
 42
1.0
 97
        0
 72
     1
 10
70.24838395182297
 20
5.970901692708363
 11
70.24838395182297
 21
0.2611933593749951
 72
     1
 10
70.24838395182297
 20
0.2611933593749949
 11
71.57504199218756
 21
0.2611933593749949
 72
     1
 10
71.57504199218756
 20
0.2611933593749949
 11
71.57504199218756
 21
6.298065185546875
 97
        0
 75
     0
 76
     1
 98
        1
 10
0.0
 20
0.0
  0
HATCH
  5
11B
330
68
100
AcDbEntity
  8
0
  6
Continuous
 62
     7
100
AcDbHatch
 10
0.0
 20
0.0
 30
0.0
210
0.0
220
0.0
230
1.0
  2
SOLID
 70
     1
 71
     0
 91
        2
 92
        0
 93
       34
 72
     4
 94
        3
 73
     1
 74
     0
 95
        8
 96
        4
 40
26.0
 40
26.0
 40
26.0
 40
26.0
 40
27.0
 40
27.0
 40
27.0
 40
27.0
 10
84.9423914388021
 20
1.629233886718734
 42
1.0
 10
84.87010644531256
 20
1.816529947916673
 42
1.0
 10
84.86177620442714
 20
2.110238118489594
 42
1.0
 10
84.86231363932295
 20
2.436461100260439
 42
1.0
 97
        0
 72
     1
 10
84.86231363932295
 20
2.436461100260439
 11
84.86231363932295
 21
8.09484440104169
 72
     1
 10
84.86231363932295
 20
8.09484440104169
 11
91.66274609375013
 21
8.095381835937527
 72
     1
 10
91.66274609375013
 20
8.095381835937527
 11
86.99082454427088
 21
1.160321940104153
 72
     1
 10
86.99082454427088
 20
1.160321940104153
 11
86.99082454427088
 21
0.2611933593750226
 72
     1
 10
86.99082454427088
 20
0.2611933593750226
 11
93.59993017578128
 21
0.2611933593750226
 72
     1
 10
93.59993017578128
 20
0.2611933593750226
 11
93.59993017578128
 21
1.404854817708329
 72
     1
 10
93.59993017578128
 20
1.404854817708329
 11
88.76462841796884
 21
1.404854817708329
 72
     1
 10
88.76462841796884
 20
1.404854817708329
 11
93.52764518229174
 21
8.48529085286459
 72
     1
 10
93.52764518229174
 20
8.48529085286459
 11
93.52764518229174
 21
9.237968424479186
 72
     1
 10
93.52764518229174
 20
9.237968424479186
 11
84.86231363932295
 21
9.237968424479186
 72
     1
 10
84.86231363932295
 20
9.237968424479186
 11
84.86231363932295
 21
11.61369938151041
 72
     1
 10
84.86231363932295
 20
11.61369938151041
 11
83.53699918619795
 21
11.61369938151041
 72
     1
 10
83.53699918619795
 20
11.61369938151041
 11
83.53699918619795
 21
9.237968424479186
 72
     1
 10
83.53699918619795
 20
9.237968424479186
 11
79.60136344401047
 21
9.237968424479186
 72
     1
 10
79.60136344401047
 20
9.237968424479186
 11
79.60136344401047
 21
8.40427254231771
 72
     4
 94
        3
 73
     1
 74
     0
 95
        8
 96
        4
 40
8.0
 40
8.0
 40
8.0
 40
8.0
 40
9.0
 40
9.0
 40
9.0
 40
9.0
 10
79.60136344401047
 20
8.40427254231771
 42
1.0
 10
78.87958837890629
 20
9.096085611979166
 42
1.0
 10
77.9261788736979
 20
9.457241861979188
 42
1.0
 10
76.88489876302096
 20
9.456301350911467
 42
1.0
 97
        0
 72
     4
 94
        3
 73
     1
 74
     0
 95
        8
 96
        4
 40
9.0
 40
9.0
 40
9.0
 40
9.0
 40
10.0
 40
10.0
 40
10.0
 40
10.0
 10
76.88489876302096
 20
9.456301350911467
 42
1.0
 10
75.76380957031247
 20
9.457241861979188
 42
1.0
 10
74.74053352864584
 20
9.044357503255245
 42
1.0
 10
74.00263541666673
 20
8.243982584635406
 42
1.0
 97
        0
 72
     4
 94
        3
 73
     1
 74
     0
 95
        8
 96
        4
 40
10.0
 40
10.0
 40
10.0
 40
10.0
 40
11.0
 40
11.0
 40
11.0
 40
11.0
 10
74.00263541666673
 20
8.243982584635406
 42
1.0
 10
73.26554345703128
 20
7.445354329427111
 42
1.0
 10
72.81490429687499
 20
6.265550374348977
 42
1.0
 10
72.81490429687499
 20
4.749849609375023
 42
1.0
 97
        0
 72
     4
 94
        3
 73
     1
 74
     0
 95
        8
 96
        4
 40
11.0
 40
11.0
 40
11.0
 40
11.0
 40
12.0
 40
12.0
 40
12.0
 40
12.0
 10
72.81490429687499
 20
4.749849609375023
 42
1.0
 10
72.81490429687499
 20
3.233477050781253
 42
1.0
 10
73.26554345703128
 20
2.054344889322906
 42
1.0
 10
74.00263541666673
 20
1.254910481770843
 42
1.0
 97
        0
 72
     4
 94
        3
 73
     1
 74
     0
 95
        8
 96
        4
 40
12.0
 40
12.0
 40
12.0
 40
12.0
 40
13.0
 40
13.0
 40
13.0
 40
13.0
 10
74.00263541666673
 20
1.254910481770843
 42
1.0
 10
74.74053352864584
 20
0.4562822265624933
 42
1.0
 10
75.76380957031247
 20
0.0421886393229265
 42
1.0
 10
76.88489876302096
 20
0.042726074218763
 42
1.0
 97
        0
 72
     1
 10
76.88489876302096
 20
0.042726074218763
 11
76.88704850260419
 21
0.042726074218763
 72
     4
 94
        3
 73
     1
 74
     0
 95
        8
 96
        4
 40
14.0
 40
14.0
 40
14.0
 40
14.0
 40
15.0
 40
15.0
 40
15.0
 40
15.0
 10
76.88704850260419
 20
0.042726074218763
 42
1.0
 10
77.96326188151048
 20
0.042726074218763
 42
1.0
 10
78.94569287109377
 20
0.4286043294270681
 42
1.0
 10
79.67526074218756
 20
1.166502441406259
 42
1.0
 97
        0
 72
     1
 10
79.67526074218756
 20
1.166502441406259
 11
79.84965836588553
 21
0.2611933593750226
 72
     1
 10
79.84965836588553
 20
0.2611933593750226
 11
80.95408707682294
 21
0.2611933593750226
 72
     1
 10
80.95408707682294
 20
0.2611933593750226
 11
80.95408707682294
 21
8.09484440104169
 72
     1
 10
80.95408707682294
 20
8.09484440104169
 11
83.53699918619795
 21
8.09484440104169
 72
     1
 10
83.53699918619795
 20
8.09484440104169
 11
83.53699918619795
 21
1.707699381510441
 72
     4
 94
        3
 73
     1
 74
     0
 95
        8
 96
        4
 40
20.0
 40
20.0
 40
20.0
 40
20.0
 40
21.0
 40
21.0
 40
21.0
 40
21.0
 10
83.53699918619795
 20
1.707699381510441
 42
1.0
 10
83.5348494466146
 20
1.111684082031245
 42
1.0
 10
83.72751985677095
 20
0.7201627604166427
 42
1.0
 10
84.03842594401046
 20
0.4976647135416512
 42
1.0
 97
        0
 72
     4
 94
        3
 73
     1
 74
     0
 95
        8
 96
        4
 40
21.0
 40
21.0
 40
21.0
 40
21.0
 40
22.0
 40
22.0
 40
22.0
 40
22.0
 10
84.03842594401046
 20
0.4976647135416512
 42
1.0
 10
84.34771972656252
 20
0.2751666666666597
 42
1.0
 10
84.74488411458336
 20
0.2203483072916457
 42
1.0
 10
85.14742285156251
 20
0.219810872395837
 42
1.0
 97
        0
 72
     4
 94
        2
 73
     1
 74
     0
 95
        6
 96
        3
 40
22.0
 40
22.0
 40
22.0
 40
23.0
 40
23.0
 40
23.0
 10
85.14742285156251
 20
0.219810872395837
 42
1.0
 10
85.22078271484379
 20
0.219810872395837
 42
1.0
 10
86.31634375000007
 20
0.2192734375000005
 42
1.0
 97
        0
 72
     1
 10
86.31634375000007
 20
0.2192734375000005
 11
86.31634375000007
 21
1.34761800130212
 72
     4
 94
        2
 73
     1
 74
     0
 95
        6
 96
        3
 40
24.0
 40
24.0
 40
24.0
 40
25.0
 40
25.0
 40
25.0
 10
86.31634375000007
 20
1.34761800130212
 42
1.0
 10
85.8866645507813
 20
1.34761800130212
 42
1.0
 10
85.38470035807299
 20
1.34761800130212
 42
1.0
 97
        0
 72
     4
 94
        3
 73
     1
 74
     0
 95
        8
 96
        4
 40
25.0
 40
25.0
 40
25.0
 40
25.0
 40
26.0
 40
26.0
 40
26.0
 40
26.0
 10
85.38470035807299
 20
1.34761800130212
 42
1.0
 10
85.10926497395832
 20
1.354873372395898
 42
1.0
 10
85.0187071940105
 20
1.44462500000006
 42
1.0
 10
84.9423914388021
 20
1.629233886718734
 42
1.0
 97
        0
 97
        0
 92
        0
 93
        5
 72
     4
 94
        3
 73
     1
 74
     0
 95
        8
 96
        4
 40
3.0
 40
3.0
 40
3.0
 40
3.0
 40
4.0
 40
4.0
 40
4.0
 40
4.0
 10
76.88489876302096
 20
8.204212402343785
 42
1.0
 10
78.4337861328126
 20
8.200584716796937
 42
1.0
 10
79.62124853515628
 20
6.950779866536499
 42
1.0
 10
79.62931005859375
 20
4.749849609375023
 42
1.0
 97
        0
 72
     4
 94
        3
 73
     1
 74
     0
 95
        8
 96
        4
 40
4.0
 40
4.0
 40
4.0
 40
4.0
 40
5.0
 40
5.0
 40
5.0
 40
5.0
 10
79.62931005859375
 20
4.749849609375023
 42
1.0
 10
79.62124853515628
 20
2.531049641927074
 42
1.0
 10
78.43486100260422
 20
1.299517578124992
 42
1.0
 10
76.88489876302096
 20
1.295218098958356
 42
1.0
 97
        0
 72
     4
 94
        3
 73
     1
 74
     0
 95
        8
 96
        4
 40
0.0
 40
0.0
 40
0.0
 40
0.0
 40
1.0
 40
1.0
 40
1.0
 40
1.0
 10
76.88489876302096
 20
1.295218098958356
 42
1.0
 10
75.33466780598962
 20
1.299517578124992
 42
1.0
 10
74.1480115559896
 20
2.531049641927074
 42
1.0
 10
74.14075618489579
 20
4.749849609375023
 42
1.0
 97
        0
 72
     1
 10
74.14075618489579
 20
4.749849609375023
 11
74.14021874999999
 21
4.749849609375023
 72
     4
 94
        3
 73
     1
 74
     0
 95
        8
 96
        4
 40
2.0
 40
2.0
 40
2.0
 40
2.0
 40
3.0
 40
3.0
 40
3.0
 40
3.0
 10
74.14021874999999
 20
4.749849609375023
 42
1.0
 10
74.1480115559896
 20
6.950779866536499
 42
1.0
 10
75.33574267578136
 20
8.200584716796937
 42
1.0
 10
76.88489876302096
 20
8.204212402343785
 42
1.0
 97
        0
 97
        0
 75
     0
 76
     1
 98
        1
 10
0.0
 20
0.0
  0
ENDBLK
  5
6A
330
68
100
AcDbEntity
  8
0
100
AcDbBlockEnd
  0
BLOCK
  5
17D
330
17C
100
AcDbEntity
  8
0
100
AcDbBlockBegin
  2
_D
 70
     0
 10
0.0
 20
0.0
 30
0.0
  3
_D
  1

  0
SOLID
  5
17F
330
17C
100
AcDbEntity
  8
0
  6
SLD-Durchgehend
 62
     7
370
    18
100
AcDbTrace
 10
296.9568806882
 20
550.4792463049
 30
0.0
 11
303.5608806882
 21
549.4632463049
 31
0.0
 12
303.5608806882
 22
551.4952463049
 32
0.0
 13
303.5608806882
 23
551.4952463049
 33
0.0
  0
SOLID
  5
180
330
17C
100
AcDbEntity
  8
0
  6
SLD-Durchgehend
 62
     7
370
    18
100
AcDbTrace
 10
267.8907316971
 20
550.4792463049
 30
0.0
 11
261.2867316971
 21
551.4952463049
 31
0.0
 12
261.2867316971
 22
549.4632463049
 32
0.0
 13
261.2867316971
 23
549.4632463049
 33
0.0
  0
LINE
  5
181
330
17C
100
AcDbEntity
  8
0
  6
SLD-Durchgehend
 62
     7
370
     0
100
AcDbLine
 10
296.9568806882
 20
504.3657391075
 30
0.0
 11
296.9568806882
 21
552.4792463049
 31
0.0
  0
LINE
  5
182
330
17C
100
AcDbEntity
  8
0
  6
SLD-Durchgehend
 62
     7
370
     0
100
AcDbLine
 10
267.8907316971
 20
504.3657391075
 30
0.0
 11
267.8907316971
 21
552.4792463049
 31
0.0
  0
LINE
  5
183
330
17C
100
AcDbEntity
  8
0
  6
SLD-Durchgehend
 62
     7
370
     0
100
AcDbLine
 10
296.9568806882
 20
550.4792463049
 30
0.0
 11
309.6568806882
 21
550.4792463049
 31
0.0
  0
LINE
  5
184
330
17C
100
AcDbEntity
  8
0
  6
SLD-Durchgehend
 62
     7
370
     0
100
AcDbLine
 10
296.9568806882
 20
550.4792463049
 30
0.0
 11
267.8907316971
 21
550.4792463049
 31
0.0
  0
LINE
  5
185
330
17C
100
AcDbEntity
  8
0
  6
SLD-Durchgehend
 62
     7
370
     0
100
AcDbLine
 10
267.8907316971
 20
550.4792463049
 30
0.0
 11
255.1907316971
 21
550.4792463049
 31
0.0
  0
MTEXT
  5
186
330
17C
100
AcDbEntity
  8
0
  6
SLD-Durchgehend
 62
     7
370
    18
100
AcDbMText
 10
267.2060927073
 20
559.4206525549
 30
0.0
 40
7.0
 41
0.0
 46
0.0
 71
     1
 72
     1
  1
%%c
  7
SLDTEXTSTYLE0
 73
     1
 44
1.0
  0
MTEXT
  5
187
330
17C
100
AcDbEntity
  8
0
  6
SLD-Durchgehend
 62
     7
370
    18
100
AcDbMText
 10
277.762967504
 20
559.5275969082
 30
0.0
 40
7.0
 41
0.0
 46
0.0
 71
     1
 72
     1
  1
29.07
  7
SLDTEXTSTYLE0
 73
     1
 44
1.0
  0
ENDBLK
  5
17E
330
17C
100
AcDbEntity
  8
0
100
AcDbBlockEnd
  0
BLOCK
  5
18B
330
18A
100
AcDbEntity
  8
0
100
AcDbBlockBegin
  2
_D_1
 70
     0
 10
0.0
 20
0.0
 30
0.0
  3
_D_1
  1

  0
SOLID
  5
18D
330
18A
100
AcDbEntity
  8
0
  6
SLD-Durchgehend
 62
     7
370
    18
100
AcDbTrace
 10
329.8671983111
 20
534.8657391075
 30
0.0
 11
328.8511983111
 21
528.2617391075
 31
0.0
 12
330.8831983111
 22
528.2617391075
 32
0.0
 13
330.8831983111
 23
528.2617391075
 33
0.0
  0
SOLID
  5
18E
330
18A
100
AcDbEntity
  8
0
  6
SLD-Durchgehend
 62
     7
370
    18
100
AcDbTrace
 10
329.8671983111
 20
469.8657391075
 30
0.0
 11
330.8831983111
 21
476.4697391075
 31
0.0
 12
328.8511983111
 22
476.4697391075
 32
0.0
 13
328.8511983111
 23
476.4697391075
 33
0.0
  0
LINE
  5
18F
330
18A
100
AcDbEntity
  8
0
  6
SLD-Durchgehend
 62
     7
370
     0
100
AcDbLine
 10
315.9238061927
 20
534.8657391075
 30
0.0
 11
331.8671983111
 21
534.8657391075
 31
0.0
  0
LINE
  5
190
330
18A
100
AcDbEntity
  8
0
  6
SLD-Durchgehend
 62
     7
370
     0
100
AcDbLine
 10
315.9238061927
 20
469.8657391075
 30
0.0
 11
331.8671983111
 21
469.8657391075
 31
0.0
  0
LINE
  5
191
330
18A
100
AcDbEntity
  8
0
  6
SLD-Durchgehend
 62
     7
370
     0
100
AcDbLine
 10
329.8671983111
 20
534.8657391075
 30
0.0
 11
329.8671983111
 21
469.8657391075
 31
0.0
  0
MTEXT
  5
192
330
18A
100
AcDbEntity
  8
0
  6
SLD-Durchgehend
 62
     7
370
    18
100
AcDbMText
 10
320.9257924103
 20
499.2402255963
 30
0.0
 40
7.0
 41
0.0
 46
0.0
 71
     1
 72
     1
  1
65
  7
SLDTEXTSTYLE0
 11
-7.044195017643634E-15
 21
1.0
 31
0.0
 73
     1
 44
1.0
  0
ENDBLK
  5
18C
330
18A
100
AcDbEntity
  8
0
100
AcDbBlockEnd
  0
BLOCK
  5
195
330
194
100
AcDbEntity
  8
0
100
AcDbBlockBegin
  2
_D_2
 70
     0
 10
0.0
 20
0.0
 30
0.0
  3
_D_2
  1

  0
SOLID
  5
197
330
194
100
AcDbEntity
  8
0
  6
SLD-Durchgehend
 62
     7
370
    18
100
AcDbTrace
 10
249.9238061927
 20
454.9662149158
 30
0.0
 11
256.5278061927
 21
453.9502149158
 31
0.0
 12
256.5278061927
 22
455.9822149158
 32
0.0
 13
256.5278061927
 23
455.9822149158
 33
0.0
  0
SOLID
  5
198
330
194
100
AcDbEntity
  8
0
  6
SLD-Durchgehend
 62
     7
370
    18
100
AcDbTrace
 10
314.9238061927
 20
454.9662149158
 30
0.0
 11
308.3198061927
 21
455.9822149158
 31
0.0
 12
308.3198061927
 22
453.9502149158
 32
0.0
 13
308.3198061927
 23
453.9502149158
 33
0.0
  0
LINE
  5
199
330
194
100
AcDbEntity
  8
0
  6
SLD-Durchgehend
 62
     7
370
     0
100
AcDbLine
 10
249.9238061927
 20
468.8657391075
 30
0.0
 11
249.9238061927
 21
452.9662149158
 31
0.0
  0
LINE
  5
19A
330
194
100
AcDbEntity
  8
0
  6
SLD-Durchgehend
 62
     7
370
     0
100
AcDbLine
 10
314.9238061927
 20
468.8657391075
 30
0.0
 11
314.9238061927
 21
452.9662149158
 31
0.0
  0
LINE
  5
19B
330
194
100
AcDbEntity
  8
0
  6
SLD-Durchgehend
 62
     7
370
     0
100
AcDbLine
 10
249.9238061927
 20
454.9662149158
 30
0.0
 11
314.9238061927
 21
454.9662149158
 31
0.0
  0
MTEXT
  5
19C
330
194
100
AcDbEntity
  8
0
  6
SLD-Durchgehend
 62
     7
370
    18
100
AcDbMText
 10
278.9498082059
 20
463.9076208166
 30
0.0
 40
7.0
 41
0.0
 46
0.0
 71
     1
 72
     1
  1
65
  7
SLDTEXTSTYLE0
 73
     1
 44
1.0
  0
ENDBLK
  5
196
330
194
100
AcDbEntity
  8
0
100
AcDbBlockEnd
  0
BLOCK
  5
1D6
330
1D5
100
AcDbEntity
  8
0
100
AcDbBlockBegin
  2
_D_3
 70
     0
 10
0.0
 20
0.0
 30
0.0
  3
_D_3
  1

  0
SOLID
  5
1D8
330
1D5
100
AcDbEntity
  8
0
  6
SLD-Durchgehend
 62
     7
370
    18
100
AcDbTrace
 10
171.2221003754
 20
455.4843702704
 30
0.0
 11
164.6181003754
 21
456.5003702704
 31
0.0
 12
164.6181003754
 22
454.4683702704
 32
0.0
 13
164.6181003754
 23
454.4683702704
 33
0.0
  0
SOLID
  5
1D9
330
1D5
100
AcDbEntity
  8
0
  6
SLD-Durchgehend
 62
     7
370
    18
100
AcDbTrace
 10
109.5221003754
 20
455.4843702704
 30
0.0
 11
116.1261003754
 21
454.4683702704
 31
0.0
 12
116.1261003754
 22
456.5003702704
 32
0.0
 13
116.1261003754
 23
456.5003702704
 33
0.0
  0
LINE
  5
1DA
330
1D5
100
AcDbEntity
  8
0
  6
SLD-Durchgehend
 62
     7
370
     0
100
AcDbLine
 10
171.2221003754
 20
504.3657391075
 30
0.0
 11
171.2221003754
 21
453.4843702704
 31
0.0
  0
LINE
  5
1DB
330
1D5
100
AcDbEntity
  8
0
  6
SLD-Durchgehend
 62
     7
370
     0
100
AcDbLine
 10
109.5221003754
 20
489.1998215843
 30
0.0
 11
109.5221003754
 21
453.4843702704
 31
0.0
  0
LINE
  5
1DC
330
1D5
100
AcDbEntity
  8
0
  6
SLD-Durchgehend
 62
     7
370
     0
100
AcDbLine
 10
171.2221003754
 20
455.4843702704
 30
0.0
 11
109.5221003754
 21
455.4843702704
 31
0.0
  0
MTEXT
  5
1DD
330
1D5
100
AcDbEntity
  8
0
  6
SLD-Durchgehend
 62
     7
370
    18
100
AcDbMText
 10
136.2295105039
 20
464.4257761711
 30
0.0
 40
7.0
 41
0.0
 46
0.0
 71
     1
 72
     1
  1
62
  7
SLDTEXTSTYLE0
 73
     1
 44
1.0
  0
ENDBLK
  5
1D7
330
1D5
100
AcDbEntity
  8
0
100
AcDbBlockEnd
  0
BLOCK
  5
1E1
330
1E0
100
AcDbEntity
  8
0
100
AcDbBlockBegin
  2
_D_4
 70
     0
 10
0.0
 20
0.0
 30
0.0
  3
_D_4
  1

  0
SOLID
  5
1E3
330
1E0
100
AcDbEntity
  8
0
  6
SLD-Durchgehend
 62
     7
370
    18
100
AcDbTrace
 10
163.4221003754
 20
543.9666535567
 30
0.0
 11
156.8181003754
 21
544.9826535567
 31
0.0
 12
156.8181003754
 22
542.9506535567
 32
0.0
 13
156.8181003754
 23
542.9506535567
 33
0.0
  0
SOLID
  5
1E4
330
1E0
100
AcDbEntity
  8
0
  6
SLD-Durchgehend
 62
     7
370
    18
100
AcDbTrace
 10
170.7221003754
 20
543.9666535567
 30
0.0
 11
177.3261003754
 21
542.9506535567
 31
0.0
 12
177.3261003754
 22
544.9826535567
 32
0.0
 13
177.3261003754
 23
544.9826535567
 33
0.0
  0
LINE
  5
1E5
330
1E0
100
AcDbEntity
  8
0
  6
SLD-Durchgehend
 62
     7
370
     0
100
AcDbLine
 10
163.4221003754
 20
535.8657391075
 30
0.0
 11
163.4221003754
 21
545.9666535567
 31
0.0
  0
LINE
  5
1E6
330
1E0
100
AcDbEntity
  8
0
  6
SLD-Durchgehend
 62
     7
370
     0
100
AcDbLine
 10
170.7221003754
 20
536.8657391075
 30
0.0
 11
170.7221003754
 21
545.9666535567
 31
0.0
  0
LINE
  5
1E7
330
1E0
100
AcDbEntity
  8
0
  6
SLD-Durchgehend
 62
     7
370
     0
100
AcDbLine
 10
163.4221003754
 20
543.9666535567
 30
0.0
 11
150.7221003754
 21
543.9666535567
 31
0.0
  0
LINE
  5
1E8
330
1E0
100
AcDbEntity
  8
0
  6
SLD-Durchgehend
 62
     7
370
     0
100
AcDbLine
 10
163.4221003754
 20
543.9666535567
 30
0.0
 11
170.7221003754
 21
543.9666535567
 31
0.0
  0
LINE
  5
1E9
330
1E0
100
AcDbEntity
  8
0
  6
SLD-Durchgehend
 62
     7
370
     0
100
AcDbLine
 10
170.7221003754
 20
543.9666535567
 30
0.0
 11
196.9404189257
 21
543.9666535567
 31
0.0
  0
MTEXT
  5
1EA
330
1E0
100
AcDbEntity
  8
0
  6
SLD-Durchgehend
 62
     7
370
    18
100
AcDbMText
 10
178.8376408039
 20
552.9080594574
 30
0.0
 40
7.0
 41
0.0
 46
0.0
 71
     1
 72
     1
  1
7.30
  7
SLDTEXTSTYLE0
 73
     1
 44
1.0
  0
ENDBLK
  5
1E2
330
1E0
100
AcDbEntity
  8
0
100
AcDbBlockEnd
  0
ENDSEC
  0
SECTION
  2
ENTITIES
  0
SPLINE
  5
11C
330
1F
100
AcDbEntity
  8
0
  6
SLD-Durchgehend
 62
     7
370
    25
100
AcDbSpline
210
0.0
220
0.0
230
1.0
 70
     8
 71
     3
 72
    16
 73
    12
 74
     0
 42
0.00000001
 43
0.00000001
 40
0.0
 40
0.0
 40
0.0
 40
0.0
 40
0.0815620006912023
 40
0.3587370460277054
 40
0.4412419992063703
 40
0.4812215950158231
 40
0.5222204228209042
 40
0.6434664730256944
 40
0.8055156958012339
 40
0.9895064821327394
 40
1.0
 40
1.0
 40
1.0
 40
1.0
 10
291.356990361411
 20
513.8704095432581
 30
0.0
 10
291.3448760714913
 20
513.8796775359506
 30
0.0
 10
291.291593359644
 20
513.9204412775567
 30
0.0
 10
291.2461003800909
 20
513.9539378309753
 30
0.0
 10
291.2170755759848
 20
513.9746121165292
 30
0.0
 10
291.1996740775888
 20
513.9864206258337
 30
0.0
 10
291.1641881594124
 20
514.0086906535076
 30
0.0
 10
291.0901907622191
 20
514.0451121379433
 30
0.0
 10
290.9803753748732
 20
514.0684002114147
 30
0.0
 10
290.8894886552132
 20
514.0770090631438
 30
0.0
 10
290.8444929229508
 20
514.0618130581603
 30
0.0
 10
290.8420651510934
 20
514.0609931485512
 30
0.0
  0
LINE
  5
11D
330
1F
100
AcDbEntity
  8
0
  6
SLD-Durchgehend
 62
     7
370
    25
100
AcDbLine
 10
273.620962193
 20
513.9294838215
 30
0.0
 11
273.9238061927
 21
513.5316566307
 31
0.0
  0
ARC
  5
11E
330
1F
100
AcDbEntity
  8
0
  6
SLD-Durchgehend
 62
     7
370
    25
100
AcDbCircle
 10
273.9238048444
 20
513.5316299822
 30
0.0
 40
0.500001348944515
100
AcDbArc
 50
0.0030536782
 51
127.2780542216
  0
LINE
  5
11F
330
1F
100
AcDbEntity
  8
0
  6
SLD-Durchgehend
 62
     7
370
    25
100
AcDbLine
 10
273.9238061927
 20
513.5316566307
 30
0.0
 11
274.4238061927
 21
513.5316566307
 31
0.0
  0
LINE
  5
120
330
1F
100
AcDbEntity
  8
0
  6
SLD-Durchgehend
 62
     7
370
    25
100
AcDbLine
 10
290.9238061927
 20
513.5316566307
 30
0.0
 11
290.4238061927
 21
513.5316566307
 31
0.0
  0
ARC
  5
121
330
1F
100
AcDbEntity
  8
0
  6
SLD-Durchgehend
 62
     7
370
    25
100
AcDbCircle
 10
290.9238075409
 20
513.5316299822
 30
0.0
 40
0.500001348944515
100
AcDbArc
 50
52.7219457784
 51
179.9969463218
  0
LINE
  5
122
330
1F
100
AcDbEntity
  8
0
  6
SLD-Durchgehend
 62
     7
370
    25
100
AcDbLine
 10
291.2266501923
 20
513.9294838215
 30
0.0
 11
290.9238061927
 21
513.5316566307
 31
0.0
  0
ARC
  5
123
330
1F
100
AcDbEntity
  8
0
  6
SLD-Durchgehend
 62
     7
370
    25
100
AcDbCircle
 10
282.4238061927
 20
502.3657391075
 30
0.0
 40
14.03309353400165
100
AcDbArc
 50
127.2800267983
 51
232.7199732017
  0
LINE
  5
124
330
1F
100
AcDbEntity
  8
0
  6
SLD-Durchgehend
 62
     7
370
    25
100
AcDbLine
 10
273.9238061927
 20
491.1998215843
 30
0.0
 11
273.9238061927
 21
513.5316566307
 31
0.0
  0
ARC
  5
125
330
1F
100
AcDbEntity
  8
0
  6
SLD-Durchgehend
 62
     7
370
    25
100
AcDbCircle
 10
282.4238061927
 20
502.3657391075
 30
0.0
 40
14.03309353400165
100
AcDbArc
 50
307.2800267983
 51
52.7199732017
  0
LINE
  5
126
330
1F
100
AcDbEntity
  8
0
  6
SLD-Durchgehend
 62
     7
370
    25
100
AcDbLine
 10
290.9238061927
 20
513.5316566307
 30
0.0
 11
290.9238061927
 21
491.1998215843
 31
0.0
  0
ARC
  5
127
330
1F
100
AcDbEntity
  8
0
  6
SLD-Durchgehend
 62
     7
370
    25
100
AcDbCircle
 10
282.4238061927
 20
502.3657391075
 30
0.0
 40
14.53307449553363
100
AcDbArc
 50
127.2800267983
 51
232.7199732017
  0
LINE
  5
128
330
1F
100
AcDbEntity
  8
0
  6
SLD-Durchgehend
 62
     7
370
    25
100
AcDbLine
 10
273.620962193
 20
490.8019943935
 30
0.0
 11
273.9238061927
 21
491.1998215843
 31
0.0
  0
LINE
  5
129
330
1F
100
AcDbEntity
  8
0
  6
SLD-Durchgehend
 62
     7
370
    25
100
AcDbLine
 10
290.9238061927
 20
491.1998215843
 30
0.0
 11
290.4238061927
 21
491.1998215843
 31
0.0
  0
LINE
  5
12A
330
1F
100
AcDbEntity
  8
0
  6
SLD-Durchgehend
 62
     7
370
    25
100
AcDbLine
 10
290.4238061927
 20
491.1998215843
 30
0.0
 11
290.4238061927
 21
513.5316566307
 31
0.0
  0
ARC
  5
12B
330
1F
100
AcDbEntity
  8
0
  6
SLD-Durchgehend
 62
     7
370
    25
100
AcDbCircle
 10
282.4238061927
 20
502.3657391075
 30
0.0
 40
14.53307449553363
100
AcDbArc
 50
307.2800267983
 51
52.7199732017
  0
LINE
  5
12C
330
1F
100
AcDbEntity
  8
0
  6
SLD-Durchgehend
 62
     7
370
    25
100
AcDbLine
 10
291.2266501923
 20
490.8019943935
 30
0.0
 11
290.9238061927
 21
491.1998215843
 31
0.0
  0
ARC
  5
12D
330
1F
100
AcDbEntity
  8
0
  6
SLD-Durchgehend
 62
     7
370
    25
100
AcDbCircle
 10
290.9238075409
 20
491.1998482328
 30
0.0
 40
0.500001348944515
100
AcDbArc
 50
180.0030536782
 51
307.2780542216
  0
LINE
  5
12E
330
1F
100
AcDbEntity
  8
0
  6
SLD-Durchgehend
 62
     7
370
    25
100
AcDbLine
 10
273.9238061927
 20
491.1998215843
 30
0.0
 11
274.4238061927
 21
491.1998215843
 31
0.0
  0
ARC
  5
12F
330
1F
100
AcDbEntity
  8
0
  6
SLD-Durchgehend
 62
     7
370
    25
100
AcDbCircle
 10
273.9238048444
 20
491.1998482328
 30
0.0
 40
0.5000013489445527
100
AcDbArc
 50
232.7219457784
 51
359.9969463218
  0
LINE
  5
130
330
1F
100
AcDbEntity
  8
0
  6
SLD-Durchgehend
 62
     7
370
    25
100
AcDbLine
 10
274.4238061927
 20
513.5316566307
 30
0.0
 11
274.4238061927
 21
491.1998215843
 31
0.0
  0
LINE
  5
131
330
1F
100
AcDbEntity
  8
0
  6
SLD-Durchgehend
 62
     7
370
    25
100
AcDbLine
 10
290.4238061927
 20
513.5316566307
 30
0.0
 11
290.4238061927
 21
513.5689744758
 31
0.0
  0
ARC
  5
132
330
1F
100
AcDbEntity
  8
0
  6
SLD-Durchgehend
 62
     7
370
    25
100
AcDbCircle
 10
290.9237771982
 20
513.568965972
 30
0.0
 40
0.4999710056257103
100
AcDbArc
 50
113.5297647127
 51
179.9990254766
  0
LINE
  5
133
330
1F
100
AcDbEntity
  8
0
  6
SLD-Durchgehend
 62
     7
370
    25
100
AcDbLine
 10
291.2260103541
 20
513.9672879287
 30
0.0
 11
291.2266501923
 21
513.9294838215
 31
0.0
  0
LWPOLYLINE
  5
134
330
1F
100
AcDbEntity
  8
0
  6
SLD-Durchgehend
 62
     7
370
    25
100
AcDbPolyline
 90
        3
 70
   128
 43
0.0
 10
273.620962193
 20
513.9294838215
 10
273.6210571393
 20
513.93508663
 10
273.6216020313
 20
513.9672879287
  0
ARC
  5
135
330
1F
100
AcDbEntity
  8
0
  6
SLD-Durchgehend
 62
     7
370
    25
100
AcDbCircle
 10
273.9238229985
 20
513.5689597116
 30
0.0
 40
0.4999831944058371
100
AcDbArc
 50
0.0016919089
 51
83.6963520364
  0
LINE
  5
136
330
1F
100
AcDbEntity
  8
0
  6
SLD-Durchgehend
 62
     7
370
    25
100
AcDbLine
 10
274.4238061927
 20
513.5689744758
 30
0.0
 11
274.4238061927
 21
513.5316566307
 31
0.0
  0
LWPOLYLINE
  5
137
330
1F
100
AcDbEntity
  8
0
  6
SLD-Durchgehend
 62
     7
370
    25
100
AcDbPolyline
 90
        4
 70
   128
 43
0.0
 10
291.2266501923
 20
490.8019943935
 10
291.226555246
 20
490.7963915851
 10
291.2258043042
 20
490.7519924646
 10
291.2255253592
 20
490.735460955
  0
SPLINE
  5
138
330
1F
100
AcDbEntity
  8
0
  6
SLD-Durchgehend
 62
     7
370
    25
100
AcDbSpline
210
0.0
220
0.0
230
1.0
 70
     8
 71
     3
 72
    10
 73
     6
 74
     0
 42
0.00000001
 43
0.00000001
 40
0.0
 40
0.0
 40
0.0
 40
0.0
 40
0.4133821985530143
 40
0.8526636937140717
 40
1.0
 40
1.0
 40
1.0
 40
1.0
 10
291.2255253592275
 20
490.7354609550411
 30
0.0
 10
291.1496075569445
 20
490.6960321243557
 30
0.0
 10
290.993015536437
 20
490.6147041607214
 30
0.0
 10
290.786509936849
 20
490.6434842720809
 30
0.0
 10
290.6757843933879
 20
490.7082288023083
 30
0.0
 10
290.6479743055507
 20
490.7244901907495
 30
0.0
  0
SPLINE
  5
139
330
1F
100
AcDbEntity
  8
0
  6
SLD-Durchgehend
 62
     7
370
    25
100
AcDbSpline
210
0.0
220
0.0
230
1.0
 70
     8
 71
     3
 72
    12
 73
     8
 74
     0
 42
0.00000001
 43
0.00000001
 40
0.0
 40
0.0
 40
0.0
 40
0.0
 40
0.4724607838778981
 40
0.8349945893875818
 40
0.9443181587477838
 40
0.9919594323678819
 40
1.0
 40
1.0
 40
1.0
 40
1.0
 10
290.6479743055507
 20
490.7244901907495
 30
0.0
 10
290.5858914170547
 20
490.7815147513241
 30
0.0
 10
290.4761704036783
 20
490.8822960249594
 30
0.0
 10
290.4331043630331
 20
491.0305826118488
 30
0.0
 10
290.4245893040807
 20
491.111759721761
 30
0.0
 10
290.4238301221134
 20
491.1376833858186
 30
0.0
 10
290.423809212111
 20
491.1464280922138
 30
0.0
 10
290.4238061926654
 20
491.1476908450541
 30
0.0
  0
LINE
  5
13A
330
1F
100
AcDbEntity
  8
0
  6
SLD-Durchgehend
 62
     7
370
    25
100
AcDbLine
 10
290.4238061927
 20
491.1476908451
 30
0.0
 11
290.4238061927
 21
491.1998215843
 31
0.0
  0
LINE
  5
13B
330
1F
100
AcDbEntity
  8
0
  6
SLD-Durchgehend
 62
     7
370
    25
100
AcDbLine
 10
274.4238061927
 20
491.1998215843
 30
0.0
 11
274.4238061927
 21
491.1476908451
 31
0.0
  0
SPLINE
  5
13C
330
1F
100
AcDbEntity
  8
0
  6
SLD-Durchgehend
 62
     7
370
    25
100
AcDbSpline
210
0.0
220
0.0
230
1.0
 70
     8
 71
     3
 72
    12
 73
     8
 74
     0
 42
0.00000001
 43
0.00000001
 40
0.0
 40
0.0
 40
0.0
 40
0.0
 40
0.0080405676364615
 40
0.055681841252218
 40
0.1650054106124174
 40
0.5275392161221014
 40
1.0
 40
1.0
 40
1.0
 40
1.0
 10
274.4238061926654
 20
491.1476908450541
 30
0.0
 10
274.4238031732199
 20
491.1464280922132
 30
0.0
 10
274.4237822632175
 20
491.1376833858182
 30
0.0
 10
274.4230230812502
 20
491.11175972176
 30
0.0
 10
274.4145080222978
 20
491.0305826118493
 30
0.0
 10
274.3714419816525
 20
490.8822960249593
 30
0.0
 10
274.2617209682762
 20
490.781514751324
 30
0.0
 10
274.1996380797801
 20
490.7244901907495
 30
0.0
  0
SPLINE
  5
13D
330
1F
100
AcDbEntity
  8
0
  6
SLD-Durchgehend
 62
     7
370
    25
100
AcDbSpline
210
0.0
220
0.0
230
1.0
 70
     8
 71
     3
 72
    10
 73
     6
 74
     0
 42
0.00000001
 43
0.00000001
 40
0.0
 40
0.0
 40
0.0
 40
0.0
 40
0.147336306289736
 40
0.5866178014591142
 40
1.0
 40
1.0
 40
1.0
 40
1.0
 10
274.1996380797801
 20
490.7244901907495
 30
0.0
 10
274.1718279919428
 20
490.7082288023082
 30
0.0
 10
274.0611024484814
 20
490.643484272081
 30
0.0
 10
273.8545968489008
 20
490.61470416072
 30
0.0
 10
273.6980048283874
 20
490.6960321243561
 30
0.0
 10
273.6220870261034
 20
490.7354609550414
 30
0.0
  0
LWPOLYLINE
  5
13E
330
1F
100
AcDbEntity
  8
0
  6
SLD-Durchgehend
 62
     7
370
    25
100
AcDbPolyline
 90
        4
 70
   128
 43
0.0
 10
273.6220870261
 20
490.735460955
 10
273.6219556709
 20
490.7432482839
 10
273.6212054638
 20
490.7876340499
 10
273.620962193
 20
490.8019943935
  0
SPLINE
  5
13F
330
1F
100
AcDbEntity
  8
0
  6
SLD-Durchgehend
 62
     7
370
    25
100
AcDbSpline
210
0.0
220
0.0
230
1.0
 70
     8
 71
     3
 72
    14
 73
    10
 74
     0
 42
0.00000001
 43
0.00000001
 40
0.0
 40
0.0
 40
0.0
 40
0.0
 40
0.1877950354616282
 40
0.3402070758261662
 40
0.4929376431424919
 40
0.6450537520573432
 40
0.7942278572315704
 40
0.9431780991207495
 40
1.0
 40
1.0
 40
1.0
 40
1.0
 10
273.4887044902924
 20
513.8690104082783
 30
0.0
 10
273.1750611719028
 20
513.6170749930835
 30
0.0
 10
272.6068689620318
 20
513.1606720285974
 30
0.0
 10
271.9346325526722
 20
512.5076142274311
 30
0.0
 10
271.4049370505455
 20
511.9434639710086
 30
0.0
 10
270.9855739515202
 20
511.4518476668291
 30
0.0
 10
270.6981873985966
 20
511.0934183870862
 30
0.0
 10
270.5459858033256
 20
510.8968224882528
 30
0.0
 10
270.5476274136039
 20
510.9085630042809
 30
0.0
 10
270.5480807277177
 20
510.9118050293143
 30
0.0
  0
SPLINE
  5
140
330
1F
100
AcDbEntity
  8
0
  6
SLD-Durchgehend
 62
     7
370
    25
100
AcDbSpline
210
0.0
220
0.0
230
1.0
 70
     8
 71
     3
 72
    34
 73
    30
 74
     0
 42
0.00000001
 43
0.00000001
 40
0.0
 40
0.0
 40
0.0
 40
0.0
 40
0.0027610402975404
 40
0.0370083260148472
 40
0.0650423679209099
 40
0.0931943657026483
 40
0.1212908661909585
 40
0.1630427882545798
 40
0.2049421901804006
 40
0.2467191565818134
 40
0.2830044673255788
 40
0.3193782356316841
 40
0.355626342945929
 40
0.385764544448203
 40
0.4274599101147066
 40
0.4691322766973748
 40
0.5110232066537598
 40
0.5529172097491761
 40
0.5931183026177568
 40
0.6333410540000719
 40
0.6769605314997623
 40
0.7206069604101916
 40
0.7729758793795253
 40
0.825361537068969
 40
0.8607389932211539
 40
0.8961908926020091
 40
0.9314999167566578
 40
0.965776112823027
 40
1.0
 40
1.0
 40
1.0
 40
1.0
 10
270.5402753811665
 20
510.9120040629169
 30
0.0
 10
270.5397543221013
 20
510.9118325601632
 30
0.0
 10
270.5327701705926
 20
510.9095337781331
 30
0.0
 10
270.6455617816703
 20
511.0773492296138
 30
0.0
 10
270.8610825751469
 20
511.3780249883809
 30
0.0
 10
271.1540347134838
 20
511.7566575121976
 30
0.0
 10
271.5765077488167
 20
512.2612992146915
 30
0.0
 10
272.1731539173712
 20
512.8980195824793
 30
0.0
 10
272.9840570554884
 20
513.6473904942718
 30
0.0
 10
273.891303266124
 20
514.3621722773927
 30
0.0
 10
274.8741801717512
 20
515.0105191925481
 30
0.0
 10
275.9103728461741
 20
515.583387353585
 30
0.0
 10
276.9805281428867
 20
516.0639290760859
 30
0.0
 10
278.1885653487682
 20
516.4932738942903
 30
0.0
 10
279.5428374317456
 20
516.8410878726968
 30
0.0
 10
281.1146789350498
 20
517.0729663029017
 30
0.0
 10
282.7286534069053
 20
517.1262638859565
 30
0.0
 10
284.31485003084
 20
517.0073551323117
 30
0.0
 10
285.8254708077999
 20
516.7240498751289
 30
0.0
 10
287.2728468235233
 20
516.2992296989337
 30
0.0
 10
288.6425120476075
 20
515.7352228599805
 30
0.0
 10
289.9946712025741
 20
515.0130400368662
 30
0.0
 10
291.2476864112697
 20
514.1582366919719
 30
0.0
 10
292.2402084050664
 20
513.3178392733055
 30
0.0
 10
292.9671858485627
 20
512.5924979029625
 30
0.0
 10
293.4907451529571
 20
512.0058241318742
 30
0.0
 10
293.8959262378095
 20
511.5015081796517
 30
0.0
 10
294.1861490075852
 20
511.1025670443709
 30
0.0
 10
294.26396466282
 20
510.9815389479861
 30
0.0
 10
294.302842779156
 20
510.9210711102873
 30
0.0
  0
SPLINE
  5
141
330
1F
100
AcDbEntity
  8
0
  6
SLD-Durchgehend
 62
     7
370
    25
100
AcDbSpline
210
0.0
220
0.0
230
1.0
 70
     8
 71
     3
 72
    14
 73
    10
 74
     0
 42
0.00000001
 43
0.00000001
 40
0.0
 40
0.0
 40
0.0
 40
0.0
 40
0.0356252506217777
 40
0.1871884364598784
 40
0.3096162101844767
 40
0.4325596222968631
 40
0.5552589195726785
 40
0.7775736889726614
 40
1.0
 40
1.0
 40
1.0
 40
1.0
 10
294.3013635758132
 20
510.9086570123283
 30
0.0
 10
294.3021848233045
 20
510.9060447591004
 30
0.0
 10
294.3064999658268
 20
510.8923190002969
 30
0.0
 10
294.1803555100669
 20
511.0531389122277
 30
0.0
 10
293.9480658786517
 20
511.3444573734067
 30
0.0
 10
293.6451214641119
 20
511.7091687264465
 30
0.0
 10
293.1691098121836
 20
512.2444229877436
 30
0.0
 10
292.4558149502984
 20
512.9772594854618
 30
0.0
 10
291.7246047096106
 20
513.5717104043244
 30
0.0
 10
291.3589078950385
 20
513.8690104082783
 30
0.0
  0
SPLINE
  5
142
330
1F
100
AcDbEntity
  8
0
  6
SLD-Durchgehend
 62
     7
370
    25
100
AcDbSpline
210
0.0
220
0.0
230
1.0
 70
     8
 71
     3
 72
    10
 73
     6
 74
     0
 42
0.00000001
 43
0.00000001
 40
0.0
 40
0.0
 40
0.0
 40
0.0
 40
0.2453502284462818
 40
0.623363180007941
 40
1.0
 40
1.0
 40
1.0
 40
1.0
 10
273.4887044902924
 20
513.8690104082783
 30
0.0
 10
273.5067614553006
 20
513.8827476773147
 30
0.0
 10
273.552638922789
 20
513.9176500605951
 30
0.0
 10
273.6081965089693
 20
513.9587363813918
 30
0.0
 10
273.6171389594684
 20
513.9644408803742
 30
0.0
 10
273.6216020312745
 20
513.9672879286838
 30
0.0
  0
SPLINE
  5
143
330
1F
100
AcDbEntity
  8
0
  6
SLD-Durchgehend
 62
     7
370
    25
100
AcDbSpline
210
0.0
220
0.0
230
1.0
 70
     8
 71
     3
 72
    13
 73
     9
 74
     0
 42
0.00000001
 43
0.00000001
 40
0.0
 40
0.0
 40
0.0
 40
0.0
 40
0.1892300941802247
 40
0.3789044938761195
 40
0.5678182926017621
 40
0.7773611119062387
 40
0.9867234711241565
 40
1.0
 40
1.0
 40
1.0
 40
1.0
 10
291.2255253592275
 20
490.7354609550411
 30
0.0
 10
291.4067009386735
 20
490.8736494672767
 30
0.0
 10
291.7694774913677
 20
491.1503509534485
 30
0.0
 10
292.2016706812036
 20
491.518240696204
 30
0.0
 10
292.5600127108812
 20
491.8401932396086
 30
0.0
 10
292.7879103185922
 20
492.0513566547289
 30
0.0
 10
292.8959025133761
 20
492.1520389852842
 30
0.0
 10
292.8762538627787
 20
492.1264824653805
 30
0.0
 10
292.8750821632645
 20
492.1249584644417
 30
0.0
  0
ARC
  5
144
330
1F
100
AcDbEntity
  8
0
  6
SLD-Durchgehend
 62
     7
370
    25
100
AcDbCircle
 10
282.4228658846
 20
501.9877807101
 30
0.0
 40
14.37201749816632
100
AcDbArc
 50
223.3313003142
 51
316.6229940299
  0
SPLINE
  5
145
330
1F
100
AcDbEntity
  8
0
  6
SLD-Durchgehend
 62
     7
370
    25
100
AcDbSpline
210
0.0
220
0.0
230
1.0
 70
     8
 71
     3
 72
    12
 73
     8
 74
     0
 42
0.00000001
 43
0.00000001
 40
0.0
 40
0.0
 40
0.0
 40
0.0
 40
0.2090380557573131
 40
0.4102332895281088
 40
0.6116192928874759
 40
0.8057688415009229
 40
1.0
 40
1.0
 40
1.0
 40
1.0
 10
271.9779380931426
 20
492.1180394388213
 30
0.0
 10
271.9919731200916
 20
492.1091085996607
 30
0.0
 10
272.019516598972
 20
492.0915819942115
 30
0.0
 10
272.2629422337283
 20
491.8622489309268
 30
0.0
 10
272.6105065673232
 20
491.5489731445278
 30
0.0
 10
273.0603235408925
 20
491.1640106180889
 30
0.0
 10
273.4348063011898
 20
490.8783308525515
 30
0.0
 10
273.6220870261034
 20
490.7354609550414
 30
0.0
  0
SPLINE
  5
146
330
1F
100
AcDbEntity
  8
0
  6
SLD-Durchgehend
 62
     7
370
    25
100
AcDbSpline
210
0.0
220
0.0
230
1.0
 70
     8
 71
     3
 72
    10
 73
     6
 74
     0
 42
0.00000001
 43
0.00000001
 40
0.0
 40
0.0
 40
0.0
 40
0.0
 40
0.1326319184784395
 40
0.5653923648006696
 40
1.0
 40
1.0
 40
1.0
 40
1.0
 10
291.2260103540564
 20
513.9672879286836
 30
0.0
 10
291.2265839484791
 20
513.9670395514706
 30
0.0
 10
291.2290291058046
 20
513.9659807521904
 30
0.0
 10
291.2654294660169
 20
513.9398528482832
 30
0.0
 10
291.3277042109318
 20
513.8926580577136
 30
0.0
 10
291.3589078950385
 20
513.8690104082783
 30
0.0
  0
SPLINE
  5
147
330
1F
100
AcDbEntity
  8
0
  6
SLD-Durchgehend
 62
     7
370
    25
100
AcDbSpline
210
0.0
220
0.0
230
1.0
 70
    11
 71
     3
 72
    46
 73
    42
 74
     0
 42
0.00000001
 43
0.00000001
 40
0.0
 40
0.0
 40
0.0
 40
0.0
 40
0.0267133643342775
 40
0.0534190413631391
 40
0.080245647004841
 40
0.1070529601712272
 40
0.131597233360672
 40
0.1561452964551615
 40
0.1792101507639598
 40
0.2022864440305678
 40
0.2274900133816148
 40
0.2526992199263688
 40
0.2807999548059278
 40
0.3088884506912586
 40
0.3366233452999508
 40
0.3643420216743412
 40
0.3891908723377685
 40
0.4140418609921664
 40
0.4377297683314981
 40
0.4614270849224016
 40
0.4865920759331
 40
0.5117643775072241
 40
0.5395037195570471
 40
0.5672336386839256
 40
0.5953526033758041
 40
0.6234470171500517
 40
0.648180004720715
 40
0.6729166271276434
 40
0.6959796165909357
 40
0.7190533242266265
 40
0.74414784829597
 40
0.7692464836464961
 40
0.7968332022394994
 40
0.8244085533668684
 40
0.8513787261261276
 40
0.8783395103594891
 40
0.9030722525530769
 40
0.9278098925522571
 40
0.9522141245084096
 40
0.9766267538357105
 40
1.0
 40
1.0
 40
1.0
 40
1.0
 10
278.9157295435544
 20
498.5601555190578
 30
0.0
 10
278.7136977410525
 20
498.7637847929797
 30
0.0
 10
278.3096922747446
 20
499.170984742423
 30
0.0
 10
277.8381310637092
 20
499.9015926511802
 30
0.0
 10
277.4865696368176
 20
500.7045285332044
 30
0.0
 10
277.2790810798859
 20
501.5420728524454
 30
0.0
 10
277.2173348249235
 20
502.3797501919252
 30
0.0
 10
277.2814527399001
 20
503.1726480812487
 30
0.0
 10
277.4617487294842
 20
503.9218192325652
 30
0.0
 10
277.7460986528486
 20
504.6359178275858
 30
0.0
 10
278.1433405596771
 20
505.3119639545554
 30
0.0
 10
278.6701285604308
 20
505.9577854022731
 30
0.0
 10
279.3213381059381
 20
506.5299906434154
 30
0.0
 10
280.0899238576314
 20
507.0023108358604
 30
0.0
 10
280.9371983474288
 20
507.3344072533134
 30
0.0
 10
281.8038503618749
 20
507.5130744781699
 30
0.0
 10
282.6599895734668
 20
507.5402511795324
 30
0.0
 10
283.4644028284724
 20
507.4413627127253
 30
0.0
 10
284.2247108296768
 20
507.2231892022542
 30
0.0
 10
284.9408153637844
 20
506.8989952077625
 30
0.0
 10
285.6049990981201
 20
506.4646161828645
 30
0.0
 10
286.22283306431
 20
505.9097414391626
 30
0.0
 10
286.758007557019
 20
505.2406723277152
 30
0.0
 10
287.191708495347
 20
504.4593063344018
 30
0.0
 10
287.4855958621026
 20
503.5984517002154
 30
0.0
 10
287.6230913807217
 20
502.7193524506014
 30
0.0
 10
287.6062869584694
 20
501.8614329969814
 30
0.0
 10
287.4667654793175
 20
501.0720035251911
 30
0.0
 10
287.2137648294296
 20
500.3374794583322
 30
0.0
 10
286.8597019881573
 20
499.6494823490849
 30
0.0
 10
286.3949542113862
 20
499.010297524781
 30
0.0
 10
285.805342028894
 20
498.4172461529274
 30
0.0
 10
285.1013553390069
 20
497.9122572880382
 30
0.0
 10
284.2980582827119
 20
497.5205988123561
 30
0.0
 10
283.4371179553117
 20
497.2745765865291
 30
0.0
 10
282.5725815434624
 20
497.1775371162877
 30
0.0
 10
281.7288045645106
 20
497.2256195473638
 30
0.0
 10
280.9328935588272
 20
497.394970753532
 30
0.0
 10
280.1846002268025
 20
497.685473906235
 30
0.0
 10
279.500995700255
 20
498.0683376342898
 30
0.0
 10
279.1079687060661
 20
498.3986107975775
 30
0.0
 10
278.9157295435544
 20
498.5601555190578
 30
0.0
  0
ARC
  5
148
330
1F
100
AcDbEntity
  8
0
  6
SLD-Durchgehend
 62
     7
370
    25
100
AcDbCircle
 10
282.4238061927
 20
502.3657391075
 30
0.0
 40
5.0
100
AcDbArc
 50
23.3732513322
 51
180.0
  0
ARC
  5
149
330
1F
100
AcDbEntity
  8
0
  6
SLD-Durchgehend
 62
     7
370
    25
100
AcDbCircle
 10
282.4238061927
 20
502.3657391075
 30
0.0
 40
5.0
100
AcDbArc
 50
180.0
 51
293.3732513322
  0
LINE
  5
14A
330
1F
100
AcDbEntity
  8
0
  6
SLD-Durchgehend
 62
     7
370
    25
100
AcDbLine
 10
258.9238061927
 20
537.3657391075
 30
0.0
 11
266.9238061927
 21
537.3657391075
 31
0.0
  0
LINE
  5
14B
330
1F
100
AcDbEntity
  8
0
  6
SLD-Durchgehend
 62
     7
370
    25
100
AcDbLine
 10
266.9238061927
 20
537.3657391075
 30
0.0
 11
266.9238061927
 21
534.8657391075
 31
0.0
  0
LINE
  5
14C
330
1F
100
AcDbEntity
  8
0
  6
SLD-Durchgehend
 62
     7
370
    25
100
AcDbLine
 10
258.9238061927
 20
534.8657391075
 30
0.0
 11
258.9238061927
 21
537.3657391075
 31
0.0
  0
CIRCLE
  5
14D
330
1F
100
AcDbEntity
  8
0
  6
SLD-Durchgehend
 62
     7
370
    25
100
AcDbCircle
 10
282.4238061927
 20
502.3657391075
 30
0.0
 40
4.70000000000002
  0
CIRCLE
  5
14E
330
1F
100
AcDbEntity
  8
0
  6
SLD-Durchgehend
 62
     7
370
    25
100
AcDbCircle
 10
282.4238061927
 20
502.3657391075
 30
0.0
 40
4.999999999999998
  0
LINE
  5
14F
330
1F
100
AcDbEntity
  8
0
  6
SLD-Durchgehend
 62
     7
370
    25
100
AcDbLine
 10
279.508167825
 20
502.7044694464
 30
0.0
 11
280.6726379304
 21
500.0100873823
 31
0.0
  0
LINE
  5
150
330
1F
100
AcDbEntity
  8
0
  6
SLD-Durchgehend
 62
     7
370
    25
100
AcDbLine
 10
285.3394445603
 20
502.0270087687
 30
0.0
 11
283.588276298
 21
499.6713570435
 31
0.0
  0
LINE
  5
151
330
1F
100
AcDbEntity
  8
0
  6
SLD-Durchgehend
 62
     7
370
    25
100
AcDbLine
 10
281.2593360873
 20
505.0601211716
 30
0.0
 11
284.174974455
 21
504.7213908327
 31
0.0
  0
LINE
  5
152
330
1F
100
AcDbEntity
  8
0
  6
SLD-Durchgehend
 62
     7
370
    25
100
AcDbLine
 10
283.588276298
 20
499.6713570435
 30
0.0
 11
280.6726379304
 21
500.0100873823
 31
0.0
  0
LINE
  5
153
330
1F
100
AcDbEntity
  8
0
  6
SLD-Durchgehend
 62
     7
370
    25
100
AcDbLine
 10
285.3394445603
 20
502.0270087687
 30
0.0
 11
284.174974455
 21
504.7213908327
 31
0.0
  0
LINE
  5
154
330
1F
100
AcDbEntity
  8
0
  6
SLD-Durchgehend
 62
     7
370
    25
100
AcDbLine
 10
281.2593360873
 20
505.0601211716
 30
0.0
 11
279.508167825
 21
502.7044694464
 31
0.0
  0
ARC
  5
155
330
1F
100
AcDbEntity
  8
0
  6
SLD-Durchgehend
 62
     7
370
    25
100
AcDbCircle
 10
282.4238061927
 20
502.3657391075
 30
0.0
 40
2.542000000000026
100
AcDbArc
 50
23.3732513322
 51
83.3732513322
  0
ARC
  5
156
330
1F
100
AcDbEntity
  8
0
  6
SLD-Durchgehend
 62
     7
370
    25
100
AcDbCircle
 10
282.4238061927
 20
502.3657391075
 30
0.0
 40
2.542000000000024
100
AcDbArc
 50
83.3732513322
 51
143.3732513322
  0
ARC
  5
157
330
1F
100
AcDbEntity
  8
0
  6
SLD-Durchgehend
 62
     7
370
    25
100
AcDbCircle
 10
282.4238061927
 20
502.3657391075
 30
0.0
 40
2.542000000000026
100
AcDbArc
 50
323.3732513322
 51
23.3732513322
  0
ARC
  5
158
330
1F
100
AcDbEntity
  8
0
  6
SLD-Durchgehend
 62
     7
370
    25
100
AcDbCircle
 10
282.4238061927
 20
502.3657391075
 30
0.0
 40
2.542000000000002
100
AcDbArc
 50
263.3732513322
 51
323.3732513322
  0
ARC
  5
159
330
1F
100
AcDbEntity
  8
0
  6
SLD-Durchgehend
 62
     7
370
    25
100
AcDbCircle
 10
282.4238061927
 20
502.3657391075
 30
0.0
 40
2.542000000000003
100
AcDbArc
 50
203.3732513322
 51
263.3732513322
  0
ARC
  5
15A
330
1F
100
AcDbEntity
  8
0
  6
SLD-Durchgehend
 62
     7
370
    25
100
AcDbCircle
 10
282.4238061927
 20
502.3657391075
 30
0.0
 40
2.542000000000024
100
AcDbArc
 50
143.3732513322
 51
203.3732513322
  0
ARC
  5
15B
330
1F
100
AcDbEntity
  8
0
  6
SLD-Durchgehend
 62
     7
370
    25
100
AcDbCircle
 10
313.9238061927
 20
533.8657391075
 30
0.0
 40
1.0
100
AcDbArc
 50
0.0
 51
90.0
  0
LINE
  5
15C
330
1F
100
AcDbEntity
  8
0
  6
SLD-Durchgehend
 62
     7
370
    25
100
AcDbLine
 10
314.9238061927
 20
533.8657391075
 30
0.0
 11
314.4238061927
 21
533.8657391075
 31
0.0
  0
ARC
  5
15D
330
1F
100
AcDbEntity
  8
0
  6
SLD-Durchgehend
 62
     7
370
    25
100
AcDbCircle
 10
313.9238061927
 20
533.8657391075
 30
0.0
 40
0.5000000000001137
100
AcDbArc
 50
0.0
 51
90.0
  0
LINE
  5
15E
330
1F
100
AcDbEntity
  8
0
  6
SLD-Durchgehend
 62
     7
370
    25
100
AcDbLine
 10
313.9238061927
 20
534.8657391075
 30
0.0
 11
313.9238061927
 21
534.3657391075
 31
0.0
  0
ARC
  5
15F
330
1F
100
AcDbEntity
  8
0
  6
SLD-Durchgehend
 62
     7
370
    25
100
AcDbCircle
 10
250.9238061927
 20
470.8657391075
 30
0.0
 40
0.5
100
AcDbArc
 50
180.0
 51
270.0
  0
LINE
  5
160
330
1F
100
AcDbEntity
  8
0
  6
SLD-Durchgehend
 62
     7
370
    25
100
AcDbLine
 10
250.9238061927
 20
470.3657391075
 30
0.0
 11
250.9238061927
 21
469.8657391075
 31
0.0
  0
ARC
  5
161
330
1F
100
AcDbEntity
  8
0
  6
SLD-Durchgehend
 62
     7
370
    25
100
AcDbCircle
 10
250.9238061927
 20
470.8657391075
 30
0.0
 40
1.0
100
AcDbArc
 50
180.0
 51
270.0
  0
LINE
  5
162
330
1F
100
AcDbEntity
  8
0
  6
SLD-Durchgehend
 62
     7
370
    25
100
AcDbLine
 10
250.4238061927
 20
470.8657391075
 30
0.0
 11
249.9238061927
 21
470.8657391075
 31
0.0
  0
ARC
  5
163
330
1F
100
AcDbEntity
  8
0
  6
SLD-Durchgehend
 62
     7
370
    25
100
AcDbCircle
 10
250.9238061927
 20
533.8657391075
 30
0.0
 40
0.5000000000001137
100
AcDbArc
 50
90.0
 51
180.0
  0
LINE
  5
164
330
1F
100
AcDbEntity
  8
0
  6
SLD-Durchgehend
 62
     7
370
    25
100
AcDbLine
 10
250.4238061927
 20
533.8657391075
 30
0.0
 11
249.9238061927
 21
533.8657391075
 31
0.0
  0
ARC
  5
165
330
1F
100
AcDbEntity
  8
0
  6
SLD-Durchgehend
 62
     7
370
    25
100
AcDbCircle
 10
250.9238061927
 20
533.8657391075
 30
0.0
 40
1.0
100
AcDbArc
 50
90.0
 51
180.0
  0
LINE
  5
166
330
1F
100
AcDbEntity
  8
0
  6
SLD-Durchgehend
 62
     7
370
    25
100
AcDbLine
 10
250.9238061927
 20
534.8657391075
 30
0.0
 11
250.9238061927
 21
534.3657391075
 31
0.0
  0
LINE
  5
167
330
1F
100
AcDbEntity
  8
0
  6
SLD-Durchgehend
 62
     7
370
    25
100
AcDbLine
 10
250.9238061927
 20
470.3657391075
 30
0.0
 11
313.9238061927
 21
470.3657391075
 31
0.0
  0
LINE
  5
168
330
1F
100
AcDbEntity
  8
0
  6
SLD-Durchgehend
 62
     7
370
    25
100
AcDbLine
 10
313.9238061927
 20
470.3657391075
 30
0.0
 11
313.9238061927
 21
469.8657391075
 31
0.0
  0
LINE
  5
169
330
1F
100
AcDbEntity
  8
0
  6
SLD-Durchgehend
 62
     7
370
    25
100
AcDbLine
 10
313.9238061927
 20
469.8657391075
 30
0.0
 11
250.9238061927
 21
469.8657391075
 31
0.0
  0
LINE
  5
16A
330
1F
100
AcDbEntity
  8
0
  6
SLD-Durchgehend
 62
     7
370
    25
100
AcDbLine
 10
250.9238061927
 20
534.8657391075
 30
0.0
 11
313.9238061927
 21
534.8657391075
 31
0.0
  0
LINE
  5
16B
330
1F
100
AcDbEntity
  8
0
  6
SLD-Durchgehend
 62
     7
370
    25
100
AcDbLine
 10
313.9238061927
 20
534.3657391075
 30
0.0
 11
250.9238061927
 21
534.3657391075
 31
0.0
  0
ARC
  5
16C
330
1F
100
AcDbEntity
  8
0
  6
SLD-Durchgehend
 62
     7
370
    25
100
AcDbCircle
 10
313.9238061927
 20
470.8657391075
 30
0.0
 40
0.5
100
AcDbArc
 50
270.0
 51
0.0
  0
LINE
  5
16D
330
1F
100
AcDbEntity
  8
0
  6
SLD-Durchgehend
 62
     7
370
    25
100
AcDbLine
 10
314.9238061927
 20
470.8657391075
 30
0.0
 11
314.4238061927
 21
470.8657391075
 31
0.0
  0
ARC
  5
16E
330
1F
100
AcDbEntity
  8
0
  6
SLD-Durchgehend
 62
     7
370
    25
100
AcDbCircle
 10
313.9238061927
 20
470.8657391075
 30
0.0
 40
1.000000000000057
100
AcDbArc
 50
270.0
 51
0.0
  0
LINE
  5
16F
330
1F
100
AcDbEntity
  8
0
  6
SLD-Durchgehend
 62
     7
370
    25
100
AcDbLine
 10
314.9238061927
 20
533.8657391075
 30
0.0
 11
314.9238061927
 21
470.8657391075
 31
0.0
  0
LINE
  5
170
330
1F
100
AcDbEntity
  8
0
  6
SLD-Durchgehend
 62
     7
370
    25
100
AcDbLine
 10
314.4238061927
 20
470.8657391075
 30
0.0
 11
314.4238061927
 21
533.8657391075
 31
0.0
  0
LINE
  5
171
330
1F
100
AcDbEntity
  8
0
  6
SLD-Durchgehend
 62
     7
370
    25
100
AcDbLine
 10
250.4238061927
 20
533.8657391075
 30
0.0
 11
250.4238061927
 21
470.8657391075
 31
0.0
  0
LINE
  5
172
330
1F
100
AcDbEntity
  8
0
  6
SLD-Durchgehend
 62
     7
370
    25
100
AcDbLine
 10
249.9238061927
 20
470.8657391075
 30
0.0
 11
249.9238061927
 21
533.8657391075
 31
0.0
  0
ARC
  5
173
330
1F
100
AcDbEntity
  8
0
  6
SLD-Durchgehend
 62
     7
370
    25
100
AcDbCircle
 10
290.9238058733
 20
513.568920407
 30
0.0
 40
0.5000242299256389
100
AcDbArc
 50
52.8157831624
 51
113.5306928764
  0
ARC
  5
174
330
1F
100
AcDbEntity
  8
0
  6
SLD-Durchgehend
 62
     7
370
    25
100
AcDbCircle
 10
273.9238057073
 20
513.5689225186
 30
0.0
 40
0.5000220612688577
100
AcDbArc
 50
83.6948506168
 51
127.184289612
  0
LINE
  5
175
330
1F
100
AcDbEntity
  8
0
  6
SLD-Durchgehend
 62
     7
370
    25
100
AcDbLine
 10
270.5480807277
 20
510.9118050293
 30
0.0
 11
270.5402753812
 21
510.9120040629
 31
0.0
  0
LINE
  5
176
330
1F
100
AcDbEntity
  8
0
  6
SLD-Durchgehend
 62
     7
370
    25
100
AcDbLine
 10
292.8750821633
 20
492.1249584644
 30
0.0
 11
292.8691719119
 21
492.1171385146
 31
0.0
  0
SPLINE
  5
177
330
1F
100
AcDbEntity
  8
0
  6
SLD-Durchgehend
 62
     7
370
    25
100
AcDbSpline
210
0.0
220
0.0
230
1.0
 70
     8
 71
     3
 72
    21
 73
    17
 74
     0
 42
0.00000001
 43
0.00000001
 40
0.0
 40
0.0
 40
0.0
 40
0.0
 40
0.0945858310048719
 40
0.1764322881775863
 40
0.258219215949101
 40
0.3329651840167992
 40
0.4076615879165932
 40
0.4851490645303563
 40
0.5626293651343243
 40
0.6399614602647556
 40
0.7173464728659441
 40
0.7735952088699636
 40
0.841765231886964
 40
0.9101795902221415
 40
0.9784312737432844
 40
1.0
 40
1.0
 40
1.0
 40
1.0
 10
290.4939208497839
 20
513.8083586767477
 30
0.0
 10
290.1173143565057
 20
514.0891483495601
 30
0.0
 10
289.4148249387388
 20
514.6129092970997
 30
0.0
 10
288.1761897480307
 20
515.297961118612
 30
0.0
 10
286.9135518554075
 20
515.843643082974
 30
0.0
 10
285.5730691935861
 20
516.2549727747614
 30
0.0
 10
284.1756768168116
 20
516.5294336152645
 30
0.0
 10
282.7061771636762
 20
516.6444623553379
 30
0.0
 10
281.2108563926038
 20
516.5930561800053
 30
0.0
 10
279.7560380940405
 20
516.3682198291522
 30
0.0
 10
278.5039330166004
 20
516.0318900508591
 30
0.0
 10
277.3871866567898
 20
515.6165590121789
 30
0.0
 10
276.3950048363669
 20
515.1515045936525
 30
0.0
 10
275.4449339328116
 20
514.5966479391126
 30
0.0
 10
274.7612740929586
 20
514.1406897494956
 30
0.0
 10
274.4352335638101
 20
513.8689895404547
 30
0.0
 10
274.3569409024963
 20
513.8037457117169
 30
0.0
  0
SPLINE
  5
178
330
1F
100
AcDbEntity
  8
0
  6
SLD-Durchgehend
 62
     7
370
    25
100
AcDbSpline
210
0.0
220
0.0
230
1.0
 70
     8
 71
     3
 72
    25
 73
    21
 74
     0
 42
0.00000001
 43
0.00000001
 40
0.0
 40
0.0
 40
0.0
 40
0.0
 40
0.0434740310943438
 40
0.0891608822391437
 40
0.1642880854267897
 40
0.2408999934133239
 40
0.3102461119650222
 40
0.3812471822783159
 40
0.4505610630782303
 40
0.5220450212905392
 40
0.5875492103241226
 40
0.6548409719742204
 40
0.7014627226364846
 40
0.7480937040169452
 40
0.7966143211962433
 40
0.8451430405799539
 40
0.8919161298165537
 40
0.9386919514894392
 40
0.9868112353984698
 40
1.0
 40
1.0
 40
1.0
 40
1.0
 10
273.8282533134113
 20
490.6525778797504
 30
0.0
 10
273.9905289077517
 20
490.5312890926634
 30
0.0
 10
274.3233398938291
 20
490.2825379419148
 30
0.0
 10
275.0284571109234
 20
489.817233073309
 30
0.0
 10
275.9806877941574
 20
489.2731104393675
 30
0.0
 10
277.1995928040842
 20
488.7213120003015
 30
0.0
 10
278.5250317558532
 20
488.2701747203392
 30
0.0
 10
279.9099429726219
 20
487.9464917205162
 30
0.0
 10
281.3833771395651
 20
487.7588204413357
 30
0.0
 10
282.8519347566699
 20
487.7282883033481
 30
0.0
 10
284.2910844752985
 20
487.8474994266664
 30
0.0
 10
285.5097186941328
 20
488.0708216587362
 30
0.0
 10
286.5428589436657
 20
488.3487778554885
 30
0.0
 10
287.4078802030544
 20
488.6421278242334
 30
0.0
 10
288.2293176573026
 20
488.980902264708
 30
0.0
 10
288.9914602136384
 20
489.3517161803925
 30
0.0
 10
289.684795042456
 20
489.7401416977197
 30
0.0
 10
290.3098799455032
 20
490.1376789578796
 30
0.0
 10
290.7530537652258
 20
490.4459270377015
 30
0.0
 10
290.9656287035957
 20
490.6133458437001
 30
0.0
 10
291.0113584387684
 20
490.649361461157
 30
0.0
  0
DIMENSION
  5
179
330
1F
100
AcDbEntity
  8
0
  6
SLD-Durchgehend
 62
     7
370
    18
100
AcDbDimension
280
     0
  2
_D
 10
267.8907316971
 20
550.4792463049
 30
0.0
 11
284.1220305929
 21
550.4792463049
 31
0.0
 70
   160
  1
%%c<>
 71
     2
 42
-1.0
 73
     0
 74
     0
 75
     0
  3
SLDDIMSTYLE0
100
AcDbAlignedDimension
 13
296.9568806882
 23
502.3657391075
 33
0.0
 14
267.8907316971
 24
502.3657391075
 34
0.0
 50
0.0
100
AcDbRotatedDimension
  0
DIMENSION
  5
188
330
1F
100
AcDbEntity
  8
0
  6
SLD-Durchgehend
 62
     7
370
    18
100
AcDbDimension
280
     0
  2
_D_1
 10
329.8671983111
 20
469.8657391075
 30
0.0
 11
329.8671983111
 21
504.4124479833
 31
0.0
 70
   160
  1
<>
 71
     2
 42
-1.0
 73
     0
 74
     0
 75
     0
  3
SLDDIMSTYLE1
100
AcDbAlignedDimension
 13
313.9238061927
 23
534.8657391075
 33
0.0
 14
313.9238061927
 24
469.8657391075
 34
0.0
 50
90.0
100
AcDbRotatedDimension
  0
DIMENSION
  5
193
330
1F
100
AcDbEntity
  8
0
  6
SLD-Durchgehend
 62
     7
370
    18
100
AcDbDimension
280
     0
  2
_D_2
 10
314.9238061927
 20
454.9662149158
 30
0.0
 11
284.1220305929
 21
454.9662149158
 31
0.0
 70
   160
  1
<>
 71
     2
 42
-1.0
 73
     0
 74
     0
 75
     0
  3
SLDDIMSTYLE1
100
AcDbAlignedDimension
 13
249.9238061927
 23
470.8657391075
 33
0.0
 14
314.9238061927
 24
470.8657391075
 34
0.0
100
AcDbRotatedDimension
  0
LINE
  5
19D
330
1F
100
AcDbEntity
  8
0
  6
SLD-Durchgehend
 62
     7
370
    25
100
AcDbLine
 10
163.4221003754
 20
517.3648664207
 30
0.0
 11
133.2236946716
 21
517.1013289267
 31
0.0
  0
LINE
  5
19E
330
1F
100
AcDbEntity
  8
0
  6
SLD-Durchgehend
 62
     7
370
    25
100
AcDbLine
 10
131.7127786895
 20
487.6433348524
 30
0.0
 11
163.4221003754
 21
487.3666117943
 31
0.0
  0
SPLINE
  5
19F
330
1F
100
AcDbEntity
  8
0
  6
SLD-Durchgehend
 62
     7
370
    25
100
AcDbSpline
210
0.0
220
0.0
230
1.0
 70
     8
 71
     3
 72
    51
 73
    47
 74
     0
 42
0.00000001
 43
0.00000001
 40
0.0
 40
0.0
 40
0.0
 40
0.0
 40
0.0022793065511797
 40
0.0055116474675206
 40
0.0080548724125815
 40
0.0098422184541113
 40
0.0105505841030031
 40
0.0109598694670624
 40
0.0113302202054781
 40
0.0118797637108561
 40
0.0130043130837601
 40
0.016510909507833
 40
0.0272880272434677
 40
0.0539101589194215
 40
0.0820326732647362
 40
0.1103920426940943
 40
0.1392727291288545
 40
0.1686140701864065
 40
0.1983078226244976
 40
0.2277793757982366
 40
0.2598553552358687
 40
0.2924392404467969
 40
0.3256617100094843
 40
0.359534949075097
 40
0.3939847106793972
 40
0.4288544449686224
 40
0.4639169765859388
 40
0.4988205252936093
 40
0.5332500624771004
 40
0.5615554699148076
 40
0.5915791923059743
 40
0.6201991811804014
 40
0.6472025744888232
 40
0.6726400627092497
 40
0.6967193382430856
 40
0.719846497624898
 40
0.743455942923078
 40
0.7681698745746772
 40
0.7941881423684951
 40
0.8216519334132263
 40
0.8506075045692981
 40
0.8811170922113839
 40
0.9147581795442917
 40
0.9495745440290637
 40
0.9845616170930236
 40
0.9999999999999999
 40
0.9999999999999999
 40
0.9999999999999999
 40
0.9999999999999999
 10
133.2236556829648
 20
517.0981308814821
 30
0.0
 10
133.2022528678239
 20
517.0976675527463
 30
0.0
 10
133.150498191908
 20
517.0965471660862
 30
0.0
 10
133.0772618420605
 20
517.0750380554393
 30
0.0
 10
133.0124463099472
 20
517.0465097268734
 30
0.0
 10
132.9719487592734
 20
517.0220090300568
 30
0.0
 10
132.9504413702632
 20
517.0068828827815
 30
0.0
 10
132.9423691929665
 20
517.0008760648732
 30
0.0
 10
132.9378515312884
 20
516.9974288295424
 30
0.0
 10
132.9339660136347
 20
516.9944042365637
 30
0.0
 10
132.9298384763151
 20
516.9911282175148
 30
0.0
 10
132.9259434631084
 20
516.9879816401426
 30
0.0
 10
132.9139166071946
 20
516.9782325156801
 30
0.0
 10
132.8670329276099
 20
516.9401445214235
 30
0.0
 10
132.756113157712
 20
516.8506124965056
 30
0.0
 10
132.5903867463138
 20
516.7178116512481
 30
0.0
 10
132.3714990400517
 20
516.5438598082958
 30
0.0
 10
132.1000259996313
 20
516.329782822634
 30
0.0
 10
131.7764056917635
 20
516.0776072327362
 30
0.0
 10
131.3998286769121
 20
515.7831598803248
 30
0.0
 10
130.9703282026151
 20
515.4502833516884
 30
0.0
 10
130.4795592569369
 20
515.077681568243
 30
0.0
 10
129.9363135911221
 20
514.6776776670688
 30
0.0
 10
129.3396701837707
 20
514.2557173120958
 30
0.0
 10
128.690527161882
 20
513.819123967756
 30
0.0
 10
127.9916071240232
 20
513.3769287037139
 30
0.0
 10
127.2483832864892
 20
512.9395723833936
 30
0.0
 10
126.468149882191
 20
512.5192467288787
 30
0.0
 10
125.7038651173398
 20
512.1449368275989
 30
0.0
 10
124.9454149147326
 20
511.8210414701437
 30
0.0
 10
124.2037464403277
 20
511.5566972725389
 30
0.0
 10
123.4464869173316
 20
511.3434668754433
 30
0.0
 10
122.7087524699237
 20
511.1937824599515
 30
0.0
 10
121.9982400899322
 20
511.1077811100211
 30
0.0
 10
121.3169941864696
 20
511.0844136872647
 30
0.0
 10
120.654479915382
 20
511.1205614574197
 30
0.0
 10
119.9943462194379
 20
511.2088523258944
 30
0.0
 10
119.3216846340496
 20
511.3496896809595
 30
0.0
 10
118.6338210670741
 20
511.5435136580983
 30
0.0
 10
117.9331218266399
 20
511.7896151447223
 30
0.0
 10
117.2234959928905
 20
512.0864211389214
 30
0.0
 10
116.4959819987519
 20
512.4359701127453
 30
0.0
 10
115.7535188944988
 20
512.8254887705195
 30
0.0
 10
115.0191863472962
 20
513.2478336355247
 30
0.0
 10
114.4401735309269
 20
513.6027129455578
 30
0.0
 10
114.1255572466453
 20
513.8117321894548
 30
0.0
 10
114.0292335432303
 20
513.8757260405777
 30
0.0
  0
LINE
  5
1A0
330
1F
100
AcDbEntity
  8
0
  6
SLD-Durchgehend
 62
     7
370
    25
100
AcDbLine
 10
116.0612322654
 20
490.7243539086
 30
0.0
 11
116.1188758692
 21
490.7523844687
 31
0.0
  0
LINE
  5
1A1
330
1F
100
AcDbEntity
  8
0
  6
SLD-Durchgehend
 62
     7
370
    25
100
AcDbLine
 10
116.0621714455
 20
490.7236204306
 30
0.0
 11
116.1910790298
 21
490.7855800167
 31
0.0
  0
SPLINE
  5
1A2
330
1F
100
AcDbEntity
  8
0
  6
SLD-Durchgehend
 62
     7
370
    25
100
AcDbSpline
210
0.0
220
0.0
230
1.0
 70
     8
 71
     3
 72
    11
 73
     7
 74
     0
 42
0.00000001
 43
0.00000001
 40
0.0
 40
0.0
 40
0.0
 40
0.0
 40
0.1490910400760221
 40
0.551128224817048
 40
0.9467650278280565
 40
1.0
 40
1.0
 40
1.0
 40
1.0
 10
114.0400491096922
 20
513.8886505528928
 30
0.0
 10
114.0141975364075
 20
513.9063888269795
 30
0.0
 10
113.9186349077888
 20
513.9719599270522
 30
0.0
 10
113.7220405133274
 20
514.0389126572048
 30
0.0
 10
113.5326493202709
 20
514.0752296750354
 30
0.0
 10
113.4327090929798
 20
514.0672695336577
 30
0.0
 10
113.4208564537343
 20
514.066325482532
 30
0.0
  0
LINE
  5
1A3
330
1F
100
AcDbEntity
  8
0
  6
SLD-Durchgehend
 62
     7
370
    25
100
AcDbLine
 10
110.0166245933
 20
490.7005311912
 30
0.0
 11
115.6552105364
 21
490.6388886089
 31
0.0
  0
LINE
  5
1A4
330
1F
100
AcDbEntity
  8
0
  6
SLD-Durchgehend
 62
     7
370
    25
100
AcDbLine
 10
113.4212207197
 20
514.0682277121
 30
0.0
 11
110.0166257226
 21
514.0308117338
 31
0.0
  0
ARC
  5
1A5
330
1F
100
AcDbEntity
  8
0
  6
SLD-Durchgehend
 62
     7
370
    25
100
AcDbCircle
 10
110.0221003754
 20
491.1998215843
 30
0.0
 40
0.5000000000021174
100
AcDbArc
 50
180.0
 51
269.3716196147
  0
ARC
  5
1A6
330
1F
100
AcDbEntity
  8
0
  6
SLD-Durchgehend
 62
     7
370
    25
100
AcDbCircle
 10
110.0221003754
 20
513.5316566307
 30
0.0
 40
0.5000000000010658
100
AcDbArc
 50
90.6283803853
 51
180.0
  0
SPLINE
  5
1A7
330
1F
100
AcDbEntity
  8
0
  6
SLD-Durchgehend
 62
     7
370
    25
100
AcDbSpline
210
0.0
220
0.0
230
1.0
 70
     8
 71
     3
 72
    27
 73
    23
 74
     0
 42
0.00000001
 43
0.00000001
 40
0.0
 40
0.0
 40
0.0
 40
0.0
 40
0.0685718292446002
 40
0.1056092728230307
 40
0.1426361366683335
 40
0.1958246161375002
 40
0.2504767097467016
 40
0.3037053126443167
 40
0.3585515157416292
 40
0.4267224943443856
 40
0.496843198444534
 40
0.5407385591167081
 40
0.5846375940160626
 40
0.6298053738576481
 40
0.6749705349043229
 40
0.7189075871153194
 40
0.762838406385627
 40
0.8084394382934608
 40
0.8540308133502603
 40
0.9158252502555717
 40
0.979230249140586
 40
0.9999999999999999
 40
0.9999999999999999
 40
0.9999999999999999
 40
0.9999999999999999
 10
116.0783792991272
 20
490.7641630041117
 30
0.0
 10
116.4968444324999
 20
490.9575316887447
 30
0.0
 10
117.1413335605301
 20
491.255343871908
 30
0.0
 10
118.103444935715
 20
491.5943533546823
 30
0.0
 10
118.9962307860022
 20
491.8524462758961
 30
0.0
 10
120.0633910876456
 20
492.0635151543617
 30
0.0
 10
121.2917919562427
 20
492.1558200384105
 30
0.0
 10
122.5378833800465
 20
492.088146265871
 30
0.0
 10
123.8508823931603
 20
491.8522876128832
 30
0.0
 10
125.2081426465135
 20
491.4339635553655
 30
0.0
 10
126.3814320078338
 20
490.9352811003992
 30
0.0
 10
127.3186003013272
 20
490.4687756325672
 30
0.0
 10
128.0557355708571
 20
490.0657089407127
 30
0.0
 10
128.745148631226
 20
489.6604667512808
 30
0.0
 10
129.3765761752828
 20
489.266969763443
 30
0.0
 10
129.9413306864558
 20
488.8991591838162
 30
0.0
 10
130.4434450726095
 20
488.5603423431436
 30
0.0
 10
130.8779511976804
 20
488.2590004854273
 30
0.0
 10
131.2810155466101
 20
487.973116270554
 30
0.0
 10
131.5863268952928
 20
487.752480854485
 30
0.0
 10
131.745580549561
 20
487.6359630363178
 30
0.0
 10
131.7193860571755
 20
487.6551101594433
 30
0.0
 10
131.7129226808971
 20
487.6598346282205
 30
0.0
  0
LWPOLYLINE
  5
1A8
330
1F
100
AcDbEntity
  8
0
  6
SLD-Durchgehend
 62
     7
370
    25
100
AcDbPolyline
 90
        4
 70
   128
 43
0.0
 10
110.0177371076
 20
490.8019943935
 10
110.5220386351
 20
490.7963915851
 10
114.521792147
 20
490.7519924646
 10
116.0126130367
 20
490.735460955
  0
LINE
  5
1A9
330
1F
100
AcDbEntity
  8
0
  6
SLD-Durchgehend
 62
     7
370
    25
100
AcDbLine
 10
110.0177371076
 20
513.9294838215
 30
0.0
 11
110.0177371076
 21
490.8019943935
 31
0.0
  0
LINE
  5
1AA
330
1F
100
AcDbEntity
  8
0
  6
SLD-Durchgehend
 62
     7
370
    25
100
AcDbLine
 10
113.4223267588
 20
513.9672879287
 30
0.0
 11
110.0177371076
 21
513.9294838215
 31
0.0
  0
SPLINE
  5
1AB
330
1F
100
AcDbEntity
  8
0
  6
SLD-Durchgehend
 62
     7
370
    25
100
AcDbSpline
210
0.0
220
0.0
230
1.0
 70
     8
 71
     3
 72
    10
 73
     6
 74
     0
 42
0.00000001
 43
0.00000001
 40
0.0
 40
0.0
 40
0.0
 40
0.0
 40
0.1326319184784395
 40
0.5653923648006696
 40
1.0
 40
1.0
 40
1.0
 40
1.0
 10
113.4223267588103
 20
513.9672879286836
 30
0.0
 10
113.4394891000487
 20
513.9670395514706
 30
0.0
 10
113.5126498958027
 20
513.9659807521904
 30
0.0
 10
113.6401665042994
 20
513.9398528482832
 30
0.0
 10
113.7218937378961
 20
513.8926580577136
 30
0.0
 10
113.7628443798225
 20
513.8690104082783
 30
0.0
  0
ARC
  5
1AC
330
1F
100
AcDbEntity
  8
0
  6
SLD-Durchgehend
 62
     7
370
    25
100
AcDbCircle
 10
109.9752995247
 20
491.2567835615
 30
0.0
 40
0.4567648582665518
100
AcDbArc
 50
187.163861251
 51
275.33098411
  0
LINE
  5
1AD
330
1F
100
AcDbEntity
  8
0
  6
SLD-Durchgehend
 62
     7
370
    25
100
AcDbLine
 10
109.5221003754
 20
491.1998215843
 30
0.0
 11
109.5221003754
 21
513.5316566307
 31
0.0
  0
ARC
  5
1AE
330
1F
100
AcDbEntity
  8
0
  6
SLD-Durchgehend
 62
     7
370
    25
100
AcDbCircle
 10
109.9752995247
 20
513.4746946535
 30
0.0
 40
0.4567648582745777
100
AcDbArc
 50
84.669015891
 51
172.836138748
  0
ARC
  5
1AF
330
1F
100
AcDbEntity
  8
0
  6
SLD-Durchgehend
 62
     7
370
    25
100
AcDbCircle
 10
116.0419830055
 20
490.7623184195
 30
0.0
 40
0.0397984731593989
100
AcDbArc
 50
222.4414588332
 51
296.4502118463
  0
SPLINE
  5
1B0
330
1F
100
AcDbEntity
  8
0
  6
SLD-Durchgehend
 62
     7
370
    25
100
AcDbSpline
210
0.0
220
0.0
230
1.0
 70
     8
 71
     3
 72
     9
 73
     5
 74
     0
 42
0.00000001
 43
0.00000001
 40
0.0
 40
0.0
 40
0.0
 40
0.0
 40
0.7838479495616747
 40
1.0
 40
1.0
 40
1.0
 40
1.0
 10
116.012613036666
 20
490.7354609550411
 30
0.0
 10
115.919673316468
 20
490.6876164988933
 30
0.0
 10
115.8011047595814
 20
490.6265785690568
 30
0.0
 10
115.6812549819929
 20
490.647130718969
 30
0.0
 10
115.6553492068225
 20
490.6515731083135
 30
0.0
  0
SPLINE
  5
1B1
330
1F
100
AcDbEntity
  8
0
  6
SLD-Durchgehend
 62
     7
370
    25
100
AcDbSpline
210
0.0
220
0.0
230
1.0
 70
     8
 71
     3
 72
     9
 73
     5
 74
     0
 42
0.00000001
 43
0.00000001
 40
0.0
 40
0.0
 40
0.0
 40
0.0
 40
0.2161520504474497
 40
1.0
 40
1.0
 40
1.0
 40
1.0
 10
115.6553492068224
 20
490.6515731083135
 30
0.0
 10
115.681254981993
 20
490.6471307189689
 30
0.0
 10
115.8011047595775
 20
490.6265785690572
 30
0.0
 10
115.9196733164532
 20
490.6876164988939
 30
0.0
 10
116.0126130366417
 20
490.7354609550414
 30
0.0
  0
LINE
  5
1B2
330
1F
100
AcDbEntity
  8
0
  6
SLD-Durchgehend
 62
     7
370
    25
100
AcDbLine
 10
171.2221003754
 20
472.8657391075
 30
0.0
 11
170.7221003754
 21
472.8657391075
 31
0.0
  0
LINE
  5
1B3
330
1F
100
AcDbEntity
  8
0
  6
SLD-Durchgehend
 62
     7
370
    25
100
AcDbLine
 10
171.2221003754
 20
475.8657391075
 30
0.0
 11
171.2221003754
 21
472.8657391075
 31
0.0
  0
LINE
  5
1B4
330
1F
100
AcDbEntity
  8
0
  6
SLD-Durchgehend
 62
     7
370
    25
100
AcDbLine
 10
171.2221003754
 20
528.8657391075
 30
0.0
 11
171.2221003754
 21
475.8657391075
 31
0.0
  0
LINE
  5
1B5
330
1F
100
AcDbEntity
  8
0
  6
SLD-Durchgehend
 62
     7
370
    25
100
AcDbLine
 10
170.7221003754
 20
531.8657391075
 30
0.0
 11
171.2221003754
 21
531.8657391075
 31
0.0
  0
LINE
  5
1B6
330
1F
100
AcDbEntity
  8
0
  6
SLD-Durchgehend
 62
     7
370
    25
100
AcDbLine
 10
171.2221003754
 20
531.8657391075
 30
0.0
 11
171.2221003754
 21
528.8657391075
 31
0.0
  0
LINE
  5
1B7
330
1F
100
AcDbEntity
  8
0
  6
SLD-Durchgehend
 62
     7
370
    25
100
AcDbLine
 10
171.1221003754
 20
537.3657391075
 30
0.0
 11
171.1221003754
 21
531.8657391075
 31
0.0
  0
LINE
  5
1B8
330
1F
100
AcDbEntity
  8
0
  6
SLD-Durchgehend
 62
     7
370
    25
100
AcDbLine
 10
171.2221003754
 20
537.3657391075
 30
0.0
 11
171.1221003754
 21
537.3657391075
 31
0.0
  0
LINE
  5
1B9
330
1F
100
AcDbEntity
  8
0
  6
SLD-Durchgehend
 62
     7
370
    25
100
AcDbLine
 10
171.2221003754
 20
537.3657391075
 30
0.0
 11
171.2221003754
 21
531.8657391075
 31
0.0
  0
LINE
  5
1BA
330
1F
100
AcDbEntity
  8
0
  6
SLD-Durchgehend
 62
     7
370
    25
100
AcDbLine
 10
170.7221003754
 20
470.8657391075
 30
0.0
 11
170.7221003754
 21
469.8657391075
 31
0.0
  0
LINE
  5
1BB
330
1F
100
AcDbEntity
  8
0
  6
SLD-Durchgehend
 62
     7
370
    25
100
AcDbLine
 10
170.7221003754
 20
469.8657391075
 30
0.0
 11
163.9221003754
 21
469.8657391075
 31
0.0
  0
LINE
  5
1BC
330
1F
100
AcDbEntity
  8
0
  6
SLD-Durchgehend
 62
     7
370
    25
100
AcDbLine
 10
163.9221003754
 20
470.8657391075
 30
0.0
 11
163.9221003754
 21
469.8657391075
 31
0.0
  0
LINE
  5
1BD
330
1F
100
AcDbEntity
  8
0
  6
SLD-Durchgehend
 62
     7
370
    25
100
AcDbLine
 10
163.9221003754
 20
470.8657391075
 30
0.0
 11
170.7221003754
 21
470.8657391075
 31
0.0
  0
LINE
  5
1BE
330
1F
100
AcDbEntity
  8
0
  6
SLD-Durchgehend
 62
     7
370
    25
100
AcDbLine
 10
170.7221003754
 20
470.8657391075
 30
0.0
 11
170.7221003754
 21
533.8657391075
 31
0.0
  0
LINE
  5
1BF
330
1F
100
AcDbEntity
  8
0
  6
SLD-Durchgehend
 62
     7
370
    25
100
AcDbLine
 10
163.9221003754
 20
533.8657391075
 30
0.0
 11
163.9221003754
 21
470.8657391075
 31
0.0
  0
LINE
  5
1C0
330
1F
100
AcDbEntity
  8
0
  6
SLD-Durchgehend
 62
     7
370
    25
100
AcDbLine
 10
170.7221003754
 20
533.8657391075
 30
0.0
 11
163.9221003754
 21
533.8657391075
 31
0.0
  0
LINE
  5
1C1
330
1F
100
AcDbEntity
  8
0
  6
SLD-Durchgehend
 62
     7
370
    25
100
AcDbLine
 10
163.9221003754
 20
534.8657391075
 30
0.0
 11
163.9221003754
 21
533.8657391075
 31
0.0
  0
LINE
  5
1C2
330
1F
100
AcDbEntity
  8
0
  6
SLD-Durchgehend
 62
     7
370
    25
100
AcDbLine
 10
163.9221003754
 20
534.8657391075
 30
0.0
 11
170.7221003754
 21
534.8657391075
 31
0.0
  0
LINE
  5
1C3
330
1F
100
AcDbEntity
  8
0
  6
SLD-Durchgehend
 62
     7
370
    25
100
AcDbLine
 10
170.7221003754
 20
534.8657391075
 30
0.0
 11
170.7221003754
 21
533.8657391075
 31
0.0
  0
LINE
  5
1C4
330
1F
100
AcDbEntity
  8
0
  6
SLD-Durchgehend
 62
     7
370
    25
100
AcDbLine
 10
163.9221003754
 20
470.8657391075
 30
0.0
 11
163.4221003754
 21
470.8657391075
 31
0.0
  0
LINE
  5
1C5
330
1F
100
AcDbEntity
  8
0
  6
SLD-Durchgehend
 62
     7
370
    25
100
AcDbLine
 10
163.4221003754
 20
470.8657391075
 30
0.0
 11
163.4221003754
 21
533.8657391075
 31
0.0
  0
LINE
  5
1C6
330
1F
100
AcDbEntity
  8
0
  6
SLD-Durchgehend
 62
     7
370
    25
100
AcDbLine
 10
163.9221003754
 20
533.8657391075
 30
0.0
 11
163.4221003754
 21
533.8657391075
 31
0.0
  0
LINE
  5
1C7
330
1F
100
AcDbEntity
  8
0
  6
SLD-Durchgehend
 62
     7
370
    25
100
AcDbLine
 10
163.4221003754
 20
470.3657391075
 30
0.0
 11
163.4221003754
 21
470.8657391075
 31
0.0
  0
ARC
  5
1C8
330
1F
100
AcDbEntity
  8
0
  6
SLD-Durchgehend
 62
     7
370
    25
100
AcDbCircle
 10
163.9221003754
 20
470.3657391075
 30
0.0
 40
0.5
100
AcDbArc
 50
180.0
 51
270.0
  0
LINE
  5
1C9
330
1F
100
AcDbEntity
  8
0
  6
SLD-Durchgehend
 62
     7
370
    25
100
AcDbLine
 10
163.4221003754
 20
533.8657391075
 30
0.0
 11
163.4221003754
 21
534.3657391075
 31
0.0
  0
ARC
  5
1CA
330
1F
100
AcDbEntity
  8
0
  6
SLD-Durchgehend
 62
     7
370
    25
100
AcDbCircle
 10
163.9221003754
 20
534.3657391075
 30
0.0
 40
0.5
100
AcDbArc
 50
90.0
 51
180.0
  0
SPLINE
  5
1CB
330
1F
100
AcDbEntity
  8
0
  6
SLD-Durchgehend
 62
     7
370
    25
100
AcDbSpline
210
0.0
220
0.0
230
1.0
 70
     8
 71
     3
 72
    28
 73
    24
 74
     0
 42
0.00000001
 43
0.00000001
 40
0.0
 40
0.0
 40
0.0
 40
0.0
 40
0.0096852512617863
 40
0.0663537548982783
 40
0.119320479302736
 40
0.173549829038021
 40
0.2311364222201485
 40
0.2898629832053164
 40
0.3589861436301887
 40
0.4294838269125749
 40
0.4644237842144946
 40
0.4993598397464935
 40
0.5351746530520576
 40
0.57097532945768
 40
0.6160458375188839
 40
0.6622801954802023
 40
0.7073046429577641
 40
0.7540092720160816
 40
0.7814620385582136
 40
0.8089237975874523
 40
0.865397487877143
 40
0.9320528577846072
 40
1.0
 40
1.0
 40
1.0
 40
1.0
 10
133.2238027207022
 20
517.0889477245488
 30
0.0
 10
133.228537009732
 20
517.0928956619567
 30
0.0
 10
133.2609716720253
 20
517.1199430212903
 30
0.0
 10
133.1161960178167
 20
516.9990547555859
 30
0.0
 10
132.7904672959041
 20
516.7290602166586
 30
0.0
 10
132.2678683683637
 20
516.3015113563581
 30
0.0
 10
131.5641472655396
 20
515.7381450218015
 30
0.0
 10
130.6340534985279
 20
515.0175433308292
 30
0.0
 10
129.4727511289473
 20
514.162495014209
 30
0.0
 10
128.3081193953417
 20
513.3752846670627
 30
0.0
 10
127.2894269424268
 20
512.7552261939481
 30
0.0
 10
126.4797743714917
 20
512.3054805655385
 30
0.0
 10
125.6192309069402
 20
511.881692693684
 30
0.0
 10
124.6261860949547
 20
511.4696538469215
 30
0.0
 10
123.4820443931357
 20
511.1116979659591
 30
0.0
 10
122.1910258943912
 20
510.8882461004072
 30
0.0
 10
120.8561848225633
 20
510.8671327533574
 30
0.0
 10
119.7217415186449
 20
511.030428663823
 30
0.0
 10
118.7929713120047
 20
511.2714018451478
 30
0.0
 10
117.8092164586193
 20
511.6026499213717
 30
0.0
 10
116.5580183041389
 20
512.1598645427138
 30
0.0
 10
115.1034171937364
 20
512.9755825938436
 30
0.0
 10
114.2125518450596
 20
513.5693018406931
 30
0.0
 10
113.7628443798225
 20
513.8690104082783
 30
0.0
  0
LWPOLYLINE
  5
1CC
330
1F
100
AcDbEntity
  8
0
  6
SLD-Durchgehend
 62
     7
370
    25
100
AcDbPolyline
 90
        3
 70
   128
 43
0.0
 10
114.0444992501
 20
513.8902062351
 10
114.0763229606
 20
513.8624088488
 10
114.0893083151
 20
513.8462675738
  0
ARC
  5
1CD
330
1F
100
AcDbEntity
  8
0
  6
SLD-Durchgehend
 62
     7
370
    25
100
AcDbCircle
 10
113.9204684047
 20
513.660000809
 30
0.0
 40
0.2617830128806409
100
AcDbArc
 50
62.3293777158
 51
127.0216737218
  0
LINE
  5
1CE
330
1F
100
AcDbEntity
  8
0
  6
SLD-Durchgehend
 62
     7
370
    25
100
AcDbLine
 10
113.4223267588
 20
513.9672879287
 30
0.0
 11
113.4212132181
 21
514.0689406942
 31
0.0
  0
LINE
  5
1CF
330
1F
100
AcDbEntity
  8
0
  6
SLD-Durchgehend
 62
     7
370
    25
100
AcDbLine
 10
110.0177371076
 20
490.8019943935
 30
0.0
 11
110.0166168321
 21
490.6998516695
 31
0.0
  0
LINE
  5
1D0
330
1F
100
AcDbEntity
  8
0
  6
SLD-Durchgehend
 62
     7
370
    25
100
AcDbLine
 10
110.016616832
 20
514.0316265597
 30
0.0
 11
110.0177371076
 21
513.9294838215
 31
0.0
  0
LINE
  5
1D1
330
1F
100
AcDbEntity
  8
0
  6
SLD-Durchgehend
 62
     7
370
    25
100
AcDbLine
 10
170.7221003754
 20
475.8657391075
 30
0.0
 11
171.2221003754
 21
475.8657391075
 31
0.0
  0
LINE
  5
1D2
330
1F
100
AcDbEntity
  8
0
  6
SLD-Durchgehend
 62
     7
370
    25
100
AcDbLine
 10
171.2221003754
 20
528.8657391075
 30
0.0
 11
170.7221003754
 21
528.8657391075
 31
0.0
  0
DIMENSION
  5
1D3
330
1F
100
AcDbEntity
  8
0
  6
SLD-Durchgehend
 62
     7
370
    18
100
AcDbDimension
280
     0
  2
_D_3
 10
109.5221003754
 20
455.4843702704
 30
0.0
 11
141.401732891
 21
455.4843702704
 31
0.0
 70
   160
  1
<>
 71
     2
 42
-1.0
 73
     0
 74
     0
 75
     0
  3
SLDDIMSTYLE2
100
AcDbAlignedDimension
 13
171.2221003754
 23
506.3657391075
 33
0.0
 14
109.5221003754
 24
491.1998215843
 34
0.0
100
AcDbRotatedDimension
  0
DIMENSION
  5
1DE
330
1F
100
AcDbEntity
  8
0
  6
SLD-Durchgehend
 62
     7
370
    18
100
AcDbDimension
280
     0
  2
_D_4
 10
170.7221003754
 20
543.9666535567
 30
0.0
 11
187.8890298648
 21
543.9666535567
 31
0.0
 70
   160
  1
<>
 71
     2
 42
-1.0
 73
     0
 74
     0
 75
     0
  3
SLDDIMSTYLE3
100
AcDbAlignedDimension
 13
163.4221003754
 23
533.8657391075
 33
0.0
 14
170.7221003754
 24
534.8657391075
 34
0.0
100
AcDbRotatedDimension
  0
ENDSEC
  0
SECTION
  2
OBJECTS
  0
DICTIONARY
  5
C
330
0
100
AcDbDictionary
281
     1
  3
ACAD_DETAILVIEWSTYLE
350
1F2
  3
ACAD_GROUP
350
D
  3
ACAD_LAYOUT
350
1A
  3
ACAD_MATERIAL
350
43
  3
ACAD_MLEADERSTYLE
350
5B
  3
ACAD_MLINESTYLE
350
17
  3
ACAD_PLOTSETTINGS
350
19
  3
ACAD_PLOTSTYLENAME
350
E
  3
ACAD_SCALELIST
350
47
  3
ACAD_SECTIONVIEWSTYLE
350
1F3
  3
ACAD_TABLESTYLE
350
59
  3
ACAD_VISUALSTYLE
350
2A
  3
ACDB_RECOMPOSE_DATA
350
1EF
  3
AcDbVariableDictionary
350
1EB
  0
SUN
  5
5D
330
29
100
AcDbSun
 90
        1
290
     0
 63
     7
421
 16777215
 40
1.0
291
     1
 91
  2455826
 92
 54000000
292
     0
 70
     2
 71
   256
280
     1
  0
DICTIONARY
  5
1F2
102
{ACAD_REACTORS
330
C
102
}
330
C
100
AcDbDictionary
281
     1
  0
DICTIONARY
  5
D
102
{ACAD_REACTORS
330
C
102
}
330
C
100
AcDbDictionary
281
     1
  0
DICTIONARY
  5
1A
102
{ACAD_REACTORS
330
C
102
}
330
C
100
AcDbDictionary
281
     1
  3
Layout1
350
1E
  3
Layout2
350
26
  3
Model
350
22
  0
DICTIONARY
  5
43
102
{ACAD_REACTORS
330
C
102
}
330
C
100
AcDbDictionary
281
     1
  3
ByBlock
350
45
  3
ByLayer
350
44
  3
Global
350
46
  0
DICTIONARY
  5
5B
102
{ACAD_REACTORS
330
C
102
}
330
C
100
AcDbDictionary
281
     1
  3
Standard
350
5C
  0
DICTIONARY
  5
17
102
{ACAD_REACTORS
330
C
102
}
330
C
100
AcDbDictionary
281
     1
  3
Standard
350
18
  0
DICTIONARY
  5
19
102
{ACAD_REACTORS
330
C
102
}
330
C
100
AcDbDictionary
281
     1
  0
ACDBDICTIONARYWDFLT
  5
E
102
{ACAD_REACTORS
330
C
102
}
330
C
100
AcDbDictionary
281
     1
  3
Normal
350
F
100
AcDbDictionaryWithDefault
340
F
  0
DICTIONARY
  5
47
102
{ACAD_REACTORS
330
C
102
}
330
C
100
AcDbDictionary
281
     1
  3
A0
350
48
  3
A1
350
49
  3
A2
350
4A
  3
A3
350
4B
  3
A4
350
4C
  3
A5
350
4D
  3
A6
350
4E
  3
A7
350
4F
  3
A8
350
50
  3
A9
350
51
  3
B0
350
52
  3
B1
350
53
  3
B2
350
54
  3
B3
350
55
  3
B4
350
56
  3
B5
350
57
  3
B6
350
58
  0
DICTIONARY
  5
1F3
102
{ACAD_REACTORS
330
C
102
}
330
C
100
AcDbDictionary
281
     1
  0
DICTIONARY
  5
59
102
{ACAD_REACTORS
330
C
102
}
330
C
100
AcDbDictionary
281
     1
  3
Standard
350
5A
  0
DICTIONARY
  5
2A
102
{ACAD_REACTORS
330
C
102
}
330
C
100
AcDbDictionary
281
     1
  3
2dWireframe
350
2F
  3
Basic
350
32
  3
Brighten
350
36
  3
ColorChange
350
3A
  3
Conceptual
350
34
  3
Dim
350
35
  3
EdgeColorOff
350
3D
  3
Facepattern
350
39
  3
Flat
350
2B
  3
FlatWithEdges
350
2C
  3
Gouraud
350
2D
  3
GouraudWithEdges
350
2E
  3
Hidden
350
31
  3
JitterOff
350
3B
  3
Linepattern
350
38
  3
OverhangOff
350
3C
  3
Realistic
350
33
  3
Shaded
350
42
  3
Shaded with edges
350
41
  3
Shades of Gray
350
3E
  3
Sketchy
350
3F
  3
Thicken
350
37
  3
Wireframe
350
30
  3
X-Ray
350
40
  0
XRECORD
  5
1EF
102
{ACAD_REACTORS
330
C
102
}
330
C
100
AcDbXrecord
280
     1
 90
        1
330
5A
  0
DICTIONARY
  5
1EB
102
{ACAD_REACTORS
330
C
102
}
330
C
100
AcDbDictionary
281
     1
  3
CANNOSCALE
350
1EC
  3
CENTEREXE
350
1F4
  3
CENTERLTYPEFILE
350
1F5
  3
CMLEADERSTYLE
350
1F1
  3
CTABLESTYLE
350
1F0
  0
LAYOUT
  5
1E
102
{ACAD_REACTORS
330
1A
102
}
330
1A
100
AcDbPlotSettings
  1

  2
none_device
  4

  6

 40
0.0
 41
0.0
 42
0.0
 43
0.0
 44
0.0
 45
0.0
 46
0.0
 47
0.0
 48
0.0
 49
0.0
140
0.0
141
0.0
142
1.0
143
1.0
 70
   688
 72
     1
 73
     0
 74
     5
  7

 75
    16
 76
     0
 77
     2
 78
   300
147
1.0
148
0.0
149
0.0
100
AcDbLayout
  1
Layout1
 70
     1
 71
     1
 10
0.0
 20
0.0
 11
420.0
 21
297.0
 12
0.0
 22
0.0
 32
0.0
 14
1.0000000000E+20
 24
1.0000000000E+20
 34
1.0000000000E+20
 15
-1.0000000000E+20
 25
-1.0000000000E+20
 35
-1.0000000000E+20
146
0.0
 13
0.0
 23
0.0
 33
0.0
 16
1.0
 26
0.0
 36
0.0
 17
0.0
 27
1.0
 37
0.0
 76
     0
330
1B
  0
LAYOUT
  5
26
102
{ACAD_REACTORS
330
1A
102
}
330
1A
100
AcDbPlotSettings
  1

  2
none_device
  4

  6

 40
0.0
 41
0.0
 42
0.0
 43
0.0
 44
0.0
 45
0.0
 46
0.0
 47
0.0
 48
0.0
 49
0.0
140
0.0
141
0.0
142
1.0
143
1.0
 70
   688
 72
     1
 73
     0
 74
     5
  7

 75
    16
 76
     0
 77
     2
 78
   300
147
1.0
148
0.0
149
0.0
100
AcDbLayout
  1
Layout2
 70
     1
 71
     2
 10
0.0
 20
0.0
 11
0.0
 21
0.0
 12
0.0
 22
0.0
 32
0.0
 14
0.0
 24
0.0
 34
0.0
 15
0.0
 25
0.0
 35
0.0
146
0.0
 13
0.0
 23
0.0
 33
0.0
 16
1.0
 26
0.0
 36
0.0
 17
0.0
 27
1.0
 37
0.0
 76
     0
330
23
  0
LAYOUT
  5
22
102
{ACAD_REACTORS
330
1A
102
}
330
1A
100
AcDbPlotSettings
  1

  2
none_device
  4
Letter_(8.50_x_11.00_Inches)
  6

 40
6.35
 41
6.35
 42
6.35000508
 43
6.35000508
 44
215.9
 45
279.4
 46
0.0
 47
0.0
 48
0.0
 49
0.0
140
0.0
141
0.0
142
1.0
143
1.0
 70
  1712
 72
     1
 73
     0
 74
     0
  7

 75
     0
 76
     0
 77
     2
 78
   300
147
1.0
148
0.0
149
0.0
100
AcDbLayout
  1
Model
 70
     1
 71
     0
 10
0.0
 20
0.0
 11
420.0
 21
594.0
 12
0.0
 22
0.0
 32
0.0
 14
0.0
 24
0.0
 34
0.0
 15
420.0
 25
594.0
 35
0.0
146
0.0
 13
0.0
 23
0.0
 33
0.0
 16
1.0
 26
0.0
 36
0.0
 17
0.0
 27
1.0
 37
0.0
 76
     0
330
1F
331
29
  0
MATERIAL
  5
45
102
{ACAD_REACTORS
330
43
102
}
330
43
100
AcDbMaterial
  1
ByBlock
 72
     1
 94
      127
  0
MATERIAL
  5
44
102
{ACAD_REACTORS
330
43
102
}
330
43
100
AcDbMaterial
  1
ByLayer
 72
     1
 94
      127
  0
MATERIAL
  5
46
102
{ACAD_REACTORS
330
43
102
}
330
43
100
AcDbMaterial
  1
Global
 72
     1
 94
      127
  0
MLEADERSTYLE
  5
5C
102
{ACAD_REACTORS
330
5B
102
}
330
5B
100
AcDbMLeaderStyle
179
     2
170
     2
171
     1
172
     0
 90
        2
 40
0.0
 41
0.0
173
     1
 91
-1056964608
340
14
 92
       -2
290
     1
 42
2.0
291
     1
 43
8.0
  3
Standard
341
0
 44
4.0
300

342
11
174
     1
178
     6
175
     1
176
     0
 93
-1056964608
 45
4.0
292
     0
297
     0
 46
4.0
343
0
 94
-1056964608
 47
1.0
 49
1.0
140
1.0
293
     1
141
0.0
294
     1
177
     0
142
1.0
295
     0
296
     0
143
3.75
271
     0
272
     9
273
     9
298
     0
  0
MLINESTYLE
  5
18
102
{ACAD_REACTORS
330
17
102
}
330
17
100
AcDbMlineStyle
  2
Standard
 70
     0
  3

 62
   256
 51
90.0
 52
90.0
 71
     2
 49
0.5
 62
   256
  6
BYLAYER
 49
-0.5
 62
   256
  6
BYLAYER
  0
ACDBPLACEHOLDER
  5
F
102
{ACAD_REACTORS
330
E
102
}
330
E
  0
SCALE
  5
48
102
{ACAD_REACTORS
330
47
102
}
330
47
100
AcDbScale
 70
     0
300
1:1
140
1.0
141
1.0
290
     1
  0
SCALE
  5
49
102
{ACAD_REACTORS
330
47
102
}
330
47
100
AcDbScale
 70
     0
300
1:2
140
1.0
141
2.0
290
     0
  0
SCALE
  5
4A
102
{ACAD_REACTORS
330
47
102
}
330
47
100
AcDbScale
 70
     0
300
1:4
140
1.0
141
4.0
290
     0
  0
SCALE
  5
4B
102
{ACAD_REACTORS
330
47
102
}
330
47
100
AcDbScale
 70
     0
300
1:5
140
1.0
141
5.0
290
     0
  0
SCALE
  5
4C
102
{ACAD_REACTORS
330
47
102
}
330
47
100
AcDbScale
 70
     0
300
1:8
140
1.0
141
8.0
290
     0
  0
SCALE
  5
4D
102
{ACAD_REACTORS
330
47
102
}
330
47
100
AcDbScale
 70
     0
300
1:10
140
1.0
141
10.0
290
     0
  0
SCALE
  5
4E
102
{ACAD_REACTORS
330
47
102
}
330
47
100
AcDbScale
 70
     0
300
1:16
140
1.0
141
16.0
290
     0
  0
SCALE
  5
4F
102
{ACAD_REACTORS
330
47
102
}
330
47
100
AcDbScale
 70
     0
300
1:20
140
1.0
141
20.0
290
     0
  0
SCALE
  5
50
102
{ACAD_REACTORS
330
47
102
}
330
47
100
AcDbScale
 70
     0
300
1:30
140
1.0
141
30.0
290
     0
  0
SCALE
  5
51
102
{ACAD_REACTORS
330
47
102
}
330
47
100
AcDbScale
 70
     0
300
1:40
140
1.0
141
40.0
290
     0
  0
SCALE
  5
52
102
{ACAD_REACTORS
330
47
102
}
330
47
100
AcDbScale
 70
     0
300
1:50
140
1.0
141
50.0
290
     0
  0
SCALE
  5
53
102
{ACAD_REACTORS
330
47
102
}
330
47
100
AcDbScale
 70
     0
300
1:100
140
1.0
141
100.0
290
     0
  0
SCALE
  5
54
102
{ACAD_REACTORS
330
47
102
}
330
47
100
AcDbScale
 70
     0
300
2:1
140
2.0
141
1.0
290
     0
  0
SCALE
  5
55
102
{ACAD_REACTORS
330
47
102
}
330
47
100
AcDbScale
 70
     0
300
4:1
140
4.0
141
1.0
290
     0
  0
SCALE
  5
56
102
{ACAD_REACTORS
330
47
102
}
330
47
100
AcDbScale
 70
     0
300
8:1
140
8.0
141
1.0
290
     0
  0
SCALE
  5
57
102
{ACAD_REACTORS
330
47
102
}
330
47
100
AcDbScale
 70
     0
300
10:1
140
10.0
141
1.0
290
     0
  0
SCALE
  5
58
102
{ACAD_REACTORS
330
47
102
}
330
47
100
AcDbScale
 70
     0
300
100:1
140
100.0
141
1.0
290
     0
  0
TABLESTYLE
  5
5A
102
{ACAD_REACTORS
330
59
102
}
102
{ACAD_XDICTIONARY
360
1ED
102
}
330
59
100
AcDbTableStyle
  3
Standard
 70
     0
 71
     0
 40
0.06
 41
0.06
280
     0
281
     0
  7
STANDARD
140
4.5
170
     2
 62
     0
 63
   257
283
     0
 90
        4
 91
        0
  1

274
    -2
284
     1
 64
     0
275
    -2
285
     1
 65
     0
276
    -2
286
     1
 66
     0
277
    -2
287
     1
 67
     0
278
    -2
288
     1
 68
     0
279
    -2
289
     1
 69
     0
  7
STANDARD
140
6.0
170
     5
 62
     0
 63
   257
283
     0
 90
        4
 91
        0
  1

274
    -2
284
     1
 64
     0
275
    -2
285
     1
 65
     0
276
    -2
286
     1
 66
     0
277
    -2
287
     1
 67
     0
278
    -2
288
     1
 68
     0
279
    -2
289
     1
 69
     0
  7
STANDARD
140
4.5
170
     5
 62
     0
 63
   257
283
     0
 90
        4
 91
        0
  1

274
    -2
284
     1
 64
     0
275
    -2
285
     1
 65
     0
276
    -2
286
     1
 66
     0
277
    -2
287
     1
 67
     0
278
    -2
288
     1
 68
     0
279
    -2
289
     1
 69
     0
  0
VISUALSTYLE
  5
2F
102
{ACAD_REACTORS
330
2A
102
}
330
2A
100
AcDbVisualStyle
  2
2dWireframe
 70
     4
177
     3
291
     0
 70
    58
 90
        0
176
     1
 90
        2
176
     1
 90
        0
176
     1
 90
        0
176
     1
 40
0.6
176
     1
 40
30.0
176
     1
 62
     7
420
 16777215
176
     1
 90
        1
176
     1
 90
        4
176
     1
 62
     7
176
     1
 62
   257
176
     1
 90
        1
176
     1
 90
        1
176
     1
 40
1.0
176
     1
 90
        0
176
     1
 62
   257
176
     1
 40
1.0
176
     1
 90
        1
176
     1
 90
        6
176
     1
 90
        2
176
     1
 62
     7
176
     1
 90
        5
176
     1
 90
        0
176
     1
 90
        0
176
     1
290
     0
176
     1
 90
        1
176
     1
 40
0.0
176
     1
 90
        0
176
     1
290
     1
176
     1
290
     1
176
     1
290
     0
176
     1
290
     0
176
     1
290
     0
176
     1
290
     0
176
     1
290
     0
176
     1
290
     0
176
     1
290
     0
176
     1
 90
       50
176
     1
 40
0.0
176
     1
 40
1.0
176
     1
 90
        0
176
     1
 62
    18
420
        0
176
     1
 90
       50
176
     1
 90
        3
176
     1
 62
     5
420
      255
176
     1
290
     0
176
     1
 90
       50
176
     1
 90
       50
176
     1
 90
       50
176
     1
290
     0
176
     1
 90
       50
176
     1
 62
   256
176
     0
 40
1.0
176
     0
 90
        2
176
     1
  1
strokes_ogs.tif
176
     1
290
     0
176
     1
 40
1.0
176
     1
 40
1.0
176
     1
  0
VISUALSTYLE
  5
32
102
{ACAD_REACTORS
330
2A
102
}
330
2A
100
AcDbVisualStyle
  2
Basic
 70
     7
177
     3
291
     1
 70
    58
 90
        1
176
     1
 90
        0
176
     1
 90
        1
176
     1
 90
        0
176
     1
 40
0.6
176
     1
 40
30.0
176
     1
 62
     7
420
 16777215
176
     1
 90
        0
176
     1
 90
        4
176
     1
 62
     7
176
     1
 62
   257
176
     1
 90
        1
176
     1
 90
        1
176
     1
 40
1.0
176
     1
 90
        8
176
     1
 62
     7
176
     1
 40
1.0
176
     1
 90
        1
176
     1
 90
        6
176
     1
 90
        2
176
     1
 62
     7
176
     1
 90
        5
176
     1
 90
        0
176
     1
 90
        0
176
     1
290
     0
176
     1
 90
        1
176
     1
 40
0.0
176
     1
 90
        0
176
     1
290
     0
176
     1
290
     1
176
     1
290
     1
176
     1
290
     0
176
     1
290
     0
176
     1
290
     0
176
     1
290
     0
176
     1
290
     0
176
     1
290
     0
176
     1
 90
       50
176
     1
 40
0.0
176
     1
 40
1.0
176
     1
 90
        0
176
     1
 62
    18
420
        0
176
     1
 90
       50
176
     1
 90
        3
176
     1
 62
     5
420
      255
176
     1
290
     0
176
     1
 90
       50
176
     1
 90
       50
176
     1
 90
       50
176
     1
290
     0
176
     1
 90
       50
176
     1
 62
   256
176
     0
 40
1.0
176
     0
 90
        2
176
     1
  1
strokes_ogs.tif
176
     1
290
     0
176
     1
 40
1.0
176
     1
 40
1.0
176
     1
  0
VISUALSTYLE
  5
36
102
{ACAD_REACTORS
330
2A
102
}
330
2A
100
AcDbVisualStyle
  2
Brighten
 70
    12
177
     3
291
     1
 70
    58
 90
        2
176
     1
 90
        2
176
     1
 90
        0
176
     1
 90
        0
176
     1
 40
0.6
176
     1
 40
30.0
176
     1
 62
     7
420
 16777215
176
     1
 90
        1
176
     1
 90
        4
176
     1
 62
     7
176
     1
 62
   257
176
     1
 90
        1
176
     1
 90
        1
176
     1
 40
1.0
176
     1
 90
        8
176
     1
 62
     7
176
     1
 40
1.0
176
     1
 90
        1
176
     1
 90
        6
176
     1
 90
        2
176
     1
 62
     7
176
     1
 90
        5
176
     1
 90
        0
176
     1
 90
        0
176
     1
290
     0
176
     1
 90
        1
176
     1
 40
50.0
176
     1
 90
        0
176
     1
290
     0
176
     1
290
     1
176
     1
290
     1
176
     1
290
     0
176
     1
290
     0
176
     1
290
     0
176
     1
290
     0
176
     1
290
     0
176
     1
290
     0
176
     1
 90
       50
176
     1
 40
0.0
176
     1
 40
1.0
176
     1
 90
        0
176
     1
 62
    18
420
        0
176
     1
 90
       50
176
     1
 90
        3
176
     1
 62
     5
420
      255
176
     1
290
     0
176
     1
 90
       50
176
     1
 90
       50
176
     1
 90
       50
176
     1
290
     0
176
     1
 90
       50
176
     1
 62
   256
176
     0
 40
1.0
176
     0
 90
        2
176
     1
  1
strokes_ogs.tif
176
     1
290
     0
176
     1
 40
1.0
176
     1
 40
1.0
176
     1
  0
VISUALSTYLE
  5
3A
102
{ACAD_REACTORS
330
2A
102
}
330
2A
100
AcDbVisualStyle
  2
ColorChange
 70
    16
177
     3
291
     1
 70
    58
 90
        2
176
     1
 90
        2
176
     1
 90
        3
176
     1
 90
        0
176
     1
 40
0.6
176
     1
 40
30.0
176
     1
 62
     8
420
  8421504
176
     1
 90
        1
176
     1
 90
        4
176
     1
 62
     7
176
     1
 62
   257
176
     1
 90
        1
176
     1
 90
        1
176
     1
 40
1.0
176
     1
 90
        8
176
     1
 62
     8
420
  8421504
176
     1
 40
1.0
176
     1
 90
        1
176
     1
 90
        6
176
     1
 90
        2
176
     1
 62
     7
176
     1
 90
        5
176
     1
 90
        0
176
     1
 90
        0
176
     1
290
     0
176
     1
 90
        1
176
     1
 40
0.0
176
     1
 90
        0
176
     1
290
     0
176
     1
290
     1
176
     1
290
     1
176
     1
290
     0
176
     1
290
     0
176
     1
290
     0
176
     1
290
     0
176
     1
290
     0
176
     1
290
     0
176
     1
 90
       50
176
     1
 40
0.0
176
     1
 40
1.0
176
     1
 90
        0
176
     1
 62
    18
420
        0
176
     1
 90
       50
176
     1
 90
        3
176
     1
 62
     5
420
      255
176
     1
290
     0
176
     1
 90
       50
176
     1
 90
       50
176
     1
 90
       50
176
     1
290
     0
176
     1
 90
       50
176
     1
 62
   256
176
     0
 40
1.0
176
     0
 90
        2
176
     1
  1
strokes_ogs.tif
176
     1
290
     0
176
     1
 40
1.0
176
     1
 40
1.0
176
     1
  0
VISUALSTYLE
  5
34
102
{ACAD_REACTORS
330
2A
102
}
330
2A
100
AcDbVisualStyle
  2
Conceptual
 70
     9
177
     3
291
     0
 70
    58
 90
        3
176
     1
 90
        2
176
     1
 90
        0
176
     1
 90
        0
176
     1
 40
0.6
176
     1
 40
30.0
176
     1
 62
     7
420
 16777215
176
     1
 90
        2
176
     1
 90
        2
176
     1
 62
     7
176
     1
 62
   257
176
     1
 90
        1
176
     1
 90
        1
176
     1
 40
179.0
176
     1
 90
        8
176
     1
 62
     7
176
     1
 40
1.0
176
     1
 90
        1
176
     1
 90
        6
176
     1
 90
        2
176
     1
 62
     7
176
     1
 90
        3
176
     1
 90
        0
176
     1
 90
        0
176
     1
290
     0
176
     1
 90
        1
176
     1
 40
0.0
176
     1
 90
        0
176
     1
290
     0
176
     1
290
     1
176
     1
290
     1
176
     1
290
     0
176
     1
290
     0
176
     1
290
     0
176
     1
290
     0
176
     1
290
     0
176
     1
290
     0
176
     1
 90
       50
176
     1
 40
0.0
176
     1
 40
1.0
176
     1
 90
        0
176
     1
 62
    18
420
        0
176
     1
 90
       50
176
     1
 90
        3
176
     1
 62
     5
420
      255
176
     1
290
     0
176
     1
 90
       50
176
     1
 90
       50
176
     1
 90
       50
176
     1
290
     0
176
     1
 90
       50
176
     1
 62
   256
176
     0
 40
1.0
176
     0
 90
        2
176
     1
  1
strokes_ogs.tif
176
     1
290
     0
176
     1
 40
1.0
176
     1
 40
1.0
176
     1
  0
VISUALSTYLE
  5
35
102
{ACAD_REACTORS
330
2A
102
}
330
2A
100
AcDbVisualStyle
  2
Dim
 70
    11
177
     3
291
     1
 70
    58
 90
        2
176
     1
 90
        2
176
     1
 90
        0
176
     1
 90
        0
176
     1
 40
0.6
176
     1
 40
30.0
176
     1
 62
     7
420
 16777215
176
     1
 90
        1
176
     1
 90
        4
176
     1
 62
     7
176
     1
 62
   257
176
     1
 90
        1
176
     1
 90
        1
176
     1
 40
1.0
176
     1
 90
        8
176
     1
 62
     7
176
     1
 40
1.0
176
     1
 90
        1
176
     1
 90
        6
176
     1
 90
        2
176
     1
 62
     7
176
     1
 90
        5
176
     1
 90
        0
176
     1
 90
        0
176
     1
290
     0
176
     1
 90
        1
176
     1
 40
-50.0
176
     1
 90
        0
176
     1
290
     0
176
     1
290
     1
176
     1
290
     1
176
     1
290
     0
176
     1
290
     0
176
     1
290
     0
176
     1
290
     0
176
     1
290
     0
176
     1
290
     0
176
     1
 90
       50
176
     1
 40
0.0
176
     1
 40
1.0
176
     1
 90
        0
176
     1
 62
    18
420
        0
176
     1
 90
       50
176
     1
 90
        3
176
     1
 62
     5
420
      255
176
     1
290
     0
176
     1
 90
       50
176
     1
 90
       50
176
     1
 90
       50
176
     1
290
     0
176
     1
 90
       50
176
     1
 62
   256
176
     0
 40
1.0
176
     0
 90
        2
176
     1
  1
strokes_ogs.tif
176
     1
290
     0
176
     1
 40
1.0
176
     1
 40
1.0
176
     1
  0
VISUALSTYLE
  5
3D
102
{ACAD_REACTORS
330
2A
102
}
330
2A
100
AcDbVisualStyle
  2
EdgeColorOff
 70
    22
177
     3
291
     1
 70
    58
 90
        2
176
     0
 90
        2
176
     0
 90
        0
176
     0
 90
        0
176
     0
 40
0.6
176
     0
 40
30.0
176
     0
 62
     7
420
 16777215
176
     0
 90
        1
176
     0
 90
        4
176
     0
 62
     7
176
     0
 62
   257
176
     0
 90
        1
176
     0
 90
        1
176
     0
 40
1.0
176
     0
 90
        8
176
     2
 62
     7
176
     0
 40
1.0
176
     0
 90
        1
176
     0
 90
        6
176
     0
 90
        2
176
     0
 62
     7
176
     0
 90
        5
176
     0
 90
        0
176
     0
 90
        0
176
     0
290
     0
176
     0
 90
        1
176
     0
 40
0.0
176
     0
 90
        0
176
     0
290
     0
176
     0
290
     1
176
     0
290
     1
176
     0
290
     0
176
     0
290
     0
176
     0
290
     0
176
     0
290
     0
176
     0
290
     0
176
     0
290
     0
176
     0
 90
       50
176
     0
 40
0.0
176
     0
 40
1.0
176
     0
 90
        0
176
     0
 62
    18
420
        0
176
     0
 90
       50
176
     0
 90
        3
176
     0
 62
     5
420
      255
176
     0
290
     0
176
     0
 90
       50
176
     0
 90
       50
176
     0
 90
       50
176
     0
290
     0
176
     0
 90
       50
176
     0
 62
   256
176
     0
 40
1.0
176
     0
 90
        2
176
     0
  1
strokes_ogs.tif
176
     0
290
     0
176
     0
 40
1.0
176
     0
 40
1.0
176
     0
  0
VISUALSTYLE
  5
39
102
{ACAD_REACTORS
330
2A
102
}
330
2A
100
AcDbVisualStyle
  2
Facepattern
 70
    15
177
     3
291
     1
 70
    58
 90
        2
176
     1
 90
        2
176
     1
 90
        0
176
     1
 90
        0
176
     1
 40
0.6
176
     1
 40
30.0
176
     1
 62
     7
420
 16777215
176
     1
 90
        1
176
     1
 90
        4
176
     1
 62
     7
176
     1
 62
   257
176
     1
 90
        1
176
     1
 90
        1
176
     1
 40
1.0
176
     1
 90
        8
176
     1
 62
     7
176
     1
 40
1.0
176
     1
 90
        1
176
     1
 90
        6
176
     1
 90
        2
176
     1
 62
     7
176
     1
 90
        5
176
     1
 90
        0
176
     1
 90
        0
176
     1
290
     0
176
     1
 90
        1
176
     1
 40
0.0
176
     1
 90
        0
176
     1
290
     0
176
     1
290
     1
176
     1
290
     1
176
     1
290
     0
176
     1
290
     0
176
     1
290
     0
176
     1
290
     0
176
     1
290
     0
176
     1
290
     0
176
     1
 90
       50
176
     1
 40
0.0
176
     1
 40
1.0
176
     1
 90
        0
176
     1
 62
    18
420
        0
176
     1
 90
       50
176
     1
 90
        3
176
     1
 62
     5
420
      255
176
     1
290
     0
176
     1
 90
       50
176
     1
 90
       50
176
     1
 90
       50
176
     1
290
     0
176
     1
 90
       50
176
     1
 62
   256
176
     0
 40
1.0
176
     0
 90
        2
176
     1
  1
strokes_ogs.tif
176
     1
290
     0
176
     1
 40
1.0
176
     1
 40
1.0
176
     1
  0
VISUALSTYLE
  5
2B
102
{ACAD_REACTORS
330
2A
102
}
330
2A
100
AcDbVisualStyle
  2
Flat
 70
     0
177
     3
291
     1
 70
    58
 90
        2
176
     1
 90
        1
176
     1
 90
        1
176
     1
 90
        2
176
     1
 40
0.6
176
     1
 40
30.0
176
     1
 62
     7
420
 16777215
176
     1
 90
        0
176
     1
 90
        0
176
     1
 62
     7
176
     1
 62
   257
176
     1
 90
        1
176
     1
 90
        1
176
     1
 40
1.0
176
     1
 90
        8
176
     1
 62
     7
176
     1
 40
1.0
176
     1
 90
        1
176
     1
 90
        6
176
     1
 90
        2
176
     1
 62
     7
176
     1
 90
        5
176
     1
 90
        0
176
     1
 90
        0
176
     1
290
     0
176
     1
 90
       13
176
     1
 40
0.0
176
     1
 90
        0
176
     1
290
     0
176
     1
290
     1
176
     1
290
     1
176
     1
290
     0
176
     1
290
     0
176
     1
290
     0
176
     1
290
     0
176
     1
290
     0
176
     1
290
     0
176
     1
 90
       50
176
     1
 40
0.0
176
     1
 40
1.0
176
     1
 90
        0
176
     1
 62
    18
420
        0
176
     1
 90
       50
176
     1
 90
        3
176
     1
 62
     5
420
      255
176
     1
290
     0
176
     1
 90
       50
176
     1
 90
       50
176
     1
 90
       50
176
     1
290
     0
176
     1
 90
       50
176
     1
 62
   256
176
     0
 40
1.0
176
     0
 90
        2
176
     1
  1
strokes_ogs.tif
176
     1
290
     0
176
     1
 40
1.0
176
     1
 40
1.0
176
     1
  0
VISUALSTYLE
  5
2C
102
{ACAD_REACTORS
330
2A
102
}
330
2A
100
AcDbVisualStyle
  2
FlatWithEdges
 70
     1
177
     3
291
     1
 70
    58
 90
        2
176
     1
 90
        1
176
     1
 90
        1
176
     1
 90
        2
176
     1
 40
0.6
176
     1
 40
30.0
176
     1
 62
     7
420
 16777215
176
     1
 90
        1
176
     1
 90
        0
176
     1
 62
     7
176
     1
 62
   257
176
     1
 90
        1
176
     1
 90
        1
176
     1
 40
1.0
176
     1
 90
        0
176
     1
 62
   257
176
     1
 40
1.0
176
     1
 90
        1
176
     1
 90
        6
176
     1
 90
        2
176
     1
 62
     7
176
     1
 90
        5
176
     1
 90
        0
176
     1
 90
        0
176
     1
290
     0
176
     1
 90
       13
176
     1
 40
0.0
176
     1
 90
        0
176
     1
290
     0
176
     1
290
     1
176
     1
290
     1
176
     1
290
     0
176
     1
290
     0
176
     1
290
     0
176
     1
290
     0
176
     1
290
     0
176
     1
290
     0
176
     1
 90
       50
176
     1
 40
0.0
176
     1
 40
1.0
176
     1
 90
        0
176
     1
 62
    18
420
        0
176
     1
 90
       50
176
     1
 90
        3
176
     1
 62
     5
420
      255
176
     1
290
     0
176
     1
 90
       50
176
     1
 90
       50
176
     1
 90
       50
176
     1
290
     0
176
     1
 90
       50
176
     1
 62
   256
176
     0
 40
1.0
176
     0
 90
        2
176
     1
  1
strokes_ogs.tif
176
     1
290
     0
176
     1
 40
1.0
176
     1
 40
1.0
176
     1
  0
VISUALSTYLE
  5
2D
102
{ACAD_REACTORS
330
2A
102
}
330
2A
100
AcDbVisualStyle
  2
Gouraud
 70
     2
177
     3
291
     1
 70
    58
 90
        2
176
     1
 90
        2
176
     1
 90
        1
176
     1
 90
        2
176
     1
 40
0.6
176
     1
 40
30.0
176
     1
 62
     7
420
 16777215
176
     1
 90
        0
176
     1
 90
        0
176
     1
 62
     7
176
     1
 62
   257
176
     1
 90
        1
176
     1
 90
        1
176
     1
 40
1.0
176
     1
 90
        0
176
     1
 62
     7
176
     1
 40
1.0
176
     1
 90
        1
176
     1
 90
        6
176
     1
 90
        2
176
     1
 62
     7
176
     1
 90
        5
176
     1
 90
        0
176
     1
 90
        0
176
     1
290
     0
176
     1
 90
       13
176
     1
 40
0.0
176
     1
 90
        0
176
     1
290
     0
176
     1
290
     1
176
     1
290
     1
176
     1
290
     0
176
     1
290
     0
176
     1
290
     0
176
     1
290
     0
176
     1
290
     0
176
     1
290
     0
176
     1
 90
       50
176
     1
 40
0.0
176
     1
 40
1.0
176
     1
 90
        0
176
     1
 62
    18
420
        0
176
     1
 90
       50
176
     1
 90
        3
176
     1
 62
     5
420
      255
176
     1
290
     0
176
     1
 90
       50
176
     1
 90
       50
176
     1
 90
       50
176
     1
290
     0
176
     1
 90
       50
176
     1
 62
   256
176
     0
 40
1.0
176
     0
 90
        2
176
     1
  1
strokes_ogs.tif
176
     1
290
     0
176
     1
 40
1.0
176
     1
 40
1.0
176
     1
  0
VISUALSTYLE
  5
2E
102
{ACAD_REACTORS
330
2A
102
}
330
2A
100
AcDbVisualStyle
  2
GouraudWithEdges
 70
     3
177
     3
291
     1
 70
    58
 90
        2
176
     1
 90
        2
176
     1
 90
        1
176
     1
 90
        2
176
     1
 40
0.6
176
     1
 40
30.0
176
     1
 62
     7
420
 16777215
176
     1
 90
        1
176
     1
 90
        0
176
     1
 62
     7
176
     1
 62
   257
176
     1
 90
        1
176
     1
 90
        1
176
     1
 40
1.0
176
     1
 90
        0
176
     1
 62
   257
176
     1
 40
1.0
176
     1
 90
        1
176
     1
 90
        6
176
     1
 90
        2
176
     1
 62
     7
176
     1
 90
        5
176
     1
 90
        0
176
     1
 90
        0
176
     1
290
     0
176
     1
 90
       13
176
     1
 40
0.0
176
     1
 90
        0
176
     1
290
     0
176
     1
290
     1
176
     1
290
     1
176
     1
290
     0
176
     1
290
     0
176
     1
290
     0
176
     1
290
     0
176
     1
290
     0
176
     1
290
     0
176
     1
 90
       50
176
     1
 40
0.0
176
     1
 40
1.0
176
     1
 90
        0
176
     1
 62
    18
420
        0
176
     1
 90
       50
176
     1
 90
        3
176
     1
 62
     5
420
      255
176
     1
290
     0
176
     1
 90
       50
176
     1
 90
       50
176
     1
 90
       50
176
     1
290
     0
176
     1
 90
       50
176
     1
 62
   256
176
     0
 40
1.0
176
     0
 90
        2
176
     1
  1
strokes_ogs.tif
176
     1
290
     0
176
     1
 40
1.0
176
     1
 40
1.0
176
     1
  0
VISUALSTYLE
  5
31
102
{ACAD_REACTORS
330
2A
102
}
330
2A
100
AcDbVisualStyle
  2
Hidden
 70
     6
177
     3
291
     0
 70
    58
 90
        1
176
     1
 90
        2
176
     1
 90
        2
176
     1
 90
        0
176
     1
 40
0.6
176
     1
 40
30.0
176
     1
 62
     7
420
 16777215
176
     1
 90
        2
176
     1
 90
        2
176
     1
 62
     7
176
     1
 62
   257
176
     1
 90
        2
176
     1
 90
        1
176
     1
 40
40.0
176
     1
 90
        0
176
     1
 62
   257
176
     1
 40
1.0
176
     1
 90
        1
176
     1
 90
        6
176
     1
 90
        2
176
     1
 62
     7
176
     1
 90
        3
176
     1
 90
        0
176
     1
 90
        0
176
     1
290
     0
176
     1
 90
        1
176
     1
 40
0.0
176
     1
 90
        0
176
     1
290
     0
176
     1
290
     1
176
     1
290
     1
176
     1
290
     0
176
     1
290
     0
176
     1
290
     0
176
     1
290
     0
176
     1
290
     0
176
     1
290
     0
176
     1
 90
       50
176
     1
 40
0.0
176
     1
 40
1.0
176
     1
 90
        0
176
     1
 62
    18
420
        0
176
     1
 90
       50
176
     1
 90
        3
176
     1
 62
     5
420
      255
176
     1
290
     0
176
     1
 90
       50
176
     1
 90
       50
176
     1
 90
       50
176
     1
290
     0
176
     1
 90
       50
176
     1
 62
   256
176
     0
 40
1.0
176
     0
 90
        2
176
     1
  1
strokes_ogs.tif
176
     1
290
     0
176
     1
 40
1.0
176
     1
 40
1.0
176
     1
  0
VISUALSTYLE
  5
3B
102
{ACAD_REACTORS
330
2A
102
}
330
2A
100
AcDbVisualStyle
  2
JitterOff
 70
    20
177
     3
291
     1
 70
    58
 90
        2
176
     0
 90
        2
176
     0
 90
        0
176
     0
 90
        0
176
     0
 40
0.6
176
     0
 40
30.0
176
     0
 62
     7
420
 16777215
176
     0
 90
        1
176
     0
 90
        4
176
     0
 62
     7
176
     0
 62
   257
176
     0
 90
        1
176
     0
 90
        1
176
     0
 40
1.0
176
     0
 90
       10
176
     2
 62
     7
176
     0
 40
1.0
176
     0
 90
        1
176
     0
 90
        6
176
     0
 90
        2
176
     0
 62
     7
176
     0
 90
        5
176
     0
 90
        0
176
     0
 90
        0
176
     0
290
     0
176
     0
 90
        1
176
     0
 40
0.0
176
     0
 90
        0
176
     0
290
     0
176
     0
290
     1
176
     0
290
     1
176
     0
290
     0
176
     0
290
     0
176
     0
290
     0
176
     0
290
     0
176
     0
290
     0
176
     0
290
     0
176
     0
 90
       50
176
     0
 40
0.0
176
     0
 40
1.0
176
     0
 90
        0
176
     0
 62
    18
420
        0
176
     0
 90
       50
176
     0
 90
        3
176
     0
 62
     5
420
      255
176
     0
290
     0
176
     0
 90
       50
176
     0
 90
       50
176
     0
 90
       50
176
     0
290
     0
176
     0
 90
       50
176
     0
 62
   256
176
     0
 40
1.0
176
     0
 90
        2
176
     0
  1
strokes_ogs.tif
176
     0
290
     0
176
     0
 40
1.0
176
     0
 40
1.0
176
     0
  0
VISUALSTYLE
  5
38
102
{ACAD_REACTORS
330
2A
102
}
330
2A
100
AcDbVisualStyle
  2
Linepattern
 70
    14
177
     3
291
     1
 70
    58
 90
        2
176
     1
 90
        2
176
     1
 90
        0
176
     1
 90
        0
176
     1
 40
0.6
176
     1
 40
30.0
176
     1
 62
     7
420
 16777215
176
     1
 90
        1
176
     1
 90
        4
176
     1
 62
     7
176
     1
 62
   257
176
     1
 90
        7
176
     1
 90
        7
176
     1
 40
1.0
176
     1
 90
        8
176
     1
 62
     7
176
     1
 40
1.0
176
     1
 90
        1
176
     1
 90
        6
176
     1
 90
        2
176
     1
 62
     7
176
     1
 90
        5
176
     1
 90
        0
176
     1
 90
        0
176
     1
290
     0
176
     1
 90
        1
176
     1
 40
0.0
176
     1
 90
        0
176
     1
290
     0
176
     1
290
     1
176
     1
290
     1
176
     1
290
     0
176
     1
290
     0
176
     1
290
     0
176
     1
290
     0
176
     1
290
     0
176
     1
290
     0
176
     1
 90
       50
176
     1
 40
0.0
176
     1
 40
1.0
176
     1
 90
        0
176
     1
 62
    18
420
        0
176
     1
 90
       50
176
     1
 90
        3
176
     1
 62
     5
420
      255
176
     1
290
     0
176
     1
 90
       50
176
     1
 90
       50
176
     1
 90
       50
176
     1
290
     0
176
     1
 90
       50
176
     1
 62
   256
176
     0
 40
1.0
176
     0
 90
        2
176
     1
  1
strokes_ogs.tif
176
     1
290
     0
176
     1
 40
1.0
176
     1
 40
1.0
176
     1
  0
VISUALSTYLE
  5
3C
102
{ACAD_REACTORS
330
2A
102
}
330
2A
100
AcDbVisualStyle
  2
OverhangOff
 70
    21
177
     3
291
     1
 70
    58
 90
        2
176
     0
 90
        2
176
     0
 90
        0
176
     0
 90
        0
176
     0
 40
0.6
176
     0
 40
30.0
176
     0
 62
     7
420
 16777215
176
     0
 90
        1
176
     0
 90
        4
176
     0
 62
     7
176
     0
 62
   257
176
     0
 90
        1
176
     0
 90
        1
176
     0
 40
1.0
176
     0
 90
        9
176
     2
 62
     7
176
     0
 40
1.0
176
     0
 90
        1
176
     0
 90
        6
176
     0
 90
        2
176
     0
 62
     7
176
     0
 90
        5
176
     0
 90
        0
176
     0
 90
        0
176
     0
290
     0
176
     0
 90
        1
176
     0
 40
0.0
176
     0
 90
        0
176
     0
290
     0
176
     0
290
     1
176
     0
290
     1
176
     0
290
     0
176
     0
290
     0
176
     0
290
     0
176
     0
290
     0
176
     0
290
     0
176
     0
290
     0
176
     0
 90
       50
176
     0
 40
0.0
176
     0
 40
1.0
176
     0
 90
        0
176
     0
 62
    18
420
        0
176
     0
 90
       50
176
     0
 90
        3
176
     0
 62
     5
420
      255
176
     0
290
     0
176
     0
 90
       50
176
     0
 90
       50
176
     0
 90
       50
176
     0
290
     0
176
     0
 90
       50
176
     0
 62
   256
176
     0
 40
1.0
176
     0
 90
        2
176
     0
  1
strokes_ogs.tif
176
     0
290
     0
176
     0
 40
1.0
176
     0
 40
1.0
176
     0
  0
VISUALSTYLE
  5
33
102
{ACAD_REACTORS
330
2A
102
}
330
2A
100
AcDbVisualStyle
  2
Realistic
 70
     8
177
     3
291
     0
 70
    58
 90
        2
176
     1
 90
        3
176
     1
 90
        0
176
     1
 90
        2
176
     1
 40
0.6
176
     1
 40
30.0
176
     1
 62
     7
420
 16777215
176
     1
 90
        0
176
     1
 90
        0
176
     1
 62
     7
176
     1
 62
   257
176
     1
 90
        1
176
     1
 90
        1
176
     1
 40
1.0
176
     1
 90
        8
176
     1
 62
   257
176
     1
 40
1.0
176
     1
 90
        1
176
     1
 90
        6
176
     1
 90
        2
176
     1
 62
     7
176
     1
 90
        3
176
     1
 90
        0
176
     1
 90
        0
176
     1
290
     0
176
     1
 90
       13
176
     1
 40
0.0
176
     1
 90
        0
176
     1
290
     0
176
     1
290
     1
176
     1
290
     1
176
     1
290
     0
176
     1
290
     0
176
     1
290
     0
176
     1
290
     0
176
     1
290
     0
176
     1
290
     0
176
     1
 90
       50
176
     1
 40
0.0
176
     1
 40
1.0
176
     1
 90
        0
176
     1
 62
    18
420
        0
176
     1
 90
       50
176
     1
 90
        3
176
     1
 62
     5
420
      255
176
     1
290
     0
176
     1
 90
       50
176
     1
 90
       50
176
     1
 90
       50
176
     1
290
     0
176
     1
 90
       50
176
     1
 62
   256
176
     0
 40
1.0
176
     0
 90
        2
176
     1
  1
strokes_ogs.tif
176
     1
290
     0
176
     1
 40
1.0
176
     1
 40
1.0
176
     1
  0
VISUALSTYLE
  5
42
102
{ACAD_REACTORS
330
2A
102
}
330
2A
100
AcDbVisualStyle
  2
Shaded
 70
    27
177
     3
291
     0
 70
    58
 90
        2
176
     1
 90
        2
176
     1
 90
        1
176
     1
 90
        2
176
     1
 40
0.6
176
     1
 40
30.0
176
     1
 62
     7
420
 16777215
176
     1
 90
        0
176
     1
 90
        4
176
     1
 62
     7
176
     1
 62
   257
176
     1
 90
        1
176
     1
 90
        1
176
     1
 40
1.0
176
     1
 90
        8
176
     1
 62
   257
176
     1
 40
1.0
176
     1
 90
        1
176
     1
 90
        6
176
     1
 90
        2
176
     1
 62
     8
420
  7895160
176
     1
 90
        3
176
     1
 90
        0
176
     1
 90
        0
176
     1
290
     0
176
     1
 90
        5
176
     1
 40
0.0
176
     1
 90
        0
176
     1
290
     0
176
     1
290
     1
176
     1
290
     1
176
     1
290
     0
176
     1
290
     0
176
     1
290
     0
176
     1
290
     0
176
     1
290
     0
176
     1
290
     0
176
     1
 90
       50
176
     1
 40
0.0
176
     1
 40
1.0
176
     1
 90
        0
176
     1
 62
    18
420
        0
176
     1
 90
       50
176
     1
 90
        3
176
     1
 62
     5
420
      255
176
     1
290
     0
176
     1
 90
       50
176
     1
 90
       50
176
     1
 90
       50
176
     1
290
     0
176
     1
 90
       50
176
     1
 62
   256
176
     0
 40
1.0
176
     0
 90
        2
176
     1
  1
strokes_ogs.tif
176
     1
290
     0
176
     1
 40
1.0
176
     1
 40
1.0
176
     1
  0
VISUALSTYLE
  5
41
102
{ACAD_REACTORS
330
2A
102
}
330
2A
100
AcDbVisualStyle
  2
Shaded with edges
 70
    26
177
     3
291
     0
 70
    58
 90
        2
176
     1
 90
        2
176
     1
 90
        1
176
     1
 90
        2
176
     1
 40
0.6
176
     1
 40
30.0
176
     1
 62
     7
420
 16777215
176
     1
 90
        1
176
     1
 90
       10
176
     1
 62
     7
176
     1
 62
   257
176
     1
 90
        2
176
     1
 90
        1
176
     1
 40
1.0
176
     1
 90
        8
176
     1
 62
   257
176
     1
 40
1.0
176
     1
 90
        1
176
     1
 90
        6
176
     1
 90
        2
176
     1
 62
     7
176
     1
 90
        3
176
     1
 90
        0
176
     1
 90
        0
176
     1
290
     0
176
     1
 90
        5
176
     1
 40
0.0
176
     1
 90
        0
176
     1
290
     0
176
     1
290
     1
176
     1
290
     1
176
     1
290
     0
176
     1
290
     0
176
     1
290
     0
176
     1
290
     0
176
     1
290
     0
176
     1
290
     0
176
     1
 90
       50
176
     1
 40
0.0
176
     1
 40
1.0
176
     1
 90
        0
176
     1
 62
    18
420
        0
176
     1
 90
       50
176
     1
 90
        3
176
     1
 62
     5
420
      255
176
     1
290
     0
176
     1
 90
       50
176
     1
 90
       50
176
     1
 90
       50
176
     1
290
     0
176
     1
 90
       50
176
     1
 62
   256
176
     0
 40
1.0
176
     0
 90
        2
176
     1
  1
strokes_ogs.tif
176
     1
290
     0
176
     1
 40
1.0
176
     1
 40
1.0
176
     1
  0
VISUALSTYLE
  5
3E
102
{ACAD_REACTORS
330
2A
102
}
330
2A
100
AcDbVisualStyle
  2
Shades of Gray
 70
    23
177
     3
291
     0
 70
    58
 90
        2
176
     1
 90
        2
176
     1
 90
        3
176
     1
 90
        0
176
     1
 40
0.6
176
     1
 40
30.0
176
     1
 62
     7
420
 16777215
176
     1
 90
        2
176
     1
 90
        2
176
     1
 62
     7
176
     1
 62
     7
176
     1
 90
        1
176
     1
 90
        1
176
     1
 40
40.0
176
     1
 90
        8
176
     1
 62
     7
176
     1
 40
1.0
176
     1
 90
        1
176
     1
 90
        6
176
     1
 90
        2
176
     1
 62
     7
176
     1
 90
        3
176
     1
 90
        0
176
     1
 90
        0
176
     1
290
     0
176
     1
 90
        1
176
     1
 40
0.0
176
     1
 90
        0
176
     1
290
     0
176
     1
290
     1
176
     1
290
     1
176
     1
290
     0
176
     1
290
     0
176
     1
290
     0
176
     1
290
     0
176
     1
290
     0
176
     1
290
     0
176
     1
 90
       50
176
     1
 40
0.0
176
     1
 40
1.0
176
     1
 90
        0
176
     1
 62
    18
420
        0
176
     1
 90
       50
176
     1
 90
        3
176
     1
 62
     5
420
      255
176
     1
290
     0
176
     1
 90
       50
176
     1
 90
       50
176
     1
 90
       50
176
     1
290
     0
176
     1
 90
       50
176
     1
 62
   256
176
     0
 40
1.0
176
     0
 90
        2
176
     1
  1
strokes_ogs.tif
176
     1
290
     0
176
     1
 40
1.0
176
     1
 40
1.0
176
     1
  0
VISUALSTYLE
  5
3F
102
{ACAD_REACTORS
330
2A
102
}
330
2A
100
AcDbVisualStyle
  2
Sketchy
 70
    24
177
     3
291
     0
 70
    58
 90
        1
176
     1
 90
        2
176
     1
 90
        2
176
     1
 90
        0
176
     1
 40
0.6
176
     1
 40
30.0
176
     1
 62
     7
420
 16777215
176
     1
 90
        2
176
     1
 90
        2
176
     1
 62
     7
176
     1
 62
     7
176
     1
 90
        1
176
     1
 90
        1
176
     1
 40
40.0
176
     1
 90
       11
176
     1
 62
     7
176
     1
 40
1.0
176
     1
 90
        1
176
     1
 90
        6
176
     1
 90
        2
176
     1
 62
     7
176
     1
 90
        6
176
     1
 90
        0
176
     1
 90
        0
176
     1
290
     0
176
     1
 90
        1
176
     1
 40
0.0
176
     1
 90
        0
176
     1
290
     0
176
     1
290
     1
176
     1
290
     1
176
     1
290
     0
176
     1
290
     0
176
     1
290
     0
176
     1
290
     0
176
     1
290
     0
176
     1
290
     0
176
     1
 90
       50
176
     1
 40
0.0
176
     1
 40
1.0
176
     1
 90
        0
176
     1
 62
    18
420
        0
176
     1
 90
       50
176
     1
 90
        3
176
     1
 62
     5
420
      255
176
     1
290
     0
176
     1
 90
       50
176
     1
 90
       50
176
     1
 90
       50
176
     1
290
     0
176
     1
 90
       50
176
     1
 62
   256
176
     0
 40
1.0
176
     0
 90
        2
176
     1
  1
strokes_ogs.tif
176
     1
290
     0
176
     1
 40
1.0
176
     1
 40
1.0
176
     1
  0
VISUALSTYLE
  5
37
102
{ACAD_REACTORS
330
2A
102
}
330
2A
100
AcDbVisualStyle
  2
Thicken
 70
    13
177
     3
291
     1
 70
    58
 90
        2
176
     1
 90
        2
176
     1
 90
        0
176
     1
 90
        0
176
     1
 40
0.6
176
     1
 40
30.0
176
     1
 62
     7
420
 16777215
176
     1
 90
        1
176
     1
 90
        4
176
     1
 62
     7
176
     1
 62
   257
176
     1
 90
        1
176
     1
 90
        1
176
     1
 40
1.0
176
     1
 90
       12
176
     1
 62
     7
176
     1
 40
1.0
176
     1
 90
        1
176
     1
 90
        6
176
     1
 90
        2
176
     1
 62
     7
176
     1
 90
        5
176
     1
 90
        0
176
     1
 90
        0
176
     1
290
     0
176
     1
 90
        1
176
     1
 40
0.0
176
     1
 90
        0
176
     1
290
     0
176
     1
290
     1
176
     1
290
     1
176
     1
290
     0
176
     1
290
     0
176
     1
290
     0
176
     1
290
     0
176
     1
290
     0
176
     1
290
     0
176
     1
 90
       50
176
     1
 40
0.0
176
     1
 40
1.0
176
     1
 90
        0
176
     1
 62
    18
420
        0
176
     1
 90
       50
176
     1
 90
        3
176
     1
 62
     5
420
      255
176
     1
290
     0
176
     1
 90
       50
176
     1
 90
       50
176
     1
 90
       50
176
     1
290
     0
176
     1
 90
       50
176
     1
 62
   256
176
     0
 40
1.0
176
     0
 90
        2
176
     1
  1
strokes_ogs.tif
176
     1
290
     0
176
     1
 40
1.0
176
     1
 40
1.0
176
     1
  0
VISUALSTYLE
  5
30
102
{ACAD_REACTORS
330
2A
102
}
330
2A
100
AcDbVisualStyle
  2
Wireframe
 70
     5
177
     3
291
     0
 70
    58
 90
        0
176
     1
 90
        2
176
     1
 90
        0
176
     1
 90
        0
176
     1
 40
0.6
176
     1
 40
30.0
176
     1
 62
     7
420
 16777215
176
     1
 90
        1
176
     1
 90
        4
176
     1
 62
     7
176
     1
 62
   257
176
     1
 90
        1
176
     1
 90
        1
176
     1
 40
1.0
176
     1
 90
        0
176
     1
 62
   257
176
     1
 40
1.0
176
     1
 90
        1
176
     1
 90
        6
176
     1
 90
        2
176
     1
 62
     7
176
     1
 90
        3
176
     1
 90
        0
176
     1
 90
        0
176
     1
290
     0
176
     1
 90
        1
176
     1
 40
0.0
176
     1
 90
        0
176
     1
290
     0
176
     1
290
     1
176
     1
290
     1
176
     1
290
     0
176
     1
290
     0
176
     1
290
     0
176
     1
290
     0
176
     1
290
     0
176
     1
290
     0
176
     1
 90
       50
176
     1
 40
0.0
176
     1
 40
1.0
176
     1
 90
        0
176
     1
 62
    18
420
        0
176
     1
 90
       50
176
     1
 90
        3
176
     1
 62
     5
420
      255
176
     1
290
     0
176
     1
 90
       50
176
     1
 90
       50
176
     1
 90
       50
176
     1
290
     0
176
     1
 90
       50
176
     1
 62
   256
176
     0
 40
1.0
176
     0
 90
        2
176
     1
  1
strokes_ogs.tif
176
     1
290
     0
176
     1
 40
1.0
176
     1
 40
1.0
176
     1
  0
VISUALSTYLE
  5
40
102
{ACAD_REACTORS
330
2A
102
}
330
2A
100
AcDbVisualStyle
  2
X-Ray
 70
    25
177
     3
291
     0
 70
    58
 90
        2
176
     1
 90
        2
176
     1
 90
        1
176
     1
 90
        1
176
     1
 40
0.5
176
     1
 40
30.0
176
     1
 62
     7
420
 16777215
176
     1
 90
        1
176
     1
 90
        0
176
     1
 62
     7
176
     1
 62
   257
176
     1
 90
        1
176
     1
 90
        1
176
     1
 40
1.0
176
     1
 90
        8
176
     1
 62
     7
176
     1
 40
1.0
176
     1
 90
        1
176
     1
 90
        6
176
     1
 90
        2
176
     1
 62
     7
176
     1
 90
        3
176
     1
 90
        0
176
     1
 90
        0
176
     1
290
     0
176
     1
 90
       13
176
     1
 40
0.0
176
     1
 90
        0
176
     1
290
     0
176
     1
290
     1
176
     1
290
     1
176
     1
290
     0
176
     1
290
     0
176
     1
290
     0
176
     1
290
     0
176
     1
290
     0
176
     1
290
     0
176
     1
 90
       50
176
     1
 40
0.0
176
     1
 40
1.0
176
     1
 90
        0
176
     1
 62
    18
420
        0
176
     1
 90
       50
176
     1
 90
        3
176
     1
 62
     5
420
      255
176
     1
290
     0
176
     1
 90
       50
176
     1
 90
       50
176
     1
 90
       50
176
     1
290
     0
176
     1
 90
       50
176
     1
 62
   256
176
     0
 40
1.0
176
     0
 90
        2
176
     1
  1
strokes_ogs.tif
176
     1
290
     0
176
     1
 40
1.0
176
     1
 40
1.0
176
     1
  0
DICTIONARYVAR
  5
1EC
102
{ACAD_REACTORS
330
1EB
102
}
330
1EB
100
DictionaryVariables
280
     0
  1
1:1
  0
DICTIONARYVAR
  5
1F4
102
{ACAD_REACTORS
330
1EB
102
}
330
1EB
100
DictionaryVariables
280
     0
  1
3.500000
  0
DICTIONARYVAR
  5
1F5
102
{ACAD_REACTORS
330
1EB
102
}
330
1EB
100
DictionaryVariables
280
     0
  1
acadiso.lin
  0
DICTIONARYVAR
  5
1F1
102
{ACAD_REACTORS
330
1EB
102
}
330
1EB
100
DictionaryVariables
280
     0
  1
Standard
  0
DICTIONARYVAR
  5
1F0
102
{ACAD_REACTORS
330
1EB
102
}
330
1EB
100
DictionaryVariables
280
     0
  1
Standard
  0
DICTIONARY
  5
1ED
330
5A
100
AcDbDictionary
280
     1
281
     1
  3
ACAD_ROUNDTRIP_2008_TABLESTYLE_CELLSTYLEMAP
360
1EE
  0
CELLSTYLEMAP
  5
1EE
102
{ACAD_REACTORS
330
1ED
102
}
330
1ED
100
AcDbCellStyleMap
 90
        3
300
CELLSTYLE
  1
TABLEFORMAT_BEGIN
 90
        5
170
     1
 91
        0
 92
    32768
 62
   257
 93
        1
300
CONTENTFORMAT
  1
CONTENTFORMAT_BEGIN
 90
        0
 91
        0
 92
        4
 93
        0
300

 40
0.0
140
1.0
 94
        5
 62
     0
340
11
144
6.0
309
CONTENTFORMAT_END
171
     1
301
MARGIN
  1
CELLMARGIN_BEGIN
 40
1.5
 40
1.5
 40
1.5
 40
1.5
 40
1.5
 40
1.5
309
CELLMARGIN_END
 94
        6
 95
        1
302
GRIDFORMAT
  1
GRIDFORMAT_BEGIN
 90
        0
 91
        1
 62
     0
 92
       -2
340
14
 93
        0
 40
0.045
309
GRIDFORMAT_END
 95
        2
302
GRIDFORMAT
  1
GRIDFORMAT_BEGIN
 90
        0
 91
        1
 62
     0
 92
       -2
340
14
 93
        0
 40
0.045
309
GRIDFORMAT_END
 95
        4
302
GRIDFORMAT
  1
GRIDFORMAT_BEGIN
 90
        0
 91
        1
 62
     0
 92
       -2
340
14
 93
        0
 40
0.045
309
GRIDFORMAT_END
 95
        8
302
GRIDFORMAT
  1
GRIDFORMAT_BEGIN
 90
        0
 91
        1
 62
     0
 92
       -2
340
14
 93
        0
 40
0.045
309
GRIDFORMAT_END
 95
       16
302
GRIDFORMAT
  1
GRIDFORMAT_BEGIN
 90
        0
 91
        1
 62
     0
 92
       -2
340
14
 93
        0
 40
0.045
309
GRIDFORMAT_END
 95
       32
302
GRIDFORMAT
  1
GRIDFORMAT_BEGIN
 90
        0
 91
        1
 62
     0
 92
       -2
340
14
 93
        0
 40
0.045
309
GRIDFORMAT_END
309
TABLEFORMAT_END
  1
CELLSTYLE_BEGIN
 90
        1
 91
        1
300
_TITLE
309
CELLSTYLE_END
300
CELLSTYLE
  1
TABLEFORMAT_BEGIN
 90
        5
170
     1
 91
        0
 92
        0
 62
   257
 93
        1
300
CONTENTFORMAT
  1
CONTENTFORMAT_BEGIN
 90
        0
 91
        0
 92
        4
 93
        0
300

 40
0.0
140
1.0
 94
        5
 62
     0
340
11
144
4.5
309
CONTENTFORMAT_END
171
     1
301
MARGIN
  1
CELLMARGIN_BEGIN
 40
1.5
 40
1.5
 40
1.5
 40
1.5
 40
1.5
 40
1.5
309
CELLMARGIN_END
 94
        6
 95
        1
302
GRIDFORMAT
  1
GRIDFORMAT_BEGIN
 90
        0
 91
        1
 62
     0
 92
       -2
340
14
 93
        0
 40
0.045
309
GRIDFORMAT_END
 95
        2
302
GRIDFORMAT
  1
GRIDFORMAT_BEGIN
 90
        0
 91
        1
 62
     0
 92
       -2
340
14
 93
        0
 40
0.045
309
GRIDFORMAT_END
 95
        4
302
GRIDFORMAT
  1
GRIDFORMAT_BEGIN
 90
        0
 91
        1
 62
     0
 92
       -2
340
14
 93
        0
 40
0.045
309
GRIDFORMAT_END
 95
        8
302
GRIDFORMAT
  1
GRIDFORMAT_BEGIN
 90
        0
 91
        1
 62
     0
 92
       -2
340
14
 93
        0
 40
0.045
309
GRIDFORMAT_END
 95
       16
302
GRIDFORMAT
  1
GRIDFORMAT_BEGIN
 90
        0
 91
        1
 62
     0
 92
       -2
340
14
 93
        0
 40
0.045
309
GRIDFORMAT_END
 95
       32
302
GRIDFORMAT
  1
GRIDFORMAT_BEGIN
 90
        0
 91
        1
 62
     0
 92
       -2
340
14
 93
        0
 40
0.045
309
GRIDFORMAT_END
309
TABLEFORMAT_END
  1
CELLSTYLE_BEGIN
 90
        2
 91
        1
300
_HEADER
309
CELLSTYLE_END
300
CELLSTYLE
  1
TABLEFORMAT_BEGIN
 90
        5
170
     1
 91
        0
 92
        0
 62
   257
 93
        1
300
CONTENTFORMAT
  1
CONTENTFORMAT_BEGIN
 90
        0
 91
        0
 92
        4
 93
        0
300

 40
0.0
140
1.0
 94
        2
 62
     0
340
11
144
4.5
309
CONTENTFORMAT_END
171
     1
301
MARGIN
  1
CELLMARGIN_BEGIN
 40
1.5
 40
1.5
 40
1.5
 40
1.5
 40
1.5
 40
1.5
309
CELLMARGIN_END
 94
        6
 95
        1
302
GRIDFORMAT
  1
GRIDFORMAT_BEGIN
 90
        0
 91
        1
 62
     0
 92
       -2
340
14
 93
        0
 40
0.045
309
GRIDFORMAT_END
 95
        2
302
GRIDFORMAT
  1
GRIDFORMAT_BEGIN
 90
        0
 91
        1
 62
     0
 92
       -2
340
14
 93
        0
 40
0.045
309
GRIDFORMAT_END
 95
        4
302
GRIDFORMAT
  1
GRIDFORMAT_BEGIN
 90
        0
 91
        1
 62
     0
 92
       -2
340
14
 93
        0
 40
0.045
309
GRIDFORMAT_END
 95
        8
302
GRIDFORMAT
  1
GRIDFORMAT_BEGIN
 90
        0
 91
        1
 62
     0
 92
       -2
340
14
 93
        0
 40
0.045
309
GRIDFORMAT_END
 95
       16
302
GRIDFORMAT
  1
GRIDFORMAT_BEGIN
 90
        0
 91
        1
 62
     0
 92
       -2
340
14
 93
        0
 40
0.045
309
GRIDFORMAT_END
 95
       32
302
GRIDFORMAT
  1
GRIDFORMAT_BEGIN
 90
        0
 91
        1
 62
     0
 92
       -2
340
14
 93
        0
 40
0.045
309
GRIDFORMAT_END
309
TABLEFORMAT_END
  1
CELLSTYLE_BEGIN
 90
        3
 91
        2
300
_DATA
309
CELLSTYLE_END
  0
ENDSEC
  0
EOF
